<?xml version="1.0" standalone="no"?>
<!DOCTYPE svg PUBLIC "-//W3C//DTD SVG 1.1//EN" "http://www.w3.org/Graphics/SVG/1.1/DTD/svg11.dtd" >
<svg xmlns="http://www.w3.org/2000/svg" xmlns:xlink="http://www.w3.org/1999/xlink" version="1.1">
<metadata></metadata>
<defs>
<font id="objektiv_mk3medium_italic" horiz-adv-x="790" >
<font-face units-per-em="2048" ascent="1638" descent="-410" />
<missing-glyph horiz-adv-x="440" />
<glyph unicode=" "  horiz-adv-x="440" />
<glyph unicode="&#x09;" horiz-adv-x="440" />
<glyph unicode="&#xa0;" horiz-adv-x="440" />
<glyph unicode="!" horiz-adv-x="684" d="M111 125q0 72 49 120t125 48q61 0 101 -39t40 -98q0 -74 -49 -121t-125 -47q-61 0 -101 39t-40 98zM229 510l207 1108h242l-227 -1108h-222z" />
<glyph unicode="&#x22;" horiz-adv-x="815" d="M195 944l98 612h237l-143 -612h-192zM588 944l98 612h237l-143 -612h-192z" />
<glyph unicode="#" horiz-adv-x="1388" d="M49 338l43 172h221l154 367h-234l43 172h261l141 337h190l-139 -337h291l141 337h191l-142 -337h197l-43 -172h-223l-154 -367h236l-43 -172h-265l-139 -338h-190l141 338h-291l-141 -338h-193l142 338h-195zM506 510h291l153 367h-293z" />
<glyph unicode="$" horiz-adv-x="1269" d="M63 115l54 198q72 -57 168 -97t192 -50l107 541q-180 90 -255 185t-75 234q0 117 61.5 213.5t175 154.5t259.5 60l47 242h153l-51 -254q166 -29 299 -119l-51 -192q-63 45 -140 78.5t-143 48.5l-98 -500q188 -96 268 -194.5t80 -235.5q0 -123 -63.5 -223.5t-182 -160.5 t-276.5 -69l-47 -243h-154l49 248q-111 14 -212 50t-165 85zM467 1145q0 -74 38 -125t122 -94l86 438q-113 -12 -179.5 -71.5t-66.5 -147.5zM631 166q121 18 190.5 87t69.5 169q0 66 -39 117t-129 98z" />
<glyph unicode="%" horiz-adv-x="2093" d="M238 1124q0 82 29.5 158t85 137.5t133 99t165.5 37.5q164 0 268.5 -98t104.5 -254q0 -82 -29.5 -158.5t-86 -138t-134.5 -98.5t-166 -37q-104 0 -188 43t-133 124t-49 185zM287 0l1364 1524h239l-1366 -1524h-237zM426 1137q0 -90 50 -141.5t136 -51.5q94 0 159 73 t65 175q0 88 -51.5 140t-137.5 52q-92 0 -156.5 -71.5t-64.5 -175.5zM1165 330q0 82 30 157.5t85 137t133 99.5t166 38q164 0 268.5 -98.5t104.5 -253.5q0 -82 -30 -159t-86 -138.5t-134 -98.5t-166 -37q-104 0 -188 43t-133.5 124t-49.5 186zM1354 342q0 -90 50 -141 t136 -51q94 0 158.5 72.5t64.5 174.5q0 88 -51 140.5t-137 52.5q-92 0 -156.5 -72t-64.5 -176z" />
<glyph unicode="&#x26;" horiz-adv-x="1511" d="M88 375q0 156 102.5 274.5t317.5 214.5q-57 94 -83 170t-26 154q0 182 118 293.5t312 111.5q176 0 282 -92t106 -244q0 -137 -102.5 -253.5t-303.5 -210.5l274 -379q109 152 140 387l192 -27q-29 -305 -219 -522l180 -252h-260l-80 109q-194 -142 -440 -142 q-238 0 -374 108.5t-136 299.5zM315 397q0 -109 80 -173t217 -64q174 0 318 106l-326 451q-152 -72 -220.5 -147.5t-68.5 -172.5zM614 1208q0 -66 24 -128t77 -144q145 70 217 147.5t72 169.5q0 76 -50.5 122t-132.5 46q-90 0 -148.5 -60.5t-58.5 -152.5z" />
<glyph unicode="'" horiz-adv-x="421" d="M195 944l98 612h237l-143 -612h-192z" />
<glyph unicode="(" horiz-adv-x="858" d="M180 455q0 350 159 676.5t435 547.5h279q-305 -225 -476 -544.5t-171 -665.5q0 -430 243 -741h-250q-100 139 -159.5 333.5t-59.5 393.5z" />
<glyph unicode=")" horiz-adv-x="858" d="M-123 -272q305 225 476 544.5t171 665.5q0 430 -243 741h249q100 -139 160 -333.5t60 -393.5q0 -350 -159 -676.5t-435 -547.5h-279z" />
<glyph unicode="*" horiz-adv-x="962" d="M195 1198l81 178l261 -123l28 303h211l-86 -307l279 125l51 -192l-301 -76l186 -256l-170 -98l-153 276l-207 -276l-144 120l232 246z" />
<glyph unicode="+" horiz-adv-x="1269" d="M184 584l39 202h357l75 392h217l-77 -392h356l-39 -202h-356l-78 -391h-215l76 391h-355z" />
<glyph unicode="," horiz-adv-x="608" d="M-143 -362q109 129 182.5 300t93.5 338h242q-12 -119 -55.5 -236.5t-109 -222t-149.5 -179.5h-204z" />
<glyph unicode="-" horiz-adv-x="882" d="M131 481l43 215h606l-43 -215h-606z" />
<glyph unicode="." horiz-adv-x="608" d="M74 125q0 72 49 120t125 48q61 0 101 -39t40 -98q0 -74 -49 -121t-125 -47q-61 0 -101 39t-40 98z" />
<glyph unicode="/" horiz-adv-x="1087" d="M-123 -272l1157 1931h244l-1157 -1931h-244z" />
<glyph unicode="0" horiz-adv-x="1269" d="M119 537q0 141 31 297q41 209 134 372.5t226 256.5t287 93q213 0 331.5 -149.5t118.5 -419.5q0 -139 -30 -297q-41 -209 -134.5 -372.5t-226.5 -257t-287 -93.5q-213 0 -331.5 149.5t-118.5 420.5zM369 541q0 -172 57.5 -265.5t161.5 -93.5q121 0 226.5 142.5 t150.5 369.5q33 166 32 289q0 172 -57 265t-162 93q-121 0 -226.5 -142t-150.5 -370q-33 -166 -32 -288z" />
<glyph unicode="1" horiz-adv-x="1269" d="M317 1102l11 223l499 199h209l-297 -1524h-239l245 1272z" />
<glyph unicode="2" horiz-adv-x="1269" d="M63 0l35 193q106 82 246.5 204.5t253.5 231.5q174 172 248 286.5t74 214.5q0 102 -64.5 160t-179.5 58q-98 0 -189.5 -43t-179.5 -134l-26 220q72 78 186.5 121.5t243.5 43.5q209 0 332.5 -109.5t123.5 -293.5q0 -135 -75.5 -266t-262.5 -320q-162 -164 -395 -350h639 l-43 -217h-967z" />
<glyph unicode="3" horiz-adv-x="1269" d="M72 84l47 205q76 -51 178 -83t195 -32q162 0 262 87t100 226q0 111 -73.5 172.5t-209.5 61.5q-66 0 -108 -14l-53 137l475 463h-580l43 217h885l-35 -189l-450 -440q158 -20 254 -131t96 -277q0 -147 -75 -265t-213 -186.5t-318 -68.5q-117 0 -234 33t-186 84z" />
<glyph unicode="4" horiz-adv-x="1269" d="M61 360l37 201l840 963h258l-186 -961h196l-39 -203h-198l-70 -360h-233l69 360h-674zM350 563h424l123 629z" />
<glyph unicode="5" horiz-adv-x="1269" d="M68 88l49 205q76 -55 175 -87t195 -32q168 0 269.5 89t101.5 237q0 121 -88 189.5t-242 68.5q-158 0 -278 -35l182 801h764l-45 -217h-553l-80 -357q23 4 44.5 5t41.5 1q227 0 362.5 -119.5t135.5 -320.5q0 -158 -75 -281.5t-214.5 -195.5t-323.5 -72q-125 0 -236.5 32 t-184.5 89z" />
<glyph unicode="6" horiz-adv-x="1269" d="M123 440q0 166 87 358.5t249 384t375 345.5l313 -10q-207 -139 -383 -313.5t-275 -334.5q92 74 250 74q121 0 218.5 -52t154.5 -150.5t57 -225.5q0 -150 -70.5 -274.5t-199.5 -199.5t-293 -75q-225 0 -354 127t-129 346zM356 424q0 -119 68.5 -188.5t185.5 -69.5 q86 0 160 41t118 116.5t44 172.5q0 117 -70.5 187.5t-185.5 70.5q-86 0 -159 -41t-117 -118t-44 -171z" />
<glyph unicode="7" horiz-adv-x="1269" d="M182 6l762 1292h-713l48 226h972l-39 -205l-768 -1323z" />
<glyph unicode="8" horiz-adv-x="1269" d="M80 371q0 156 95 281.5t241 162.5q-74 43 -114 117t-40 168q0 125 65.5 228.5t186.5 165.5t274 62q207 0 333 -103t126 -273q0 -133 -75.5 -242t-204.5 -158q84 -45 134 -130t50 -185q0 -139 -70.5 -252t-199.5 -179.5t-295 -66.5q-238 0 -372 107.5t-134 296.5zM322 397 q0 -104 72.5 -164.5t197.5 -60.5q88 0 159.5 36t114.5 103.5t43 153.5q0 106 -71.5 166.5t-196.5 60.5q-139 0 -229 -83t-90 -212zM492 1100q0 -98 65 -155.5t176 -57.5q121 0 203 76.5t82 187.5q0 94 -67.5 151.5t-178.5 57.5q-119 0 -199.5 -76t-80.5 -184z" />
<glyph unicode="9" horiz-adv-x="1269" d="M180 1008q0 150 71 274.5t200 199t292 74.5q225 0 354.5 -126.5t129.5 -346.5q0 -166 -87 -358.5t-249 -383.5t-375 -345l-313 10q213 145 387 317.5t270 329.5q-88 -74 -250 -73q-121 0 -218 52t-154.5 150.5t-57.5 225.5zM418 1028q0 -117 70.5 -187.5t185.5 -70.5 q86 0 158.5 41t116.5 118t44 171q0 119 -68.5 188.5t-185.5 69.5q-86 0 -159.5 -41t-117.5 -117t-44 -172z" />
<glyph unicode=":" horiz-adv-x="608" d="M74 125q0 72 49 120t125 48q61 0 101 -39t40 -98q0 -74 -49 -121t-125 -47q-61 0 -101 39t-40 98zM219 877q0 72 49 120t125 48q61 0 101 -39t40 -98q0 -74 -49 -121t-125 -47q-61 0 -101 39t-40 98z" />
<glyph unicode=";" horiz-adv-x="608" d="M-141 -362q109 129 182.5 300t93.5 338h242q-12 -119 -55.5 -236.5t-109 -222t-149.5 -179.5h-204zM219 877q0 72 49 120t125 48q61 0 101 -39t40 -98q0 -74 -49 -121t-125 -47q-61 0 -101 39t-40 98z" />
<glyph unicode="&#x3c;" horiz-adv-x="1269" d="M215 584l45 227l940 377l-45 -236l-682 -264l580 -266l-41 -213z" />
<glyph unicode="=" horiz-adv-x="1269" d="M172 340l39 201h858l-39 -201h-858zM266 823l39 201h858l-39 -201h-858z" />
<glyph unicode="&#x3e;" horiz-adv-x="1269" d="M139 209l45 235l682 263l-577 266l41 215l794 -377l-45 -227z" />
<glyph unicode="?" horiz-adv-x="1011" d="M219 1470q76 78 191.5 122t242.5 44q123 0 220.5 -44t152.5 -125t55 -191q-2 -106 -38.5 -183t-95 -133.5t-124 -103.5t-126 -95t-99.5 -108.5t-45 -142.5h-215q2 111 37 189.5t91 137t119.5 105.5t120 92t91 99.5t37.5 126.5q0 76 -57.5 120.5t-153.5 44.5 q-98 0 -198.5 -46t-178.5 -128zM229 125q0 72 49.5 120t124.5 48q61 0 101.5 -39t40.5 -98q0 -74 -49 -121t-125 -47q-61 0 -101.5 39t-40.5 98z" />
<glyph unicode="@" horiz-adv-x="2068" d="M80 313q0 279 141 520.5t398.5 392t570.5 150.5q223 0 404.5 -88t288 -251t106.5 -373q0 -182 -69 -337t-195 -250t-283 -95q-94 0 -158.5 39.5t-87.5 111.5q-51 -70 -131 -109.5t-172 -39.5q-160 0 -252 98t-92 268q0 141 65.5 267t182 207t254.5 81q203 0 266 -172 l49 139h190l-165 -524q-18 -61 -19 -96q0 -49 27.5 -77t77.5 -28q80 0 153.5 67t120.5 185.5t47 255.5q0 250 -169 397.5t-458 147.5q-238 0 -442.5 -111.5t-331.5 -314.5t-127 -450q0 -295 172 -457t484 -162q100 0 219 24.5t207 63.5l-6 -182q-82 -37 -197.5 -59.5 t-230.5 -22.5q-252 0 -440.5 93t-293 270.5t-104.5 420.5zM758 365q0 -92 51 -144.5t139 -52.5q74 0 141.5 47t110.5 129t43 178q0 92 -51 144.5t-139 52.5q-74 0 -141.5 -47t-110.5 -129t-43 -178z" />
<glyph unicode="A" horiz-adv-x="1585" d="M-51 0l911 1556h266l310 -1556h-262l-76 436h-637l-244 -436h-268zM573 639h490l-115 668z" />
<glyph unicode="B" horiz-adv-x="1443" d="M98 0l303 1556h480q223 0 346 -95t123 -269q0 -129 -68 -229.5t-190 -151.5q96 -31 157.5 -121t61.5 -198q0 -233 -161 -362.5t-454 -129.5h-598zM381 211h319q164 0 256.5 75.5t92.5 209.5q0 100 -76 152t-221 52h-277zM516 911h272q139 0 222.5 69t83.5 183 q0 88 -69 135.5t-196 47.5h-227z" />
<glyph unicode="C" horiz-adv-x="1568" d="M160 700q0 236 111.5 435.5t315.5 321.5t457 122q137 0 272.5 -38t231.5 -101l-59 -217q-217 127 -455 127q-162 0 -301 -81t-225 -227.5t-86 -326.5q0 -147 62.5 -262t179 -180.5t272.5 -65.5q219 0 422 110l2 -231q-199 -109 -457 -109q-217 0 -385 88.5t-263 252 t-95 382.5z" />
<glyph unicode="D" horiz-adv-x="1714" d="M98 0l303 1556h514q231 0 398.5 -78.5t257.5 -229t90 -363.5q0 -256 -117 -456t-335 -314.5t-509 -114.5h-602zM397 211h318q199 0 353.5 80t241.5 230.5t87 350.5q0 227 -131 350.5t-375 123.5h-275z" />
<glyph unicode="E" horiz-adv-x="1353" d="M98 0l303 1556h957l-43 -215h-711l-86 -440h629l-41 -215h-629l-92 -471h768l-41 -215h-1014z" />
<glyph unicode="F" horiz-adv-x="1234" d="M98 0l303 1556h932l-41 -215h-678l-92 -473h592l-43 -215h-590l-127 -653h-256z" />
<glyph unicode="G" horiz-adv-x="1671" d="M160 692q0 246 112.5 446.5t321.5 320.5t475 120q147 0 292.5 -39t250.5 -106l-60 -220q-104 63 -234 99.5t-255 36.5q-180 0 -324.5 -79t-229.5 -224.5t-85 -333.5q0 -152 62.5 -266.5t182 -179t281.5 -64.5q137 0 256 41l78 391h-303l43 213h561l-149 -758 q-104 -53 -236.5 -83t-265.5 -30q-229 0 -403.5 85t-272.5 247t-98 383z" />
<glyph unicode="H" horiz-adv-x="1716" d="M98 0l303 1556h256l-125 -643h807l125 643h256l-303 -1556h-256l135 698h-807l-135 -698h-256z" />
<glyph unicode="I" horiz-adv-x="653" d="M98 0l303 1556h256l-303 -1556h-256z" />
<glyph unicode="J" horiz-adv-x="1110" d="M-16 66l49 210q61 -41 138 -63.5t155 -22.5q145 0 228 89.5t124 295.5l190 981h256l-200 -1026q-57 -295 -198.5 -429t-395.5 -134q-96 0 -195.5 29t-150.5 70z" />
<glyph unicode="K" horiz-adv-x="1529" d="M98 0l303 1556h250l-131 -671l783 671h344l-908 -765l674 -791h-326l-598 727l-141 -727h-250z" />
<glyph unicode="L" horiz-adv-x="1243" d="M98 0l303 1556h256l-260 -1331h717l-47 -225h-969z" />
<glyph unicode="M" horiz-adv-x="2060" d="M72 0l377 1556h245l326 -1040l739 1040h250l-221 -1556h-242l172 1149l-637 -887h-207l-290 909l-271 -1171h-241z" />
<glyph unicode="N" horiz-adv-x="1734" d="M98 0l303 1556h234l635 -1212l233 1212h236l-303 -1556h-236l-633 1204l-233 -1204h-236z" />
<glyph unicode="O" horiz-adv-x="1812" d="M156 682q0 240 111.5 445.5t314 333.5t450.5 128q203 0 367 -88t261 -252t97 -375q0 -240 -111.5 -445.5t-314 -333.5t-450.5 -128q-203 0 -367 88t-261 252t-97 375zM420 696q0 -227 131 -363t350 -136q156 0 291 85t219 238.5t84 339.5q0 227 -132 363.5t-351 136.5 q-154 0 -289 -85t-219 -238.5t-84 -340.5z" />
<glyph unicode="P" horiz-adv-x="1306" d="M98 0l303 1556h398q250 0 390 -114.5t140 -317.5q0 -172 -74.5 -301t-218 -198.5t-342.5 -69.5h-241l-109 -555h-246zM494 764h211q178 0 276 90t98 254q0 117 -80.5 178.5t-232.5 61.5h-160z" />
<glyph unicode="Q" horiz-adv-x="1810" d="M156 682q0 240 111.5 445.5t314 333.5t450.5 128q203 0 367 -88t261 -252t97 -375q0 -272 -143.5 -498t-384.5 -335l297 -414h-307l-234 346q-27 -4 -52.5 -5t-51.5 -1q-203 0 -367 88t-261 252t-97 375zM420 696q0 -227 131 -363t350 -136q156 0 291 85t219 238.5 t84 339.5q0 227 -132 363.5t-351 136.5q-154 0 -289 -85t-219 -238.5t-84 -340.5z" />
<glyph unicode="R" horiz-adv-x="1435" d="M98 0l303 1556h404q250 0 389 -114.5t139 -319.5q0 -164 -94 -292t-258 -187l303 -643h-280l-252 590q-23 -4 -93 -4h-202l-113 -586h-246zM498 795h213q164 0 268 88t104 223q0 115 -81.5 178.5t-227.5 63.5h-168z" />
<glyph unicode="S" horiz-adv-x="1306" d="M49 121l57 225q104 -76 222 -117t231 -41q152 0 247 65.5t95 170.5q0 82 -61.5 139.5t-233.5 138.5q-176 82 -262 188.5t-86 244.5q0 129 67.5 231t193.5 162.5t292 60.5q119 0 241 -34.5t212 -94.5l-58 -217q-98 59 -201.5 92t-193.5 33q-137 0 -222 -57.5t-85 -151.5 q0 -76 55 -133t193 -123q156 -76 241.5 -145.5t122.5 -147.5t37 -178q0 -137 -71.5 -241.5t-206 -164t-312.5 -59.5q-141 0 -276 41t-238 113z" />
<glyph unicode="T" horiz-adv-x="1402" d="M231 1341l43 215h1258l-41 -215h-502l-262 -1341h-256l262 1341h-502z" />
<glyph unicode="U" horiz-adv-x="1701" d="M203 510q0 84 22 203l164 843h256l-164 -841q-18 -94 -18 -170q0 -170 90 -259t262 -89q139 0 231.5 53t150.5 162.5t93 285.5l168 858h256l-178 -911q-68 -344 -250 -511t-489 -167q-283 0 -438.5 142.5t-155.5 400.5z" />
<glyph unicode="V" horiz-adv-x="1542" d="M252 1556h264l205 -1286l688 1286h283l-879 -1556h-270z" />
<glyph unicode="W" horiz-adv-x="2250" d="M252 1556h256l94 -1228l588 1208h254l117 -1202l569 1222h270l-768 -1556h-252l-123 1210l-593 -1210h-250z" />
<glyph unicode="X" horiz-adv-x="1464" d="M-70 0l709 823l-363 733h291l260 -559l463 559h309l-663 -765l397 -791h-291l-292 621l-510 -621h-310z" />
<glyph unicode="Y" horiz-adv-x="1443" d="M227 1556h271l280 -694l551 694h289l-746 -905l-127 -651h-256l129 662z" />
<glyph unicode="Z" horiz-adv-x="1449" d="M10 0l35 195l1071 1146h-811l41 215h1143l-37 -194l-1073 -1147h885l-43 -215h-1211z" />
<glyph unicode="[" horiz-adv-x="833" d="M72 -272l379 1951h528l-37 -194h-311l-305 -1563h317l-37 -194h-534z" />
<glyph unicode="\" horiz-adv-x="1087" d="M262 1659h225l408 -1931h-227z" />
<glyph unicode="]" horiz-adv-x="833" d="M-74 -272l37 194h311l306 1563h-318l37 194h535l-379 -1951h-529z" />
<glyph unicode="^" horiz-adv-x="1269" d="M164 637l543 799h208l236 -799h-221l-156 565l-371 -565h-239z" />
<glyph unicode="_" horiz-adv-x="1024" d="M-156 -285l37 193h1024l-37 -193h-1024z" />
<glyph unicode="`" horiz-adv-x="1024" d="M486 1587h250l149 -338h-197z" />
<glyph unicode="a" horiz-adv-x="1327" d="M98 440q0 162 73 304.5t202 232.5t284 90q115 0 203 -47t141 -139l35 153h226l-201 -1034h-223l20 125q-55 -74 -147.5 -116t-198.5 -42q-186 0 -300 130t-114 343zM336 459q0 -131 69.5 -206t190.5 -75q90 0 169 51.5t128 142.5t49 203q0 131 -69.5 206t-190.5 75 q-92 0 -171 -51t-127 -142.5t-48 -203.5z" />
<glyph unicode="b" horiz-adv-x="1327" d="M66 0l321 1659h236l-142 -735q57 68 145.5 105.5t188.5 37.5q186 0 300 -130t114 -343q0 -162 -73 -304.5t-201.5 -232.5t-284.5 -90q-119 0 -206 47t-138 140l-35 -154h-225zM385 459q0 -131 69.5 -206t190.5 -75q92 0 171 51.5t127 142.5t48 203q0 131 -69.5 206 t-190.5 75q-90 0 -169 -51t-128 -142.5t-49 -203.5z" />
<glyph unicode="c" horiz-adv-x="1103" d="M100 453q0 164 77 302t217.5 222t312.5 84q94 0 184 -24.5t153 -67.5l-47 -203q-55 39 -133 62.5t-149 23.5q-104 0 -190.5 -48t-137.5 -135t-51 -198q0 -137 86 -213t242 -76q57 0 124.5 17.5t120.5 46.5v-205q-45 -29 -130 -48.5t-163 -19.5q-242 0 -379 128t-137 352z " />
<glyph unicode="d" horiz-adv-x="1327" d="M98 440q0 162 73 304.5t202 232.5t284 90q231 0 340 -180l150 772h235l-321 -1659h-223l20 125q-55 -74 -147.5 -116t-198.5 -42q-186 0 -300 130t-114 343zM336 459q0 -131 69.5 -206t190.5 -75q90 0 169 51.5t128 142.5t49 203q0 131 -69.5 206t-190.5 75 q-92 0 -171 -51t-127 -142.5t-48 -203.5z" />
<glyph unicode="e" horiz-adv-x="1218" d="M100 444q0 168 74 309.5t208 227.5t302 86q195 0 312.5 -113.5t117.5 -302.5q0 -102 -29 -213h-759q4 -141 91 -209.5t263 -68.5q156 0 307 73l2 -190q-59 -33 -155.5 -54.5t-192.5 -21.5q-254 0 -397.5 126t-143.5 351zM346 616h545q2 10 2 41q0 106 -58.5 166 t-164.5 60q-113 0 -201 -73t-123 -194z" />
<glyph unicode="f" horiz-adv-x="829" d="M111 836l36 198h191l35 172q45 229 169 346t320 117q63 0 126 -15.5t102 -41.5l-48 -193q-76 43 -168 43q-113 0 -179 -70.5t-95 -220.5l-27 -137h289l-37 -198h-290l-160 -836h-238l162 836h-188z" />
<glyph unicode="g" horiz-adv-x="1327" d="M49 -406l51 203q157 -108 346 -108h3q166 0 258 90t135 293l8 45q-55 -70 -145.5 -110t-192.5 -40q-186 0 -300 130t-114 343q0 162 73 304.5t202 232.5t284 90q115 0 203 -47t141 -139l35 153h226l-185 -952q-61 -315 -208.5 -458.5t-409.5 -143.5q-119 0 -228.5 30.5 t-181.5 83.5zM336 459q0 -131 69.5 -206t190.5 -75q90 0 169 51.5t128 142.5t49 203q0 131 -69.5 206t-190.5 75q-92 0 -171 -51t-127 -142.5t-48 -203.5z" />
<glyph unicode="h" horiz-adv-x="1249" d="M66 0l321 1659h236l-144 -737q51 68 135 106.5t179 38.5q150 0 238.5 -90t88.5 -244q0 -55 -12 -115l-119 -618h-235l112 586q10 51 11 92q0 180 -179 180q-106 0 -184 -80t-104 -217l-109 -561h-235z" />
<glyph unicode="i" horiz-adv-x="567" d="M66 0l200 1034h236l-201 -1034h-235zM309 1409q0 68 46 113t116 45q59 0 96 -37t37 -96q0 -68 -45 -114t-115 -46q-59 0 -97 38t-38 97z" />
<glyph unicode="j" horiz-adv-x="567" d="M-399 -463l47 189q76 -41 172 -41q186 0 237 274l209 1075h236l-209 -1077q-49 -252 -158.5 -364.5t-302.5 -112.5q-72 0 -135.5 16.5t-95.5 40.5zM309 1409q0 68 46 113t116 45q59 0 96 -37t37 -96q0 -68 -45 -114t-115 -46q-59 0 -97 38t-38 97z" />
<glyph unicode="k" horiz-adv-x="1189" d="M66 0l321 1659h236l-199 -1018l465 393h313l-581 -479l454 -555h-293l-387 492l-94 -492h-235z" />
<glyph unicode="l" horiz-adv-x="567" d="M66 0l321 1659h236l-322 -1659h-235z" />
<glyph unicode="m" horiz-adv-x="1912" d="M66 0l200 1034h226l-23 -125q51 74 137 116t182 42q104 0 182.5 -51t110.5 -144q59 92 156.5 143.5t210.5 51.5q158 0 248 -90t90 -246q0 -51 -12 -113l-121 -618h-236l115 586q10 53 10 92q0 180 -178 180q-100 0 -176 -82t-103 -215l-108 -561h-236l115 586q8 43 8 92 q0 88 -44 134t-126 46q-104 0 -181 -80t-103 -217l-109 -561h-235z" />
<glyph unicode="n" horiz-adv-x="1249" d="M66 0l200 1034h226l-23 -125q51 72 138 115t186 43q150 0 238.5 -90t88.5 -244q0 -55 -12 -115l-119 -618h-235l112 586q10 51 11 92q0 180 -179 180q-106 0 -184 -80t-104 -217l-109 -561h-235z" />
<glyph unicode="o" horiz-adv-x="1273" d="M98 442q0 164 76 306.5t214 230.5t308 88q135 0 244 -58.5t172.5 -167t63.5 -249.5q0 -164 -77 -306.5t-215.5 -230.5t-308.5 -88q-135 0 -242.5 58.5t-171 167t-63.5 249.5zM334 459q0 -131 69.5 -206t190.5 -75q90 0 169 51.5t128 142.5t49 203q0 131 -69.5 206 t-190.5 75q-92 0 -171 -51t-127 -142.5t-48 -203.5z" />
<glyph unicode="p" horiz-adv-x="1327" d="M-33 -502l299 1536h226l-23 -125q55 74 147.5 116t198.5 42q186 0 300 -130t114 -343q0 -162 -73 -304.5t-202 -232.5t-284 -90q-115 0 -202 46t-140 137l-125 -652h-236zM385 459q0 -131 69.5 -206t190.5 -75q92 0 171 51.5t127 142.5t48 203q0 131 -69.5 206t-190.5 75 q-90 0 -169 -51t-128 -142.5t-49 -203.5z" />
<glyph unicode="q" horiz-adv-x="1327" d="M98 440q0 162 73 304.5t202 232.5t284 90q115 0 203 -47t141 -139l35 153h226l-299 -1536h-236l119 613q-59 -68 -146.5 -106t-187.5 -38q-186 0 -300 130t-114 343zM336 459q0 -131 69.5 -206t190.5 -75q90 0 169 51.5t128 142.5t49 203q0 131 -69.5 206t-190.5 75 q-92 0 -171 -51t-127 -142.5t-48 -203.5z" />
<glyph unicode="r" horiz-adv-x="860" d="M66 0l200 1034h223l-26 -162q47 78 131 128.5t172 50.5q72 0 127 -31l-53 -217q-55 28 -128 28h-5q-115 0 -199 -100t-119 -278l-88 -453h-235z" />
<glyph unicode="s" horiz-adv-x="950" d="M29 86l49 190q72 -57 156.5 -86.5t175.5 -29.5q84 0 131 31.5t47 87.5q0 45 -38 77.5t-147 79.5q-139 59 -200.5 132t-61.5 177q0 143 110.5 232.5t287.5 89.5q88 0 180 -26.5t160 -71.5l-43 -189q-72 45 -153 69.5t-155 24.5t-116.5 -30.5t-42.5 -83.5q0 -43 32.5 -75 t114.5 -67q168 -74 236.5 -146.5t68.5 -180.5q0 -147 -111.5 -235.5t-297.5 -88.5q-109 0 -216.5 34t-166.5 85z" />
<glyph unicode="t" horiz-adv-x="921" d="M86 836l39 198h211l57 289h236l-58 -289h308l-39 -198h-308l-83 -439q-10 -51 -11 -88q0 -70 34 -102.5t106 -32.5q94 0 192 43l2 -197q-47 -25 -112.5 -39t-133.5 -14q-160 0 -242.5 76t-82.5 223q0 61 12 131l84 439h-211z" />
<glyph unicode="u" horiz-adv-x="1232" d="M115 287q0 49 14 123l121 624h235l-116 -600q-8 -33 -9 -90q0 -82 43 -125t125 -43q111 0 189 79t106 218l109 561h235l-200 -1034h-226l21 125q-53 -78 -139 -118t-197 -40q-143 0 -227 86t-84 234z" />
<glyph unicode="v" horiz-adv-x="1114" d="M137 1034h238l123 -784l422 784h258l-603 -1034h-237z" />
<glyph unicode="w" horiz-adv-x="1681" d="M147 1034h228l76 -762l358 762h221l90 -755l371 755h244l-549 -1034h-221l-93 745l-350 -745h-227z" />
<glyph unicode="x" horiz-adv-x="1134" d="M-49 0l485 551l-268 483h258l168 -342l280 342h275l-455 -518l289 -516h-258l-188 377l-314 -377h-272z" />
<glyph unicode="y" horiz-adv-x="1155" d="M-12 -502l385 604l-236 932h242l156 -712l426 712h258l-981 -1536h-250z" />
<glyph unicode="z" horiz-adv-x="1075" d="M0 0l31 178l653 658h-510l41 198h805l-31 -178l-657 -657h571l-39 -199h-864z" />
<glyph unicode="{" horiz-adv-x="868" d="M117 610l39 199h47q96 0 141 39t66 145q18 102 29.5 200.5t29.5 186.5t57 156t114 106.5t200 38.5q86 0 151 -16l-37 -186q-53 12 -94 12q-72 0 -112.5 -27.5t-59 -77t-26 -114t-13.5 -137t-20 -148.5q-25 -121 -75 -187.5t-138 -90.5q57 -16 91 -63.5t34 -115.5 q-2 -57 -21.5 -124.5t-45 -137t-45 -133t-21.5 -112.5q0 -68 40.5 -96.5t137.5 -28.5q43 0 61 2l-37 -191q-32 -4 -67 -4q-174 0 -265.5 69.5t-91.5 202.5q2 66 21.5 137.5t45.5 144.5t45 137.5t21 115.5q0 55 -32.5 76.5t-114.5 21.5h-55z" />
<glyph unicode="|" horiz-adv-x="661" d="M29 -465l434 2239h223l-434 -2239h-223z" />
<glyph unicode="}" horiz-adv-x="868" d="M-55 -279l37 187q53 -12 94 -12q72 0 112.5 27.5t59 76.5t26 113.5t13.5 137.5t20 148q25 121 75 187.5t138 91.5q-57 16 -91 63t-34 115q2 57 21.5 125t45 137.5t45 133t21.5 112.5q0 68 -41 96.5t-137 28.5q-43 0 -61 -2l37 190q33 4 67 4q174 0 265.5 -69.5 t91.5 -202.5q-2 -66 -21.5 -137.5t-45.5 -144t-45.5 -137t-21.5 -116.5q0 -55 33 -76.5t115 -21.5h55l-39 -198h-47q-96 0 -141 -39t-66 -146q-18 -102 -29.5 -200.5t-29.5 -186.5t-57 -155.5t-114 -106.5t-200 -39q-86 0 -151 16z" />
<glyph unicode="~" horiz-adv-x="1269" d="M111 492q29 199 121 308t233 109q59 0 107.5 -21.5t88 -52t75.5 -60.5t70 -51.5t68 -21.5q57 0 97.5 53.5t58.5 153.5h199q-29 -199 -122 -308t-233 -109q-59 0 -107 21.5t-88 52t-76 60t-69.5 51t-68.5 21.5q-57 0 -97 -53t-59 -153h-198z" />
<glyph unicode="&#xa1;" horiz-adv-x="684" d="M6 -584l227 1108h222l-207 -1108h-242zM258 879q0 74 49 121t125 47q61 0 101 -39t40 -99q0 -72 -49 -120t-125 -48q-61 0 -101 39t-40 99z" />
<glyph unicode="&#xa2;" horiz-adv-x="1269" d="M195 453q0 152 67.5 282.5t191.5 217.5t281 104l49 248h154l-49 -250q139 -20 235 -88l-43 -195q-51 33 -113.5 54.5t-119.5 27.5l-133 -676h28q53 0 121 17.5t123 46.5l-2 -201q-43 -29 -129 -48.5t-172 -19.5h-8l-47 -241h-154l51 262q-156 41 -243.5 163t-87.5 296z M422 471q0 -197 147 -262l125 635q-123 -31 -197.5 -133.5t-74.5 -239.5z" />
<glyph unicode="&#xa3;" horiz-adv-x="1269" d="M39 0l39 205h194l90 446h-194l39 193h192l31 155q55 281 197.5 419t378.5 138q86 0 173 -24.5t140 -65.5l-49 -196q-117 78 -262 78q-143 0 -228.5 -89.5t-126.5 -277.5l-28 -137h409l-37 -193h-409l-88 -446h626l-41 -205h-1046z" />
<glyph unicode="&#xa4;" horiz-adv-x="1269" d="M125 432l180 191q-57 102 -57 231t57 231l-180 191l151 137l166 -184q59 41 127 62.5t131 21.5t131 -22.5t127 -61.5l166 184l152 -137l-182 -191q59 -102 59 -231q0 -131 -59 -231l182 -191l-152 -137l-166 182q-125 -82 -258 -82q-66 0 -133 21.5t-125 60.5l-166 -182z M440 854q0 -125 72.5 -204t187.5 -79t188 79t73 204t-73 204t-188 79t-187.5 -79t-72.5 -204z" />
<glyph unicode="&#xa5;" horiz-adv-x="1269" d="M98 301l33 170h377l31 168h-375l33 170h290l-249 715h245l205 -674l471 674h264l-534 -715h297l-33 -170h-385l-31 -168h383l-33 -170h-382l-58 -301h-229l57 301h-377z" />
<glyph unicode="&#xa6;" horiz-adv-x="661" d="M29 -465l176 911h223l-176 -911h-223zM287 862l176 912h223l-176 -912h-223z" />
<glyph unicode="&#xa7;" horiz-adv-x="1052" d="M-2 -135l47 182q156 -113 348 -113q94 0 150.5 42t56.5 112q0 63 -44 104t-165 93q-139 59 -200.5 135t-61.5 186q0 125 75 221.5t204 137.5q-125 88 -125 237q0 154 110.5 243t300.5 89q92 0 188.5 -27.5t155.5 -72.5l-45 -177q-154 94 -303 95q-88 0 -137 -34t-49 -93 q0 -57 38 -94t140 -78q158 -66 225.5 -144t67.5 -194q0 -125 -68.5 -219.5t-191.5 -141.5q57 -45 86.5 -108.5t29.5 -134.5q0 -104 -54 -186.5t-157.5 -128.5t-242.5 -46q-109 0 -215.5 32t-163.5 83zM342 633q0 -78 51 -126t131 -48q102 0 170 66.5t68 166.5q0 76 -50 122 t-132 46q-102 0 -170 -64.5t-68 -162.5z" />
<glyph unicode="&#xa8;" horiz-adv-x="1024" d="M371 1401q0 61 41 102t102 41q53 0 87 -32.5t34 -86.5q0 -61 -41 -102t-102 -41q-53 0 -87 33t-34 86zM787 1401q0 61 41 102t102 41q53 0 86 -32.5t33 -86.5q0 -61 -40 -102t-101 -41q-53 0 -87 33t-34 86z" />
<glyph unicode="&#xa9;" horiz-adv-x="1660" d="M150 778q0 197 91 362t260 264t382 99q201 0 367.5 -91t266 -257t99.5 -377q0 -199 -92 -363.5t-260 -263t-381 -98.5q-199 0 -366 90t-267 257t-100 378zM311 778q0 -162 70 -292t201 -206.5t301 -76.5q160 0 290 70.5t206.5 201.5t76.5 303q0 162 -70.5 292t-201.5 207 t-301 77q-162 0 -291 -71t-205 -202t-76 -303zM520 778q0 113 49 202t140.5 140t210.5 51q59 0 119.5 -14t101.5 -37l-27 -170q-92 45 -186 45q-92 0 -150.5 -59t-58.5 -152q0 -94 60.5 -150t160.5 -56q45 0 85 9t105 34l27 -168q-104 -52 -235 -52q-184 0 -293 101.5 t-109 275.5z" />
<glyph unicode="&#xaa;" horiz-adv-x="944" d="M143 504l31 164h690l-30 -164h-691zM219 1118q0 115 50 215.5t140.5 161.5t200.5 61q74 0 128.5 -30.5t82.5 -87.5l23 98h174l-137 -700h-174l14 92q-78 -115 -234 -115q-123 0 -195.5 84t-72.5 221zM410 1137q0 -76 40.5 -116t116.5 -40q90 0 151.5 71.5t61.5 178.5 q0 76 -40 117t-115 41q-90 0 -152.5 -73t-62.5 -179z" />
<glyph unicode="&#xab;" horiz-adv-x="1177" d="M63 526l383 445h269l-402 -463l203 -426h-246zM532 526l383 445h269l-402 -463l203 -426h-246z" />
<glyph unicode="&#xac;" horiz-adv-x="1269" d="M215 641l39 207h891l-101 -518h-217l62 311h-674z" />
<glyph unicode="&#xad;" horiz-adv-x="882" d="M131 481l43 215h606l-43 -215h-606z" />
<glyph unicode="&#xae;" horiz-adv-x="1058" d="M221 1241q0 119 56.5 220.5t160 163t232.5 61.5q121 0 223 -55.5t163.5 -158t61.5 -231.5q0 -121 -56 -221t-159.5 -161.5t-232.5 -61.5q-121 0 -222.5 56t-164 158.5t-62.5 229.5zM340 1241q0 -145 94.5 -240.5t235.5 -95.5q143 0 237 95.5t94 240.5t-94 240.5 t-237 95.5q-141 0 -235.5 -95.5t-94.5 -240.5zM506 1040v422h158q86 0 134 -38t48 -105q0 -86 -68 -127l90 -152h-125l-67 125h-60v-125h-110zM616 1262h43q39 0 55.5 12t16.5 41q0 51 -72 51h-43v-104z" />
<glyph unicode="&#xaf;" horiz-adv-x="1024" d="M371 1309l33 178h639l-33 -178h-639z" />
<glyph unicode="&#xb0;" horiz-adv-x="1028" d="M289 1227q0 96 46 178t130 132t186 50q156 0 260.5 -103.5t104.5 -256.5q0 -94 -46 -176t-130.5 -132.5t-188.5 -50.5q-100 0 -182 45t-131 127t-49 187zM475 1227q0 -82 49 -134.5t127 -52.5q80 0 129 52.5t49 134.5q0 84 -50 137t-128 53q-76 0 -126 -53t-50 -137z" />
<glyph unicode="&#xb1;" horiz-adv-x="1269" d="M77 2l41 206h918l-39 -206h-920zM213 731l39 202h357l75 392h217l-77 -392h356l-39 -202h-356l-78 -391h-215l76 391h-355z" />
<glyph unicode="&#xb2;" d="M186 934l29 158q184 127 282 213q92 80 130 133t38 104q0 41 -30.5 65.5t-83.5 24.5q-55 0 -115.5 -28.5t-103.5 -73.5l-27 158q47 47 119.5 74.5t150.5 27.5q123 0 199 -63.5t76 -165.5q0 -86 -46 -162t-157 -172q-72 -63 -186 -135h354l-31 -158h-598z" />
<glyph unicode="&#xb3;" d="M186 991l35 152q49 -35 109.5 -55.5t119.5 -20.5q78 0 127 38t49 99q0 106 -141 107q-35 0 -69 -12l-35 100l243 217h-323l31 154h548l-26 -146l-219 -192q84 -16 131 -76t47 -150q0 -131 -100.5 -211.5t-262.5 -80.5q-76 0 -150.5 22.5t-113.5 54.5z" />
<glyph unicode="&#xb4;" horiz-adv-x="1024" d="M413 1249l271 338h278l-334 -338h-215z" />
<glyph unicode="&#xb5;" horiz-adv-x="1249" d="M-33 -502l299 1536h236l-113 -585q-10 -51 -10 -93q0 -88 45 -134t131 -46q104 0 181 80t104 217l108 561h236l-201 -1034h-225l20 123q-47 -68 -127 -112t-159 -44q-68 0 -111 23.5t-68 72.5l-110 -565h-236z" />
<glyph unicode="&#xb6;" horiz-adv-x="1277" d="M188 1057q0 147 64.5 260t187.5 176t289 63h590l-354 -1822h-209l315 1632h-190l-318 -1632h-209l189 979q-168 8 -261.5 99t-93.5 245z" />
<glyph unicode="&#xb7;" horiz-adv-x="608" d="M197 760q0 72 49 120t125 48q61 0 101 -39t40 -98q0 -74 -49 -121t-125 -47q-61 0 -101 39t-40 98z" />
<glyph unicode="&#xb8;" horiz-adv-x="1024" d="M84 -483l39 135q31 -16 71.5 -26.5t77.5 -10.5q63 0 96 22.5t33 63.5q0 66 -104 66q-49 0 -82 -9l110 262h154l-59 -139q162 -29 161 -182q0 -106 -81 -167.5t-218 -61.5q-57 0 -111.5 13t-86.5 34z" />
<glyph unicode="&#xb9;" d="M338 1462l6 183l289 125h165l-163 -836h-183l121 631z" />
<glyph unicode="&#xba;" horiz-adv-x="937" d="M137 504l31 164h690l-31 -164h-690zM219 1139q0 113 53.5 208t149.5 152t215 57q152 0 243 -89t91 -236q0 -113 -53.5 -208t-149.5 -152.5t-215 -57.5q-152 0 -243 89t-91 237zM410 1137q0 -76 40.5 -116t116.5 -40q88 0 150.5 73.5t62.5 178.5q0 76 -40 116t-115 40 q-90 0 -152.5 -73t-62.5 -179z" />
<glyph unicode="&#xbb;" horiz-adv-x="1177" d="M-2 82l401 463l-202 426h245l207 -445l-383 -444h-268zM467 82l401 463l-202 426h245l207 -445l-383 -444h-268z" />
<glyph unicode="&#xbc;" horiz-adv-x="1918" d="M237 0l1364 1524h240l-1366 -1524h-238zM291 1216l6 183l289 125h165l-163 -836h-183l121 631zM1112 180l26 146l477 510h185l-99 -508h113l-29 -148h-110l-35 -180h-166l35 180h-397zM1325 328h213l55 286z" />
<glyph unicode="&#xbd;" horiz-adv-x="1918" d="M147 0l1364 1524h240l-1366 -1524h-238zM291 1216l6 183l289 125h165l-163 -836h-183l121 631zM1134 0l29 158q184 127 282 213q92 80 130 133t38 104q0 41 -30.5 65.5t-83.5 24.5q-55 0 -115.5 -28.5t-103.5 -73.5l-27 158q47 47 119.5 74.5t150.5 27.5q123 0 199 -63.5 t76 -165.5q0 -86 -46 -162t-157 -172q-72 -63 -186 -135h354l-31 -158h-598z" />
<glyph unicode="&#xbe;" horiz-adv-x="1918" d="M139 745l35 152q49 -35 109.5 -55.5t119.5 -20.5q78 0 127 38t49 99q0 106 -141 107q-35 0 -69 -12l-35 100l243 217h-323l31 154h548l-26 -146l-219 -192q84 -16 131 -76t47 -150q0 -131 -100.5 -211.5t-262.5 -80.5q-76 0 -150.5 22.5t-113.5 54.5zM258 0l1364 1524 h240l-1366 -1524h-238zM1112 180l26 146l477 510h185l-99 -508h113l-29 -148h-110l-35 -180h-166l35 180h-397zM1325 328h213l55 286z" />
<glyph unicode="&#xbf;" horiz-adv-x="1011" d="M-70 -242q2 106 39 183t95.5 133.5t124 103.5t126 95.5t99.5 108.5t45 142h215q-2 -111 -37 -189.5t-91.5 -137t-120 -105.5t-119.5 -92t-91 -99.5t-37 -125.5q0 -76 57.5 -121t153.5 -45q98 0 198.5 46t178.5 128l27 -219q-76 -78 -192 -122t-243 -44q-123 0 -220 44 t-152.5 125t-55.5 191zM467 879q0 74 49 121t125 47q61 0 101 -39t40 -99q0 -72 -49 -120t-125 -48q-61 0 -101 39t-40 99z" />
<glyph unicode="&#xc0;" horiz-adv-x="1585" d="M-51 0l911 1556h266l310 -1556h-262l-76 436h-637l-244 -436h-268zM573 639h490l-115 668zM734 1991h276l170 -281h-219z" />
<glyph unicode="&#xc1;" horiz-adv-x="1585" d="M-51 0l911 1556h266l310 -1556h-262l-76 436h-637l-244 -436h-268zM573 639h490l-115 668zM832 1710l268 281h305l-340 -281h-233z" />
<glyph unicode="&#xc2;" horiz-adv-x="1585" d="M-51 0l911 1556h266l310 -1556h-262l-76 436h-637l-244 -436h-268zM573 639h490l-115 668zM614 1710l340 301h221l228 -301h-226l-123 168l-190 -168h-250z" />
<glyph unicode="&#xc3;" horiz-adv-x="1585" d="M-51 0l911 1556h266l310 -1556h-262l-76 436h-637l-244 -436h-268zM573 639h490l-115 668zM649 1708q18 147 82.5 225t169.5 78q57 -2 94 -21.5t64.5 -45t52 -45t57.5 -21.5q39 0 60.5 29.5t33.5 99.5h164q-20 -145 -86 -223t-168 -78q-55 2 -93 21.5t-64.5 45t-51 45 t-57.5 19.5q-39 0 -60.5 -29.5t-35.5 -99.5h-162z" />
<glyph unicode="&#xc4;" horiz-adv-x="1585" d="M-51 0l911 1556h266l310 -1556h-262l-76 436h-637l-244 -436h-268zM573 639h490l-115 668zM692 1819q0 63 40 104t103 41q53 0 87 -33t34 -86q0 -63 -40 -104t-103 -41q-53 0 -87 32.5t-34 86.5zM1110 1819q0 63 41 104t104 41q53 0 87 -33t34 -86q0 -63 -41 -104 t-104 -41q-53 0 -87 32.5t-34 86.5z" />
<glyph unicode="&#xc5;" horiz-adv-x="1585" d="M-51 0l911 1556h266l310 -1556h-262l-76 436h-637l-244 -436h-268zM573 639h490l-115 668zM774 1939q0 113 78.5 189t199.5 76q119 0 199 -76t80 -189t-80 -189.5t-199 -76.5t-198.5 76t-79.5 190zM921 1939q0 -59 36 -95t95 -36t94 36t35 95t-34.5 94t-94.5 35 q-59 0 -95 -34.5t-36 -94.5z" />
<glyph unicode="&#xc6;" horiz-adv-x="2248" d="M-82 0l1256 1556h1079l-43 -215h-711l-86 -440h629l-41 -215h-629l-92 -471h768l-41 -215h-1014l84 436h-522l-342 -436h-295zM713 639h403l133 684z" />
<glyph unicode="&#xc7;" horiz-adv-x="1568" d="M160 700q0 236 111.5 435.5t315.5 321.5t457 122q137 0 272.5 -38t231.5 -101l-59 -217q-217 127 -455 127q-162 0 -301 -81t-225 -227.5t-86 -326.5q0 -147 62.5 -262t179 -180.5t272.5 -65.5q219 0 422 110l2 -231q-199 -109 -457 -109q-217 0 -385 88.5t-263 252 t-95 382.5zM428 -485l39 143q29 -16 69.5 -26.5t79.5 -10.5q123 0 123 76q0 63 -111 63q-45 0 -69 -6l112 266h156l-59 -141q78 -14 121.5 -61t43.5 -119q0 -109 -81 -169t-226 -60q-59 0 -114.5 12t-83.5 33z" />
<glyph unicode="&#xc8;" horiz-adv-x="1353" d="M98 0l303 1556h957l-43 -215h-711l-86 -440h629l-41 -215h-629l-92 -471h768l-41 -215h-1014zM644 1991h276l170 -281h-219z" />
<glyph unicode="&#xc9;" horiz-adv-x="1353" d="M98 0l303 1556h957l-43 -215h-711l-86 -440h629l-41 -215h-629l-92 -471h768l-41 -215h-1014zM742 1710l268 281h305l-340 -281h-233z" />
<glyph unicode="&#xca;" horiz-adv-x="1353" d="M98 0l303 1556h957l-43 -215h-711l-86 -440h629l-41 -215h-629l-92 -471h768l-41 -215h-1014zM524 1710l340 301h221l228 -301h-226l-123 168l-190 -168h-250z" />
<glyph unicode="&#xcb;" horiz-adv-x="1353" d="M98 0l303 1556h957l-43 -215h-711l-86 -440h629l-41 -215h-629l-92 -471h768l-41 -215h-1014zM602 1819q0 63 40 104t103 41q53 0 87 -33t34 -86q0 -63 -40 -104t-103 -41q-53 0 -87 32.5t-34 86.5zM1020 1819q0 63 41 104t104 41q53 0 87 -33t34 -86q0 -63 -41 -104 t-104 -41q-53 0 -87 32.5t-34 86.5z" />
<glyph unicode="&#xcc;" horiz-adv-x="653" d="M98 0l303 1556h256l-303 -1556h-256zM271 1991h276l170 -281h-219z" />
<glyph unicode="&#xcd;" horiz-adv-x="653" d="M98 0l303 1556h256l-303 -1556h-256zM369 1710l268 281h305l-340 -281h-233z" />
<glyph unicode="&#xce;" horiz-adv-x="653" d="M98 0l303 1556h256l-303 -1556h-256zM151 1710l340 301h221l228 -301h-226l-123 168l-190 -168h-250z" />
<glyph unicode="&#xcf;" horiz-adv-x="653" d="M98 0l303 1556h256l-303 -1556h-256zM229 1819q0 63 40 104t103 41q53 0 87 -33t34 -86q0 -63 -40 -104t-103 -41q-53 0 -87 32.5t-34 86.5zM647 1819q0 63 41 104t104 41q53 0 87 -33t34 -86q0 -63 -41 -104t-104 -41q-53 0 -87 32.5t-34 86.5z" />
<glyph unicode="&#xd0;" horiz-adv-x="1757" d="M76 692l35 185h200l133 679h514q231 0 398.5 -78.5t257.5 -229t90 -363.5q0 -256 -117 -456t-335 -314.5t-509 -114.5h-602l135 692h-200zM440 211h318q199 0 353.5 80t241.5 230.5t87 350.5q0 227 -131 350.5t-375 123.5h-275l-90 -469h330l-35 -185h-332z" />
<glyph unicode="&#xd1;" horiz-adv-x="1734" d="M98 0l303 1556h234l635 -1212l233 1212h236l-303 -1556h-236l-633 1204l-233 -1204h-236zM727 1708q18 147 82.5 225t169.5 78q57 -2 94 -21.5t64.5 -45t52 -45t57.5 -21.5q39 0 60.5 29.5t33.5 99.5h164q-20 -145 -86 -223t-168 -78q-55 2 -93 21.5t-64.5 45t-51 45 t-57.5 19.5q-39 0 -60.5 -29.5t-35.5 -99.5h-162z" />
<glyph unicode="&#xd2;" horiz-adv-x="1812" d="M156 682q0 240 111.5 445.5t314 333.5t450.5 128q203 0 367 -88t261 -252t97 -375q0 -240 -111.5 -445.5t-314 -333.5t-450.5 -128q-203 0 -367 88t-261 252t-97 375zM420 696q0 -227 131 -363t350 -136q156 0 291 85t219 238.5t84 339.5q0 227 -132 363.5t-351 136.5 q-154 0 -289 -85t-219 -238.5t-84 -340.5zM822 1991h276l170 -281h-219z" />
<glyph unicode="&#xd3;" horiz-adv-x="1812" d="M156 682q0 240 111.5 445.5t314 333.5t450.5 128q203 0 367 -88t261 -252t97 -375q0 -240 -111.5 -445.5t-314 -333.5t-450.5 -128q-203 0 -367 88t-261 252t-97 375zM420 696q0 -227 131 -363t350 -136q156 0 291 85t219 238.5t84 339.5q0 227 -132 363.5t-351 136.5 q-154 0 -289 -85t-219 -238.5t-84 -340.5zM920 1710l268 281h305l-340 -281h-233z" />
<glyph unicode="&#xd4;" horiz-adv-x="1812" d="M156 682q0 240 111.5 445.5t314 333.5t450.5 128q203 0 367 -88t261 -252t97 -375q0 -240 -111.5 -445.5t-314 -333.5t-450.5 -128q-203 0 -367 88t-261 252t-97 375zM420 696q0 -227 131 -363t350 -136q156 0 291 85t219 238.5t84 339.5q0 227 -132 363.5t-351 136.5 q-154 0 -289 -85t-219 -238.5t-84 -340.5zM702 1710l340 301h221l228 -301h-226l-123 168l-190 -168h-250z" />
<glyph unicode="&#xd5;" horiz-adv-x="1812" d="M156 682q0 240 111.5 445.5t314 333.5t450.5 128q203 0 367 -88t261 -252t97 -375q0 -240 -111.5 -445.5t-314 -333.5t-450.5 -128q-203 0 -367 88t-261 252t-97 375zM420 696q0 -227 131 -363t350 -136q156 0 291 85t219 238.5t84 339.5q0 227 -132 363.5t-351 136.5 q-154 0 -289 -85t-219 -238.5t-84 -340.5zM737 1708q18 147 82.5 225t169.5 78q57 -2 94 -21.5t64.5 -45t52 -45t57.5 -21.5q39 0 60.5 29.5t33.5 99.5h164q-20 -145 -86 -223t-168 -78q-55 2 -93 21.5t-64.5 45t-51 45t-57.5 19.5q-39 0 -60.5 -29.5t-35.5 -99.5h-162z" />
<glyph unicode="&#xd6;" horiz-adv-x="1812" d="M156 682q0 240 111.5 445.5t314 333.5t450.5 128q203 0 367 -88t261 -252t97 -375q0 -240 -111.5 -445.5t-314 -333.5t-450.5 -128q-203 0 -367 88t-261 252t-97 375zM420 696q0 -227 131 -363t350 -136q156 0 291 85t219 238.5t84 339.5q0 227 -132 363.5t-351 136.5 q-154 0 -289 -85t-219 -238.5t-84 -340.5zM780 1819q0 63 40 104t103 41q53 0 87 -33t34 -86q0 -63 -40 -104t-103 -41q-53 0 -87 32.5t-34 86.5zM1198 1819q0 63 41 104t104 41q53 0 87 -33t34 -86q0 -63 -41 -104t-104 -41q-53 0 -87 32.5t-34 86.5z" />
<glyph unicode="&#xd7;" horiz-adv-x="1269" d="M203 391l334 301l-228 303l160 125l219 -293l322 291l125 -135l-336 -301l229 -303l-160 -125l-221 291l-319 -289z" />
<glyph unicode="&#xd8;" horiz-adv-x="1812" d="M80 96l192 178q-117 172 -116 408q0 240 111.5 445.5t314 333.5t450.5 128q139 0 264 -43t220 -125l194 178l123 -139l-193 -178q117 -176 117 -408q0 -240 -111.5 -445.5t-314 -333.5t-450.5 -128q-139 0 -264 43t-222 125l-192 -178zM420 696q0 -137 47 -241l866 796 q-131 109 -321 109q-154 0 -289 -85t-219 -238.5t-84 -340.5zM580 305q126 -108 321 -108q156 0 291 85t219 238.5t84 339.5q0 135 -49 242z" />
<glyph unicode="&#xd9;" horiz-adv-x="1701" d="M203 510q0 84 22 203l164 843h256l-164 -841q-18 -94 -18 -170q0 -170 90 -259t262 -89q139 0 231.5 53t150.5 162.5t93 285.5l168 858h256l-178 -911q-68 -344 -250 -511t-489 -167q-283 0 -438.5 142.5t-155.5 400.5zM779 1991h276l170 -281h-219z" />
<glyph unicode="&#xda;" horiz-adv-x="1701" d="M203 510q0 84 22 203l164 843h256l-164 -841q-18 -94 -18 -170q0 -170 90 -259t262 -89q139 0 231.5 53t150.5 162.5t93 285.5l168 858h256l-178 -911q-68 -344 -250 -511t-489 -167q-283 0 -438.5 142.5t-155.5 400.5zM877 1710l268 281h305l-340 -281h-233z" />
<glyph unicode="&#xdb;" horiz-adv-x="1701" d="M203 510q0 84 22 203l164 843h256l-164 -841q-18 -94 -18 -170q0 -170 90 -259t262 -89q139 0 231.5 53t150.5 162.5t93 285.5l168 858h256l-178 -911q-68 -344 -250 -511t-489 -167q-283 0 -438.5 142.5t-155.5 400.5zM659 1710l340 301h221l228 -301h-226l-123 168 l-190 -168h-250z" />
<glyph unicode="&#xdc;" horiz-adv-x="1701" d="M203 510q0 84 22 203l164 843h256l-164 -841q-18 -94 -18 -170q0 -170 90 -259t262 -89q139 0 231.5 53t150.5 162.5t93 285.5l168 858h256l-178 -911q-68 -344 -250 -511t-489 -167q-283 0 -438.5 142.5t-155.5 400.5zM737 1819q0 63 40 104t103 41q53 0 87 -33t34 -86 q0 -63 -40 -104t-103 -41q-53 0 -87 32.5t-34 86.5zM1155 1819q0 63 41 104t104 41q53 0 87 -33t34 -86q0 -63 -41 -104t-104 -41q-53 0 -87 32.5t-34 86.5z" />
<glyph unicode="&#xdd;" horiz-adv-x="1443" d="M227 1556h271l280 -694l551 694h289l-746 -905l-127 -651h-256l129 662zM760 1710l268 281h305l-340 -281h-233z" />
<glyph unicode="&#xde;" horiz-adv-x="1306" d="M98 0l303 1556h246l-51 -258h154q250 0 390 -114.5t140 -317.5q0 -172 -75 -301t-218 -198.5t-342 -69.5h-244l-57 -297h-246zM442 506h213q178 0 276.5 90t98.5 254q0 117 -81 178.5t-232 61.5h-162z" />
<glyph unicode="&#xdf;" horiz-adv-x="1353" d="M66 0l219 1126q51 268 196.5 405.5t378.5 137.5q195 0 314.5 -106.5t119.5 -280.5q0 -90 -34.5 -172t-98 -146.5t-149.5 -97.5q106 -35 171.5 -135t65.5 -227q0 -156 -67.5 -277t-192.5 -190.5t-291 -69.5q-82 0 -160.5 20.5t-123.5 53.5l51 190q92 -68 225 -67 q141 0 234.5 96t93.5 242q0 258 -322 258h-51l37 192h70q137 0 225 85t88 216q0 98 -59.5 155.5t-161.5 57.5q-131 0 -213 -91t-117 -277l-213 -1098h-235z" />
<glyph unicode="&#xe0;" horiz-adv-x="1327" d="M98 440q0 162 73 304t202 233q129 90 284 90q115 0 203 -47t141 -139l35 153h226l-201 -1034h-223l20 125q-55 -74 -147 -116q-93 -42 -199 -42q-186 0 -300 130t-114 343zM336 459q0 -131 70 -206q69 -75 190 -75q90 0 169 51t128 143q49 91 49 203q0 131 -70 206 t-190 75q-92 0 -171 -51t-127 -142t-48 -204zM539 1587h250l149 -338h-197z" />
<glyph unicode="&#xe1;" horiz-adv-x="1327" d="M98 440q0 162 73 304t202 233q129 90 284 90q115 0 203 -47t141 -139l35 153h226l-201 -1034h-223l20 125q-55 -74 -147 -116q-93 -42 -199 -42q-186 0 -300 130t-114 343zM336 459q0 -131 70 -206q69 -75 190 -75q90 0 169 51t128 143q49 91 49 203q0 131 -70 206 t-190 75q-92 0 -171 -51t-127 -142t-48 -204zM635 1249l271 338h278l-334 -338h-215z" />
<glyph unicode="&#xe2;" horiz-adv-x="1327" d="M98 440q0 162 73 304t202 233q129 90 284 90q115 0 203 -47t141 -139l35 153h226l-201 -1034h-223l20 125q-55 -74 -147 -116q-93 -42 -199 -42q-186 0 -300 130t-114 343zM336 459q0 -131 70 -206q69 -75 190 -75q90 0 169 51t128 143q49 91 49 203q0 131 -70 206 t-190 75q-92 0 -171 -51t-127 -142t-48 -204zM423 1249l347 338h196l213 -338h-201l-126 201l-203 -201h-226z" />
<glyph unicode="&#xe3;" horiz-adv-x="1327" d="M98 440q0 162 73 304t202 233q129 90 284 90q115 0 203 -47t141 -139l35 153h226l-201 -1034h-223l20 125q-55 -74 -147 -116q-93 -42 -199 -42q-186 0 -300 130t-114 343zM336 459q0 -131 70 -206q69 -75 190 -75q90 0 169 51t128 143q49 91 49 203q0 131 -70 206 t-190 75q-92 0 -171 -51t-127 -142t-48 -204zM447 1266q18 145 82.5 222t169.5 77q57 0 94 -19.5t64.5 -45t52 -45t57.5 -21.5q39 0 60.5 29.5t33.5 99.5h164q-18 -145 -83 -222t-169 -77q-57 2 -94 21.5t-64.5 45t-52 45t-57.5 19.5q-39 0 -60.5 -30t-33.5 -99h-164z" />
<glyph unicode="&#xe4;" horiz-adv-x="1327" d="M98 440q0 162 73 304t202 233q129 90 284 90q115 0 203 -47t141 -139l35 153h226l-201 -1034h-223l20 125q-55 -74 -147 -116q-93 -42 -199 -42q-186 0 -300 130t-114 343zM336 459q0 -131 70 -206q69 -75 190 -75q90 0 169 51t128 143q49 91 49 203q0 131 -70 206 t-190 75q-92 0 -171 -51t-127 -142t-48 -204zM493 1401q0 61 41 102t102 41q53 0 87 -32.5t34 -86.5q0 -61 -41 -102t-102 -41q-53 0 -87 33t-34 86zM909 1401q0 61 41 102t102 41q53 0 86 -32.5t33 -86.5q0 -61 -40 -102t-101 -41q-53 0 -87 33t-34 86z" />
<glyph unicode="&#xe5;" horiz-adv-x="1327" d="M98 440q0 162 73 304t202 233q129 90 284 90q115 0 203 -47t141 -139l35 153h226l-201 -1034h-223l20 125q-55 -74 -147 -116q-93 -42 -199 -42q-186 0 -300 130t-114 343zM336 459q0 -131 70 -206q69 -75 190 -75q90 0 169 51t128 143q49 91 49 203q0 131 -70 206 t-190 75q-92 0 -171 -51t-127 -142t-48 -204zM548 1458q0 113 79 188.5t200 75.5t199.5 -75.5t78.5 -188.5t-78.5 -188.5t-199.5 -75.5t-200 76t-79 188zM696 1458q0 -57 37 -94t94 -37q59 0 94 36t35 95t-35 95t-94 36t-95 -35.5t-36 -95.5z" />
<glyph unicode="&#xe6;" horiz-adv-x="2041" d="M98 440q0 162 73 304.5t202 232.5t284 90q115 0 203 -47t141 -139l35 153h185l-21 -108q59 68 144.5 104.5t179.5 36.5q119 0 213 -51t147 -145.5t53 -219.5q0 -102 -28 -213h-760q4 -141 91 -209.5t263 -68.5q156 0 307 73l2 -190q-59 -33 -155 -54.5t-193 -21.5 q-150 0 -255 45t-160 133l-29 -145h-182l20 125q-55 -74 -147.5 -116t-198.5 -42q-186 0 -300 130t-114 343zM336 459q0 -131 69.5 -206t190.5 -75q90 0 169 51.5t128 142.5t49 203q0 131 -69.5 206t-190.5 75q-92 0 -171 -51t-127 -142.5t-48 -203.5zM1169 616h545 q2 10 2 41q0 106 -58.5 166t-164.5 60q-113 0 -201 -73t-123 -194z" />
<glyph unicode="&#xe7;" horiz-adv-x="1103" d="M100 453q0 164 77 302t217.5 222t312.5 84q94 0 184 -24.5t153 -67.5l-47 -203q-55 39 -133 62.5t-149 23.5q-104 0 -190.5 -48t-137.5 -135t-51 -198q0 -137 86 -213t242 -76q57 0 124.5 17.5t120.5 46.5v-205q-45 -29 -130 -48.5t-163 -19.5q-242 0 -379 128t-137 352z M213 -483l39 135q31 -16 71.5 -26.5t77.5 -10.5q63 0 96 22.5t33 63.5q0 66 -104 66q-49 0 -82 -9l110 262h154l-59 -139q162 -29 161 -182q0 -106 -81 -167.5t-218 -61.5q-57 0 -111.5 13t-86.5 34z" />
<glyph unicode="&#xe8;" horiz-adv-x="1218" d="M100 444q0 168 74 309.5t208 227.5t302 86q195 0 312.5 -113.5t117.5 -302.5q0 -102 -29 -213h-759q4 -141 91 -209.5t263 -68.5q156 0 307 73l2 -190q-59 -33 -155.5 -54.5t-192.5 -21.5q-254 0 -397.5 126t-143.5 351zM346 616h545q2 10 2 41q0 106 -58.5 166 t-164.5 60q-113 0 -201 -73t-123 -194zM459 1587h250l149 -338h-197z" />
<glyph unicode="&#xe9;" horiz-adv-x="1218" d="M100 444q0 168 74 309.5t208 227.5t302 86q195 0 312.5 -113.5t117.5 -302.5q0 -102 -29 -213h-759q4 -141 91 -209.5t263 -68.5q156 0 307 73l2 -190q-59 -33 -155.5 -54.5t-192.5 -21.5q-254 0 -397.5 126t-143.5 351zM346 616h545q2 10 2 41q0 106 -58.5 166 t-164.5 60q-113 0 -201 -73t-123 -194zM555 1249l271 338h278l-334 -338h-215z" />
<glyph unicode="&#xea;" horiz-adv-x="1218" d="M100 444q0 168 74 309.5t208 227.5t302 86q195 0 312.5 -113.5t117.5 -302.5q0 -102 -29 -213h-759q4 -141 91 -209.5t263 -68.5q156 0 307 73l2 -190q-59 -33 -155.5 -54.5t-192.5 -21.5q-254 0 -397.5 126t-143.5 351zM344 1249l347 338h196l213 -338h-201l-126 201 l-203 -201h-226zM346 616h545q2 10 2 41q0 106 -58.5 166t-164.5 60q-113 0 -201 -73t-123 -194z" />
<glyph unicode="&#xeb;" horiz-adv-x="1218" d="M100 444q0 168 74 309.5t208 227.5t302 86q195 0 312.5 -113.5t117.5 -302.5q0 -102 -29 -213h-759q4 -141 91 -209.5t263 -68.5q156 0 307 73l2 -190q-59 -33 -155.5 -54.5t-192.5 -21.5q-254 0 -397.5 126t-143.5 351zM346 616h545q2 10 2 41q0 106 -58.5 166 t-164.5 60q-113 0 -201 -73t-123 -194zM414 1401q0 61 41 102t102 41q53 0 87 -32.5t34 -86.5q0 -61 -41 -102t-102 -41q-53 0 -87 33t-34 86zM830 1401q0 61 41 102t102 41q53 0 86 -32.5t33 -86.5q0 -61 -40 -102t-101 -41q-53 0 -87 33t-34 86z" />
<glyph unicode="&#xec;" horiz-adv-x="567" d="M66 0l200 1034h236l-201 -1034h-235zM152 1587h250l149 -338h-197z" />
<glyph unicode="&#xed;" horiz-adv-x="567" d="M66 0l200 1034h236l-201 -1034h-235zM247 1249l271 338h278l-334 -338h-215z" />
<glyph unicode="&#xee;" horiz-adv-x="567" d="M36 1249l347 338h196l213 -338h-201l-126 201l-203 -201h-226zM66 0l200 1034h236l-201 -1034h-235z" />
<glyph unicode="&#xef;" horiz-adv-x="567" d="M66 0l200 1034h236l-201 -1034h-235zM106 1401q0 61 41 102t102 41q53 0 87 -32.5t34 -86.5q0 -61 -41 -102t-102 -41q-53 0 -87 33t-34 86zM522 1401q0 61 41 102t102 41q53 0 86 -32.5t33 -86.5q0 -61 -40 -102t-101 -41q-53 0 -87 33t-34 86z" />
<glyph unicode="&#xf0;" horiz-adv-x="1310" d="M100 442q0 158 71 297.5t197 228.5t277 89q94 0 170 -32t119 -89q-41 188 -143 360l-322 -131l-61 154l288 117q-88 111 -190 200l266 21q61 -55 135 -150l242 101l61 -154l-209 -86q90 -154 138.5 -330t48.5 -348q0 -207 -74 -370.5t-210 -258t-316 -94.5 q-223 0 -355.5 128t-132.5 347zM336 457q0 -131 70.5 -206t191.5 -75q92 0 170 50t127 141.5t49 203.5q0 131 -70.5 206t-191.5 75q-92 0 -170 -50t-127 -141.5t-49 -203.5z" />
<glyph unicode="&#xf1;" horiz-adv-x="1249" d="M66 0l200 1034h226l-23 -125q51 72 138 115t186 43q150 0 238.5 -90t88.5 -244q0 -55 -12 -115l-119 -618h-235l112 586q10 51 11 92q0 180 -179 180q-106 0 -184 -80t-104 -217l-109 -561h-235zM412 1266q18 145 82.5 222t169.5 77q57 0 94 -19.5t64.5 -45t52 -45 t57.5 -21.5q39 0 60.5 29.5t33.5 99.5h164q-18 -145 -83 -222t-169 -77q-57 2 -94 21.5t-64.5 45t-52 45t-57.5 19.5q-39 0 -60.5 -30t-33.5 -99h-164z" />
<glyph unicode="&#xf2;" horiz-adv-x="1273" d="M98 442q0 164 76 306.5t214 230.5t308 88q135 0 244 -58.5t172.5 -167t63.5 -249.5q0 -164 -77 -306.5t-215.5 -230.5t-308.5 -88q-135 0 -242.5 58.5t-171 167t-63.5 249.5zM334 459q0 -131 69.5 -206t190.5 -75q90 0 169 51.5t128 142.5t49 203q0 131 -69.5 206 t-190.5 75q-92 0 -171 -51t-127 -142.5t-48 -203.5zM500 1587h250l149 -338h-197z" />
<glyph unicode="&#xf3;" horiz-adv-x="1273" d="M98 442q0 164 76 306.5t214 230.5t308 88q135 0 244 -58.5t172.5 -167t63.5 -249.5q0 -164 -77 -306.5t-215.5 -230.5t-308.5 -88q-135 0 -242.5 58.5t-171 167t-63.5 249.5zM334 459q0 -131 69.5 -206t190.5 -75q90 0 169 51.5t128 142.5t49 203q0 131 -69.5 206 t-190.5 75q-92 0 -171 -51t-127 -142.5t-48 -203.5zM596 1249l271 338h278l-334 -338h-215z" />
<glyph unicode="&#xf4;" horiz-adv-x="1273" d="M98 442q0 164 76 306.5t214 230.5t308 88q135 0 244 -58.5t172.5 -167t63.5 -249.5q0 -164 -77 -306.5t-215.5 -230.5t-308.5 -88q-135 0 -242.5 58.5t-171 167t-63.5 249.5zM334 459q0 -131 69.5 -206t190.5 -75q90 0 169 51.5t128 142.5t49 203q0 131 -69.5 206 t-190.5 75q-92 0 -171 -51t-127 -142.5t-48 -203.5zM385 1249l347 338h196l213 -338h-201l-126 201l-203 -201h-226z" />
<glyph unicode="&#xf5;" horiz-adv-x="1273" d="M98 442q0 164 76 306.5t214 230.5t308 88q135 0 244 -58.5t172.5 -167t63.5 -249.5q0 -164 -77 -306.5t-215.5 -230.5t-308.5 -88q-135 0 -242.5 58.5t-171 167t-63.5 249.5zM334 459q0 -131 69.5 -206t190.5 -75q90 0 169 51.5t128 142.5t49 203q0 131 -69.5 206 t-190.5 75q-92 0 -171 -51t-127 -142.5t-48 -203.5zM408 1266q18 145 82.5 222t169.5 77q57 0 94 -19.5t64.5 -45t52 -45t57.5 -21.5q39 0 60.5 29.5t33.5 99.5h164q-18 -145 -83 -222t-169 -77q-57 2 -94 21.5t-64.5 45t-52 45t-57.5 19.5q-39 0 -60.5 -30t-33.5 -99h-164z " />
<glyph unicode="&#xf6;" horiz-adv-x="1273" d="M98 442q0 164 76 306.5t214 230.5t308 88q135 0 244 -58.5t172.5 -167t63.5 -249.5q0 -164 -77 -306.5t-215.5 -230.5t-308.5 -88q-135 0 -242.5 58.5t-171 167t-63.5 249.5zM334 459q0 -131 69.5 -206t190.5 -75q90 0 169 51.5t128 142.5t49 203q0 131 -69.5 206 t-190.5 75q-92 0 -171 -51t-127 -142.5t-48 -203.5zM455 1401q0 61 41 102t102 41q53 0 87 -32.5t34 -86.5q0 -61 -41 -102t-102 -41q-53 0 -87 33t-34 86zM871 1401q0 61 41 102t102 41q53 0 86 -32.5t33 -86.5q0 -61 -40 -102t-101 -41q-53 0 -87 33t-34 86z" />
<glyph unicode="&#xf7;" horiz-adv-x="1269" d="M190 586l37 198h920l-39 -198h-918zM455 289q0 61 43 103t106 42q55 0 92 -33.5t37 -87.5q0 -61 -42.5 -103t-108.5 -42q-55 0 -91 34t-36 87zM602 1057q0 61 43 103t107 42q57 0 93 -33.5t36 -87.5q0 -61 -43 -103t-109 -42q-55 0 -91 34t-36 87z" />
<glyph unicode="&#xf8;" horiz-adv-x="1273" d="M37 70l127 118q-66 109 -66 254q0 164 76 306.5t214 230.5t308 88q174 0 301 -96l123 116l117 -122l-127 -119q66 -115 66 -254q0 -164 -77 -306.5t-215.5 -230.5t-308.5 -88q-178 0 -301 94l-120 -114zM334 459q0 -55 12 -99l483 455q-63 41 -149 41q-92 0 -171 -51 t-127 -142.5t-48 -203.5zM442 219q64 -41 152 -41q90 0 169 51.5t128 142.5t49 203q0 53 -12 99z" />
<glyph unicode="&#xf9;" horiz-adv-x="1232" d="M115 287q0 49 14 123l121 624h235l-116 -600q-8 -33 -9 -90q0 -82 43 -125t125 -43q111 0 189 79t106 218l109 561h235l-200 -1034h-226l21 125q-53 -78 -139 -118t-197 -40q-143 0 -227 86t-84 234zM465 1587h250l149 -338h-197z" />
<glyph unicode="&#xfa;" horiz-adv-x="1232" d="M115 287q0 49 14 123l121 624h235l-116 -600q-8 -33 -9 -90q0 -82 43 -125t125 -43q111 0 189 79t106 218l109 561h235l-200 -1034h-226l21 125q-53 -78 -139 -118t-197 -40q-143 0 -227 86t-84 234zM561 1249l271 338h278l-334 -338h-215z" />
<glyph unicode="&#xfb;" horiz-adv-x="1232" d="M115 287q0 49 14 123l121 624h235l-116 -600q-8 -33 -9 -90q0 -82 43 -125t125 -43q111 0 189 79t106 218l109 561h235l-200 -1034h-226l21 125q-53 -78 -139 -118t-197 -40q-143 0 -227 86t-84 234zM350 1249l347 338h196l213 -338h-201l-126 201l-203 -201h-226z" />
<glyph unicode="&#xfc;" horiz-adv-x="1232" d="M115 287q0 49 14 123l121 624h235l-116 -600q-8 -33 -9 -90q0 -82 43 -125t125 -43q111 0 189 79t106 218l109 561h235l-200 -1034h-226l21 125q-53 -78 -139 -118t-197 -40q-143 0 -227 86t-84 234zM420 1401q0 61 41 102t102 41q53 0 87 -32.5t34 -86.5q0 -61 -41 -102 t-102 -41q-53 0 -87 33t-34 86zM836 1401q0 61 41 102t102 41q53 0 86 -32.5t33 -86.5q0 -61 -40 -102t-101 -41q-53 0 -87 33t-34 86z" />
<glyph unicode="&#xfd;" horiz-adv-x="1155" d="M-12 -502l385 604l-236 932h242l156 -712l426 712h258l-981 -1536h-250zM536 1249l271 338h278l-334 -338h-215z" />
<glyph unicode="&#xfe;" horiz-adv-x="1327" d="M-33 -502l420 2161h236l-146 -739q57 70 147.5 108.5t190.5 38.5q186 0 300 -130t114 -343q0 -162 -73 -304.5t-202 -232.5t-284 -90q-115 0 -202 46t-140 137l-125 -652h-236zM385 459q0 -131 69.5 -206t190.5 -75q92 0 171 51.5t127 142.5t48 203q0 131 -69.5 206 t-190.5 75q-90 0 -169 -51t-128 -142.5t-49 -203.5z" />
<glyph unicode="&#xff;" horiz-adv-x="1155" d="M-12 -502l385 604l-236 932h242l156 -712l426 712h258l-981 -1536h-250zM395 1401q0 61 41 102t102 41q53 0 87 -32.5t34 -86.5q0 -61 -41 -102t-102 -41q-53 0 -87 33t-34 86zM811 1401q0 61 41 102t102 41q53 0 86 -32.5t33 -86.5q0 -61 -40 -102t-101 -41 q-53 0 -87 33t-34 86z" />
<glyph unicode="&#x100;" horiz-adv-x="1585" d="M-51 0l911 1556h266l310 -1556h-262l-76 436h-637l-244 -436h-268zM573 639h490l-115 668zM694 1741l33 180h643l-33 -180h-643z" />
<glyph unicode="&#x101;" horiz-adv-x="1327" d="M98 440q0 162 73 304t202 233q129 90 284 90q115 0 203 -47t141 -139l35 153h226l-201 -1034h-223l20 125q-55 -74 -147 -116q-93 -42 -199 -42q-186 0 -300 130t-114 343zM336 459q0 -131 70 -206q69 -75 190 -75q90 0 169 51t128 143q49 91 49 203q0 131 -70 206 t-190 75q-92 0 -171 -51t-127 -142t-48 -204zM496 1309l33 178h639l-33 -178h-639z" />
<glyph unicode="&#x102;" horiz-adv-x="1585" d="M-51 0l911 1556h266l310 -1556h-262l-76 436h-637l-244 -436h-268zM573 639h490l-115 668zM715 1923q0 29 10 80h172q-4 -25 -4 -45q0 -57 35.5 -87t105.5 -30q80 0 129 42t64 120h176q-14 -156 -113.5 -238t-267.5 -82q-139 0 -223 66t-84 174z" />
<glyph unicode="&#x103;" horiz-adv-x="1327" d="M98 440q0 162 73 304t202 233q129 90 284 90q115 0 203 -47t141 -139l35 153h226l-201 -1034h-223l20 125q-55 -74 -147 -116q-93 -42 -199 -42q-186 0 -300 130t-114 343zM336 459q0 -131 70 -206q69 -75 190 -75q90 0 169 51t128 143q49 91 49 203q0 131 -70 206 t-190 75q-92 0 -171 -51t-127 -142t-48 -204zM518 1462q0 47 14 88h160q-4 -37 -4 -53q0 -125 137 -125q80 0 126 43t62 135h170q-14 -160 -108 -245.5t-256 -85.5q-139 0 -220 65.5t-81 177.5z" />
<glyph unicode="&#x104;" horiz-adv-x="1585" d="M-51 0l911 1556h266l310 -1556h-262l-76 436h-637l-244 -436h-268zM573 639h490l-115 668zM985 -334q0 109 101.5 214.5t277.5 180.5l72 -61q-117 -82 -179.5 -154.5t-62.5 -128.5q0 -59 74 -59q53 0 106 27l-4 -172q-64 -37 -160 -37q-106 0 -165.5 50t-59.5 140z" />
<glyph unicode="&#x105;" horiz-adv-x="1327" d="M98 440q0 162 73 304t202 233q129 90 284 90q115 0 203 -47t141 -139l35 153h226l-201 -1034h-223l20 125q-55 -74 -147 -116q-93 -42 -199 -42q-186 0 -300 130t-114 343zM336 459q0 -131 70 -206q69 -75 190 -75q90 0 169 51t128 143q49 91 49 203q0 131 -70 206 t-190 75q-92 0 -171 -51t-127 -142t-48 -204zM629 -336q0 68 44 144.5t126 147.5t182 116l80 -72q-111 -76 -170.5 -149.5t-59.5 -135.5q0 -59 70 -59q49 0 109 27l-4 -170q-25 -16 -70 -26.5t-92 -10.5q-102 0 -158.5 50t-56.5 138z" />
<glyph unicode="&#x106;" horiz-adv-x="1568" d="M160 700q0 236 111.5 435.5t315.5 321.5t457 122q137 0 272.5 -38t231.5 -101l-59 -217q-217 127 -455 127q-162 0 -301 -81t-225 -227.5t-86 -326.5q0 -147 62.5 -262t179 -180.5t272.5 -65.5q219 0 422 110l2 -231q-199 -109 -457 -109q-217 0 -385 88.5t-263 252 t-95 382.5zM893 1710l268 281h305l-340 -281h-233z" />
<glyph unicode="&#x107;" horiz-adv-x="1103" d="M100 453q0 164 77 302t217.5 222t312.5 84q94 0 184 -24.5t153 -67.5l-47 -203q-55 39 -133 62.5t-149 23.5q-104 0 -190.5 -48t-137.5 -135t-51 -198q0 -137 86 -213t242 -76q57 0 124.5 17.5t120.5 46.5v-205q-45 -29 -130 -48.5t-163 -19.5q-242 0 -379 128t-137 352z M575 1249l271 338h278l-334 -338h-215z" />
<glyph unicode="&#x10a;" horiz-adv-x="1568" d="M160 700q0 236 111.5 435.5t315.5 321.5t457 122q137 0 272.5 -38t231.5 -101l-59 -217q-217 127 -455 127q-162 0 -301 -81t-225 -227.5t-86 -326.5q0 -147 62.5 -262t179 -180.5t272.5 -65.5q219 0 422 110l2 -231q-199 -109 -457 -109q-217 0 -385 88.5t-263 252 t-95 382.5zM951 1831q0 68 45 112t114 44q59 0 95 -36t36 -96q0 -70 -44.5 -113.5t-114.5 -43.5q-57 0 -94 37t-37 96z" />
<glyph unicode="&#x10b;" horiz-adv-x="1103" d="M100 453q0 164 77 302t217.5 222t312.5 84q94 0 184 -24.5t153 -67.5l-47 -203q-55 39 -133 62.5t-149 23.5q-104 0 -190.5 -48t-137.5 -135t-51 -198q0 -137 86 -213t242 -76q57 0 124.5 17.5t120.5 46.5v-205q-45 -29 -130 -48.5t-163 -19.5q-242 0 -379 128t-137 352z M608 1403q0 66 44 109.5t111 43.5q59 0 94 -34.5t35 -94.5q0 -66 -43.5 -109.5t-111.5 -43.5q-57 0 -93 36t-36 93z" />
<glyph unicode="&#x10c;" horiz-adv-x="1568" d="M160 700q0 236 111.5 435.5t315.5 321.5t457 122q137 0 272.5 -38t231.5 -101l-59 -217q-217 127 -455 127q-162 0 -301 -81t-225 -227.5t-86 -326.5q0 -147 62.5 -262t179 -180.5t272.5 -65.5q219 0 422 110l2 -231q-199 -109 -457 -109q-217 0 -385 88.5t-263 252 t-95 382.5zM727 2011h225l125 -172l190 172h248l-340 -301h-221z" />
<glyph unicode="&#x10d;" horiz-adv-x="1103" d="M100 453q0 164 77 302t217.5 222t312.5 84q94 0 184 -24.5t153 -67.5l-47 -203q-55 39 -133 62.5t-149 23.5q-104 0 -190.5 -48t-137.5 -135t-51 -198q0 -137 86 -213t242 -76q57 0 124.5 17.5t120.5 46.5v-205q-45 -29 -130 -48.5t-163 -19.5q-242 0 -379 128t-137 352z M430 1587h200l127 -201l203 201h225l-344 -338h-198z" />
<glyph unicode="&#x10e;" horiz-adv-x="1714" d="M98 0l303 1556h514q231 0 398.5 -78.5t257.5 -229t90 -363.5q0 -256 -117 -456t-335 -314.5t-509 -114.5h-602zM397 211h318q199 0 353.5 80t241.5 230.5t87 350.5q0 227 -131 350.5t-375 123.5h-275zM689 2011h225l125 -172l190 172h248l-340 -301h-221z" />
<glyph unicode="&#x10f;" horiz-adv-x="1327" d="M98 440q0 162 73 304.5t202 232.5t284 90q231 0 340 -180l150 772h235l-321 -1659h-223l20 125q-55 -74 -147.5 -116t-198.5 -42q-186 0 -300 130t-114 343zM336 459q0 -131 69.5 -206t190.5 -75q90 0 169 51.5t128 142.5t49 203q0 131 -69.5 206t-190.5 75 q-92 0 -171 -51t-127 -142.5t-48 -203.5zM1413 1178l119 481h233l-192 -481h-160z" />
<glyph unicode="&#x110;" horiz-adv-x="1757" d="M76 692l35 185h200l133 679h514q231 0 398.5 -78.5t257.5 -229t90 -363.5q0 -256 -117 -456t-335 -314.5t-509 -114.5h-602l135 692h-200zM440 211h318q199 0 353.5 80t241.5 230.5t87 350.5q0 227 -131 350.5t-375 123.5h-275l-90 -469h330l-35 -185h-332z" />
<glyph unicode="&#x111;" horiz-adv-x="1327" d="M98 440q0 162 73 304.5t202 232.5t284 90q231 0 340 -180l70 364h-328l33 168h328l47 240h235l-47 -240h154l-33 -168h-153l-242 -1251h-223l20 125q-55 -74 -147.5 -116t-198.5 -42q-186 0 -300 130t-114 343zM336 459q0 -131 69.5 -206t190.5 -75q90 0 169 51.5 t128 142.5t49 203q0 131 -69.5 206t-190.5 75q-92 0 -171 -51t-127 -142.5t-48 -203.5z" />
<glyph unicode="&#x112;" horiz-adv-x="1353" d="M98 0l303 1556h957l-43 -215h-711l-86 -440h629l-41 -215h-629l-92 -471h768l-41 -215h-1014zM604 1741l33 180h643l-33 -180h-643z" />
<glyph unicode="&#x113;" horiz-adv-x="1218" d="M100 444q0 168 74 309.5t208 227.5t302 86q195 0 312.5 -113.5t117.5 -302.5q0 -102 -29 -213h-759q4 -141 91 -209.5t263 -68.5q156 0 307 73l2 -190q-59 -33 -155.5 -54.5t-192.5 -21.5q-254 0 -397.5 126t-143.5 351zM346 616h545q2 10 2 41q0 106 -58.5 166 t-164.5 60q-113 0 -201 -73t-123 -194zM416 1309l33 178h639l-33 -178h-639z" />
<glyph unicode="&#x116;" horiz-adv-x="1353" d="M98 0l303 1556h957l-43 -215h-711l-86 -440h629l-41 -215h-629l-92 -471h768l-41 -215h-1014zM799 1831q0 68 45 112t114 44q59 0 95 -36t36 -96q0 -70 -44.5 -113.5t-114.5 -43.5q-57 0 -94 37t-37 96z" />
<glyph unicode="&#x117;" horiz-adv-x="1218" d="M100 444q0 168 74 309.5t208 227.5t302 86q195 0 312.5 -113.5t117.5 -302.5q0 -102 -29 -213h-759q4 -141 91 -209.5t263 -68.5q156 0 307 73l2 -190q-59 -33 -155.5 -54.5t-192.5 -21.5q-254 0 -397.5 126t-143.5 351zM346 616h545q2 10 2 41q0 106 -58.5 166 t-164.5 60q-113 0 -201 -73t-123 -194zM588 1403q0 66 44 109.5t111 43.5q59 0 94 -34.5t35 -94.5q0 -66 -43.5 -109.5t-111.5 -43.5q-57 0 -93 36t-36 93z" />
<glyph unicode="&#x118;" horiz-adv-x="1353" d="M98 0l303 1556h957l-43 -215h-711l-86 -440h629l-41 -215h-629l-92 -471h768l-41 -215h-1014zM661 -334q0 109 101.5 214.5t277.5 180.5l72 -61q-117 -82 -179.5 -154.5t-62.5 -128.5q0 -59 74 -59q53 0 106 27l-4 -172q-64 -37 -160 -37q-106 0 -165.5 50t-59.5 140z " />
<glyph unicode="&#x119;" horiz-adv-x="1218" d="M100 444q0 168 74 309.5t208 227.5t302 86q195 0 312.5 -113.5t117.5 -302.5q0 -102 -29 -213h-759q4 -141 91 -209.5t263 -68.5q156 0 307 73l2 -190q-59 -33 -155.5 -54.5t-192.5 -21.5q-254 0 -397.5 126t-143.5 351zM346 616h545q2 10 2 41q0 106 -58.5 166 t-164.5 60q-113 0 -201 -73t-123 -194zM455 -342q0 119 111.5 227.5t295.5 167.5l119 -14q-156 -84 -240 -167t-84 -153q0 -63 76 -63q59 0 107 25l-2 -168q-62 -37 -160 -37q-104 0 -163.5 49t-59.5 133z" />
<glyph unicode="&#x11a;" horiz-adv-x="1353" d="M98 0l303 1556h957l-43 -215h-711l-86 -440h629l-41 -215h-629l-92 -471h768l-41 -215h-1014zM576 2011h225l125 -172l190 172h248l-340 -301h-221z" />
<glyph unicode="&#x11b;" horiz-adv-x="1218" d="M100 444q0 168 74 309.5t208 227.5t302 86q195 0 312.5 -113.5t117.5 -302.5q0 -102 -29 -213h-759q4 -141 91 -209.5t263 -68.5q156 0 307 73l2 -190q-59 -33 -155.5 -54.5t-192.5 -21.5q-254 0 -397.5 126t-143.5 351zM346 616h545q2 10 2 41q0 106 -58.5 166 t-164.5 60q-113 0 -201 -73t-123 -194zM410 1587h200l127 -201l203 201h225l-344 -338h-198z" />
<glyph unicode="&#x11e;" horiz-adv-x="1671" d="M160 692q0 246 112.5 446.5t321.5 320.5t475 120q147 0 292.5 -39t250.5 -106l-60 -220q-104 63 -234 99.5t-255 36.5q-180 0 -324.5 -79t-229.5 -224.5t-85 -333.5q0 -152 62.5 -266.5t182 -179t281.5 -64.5q137 0 256 41l78 391h-303l43 213h561l-149 -758 q-104 -53 -236.5 -83t-265.5 -30q-229 0 -403.5 85t-272.5 247t-98 383zM785 1923q0 29 10 80h172q-4 -25 -4 -45q0 -57 35.5 -87t105.5 -30q80 0 129 42t64 120h176q-14 -156 -113.5 -238t-267.5 -82q-139 0 -223 66t-84 174z" />
<glyph unicode="&#x11f;" horiz-adv-x="1327" d="M49 -406l51 203q158 -109 349 -108q166 0 258 90t135 293l8 45q-55 -70 -145 -110t-193 -40q-186 0 -300 130t-114 343q0 162 73 304t202 233q129 90 284 90q115 0 203 -47t141 -139l35 153h226l-185 -952q-61 -315 -209 -459q-147 -143 -409 -143q-119 0 -229 31 t-181 83zM336 459q0 -131 70 -206q69 -75 190 -75q90 0 169 51t128 143q49 91 49 203q0 131 -70 206t-190 75q-92 0 -171 -51t-127 -142t-48 -204zM518 1462q0 47 14 88h160q-4 -37 -4 -53q0 -125 137 -125q80 0 126 43t62 135h170q-14 -160 -108 -245.5t-256 -85.5 q-139 0 -220 65.5t-81 177.5z" />
<glyph unicode="&#x120;" horiz-adv-x="1671" d="M160 692q0 246 112.5 446.5t321.5 320.5t475 120q147 0 292.5 -39t250.5 -106l-60 -220q-104 63 -234 99.5t-255 36.5q-180 0 -324.5 -79t-229.5 -224.5t-85 -333.5q0 -152 62.5 -266.5t182 -179t281.5 -64.5q137 0 256 41l78 391h-303l43 213h561l-149 -758 q-104 -53 -236.5 -83t-265.5 -30q-229 0 -403.5 85t-272.5 247t-98 383zM959 1831q0 68 45 112t114 44q59 0 95 -36t36 -96q0 -70 -44.5 -113.5t-114.5 -43.5q-57 0 -94 37t-37 96z" />
<glyph unicode="&#x121;" horiz-adv-x="1327" d="M49 -406l51 203q158 -109 349 -108q166 0 258 90t135 293l8 45q-55 -70 -145 -110t-193 -40q-186 0 -300 130t-114 343q0 162 73 304t202 233q129 90 284 90q115 0 203 -47t141 -139l35 153h226l-185 -952q-61 -315 -209 -459q-147 -143 -409 -143q-119 0 -229 31 t-181 83zM336 459q0 -131 70 -206q69 -75 190 -75q90 0 169 51t128 143q49 91 49 203q0 131 -70 206t-190 75q-92 0 -171 -51t-127 -142t-48 -204zM668 1403q0 66 44 109.5t111 43.5q59 0 94 -34.5t35 -94.5q0 -66 -43.5 -109.5t-111.5 -43.5q-57 0 -93 36t-36 93z" />
<glyph unicode="&#x122;" horiz-adv-x="1671" d="M160 692q0 246 112.5 446.5t321.5 320.5t475 120q147 0 292.5 -39t250.5 -106l-60 -220q-104 63 -234 99.5t-255 36.5q-180 0 -324.5 -79t-229.5 -224.5t-85 -333.5q0 -152 62.5 -266.5t182 -179t281.5 -64.5q137 0 256 41l78 391h-303l43 213h561l-149 -758 q-104 -53 -236.5 -83t-265.5 -30q-229 0 -403.5 85t-272.5 247t-98 383zM535 -504q137 180 160 373h233q-16 -104 -72.5 -206.5t-134.5 -166.5h-186z" />
<glyph unicode="&#x123;" horiz-adv-x="1327" d="M49 -406l51 203q158 -109 349 -108q166 0 258 90t135 293l8 45q-55 -70 -145 -110t-193 -40q-186 0 -300 130t-114 343q0 162 73 304t202 233q129 90 284 90q115 0 203 -47t141 -139l35 153h226l-185 -952q-61 -315 -209 -459q-147 -143 -409 -143q-119 0 -229 31 t-181 83zM336 459q0 -131 70 -206q69 -75 190 -75q90 0 169 51t128 143q49 91 49 203q0 131 -70 206t-190 75q-92 0 -171 -51t-127 -142t-48 -204zM676 1249q10 90 66.5 189.5t128.5 156.5h174q-57 -72 -95 -165t-46 -181h-228z" />
<glyph unicode="&#x126;" horiz-adv-x="1775" d="M129 0l219 1124h-201l37 185h199l49 247h256l-49 -247h807l49 247h256l-49 -247h196l-36 -185h-195l-219 -1124h-256l135 698h-807l-135 -698h-256zM563 913h807l41 211h-807z" />
<glyph unicode="&#x127;" horiz-adv-x="1249" d="M66 0l241 1251h-170l33 168h170l47 240h236l-48 -240h312l-33 -168h-311l-64 -329q51 68 135 106.5t179 38.5q150 0 238.5 -90t88.5 -244q0 -55 -12 -115l-119 -618h-235l112 586q10 51 11 92q0 180 -179 180q-106 0 -184 -80t-104 -217l-109 -561h-235z" />
<glyph unicode="&#x128;" horiz-adv-x="653" d="M98 0l303 1556h256l-303 -1556h-256zM186 1708q18 147 82.5 225t169.5 78q57 -2 94 -21.5t64.5 -45t52 -45t57.5 -21.5q39 0 60.5 29.5t33.5 99.5h164q-20 -145 -86 -223t-168 -78q-55 2 -93 21.5t-64.5 45t-51 45t-57.5 19.5q-39 0 -60.5 -29.5t-35.5 -99.5h-162z" />
<glyph unicode="&#x129;" horiz-adv-x="567" d="M59 1266q18 145 82.5 222t169.5 77q57 0 94 -19.5t64.5 -45t52 -45t57.5 -21.5q39 0 60.5 29.5t33.5 99.5h164q-18 -145 -83 -222t-169 -77q-57 2 -94 21.5t-64.5 45t-52 45t-57.5 19.5q-39 0 -60.5 -30t-33.5 -99h-164zM66 0l200 1034h236l-201 -1034h-235z" />
<glyph unicode="&#x12a;" horiz-adv-x="653" d="M98 0l303 1556h256l-303 -1556h-256zM231 1741l33 180h643l-33 -180h-643z" />
<glyph unicode="&#x12b;" horiz-adv-x="567" d="M66 0l200 1034h236l-201 -1034h-235zM108 1309l33 178h639l-33 -178h-639z" />
<glyph unicode="&#x12e;" horiz-adv-x="653" d="M-96 -334q0 109 101.5 214.5t277.5 180.5l72 -61q-117 -82 -179.5 -154.5t-62.5 -128.5q0 -59 74 -59q53 0 106 27l-4 -172q-64 -37 -160 -37q-106 0 -165.5 50t-59.5 140zM98 0l303 1556h256l-303 -1556h-256z" />
<glyph unicode="&#x12f;" horiz-adv-x="567" d="M-131 -336q0 68 44 144.5t126 147.5t182 116l80 -72q-111 -76 -170.5 -149.5t-59.5 -135.5q0 -59 70 -59q49 0 109 27l-4 -170q-25 -16 -70 -26.5t-92 -10.5q-102 0 -158.5 50t-56.5 138zM66 0l200 1034h236l-201 -1034h-235zM309 1409q0 68 46 113t116 45q59 0 96 -37 t37 -96q0 -68 -45 -114t-115 -46q-59 0 -97 38t-38 97z" />
<glyph unicode="&#x130;" horiz-adv-x="653" d="M98 0l303 1556h256l-303 -1556h-256zM426 1831q0 68 45 112t114 44q59 0 95 -36t36 -96q0 -70 -44.5 -113.5t-114.5 -43.5q-57 0 -94 37t-37 96z" />
<glyph unicode="&#x131;" horiz-adv-x="567" d="M66 0l200 1034h236l-201 -1034h-235z" />
<glyph unicode="&#x132;" horiz-adv-x="1769" d="M98 0l303 1556h256l-303 -1556h-256zM643 66l49 210q61 -41 138 -63.5t155 -22.5q145 0 228 89.5t124 295.5l190 981h256l-200 -1026q-57 -295 -198.5 -429t-395.5 -134q-96 0 -195.5 29t-150.5 70z" />
<glyph unicode="&#x133;" horiz-adv-x="1134" d="M66 0l200 1034h236l-201 -1034h-235zM168 -463l47 189q76 -41 172 -41q186 0 237 274l209 1075h236l-209 -1077q-49 -252 -158.5 -364.5t-302.5 -112.5q-72 0 -135.5 16.5t-95.5 40.5zM309 1409q0 68 46 113t116 45q59 0 96 -37t37 -96q0 -68 -45 -114t-115 -46 q-59 0 -97 38t-38 97zM876 1409q0 68 46 113t116 45q59 0 96 -37t37 -96q0 -68 -45 -114t-115 -46q-59 0 -97 38t-38 97z" />
<glyph unicode="&#x136;" horiz-adv-x="1529" d="M98 0l303 1556h250l-131 -671l783 671h344l-908 -765l674 -791h-326l-598 727l-141 -727h-250zM395 -504q137 180 160 373h233q-16 -104 -72.5 -206.5t-134.5 -166.5h-186z" />
<glyph unicode="&#x137;" horiz-adv-x="1189" d="M66 0l321 1659h236l-199 -1018l465 393h313l-581 -479l454 -555h-293l-387 492l-94 -492h-235zM197 -504q137 178 161 373h228q-14 -104 -70.5 -206.5t-136.5 -166.5h-182z" />
<glyph unicode="&#x138;" horiz-adv-x="1189" d="M66 0l200 1034h236l-78 -401l473 401h305l-577 -477l450 -557h-291l-387 496l-96 -496h-235z" />
<glyph unicode="&#x139;" horiz-adv-x="1243" d="M98 0l303 1556h256l-260 -1331h717l-47 -225h-969zM377 1710l268 281h305l-340 -281h-233z" />
<glyph unicode="&#x13a;" horiz-adv-x="567" d="M66 0l321 1659h236l-322 -1659h-235zM340 1741l268 281h305l-340 -281h-233z" />
<glyph unicode="&#x13b;" horiz-adv-x="1243" d="M98 0l303 1556h256l-260 -1331h717l-47 -225h-969zM318 -504q137 180 160 373h233q-16 -104 -72.5 -206.5t-134.5 -166.5h-186z" />
<glyph unicode="&#x13c;" horiz-adv-x="567" d="M-108 -504q137 178 161 373h228q-14 -104 -70.5 -206.5t-136.5 -166.5h-182zM66 0l321 1659h236l-322 -1659h-235z" />
<glyph unicode="&#x13d;" horiz-adv-x="1243" d="M98 0l303 1556h256l-260 -1331h717l-47 -225h-969zM758 1178l119 481h233l-192 -481h-160z" />
<glyph unicode="&#x13e;" horiz-adv-x="567" d="M66 0l321 1659h236l-322 -1659h-235zM655 1178l119 481h233l-192 -481h-160z" />
<glyph unicode="&#x141;" horiz-adv-x="1294" d="M41 389l31 238l225 137l156 792h256l-129 -661l440 266l-31 -237l-459 -279l-81 -420h716l-47 -225h-968l100 514z" />
<glyph unicode="&#x142;" horiz-adv-x="665" d="M33 522l28 215l218 107l157 815h236l-140 -713l203 98l-28 -215l-218 -106l-139 -723h-235l121 621z" />
<glyph unicode="&#x143;" horiz-adv-x="1734" d="M98 0l303 1556h234l635 -1212l233 1212h236l-303 -1556h-236l-633 1204l-233 -1204h-236zM910 1710l268 281h305l-340 -281h-233z" />
<glyph unicode="&#x144;" horiz-adv-x="1249" d="M66 0l200 1034h226l-23 -125q51 72 138 115t186 43q150 0 238.5 -90t88.5 -244q0 -55 -12 -115l-119 -618h-235l112 586q10 51 11 92q0 180 -179 180q-106 0 -184 -80t-104 -217l-109 -561h-235zM600 1249l271 338h278l-334 -338h-215z" />
<glyph unicode="&#x145;" horiz-adv-x="1734" d="M98 0l303 1556h234l635 -1212l233 1212h236l-303 -1556h-236l-633 1204l-233 -1204h-236zM467 -504q137 180 160 373h233q-16 -104 -72.5 -206.5t-134.5 -166.5h-186z" />
<glyph unicode="&#x146;" horiz-adv-x="1249" d="M66 0l200 1034h226l-23 -125q51 72 138 115t186 43q150 0 238.5 -90t88.5 -244q0 -55 -12 -115l-119 -618h-235l112 586q10 51 11 92q0 180 -179 180q-106 0 -184 -80t-104 -217l-109 -561h-235zM221 -504q137 178 161 373h228q-14 -104 -70.5 -206.5t-136.5 -166.5h-182 z" />
<glyph unicode="&#x147;" horiz-adv-x="1734" d="M98 0l303 1556h234l635 -1212l233 1212h236l-303 -1556h-236l-633 1204l-233 -1204h-236zM744 2011h225l125 -172l190 172h248l-340 -301h-221z" />
<glyph unicode="&#x148;" horiz-adv-x="1249" d="M66 0l200 1034h226l-23 -125q51 72 138 115t186 43q150 0 238.5 -90t88.5 -244q0 -55 -12 -115l-119 -618h-235l112 586q10 51 11 92q0 180 -179 180q-106 0 -184 -80t-104 -217l-109 -561h-235zM455 1587h200l127 -201l203 201h225l-344 -338h-198z" />
<glyph unicode="&#x14c;" horiz-adv-x="1812" d="M156 682q0 240 111.5 445.5t314 333.5t450.5 128q203 0 367 -88t261 -252t97 -375q0 -240 -111.5 -445.5t-314 -333.5t-450.5 -128q-203 0 -367 88t-261 252t-97 375zM420 696q0 -227 131 -363t350 -136q156 0 291 85t219 238.5t84 339.5q0 227 -132 363.5t-351 136.5 q-154 0 -289 -85t-219 -238.5t-84 -340.5zM782 1741l33 180h643l-33 -180h-643z" />
<glyph unicode="&#x14d;" horiz-adv-x="1273" d="M98 442q0 164 76 306.5t214 230.5t308 88q135 0 244 -58.5t172.5 -167t63.5 -249.5q0 -164 -77 -306.5t-215.5 -230.5t-308.5 -88q-135 0 -242.5 58.5t-171 167t-63.5 249.5zM334 459q0 -131 69.5 -206t190.5 -75q90 0 169 51.5t128 142.5t49 203q0 131 -69.5 206 t-190.5 75q-92 0 -171 -51t-127 -142.5t-48 -203.5zM457 1309l33 178h639l-33 -178h-639z" />
<glyph unicode="&#x150;" horiz-adv-x="1812" d="M156 682q0 240 111.5 445.5t314 333.5t450.5 128q203 0 367 -88t261 -252t97 -375q0 -240 -111.5 -445.5t-314 -333.5t-450.5 -128q-203 0 -367 88t-261 252t-97 375zM420 696q0 -227 131 -363t350 -136q156 0 291 85t219 238.5t84 339.5q0 227 -132 363.5t-351 136.5 q-154 0 -289 -85t-219 -238.5t-84 -340.5zM743 1710l189 279h270l-240 -279h-219zM1145 1710l188 279h268l-237 -279h-219z" />
<glyph unicode="&#x151;" horiz-adv-x="1273" d="M98 442q0 164 76 306.5t214 230.5t308 88q135 0 244 -58.5t172.5 -167t63.5 -249.5q0 -164 -77 -306.5t-215.5 -230.5t-308.5 -88q-135 0 -242.5 58.5t-171 167t-63.5 249.5zM334 459q0 -131 69.5 -206t190.5 -75q90 0 169 51.5t128 142.5t49 203q0 131 -69.5 206 t-190.5 75q-92 0 -171 -51t-127 -142.5t-48 -203.5zM448 1249l217 338h246l-268 -338h-195zM819 1249l219 338h246l-269 -338h-196z" />
<glyph unicode="&#x152;" horiz-adv-x="2586" d="M156 678q0 242 109.5 448.5t306 334.5t438.5 128q201 0 350 -85t217 -234l57 286h957l-43 -215h-711l-86 -440h629l-41 -215h-629l-92 -471h768l-41 -215h-1014l35 193q-82 -111 -217 -168.5t-311 -57.5q-190 0 -345 88t-246 251t-91 372zM420 696q0 -227 131 -363 t348 -136q156 0 292 85t220 238.5t84 339.5q0 227 -131 363.5t-348 136.5q-156 0 -292 -85t-220 -238.5t-84 -340.5z" />
<glyph unicode="&#x153;" horiz-adv-x="2045" d="M98 442q0 166 77 308.5t215 229.5t308 87q133 0 235.5 -64.5t141.5 -173.5q63 109 180 173.5t254 64.5q195 0 312.5 -113.5t117.5 -302.5q0 -102 -28 -213h-760q4 -141 91 -209.5t263 -68.5q156 0 307 73l3 -190q-59 -33 -155.5 -54.5t-193.5 -21.5q-172 0 -290.5 60.5 t-171.5 175.5q-63 -111 -182.5 -173.5t-262.5 -62.5q-131 0 -235.5 58.5t-165 167t-60.5 249.5zM334 459q0 -131 69.5 -206t190.5 -75q90 0 169 51.5t128 142.5t49 203q0 131 -69.5 206t-190.5 75q-92 0 -171 -51t-127 -142.5t-48 -203.5zM1171 616h545q2 10 2 41 q0 106 -58 166t-165 60q-113 0 -201 -73t-123 -194z" />
<glyph unicode="&#x154;" horiz-adv-x="1435" d="M98 0l303 1556h404q250 0 389 -114.5t139 -319.5q0 -164 -94 -292t-258 -187l303 -643h-280l-252 590q-23 -4 -93 -4h-202l-113 -586h-246zM498 795h213q164 0 268 88t104 223q0 115 -81.5 178.5t-227.5 63.5h-168zM721 1710l268 281h305l-340 -281h-233z" />
<glyph unicode="&#x155;" horiz-adv-x="860" d="M66 0l200 1034h223l-26 -162q47 78 131 128.5t172 50.5q72 0 127 -31l-53 -217q-57 29 -133 28q-115 0 -199 -100t-119 -278l-88 -453h-235zM432 1249l271 338h278l-334 -338h-215z" />
<glyph unicode="&#x158;" horiz-adv-x="1435" d="M98 0l303 1556h404q250 0 389 -114.5t139 -319.5q0 -164 -94 -292t-258 -187l303 -643h-280l-252 590q-23 -4 -93 -4h-202l-113 -586h-246zM498 795h213q164 0 268 88t104 223q0 115 -81.5 178.5t-227.5 63.5h-168zM555 2011h225l125 -172l190 172h248l-340 -301h-221z " />
<glyph unicode="&#x159;" horiz-adv-x="860" d="M66 0l200 1034h223l-26 -162q47 78 131 128.5t172 50.5q72 0 127 -31l-53 -217q-57 29 -133 28q-115 0 -199 -100t-119 -278l-88 -453h-235zM287 1587h200l127 -201l203 201h225l-344 -338h-198z" />
<glyph unicode="&#x15a;" horiz-adv-x="1306" d="M49 121l57 225q104 -76 222 -117t231 -41q152 0 247 65.5t95 170.5q0 82 -61.5 139.5t-233.5 138.5q-176 82 -262 188.5t-86 244.5q0 129 67.5 231t193.5 162.5t292 60.5q119 0 241 -34.5t212 -94.5l-58 -217q-98 59 -201.5 92t-193.5 33q-137 0 -222 -57.5t-85 -151.5 q0 -76 55 -133t193 -123q156 -76 241.5 -145.5t122.5 -147.5t37 -178q0 -137 -71.5 -241.5t-206 -164t-312.5 -59.5q-141 0 -276 41t-238 113zM678 1710l268 281h305l-340 -281h-233z" />
<glyph unicode="&#x15b;" horiz-adv-x="950" d="M29 86l49 190q72 -57 156.5 -86.5t175.5 -29.5q84 0 131 31.5t47 87.5q0 45 -38 77.5t-147 79.5q-139 59 -200.5 132t-61.5 177q0 143 110.5 232.5t287.5 89.5q88 0 180 -26.5t160 -71.5l-43 -189q-72 45 -153 69.5t-155 24.5t-116.5 -30.5t-42.5 -83.5q0 -43 32.5 -75 t114.5 -67q168 -74 236.5 -146.5t68.5 -180.5q0 -147 -111.5 -235.5t-297.5 -88.5q-109 0 -216.5 34t-166.5 85zM430 1249l271 338h278l-334 -338h-215z" />
<glyph unicode="&#x15e;" horiz-adv-x="1306" d="M49 121l57 225q104 -76 222 -117t231 -41q152 0 247 65.5t95 170.5q0 82 -61.5 139.5t-233.5 138.5q-176 82 -262 188.5t-86 244.5q0 129 67.5 231t193.5 162.5t292 60.5q119 0 241 -34.5t212 -94.5l-58 -217q-98 59 -201.5 92t-193.5 33q-137 0 -222 -57.5t-85 -151.5 q0 -76 55 -133t193 -123q156 -76 241.5 -145.5t122.5 -147.5t37 -178q0 -137 -71.5 -241.5t-206 -164t-312.5 -59.5q-141 0 -276 41t-238 113zM199 -485l39 143q29 -16 69.5 -26.5t79.5 -10.5q123 0 123 76q0 63 -111 63q-45 0 -69 -6l112 266h156l-59 -141 q78 -14 121.5 -61t43.5 -119q0 -109 -81 -169t-226 -60q-59 0 -114.5 12t-83.5 33z" />
<glyph unicode="&#x15f;" horiz-adv-x="950" d="M29 86l49 190q72 -57 156.5 -86.5t175.5 -29.5q84 0 131 31.5t47 87.5q0 45 -38 77.5t-147 79.5q-139 59 -200.5 132t-61.5 177q0 143 110.5 232.5t287.5 89.5q88 0 180 -26.5t160 -71.5l-43 -189q-72 45 -153 69.5t-155 24.5t-116.5 -30.5t-42.5 -83.5q0 -43 32.5 -75 t114.5 -67q168 -74 236.5 -146.5t68.5 -180.5q0 -147 -111.5 -235.5t-297.5 -88.5q-109 0 -216.5 34t-166.5 85zM72 -483l39 135q31 -16 71.5 -26.5t77.5 -10.5q63 0 96 22.5t33 63.5q0 66 -104 66q-49 0 -82 -9l110 262h154l-59 -139q162 -29 161 -182q0 -106 -81 -167.5 t-218 -61.5q-57 0 -111.5 13t-86.5 34z" />
<glyph unicode="&#x160;" horiz-adv-x="1306" d="M49 121l57 225q104 -76 222 -117t231 -41q152 0 247 65.5t95 170.5q0 82 -61.5 139.5t-233.5 138.5q-176 82 -262 188.5t-86 244.5q0 129 67.5 231t193.5 162.5t292 60.5q119 0 241 -34.5t212 -94.5l-58 -217q-98 59 -201.5 92t-193.5 33q-137 0 -222 -57.5t-85 -151.5 q0 -76 55 -133t193 -123q156 -76 241.5 -145.5t122.5 -147.5t37 -178q0 -137 -71.5 -241.5t-206 -164t-312.5 -59.5q-141 0 -276 41t-238 113zM512 2011h225l125 -172l190 172h248l-340 -301h-221z" />
<glyph unicode="&#x161;" horiz-adv-x="950" d="M29 86l49 190q72 -57 156.5 -86.5t175.5 -29.5q84 0 131 31.5t47 87.5q0 45 -38 77.5t-147 79.5q-139 59 -200.5 132t-61.5 177q0 143 110.5 232.5t287.5 89.5q88 0 180 -26.5t160 -71.5l-43 -189q-72 45 -153 69.5t-155 24.5t-116.5 -30.5t-42.5 -83.5q0 -43 32.5 -75 t114.5 -67q168 -74 236.5 -146.5t68.5 -180.5q0 -147 -111.5 -235.5t-297.5 -88.5q-109 0 -216.5 34t-166.5 85zM285 1587h200l127 -201l203 201h225l-344 -338h-198z" />
<glyph unicode="&#x162;" horiz-adv-x="1402" d="M231 1341l43 215h1258l-41 -215h-502l-262 -1341h-256l262 1341h-502zM295 -485l39 143q29 -16 69.5 -26.5t79.5 -10.5q123 0 123 76q0 63 -111 63q-45 0 -69 -6l112 266h156l-59 -141q78 -14 121.5 -61t43.5 -119q0 -109 -81 -169t-226 -60q-59 0 -114.5 12t-83.5 33z " />
<glyph unicode="&#x163;" horiz-adv-x="921" d="M86 836l39 198h211l57 289h236l-58 -289h308l-39 -198h-308l-83 -439q-10 -51 -11 -88q0 -70 34 -102.5t106 -32.5q94 0 192 43l2 -197q-47 -25 -112.5 -39t-133.5 -14q-160 0 -242.5 76t-82.5 223q0 61 12 131l84 439h-211zM144 -483l39 135q31 -16 71.5 -26.5 t77.5 -10.5q63 0 96 22.5t33 63.5q0 66 -104 66q-49 0 -82 -9l110 262h154l-59 -139q162 -29 161 -182q0 -106 -81 -167.5t-218 -61.5q-57 0 -111.5 13t-86.5 34z" />
<glyph unicode="&#x164;" horiz-adv-x="1402" d="M231 1341l43 215h1258l-41 -215h-502l-262 -1341h-256l262 1341h-502zM590 2011h225l125 -172l190 172h248l-340 -301h-221z" />
<glyph unicode="&#x165;" horiz-adv-x="921" d="M86 836l39 198h211l57 289h236l-58 -289h308l-39 -198h-308l-83 -439q-10 -51 -11 -88q0 -70 34 -102.5t106 -32.5q94 0 192 43l2 -197q-47 -25 -112.5 -39t-133.5 -14q-160 0 -242.5 76t-82.5 223q0 61 12 131l84 439h-211zM737 1227l103 432h229l-176 -432h-156z" />
<glyph unicode="&#x168;" horiz-adv-x="1701" d="M203 510q0 84 22 203l164 843h256l-164 -841q-18 -94 -18 -170q0 -170 90 -259t262 -89q139 0 231.5 53t150.5 162.5t93 285.5l168 858h256l-178 -911q-68 -344 -250 -511t-489 -167q-283 0 -438.5 142.5t-155.5 400.5zM694 1708q18 147 82.5 225t169.5 78 q57 -2 94 -21.5t64.5 -45t52 -45t57.5 -21.5q39 0 60.5 29.5t33.5 99.5h164q-20 -145 -86 -223t-168 -78q-55 2 -93 21.5t-64.5 45t-51 45t-57.5 19.5q-39 0 -60.5 -29.5t-35.5 -99.5h-162z" />
<glyph unicode="&#x169;" horiz-adv-x="1232" d="M115 287q0 49 14 123l121 624h235l-116 -600q-8 -33 -9 -90q0 -82 43 -125t125 -43q111 0 189 79t106 218l109 561h235l-200 -1034h-226l21 125q-53 -78 -139 -118t-197 -40q-143 0 -227 86t-84 234zM373 1266q18 145 82.5 222t169.5 77q57 0 94 -19.5t64.5 -45t52 -45 t57.5 -21.5q39 0 60.5 29.5t33.5 99.5h164q-18 -145 -83 -222t-169 -77q-57 2 -94 21.5t-64.5 45t-52 45t-57.5 19.5q-39 0 -60.5 -30t-33.5 -99h-164z" />
<glyph unicode="&#x16a;" horiz-adv-x="1701" d="M203 510q0 84 22 203l164 843h256l-164 -841q-18 -94 -18 -170q0 -170 90 -259t262 -89q139 0 231.5 53t150.5 162.5t93 285.5l168 858h256l-178 -911q-68 -344 -250 -511t-489 -167q-283 0 -438.5 142.5t-155.5 400.5zM739 1741l33 180h643l-33 -180h-643z" />
<glyph unicode="&#x16b;" horiz-adv-x="1232" d="M115 287q0 49 14 123l121 624h235l-116 -600q-8 -33 -9 -90q0 -82 43 -125t125 -43q111 0 189 79t106 218l109 561h235l-200 -1034h-226l21 125q-53 -78 -139 -118t-197 -40q-143 0 -227 86t-84 234zM422 1309l33 178h639l-33 -178h-639z" />
<glyph unicode="&#x16e;" horiz-adv-x="1701" d="M203 510q0 84 22 203l164 843h256l-164 -841q-18 -94 -18 -170q0 -170 90 -259t262 -89q139 0 231.5 53t150.5 162.5t93 285.5l168 858h256l-178 -911q-68 -344 -250 -511t-489 -167q-283 0 -438.5 142.5t-155.5 400.5zM819 1939q0 113 78.5 189t199.5 76q119 0 199 -76 t80 -189t-80 -189.5t-199 -76.5t-198.5 76t-79.5 190zM966 1939q0 -59 36 -95t95 -36t94 36t35 95t-34.5 94t-94.5 35q-59 0 -95 -34.5t-36 -94.5z" />
<glyph unicode="&#x16f;" horiz-adv-x="1232" d="M115 287q0 49 14 123l121 624h235l-116 -600q-8 -33 -9 -90q0 -82 43 -125t125 -43q111 0 189 79t106 218l109 561h235l-200 -1034h-226l21 125q-53 -78 -139 -118t-197 -40q-143 0 -227 86t-84 234zM475 1458q0 113 79 188.5t200 75.5t199.5 -75.5t78.5 -188.5 t-78.5 -188.5t-199.5 -75.5t-200 76t-79 188zM623 1458q0 -57 37 -94t94 -37q59 0 94 36t35 95t-35 95t-94 36t-95 -35.5t-36 -95.5z" />
<glyph unicode="&#x170;" horiz-adv-x="1701" d="M203 510q0 84 22 203l164 843h256l-164 -841q-18 -94 -18 -170q0 -170 90 -259t262 -89q139 0 231.5 53t150.5 162.5t93 285.5l168 858h256l-178 -911q-68 -344 -250 -511t-489 -167q-283 0 -438.5 142.5t-155.5 400.5zM700 1710l189 279h270l-240 -279h-219zM1102 1710 l188 279h268l-237 -279h-219z" />
<glyph unicode="&#x171;" horiz-adv-x="1232" d="M115 287q0 49 14 123l121 624h235l-116 -600q-8 -33 -9 -90q0 -82 43 -125t125 -43q111 0 189 79t106 218l109 561h235l-200 -1034h-226l21 125q-53 -78 -139 -118t-197 -40q-143 0 -227 86t-84 234zM414 1249l217 338h246l-268 -338h-195zM785 1249l219 338h246 l-269 -338h-196z" />
<glyph unicode="&#x172;" horiz-adv-x="1701" d="M203 510q0 84 22 203l164 843h256l-164 -841q-18 -94 -18 -170q0 -170 90 -259t262 -89q139 0 231.5 53t150.5 162.5t93 285.5l168 858h256l-178 -911q-68 -344 -250 -511t-489 -167q-283 0 -438.5 142.5t-155.5 400.5zM635 -336q0 117 117 229.5t307 178.5l111 -21 q-158 -88 -242 -173t-84 -154q0 -66 80 -66q51 0 111 27l-4 -172q-68 -37 -164 -37q-109 0 -170.5 50t-61.5 138z" />
<glyph unicode="&#x173;" horiz-adv-x="1232" d="M115 287q0 49 14 123l121 624h235l-116 -600q-8 -33 -9 -90q0 -82 43 -125t125 -43q111 0 189 79t106 218l109 561h235l-200 -1034h-226l21 125q-53 -78 -139 -118t-197 -40q-143 0 -227 86t-84 234zM535 -336q0 68 44 144.5t126 147.5t182 116l80 -72 q-111 -76 -170.5 -149.5t-59.5 -135.5q0 -59 70 -59q49 0 109 27l-4 -170q-25 -16 -70 -26.5t-92 -10.5q-102 0 -158.5 50t-56.5 138z" />
<glyph unicode="&#x174;" horiz-adv-x="2250" d="M252 1556h256l94 -1228l588 1208h254l117 -1202l569 1222h270l-768 -1556h-252l-123 1210l-593 -1210h-250zM948 1710l340 301h221l228 -301h-226l-123 168l-190 -168h-250z" />
<glyph unicode="&#x175;" horiz-adv-x="1681" d="M147 1034h228l76 -762l358 762h221l90 -755l371 755h244l-549 -1034h-221l-93 745l-350 -745h-227zM583 1249l347 338h196l213 -338h-201l-126 201l-203 -201h-226z" />
<glyph unicode="&#x176;" horiz-adv-x="1443" d="M227 1556h271l280 -694l551 694h289l-746 -905l-127 -651h-256l129 662zM543 1710l340 301h221l228 -301h-226l-123 168l-190 -168h-250z" />
<glyph unicode="&#x177;" horiz-adv-x="1155" d="M-12 -502l385 604l-236 932h242l156 -712l426 712h258l-981 -1536h-250zM325 1249l347 338h196l213 -338h-201l-126 201l-203 -201h-226z" />
<glyph unicode="&#x178;" horiz-adv-x="1443" d="M227 1556h271l280 -694l551 694h289l-746 -905l-127 -651h-256l129 662zM621 1819q0 63 40 104t103 41q53 0 87 -33t34 -86q0 -63 -40 -104t-103 -41q-53 0 -87 32.5t-34 86.5zM1039 1819q0 63 41 104t104 41q53 0 87 -33t34 -86q0 -63 -41 -104t-104 -41q-53 0 -87 32.5 t-34 86.5z" />
<glyph unicode="&#x179;" horiz-adv-x="1449" d="M10 0l35 195l1071 1146h-811l41 215h1143l-37 -194l-1073 -1147h885l-43 -215h-1211zM754 1710l268 281h305l-340 -281h-233z" />
<glyph unicode="&#x17a;" horiz-adv-x="1075" d="M0 0l31 178l653 658h-510l41 198h805l-31 -178l-657 -657h571l-39 -199h-864zM495 1249l271 338h278l-334 -338h-215z" />
<glyph unicode="&#x17b;" horiz-adv-x="1449" d="M10 0l35 195l1071 1146h-811l41 215h1143l-37 -194l-1073 -1147h885l-43 -215h-1211zM811 1831q0 68 45 112t114 44q59 0 95 -36t36 -96q0 -70 -44.5 -113.5t-114.5 -43.5q-57 0 -94 37t-37 96z" />
<glyph unicode="&#x17c;" horiz-adv-x="1075" d="M0 0l31 178l653 658h-510l41 198h805l-31 -178l-657 -657h571l-39 -199h-864zM529 1403q0 66 44 109.5t111 43.5q59 0 94 -34.5t35 -94.5q0 -66 -43.5 -109.5t-111.5 -43.5q-57 0 -93 36t-36 93z" />
<glyph unicode="&#x17d;" horiz-adv-x="1449" d="M10 0l35 195l1071 1146h-811l41 215h1143l-37 -194l-1073 -1147h885l-43 -215h-1211zM588 2011h225l125 -172l190 172h248l-340 -301h-221z" />
<glyph unicode="&#x17e;" horiz-adv-x="1075" d="M0 0l31 178l653 658h-510l41 198h805l-31 -178l-657 -657h571l-39 -199h-864zM351 1587h200l127 -201l203 201h225l-344 -338h-198z" />
<glyph unicode="&#x192;" horiz-adv-x="831" d="M-326 -463l47 189q76 -41 173 -41q186 0 237 274l170 877h-190l36 198h193l33 172q45 229 169 346t320 117q63 0 126 -15.5t102 -41.5l-48 -193q-76 43 -168 43q-113 0 -179 -70.5t-95 -220.5l-27 -137h289l-37 -198h-290l-168 -879q-49 -252 -158.5 -364.5 t-302.5 -112.5q-72 0 -135.5 16.5t-96.5 40.5z" />
<glyph unicode="&#x218;" horiz-adv-x="1306" d="M49 121l57 225q104 -76 222 -117t231 -41q152 0 247 65.5t95 170.5q0 82 -61.5 139.5t-233.5 138.5q-176 82 -262 188.5t-86 244.5q0 129 67.5 231t193.5 162.5t292 60.5q119 0 241 -34.5t212 -94.5l-58 -217q-98 59 -201.5 92t-193.5 33q-137 0 -222 -57.5t-85 -151.5 q0 -76 55 -133t193 -123q156 -76 241.5 -145.5t122.5 -147.5t37 -178q0 -137 -71.5 -241.5t-206 -164t-312.5 -59.5q-141 0 -276 41t-238 113zM234 -504q137 180 160 373h233q-16 -104 -72.5 -206.5t-134.5 -166.5h-186z" />
<glyph unicode="&#x219;" horiz-adv-x="950" d="M29 86l49 190q72 -57 156.5 -86.5t175.5 -29.5q84 0 131 31.5t47 87.5q0 45 -38 77.5t-147 79.5q-139 59 -200.5 132t-61.5 177q0 143 110.5 232.5t287.5 89.5q88 0 180 -26.5t160 -71.5l-43 -189q-72 45 -153 69.5t-155 24.5t-116.5 -30.5t-42.5 -83.5q0 -43 32.5 -75 t114.5 -67q168 -74 236.5 -146.5t68.5 -180.5q0 -147 -111.5 -235.5t-297.5 -88.5q-109 0 -216.5 34t-166.5 85zM70 -504q137 178 161 373h228q-14 -104 -70.5 -206.5t-136.5 -166.5h-182z" />
<glyph unicode="&#x21a;" horiz-adv-x="1402" d="M231 1341l43 215h1258l-41 -215h-502l-262 -1341h-256l262 1341h-502zM301 -504q137 180 160 373h233q-16 -104 -72.5 -206.5t-134.5 -166.5h-186z" />
<glyph unicode="&#x21b;" horiz-adv-x="921" d="M86 836l39 198h211l57 289h236l-58 -289h308l-39 -198h-308l-83 -439q-10 -51 -11 -88q0 -70 34 -102.5t106 -32.5q94 0 192 43l2 -197q-47 -25 -112.5 -39t-133.5 -14q-160 0 -242.5 76t-82.5 223q0 61 12 131l84 439h-211zM140 -504q137 178 161 373h228 q-14 -104 -70.5 -206.5t-136.5 -166.5h-182z" />
<glyph unicode="&#x237;" horiz-adv-x="567" d="M-399 -463l47 189q76 -41 172 -41q186 0 237 274l209 1075h236l-209 -1077q-49 -252 -158.5 -364.5t-302.5 -112.5q-72 0 -135.5 16.5t-95.5 40.5z" />
<glyph unicode="&#x2c6;" horiz-adv-x="1024" d="M301 1249l347 338h196l213 -338h-201l-126 201l-203 -201h-226z" />
<glyph unicode="&#x2c7;" horiz-adv-x="1024" d="M351 1587h200l127 -201l203 201h225l-344 -338h-198z" />
<glyph unicode="&#x2c9;" horiz-adv-x="1024" d="M371 1309l33 178h639l-33 -178h-639z" />
<glyph unicode="&#x2cb;" horiz-adv-x="1024" d="M486 1587h250l149 -338h-197z" />
<glyph unicode="&#x2d8;" horiz-adv-x="1024" d="M398 1462q0 47 14 88h160q-4 -37 -4 -53q0 -125 137 -125q80 0 126 43t62 135h170q-14 -160 -108 -245.5t-256 -85.5q-139 0 -220 65.5t-81 177.5z" />
<glyph unicode="&#x2d9;" horiz-adv-x="1024" d="M568 1403q0 66 44 109.5t111 43.5q59 0 94 -34.5t35 -94.5q0 -66 -43.5 -109.5t-111.5 -43.5q-57 0 -93 36t-36 93z" />
<glyph unicode="&#x2da;" horiz-adv-x="1024" d="M401 1458q0 113 79 188.5t200 75.5t199.5 -75.5t78.5 -188.5t-78.5 -188.5t-199.5 -75.5t-200 76t-79 188zM549 1458q0 -57 37 -94t94 -37q59 0 94 36t35 95t-35 95t-94 36t-95 -35.5t-36 -95.5z" />
<glyph unicode="&#x2db;" horiz-adv-x="1024" d="M297 -336q0 68 44 144.5t126 147.5t182 116l80 -72q-111 -76 -170.5 -149.5t-59.5 -135.5q0 -59 70 -59q49 0 109 27l-4 -170q-25 -16 -70 -26.5t-92 -10.5q-102 0 -158.5 50t-56.5 138z" />
<glyph unicode="&#x2dc;" horiz-adv-x="1024" d="M322 1266q18 145 82.5 222t169.5 77q57 0 94 -19.5t64.5 -45t52 -45t57.5 -21.5q39 0 60.5 29.5t33.5 99.5h164q-18 -145 -83 -222t-169 -77q-57 2 -94 21.5t-64.5 45t-52 45t-57.5 19.5q-39 0 -60.5 -30t-33.5 -99h-164z" />
<glyph unicode="&#x2dd;" horiz-adv-x="1024" d="M289 1249l217 338h246l-268 -338h-195zM660 1249l219 338h246l-269 -338h-196z" />
<glyph unicode="&#x300;" horiz-adv-x="0" d="M-96 1587h250l149 -338h-197z" />
<glyph unicode="&#x301;" horiz-adv-x="0" d="M-29 1249l271 338h278l-334 -338h-215z" />
<glyph unicode="&#x302;" horiz-adv-x="0" d="M-236 1249l347 338h196l213 -338h-201l-126 201l-203 -201h-226z" />
<glyph unicode="&#x303;" horiz-adv-x="0" d="M-215 1266q18 145 82.5 222t169.5 77q57 0 94 -19.5t64.5 -45t52 -45t57.5 -21.5q39 0 60.5 29.5t33.5 99.5h164q-18 -145 -83 -222t-169 -77q-57 2 -94 21.5t-64.5 45t-52 45t-57.5 19.5q-39 0 -60.5 -30t-33.5 -99h-164z" />
<glyph unicode="&#x304;" horiz-adv-x="0" d="M-166 1309l33 178h639l-33 -178h-639z" />
<glyph unicode="&#x306;" horiz-adv-x="0" d="M-141 1462q0 47 14 88h160q-4 -37 -4 -53q0 -125 137 -125q80 0 126 43t62 135h170q-14 -160 -108 -245.5t-256 -85.5q-139 0 -220 65.5t-81 177.5z" />
<glyph unicode="&#x307;" horiz-adv-x="0" d="M33 1403q0 66 44 109.5t111 43.5q59 0 94 -34.5t35 -94.5q0 -66 -43.5 -109.5t-111.5 -43.5q-57 0 -93 36t-36 93z" />
<glyph unicode="&#x308;" horiz-adv-x="0" d="M-166 1401q0 61 41 102t102 41q53 0 87 -32.5t34 -86.5q0 -61 -41 -102t-102 -41q-53 0 -87 33t-34 86zM250 1401q0 61 41 102t102 41q53 0 86 -32.5t33 -86.5q0 -61 -40 -102t-101 -41q-53 0 -87 33t-34 86z" />
<glyph unicode="&#x30a;" horiz-adv-x="0" d="M-111 1458q0 113 79 188.5t200 75.5t199.5 -75.5t78.5 -188.5t-78.5 -188.5t-199.5 -75.5t-200 76t-79 188zM37 1458q0 -57 37 -94t94 -37q59 0 94 36t35 95t-35 95t-94 36t-95 -35.5t-36 -95.5z" />
<glyph unicode="&#x30b;" horiz-adv-x="0" d="M-168 1249l217 338h246l-268 -338h-195zM203 1249l219 338h246l-269 -338h-196z" />
<glyph unicode="&#x30c;" horiz-adv-x="0" d="M-184 1587h200l127 -201l203 201h225l-344 -338h-198z" />
<glyph unicode="&#x312;" horiz-adv-x="0" d="M12 1249q10 90 66.5 189.5t128.5 156.5h174q-57 -72 -95 -165t-46 -181h-228z" />
<glyph unicode="&#x315;" horiz-adv-x="0" d="M-4 1178l119 481h233l-192 -481h-160z" />
<glyph unicode="&#x326;" horiz-adv-x="0" d="M-397 -504q137 178 161 373h228q-14 -104 -70.5 -206.5t-136.5 -166.5h-182z" />
<glyph unicode="&#x327;" horiz-adv-x="0" d="M-438 -483l39 135q31 -16 71.5 -26.5t77.5 -10.5q63 0 96 22.5t33 63.5q0 66 -104 66q-49 0 -82 -9l110 262h154l-59 -139q162 -29 161 -182q0 -106 -81 -167.5t-218 -61.5q-57 0 -111.5 13t-86.5 34z" />
<glyph unicode="&#x328;" horiz-adv-x="0" d="M-395 -336q0 68 44 144.5t126 147.5t182 116l80 -72q-111 -76 -170.5 -149.5t-59.5 -135.5q0 -59 70 -59q49 0 109 27l-4 -170q-25 -16 -70 -26.5t-92 -10.5q-102 0 -158.5 50t-56.5 138z" />
<glyph unicode="&#x3c0;" horiz-adv-x="1347" d="M143 0l162 836h-162l39 198h1164l-37 -198h-162l-103 -527q-6 -37 -6 -51q0 -39 16.5 -53.5t57.5 -14.5q39 0 72 13l-27 -199q-51 -20 -123 -20q-240 0 -239 200q0 53 12 109l104 543h-370l-162 -836h-236z" />
<glyph unicode="&#x1e80;" horiz-adv-x="2250" d="M252 1556h256l94 -1228l588 1208h254l117 -1202l569 1222h270l-768 -1556h-252l-123 1210l-593 -1210h-250zM1067 1991h276l170 -281h-219z" />
<glyph unicode="&#x1e81;" horiz-adv-x="1681" d="M147 1034h228l76 -762l358 762h221l90 -755l371 755h244l-549 -1034h-221l-93 745l-350 -745h-227zM699 1587h250l149 -338h-197z" />
<glyph unicode="&#x1e82;" horiz-adv-x="2250" d="M252 1556h256l94 -1228l588 1208h254l117 -1202l569 1222h270l-768 -1556h-252l-123 1210l-593 -1210h-250zM1166 1710l268 281h305l-340 -281h-233z" />
<glyph unicode="&#x1e83;" horiz-adv-x="1681" d="M147 1034h228l76 -762l358 762h221l90 -755l371 755h244l-549 -1034h-221l-93 745l-350 -745h-227zM794 1249l271 338h278l-334 -338h-215z" />
<glyph unicode="&#x1e84;" horiz-adv-x="2250" d="M252 1556h256l94 -1228l588 1208h254l117 -1202l569 1222h270l-768 -1556h-252l-123 1210l-593 -1210h-250zM1026 1819q0 63 40 104t103 41q53 0 87 -33t34 -86q0 -63 -40 -104t-103 -41q-53 0 -87 32.5t-34 86.5zM1444 1819q0 63 41 104t104 41q53 0 87 -33t34 -86 q0 -63 -41 -104t-104 -41q-53 0 -87 32.5t-34 86.5z" />
<glyph unicode="&#x1e85;" horiz-adv-x="1681" d="M147 1034h228l76 -762l358 762h221l90 -755l371 755h244l-549 -1034h-221l-93 745l-350 -745h-227zM653 1401q0 61 41 102t102 41q53 0 87 -32.5t34 -86.5q0 -61 -41 -102t-102 -41q-53 0 -87 33t-34 86zM1069 1401q0 61 41 102t102 41q53 0 86 -32.5t33 -86.5 q0 -61 -40 -102t-101 -41q-53 0 -87 33t-34 86z" />
<glyph unicode="&#x1e9e;" horiz-adv-x="1624" d="M88 0l178 911q63 328 253 503t482 175q156 0 299.5 -54t237.5 -149l-22 -163l-314 -342q133 -33 212 -142.5t79 -259.5q0 -145 -69.5 -261t-199.5 -183.5t-300 -67.5q-113 0 -212.5 28t-160.5 75l53 213q137 -98 301 -99q154 0 248 82t94 215q0 113 -73.5 180.5 t-194.5 67.5q-29 0 -53 -4l-45 137l389 426q-123 82 -275 82q-190 0 -312 -130t-171 -384l-168 -856h-256z" />
<glyph unicode="&#x1ef2;" horiz-adv-x="1443" d="M227 1556h271l280 -694l551 694h289l-746 -905l-127 -651h-256l129 662zM662 1991h276l170 -281h-219z" />
<glyph unicode="&#x1ef3;" horiz-adv-x="1155" d="M-12 -502l385 604l-236 932h242l156 -712l426 712h258l-981 -1536h-250zM441 1587h250l149 -338h-197z" />
<glyph unicode="&#x2000;" horiz-adv-x="1024" />
<glyph unicode="&#x2001;" horiz-adv-x="2048" />
<glyph unicode="&#x2002;" horiz-adv-x="1024" />
<glyph unicode="&#x2003;" horiz-adv-x="2048" />
<glyph unicode="&#x2004;" horiz-adv-x="681" />
<glyph unicode="&#x2005;" horiz-adv-x="512" />
<glyph unicode="&#x2006;" horiz-adv-x="339" />
<glyph unicode="&#x2007;" horiz-adv-x="1269" />
<glyph unicode="&#x2008;" horiz-adv-x="608" />
<glyph unicode="&#x2009;" horiz-adv-x="409" />
<glyph unicode="&#x200a;" horiz-adv-x="112" />
<glyph unicode="&#x200b;" horiz-adv-x="0" />
<glyph unicode="&#x2010;" horiz-adv-x="882" d="M131 481l43 215h606l-43 -215h-606z" />
<glyph unicode="&#x2011;" horiz-adv-x="882" d="M131 481l43 215h606l-43 -215h-606z" />
<glyph unicode="&#x2012;" horiz-adv-x="1024" d="M-4 494l37 192h1024l-37 -192h-1024z" />
<glyph unicode="&#x2013;" horiz-adv-x="1024" d="M-4 494l37 192h1024l-37 -192h-1024z" />
<glyph unicode="&#x2014;" horiz-adv-x="2048" d="M-4 494l37 192h2048l-37 -192h-2048z" />
<glyph unicode="&#x2015;" horiz-adv-x="2048" d="M-4 494l37 192h2048l-37 -192h-2048z" />
<glyph unicode="&#x2018;" horiz-adv-x="428" d="M182 1065q10 135 67.5 265t149.5 226h189q-74 -96 -120 -225t-56 -266h-230z" />
<glyph unicode="&#x2019;" horiz-adv-x="428" d="M147 1065q74 98 120 227t57 264h229q-10 -133 -68.5 -263t-150.5 -228h-187z" />
<glyph unicode="&#x201a;" horiz-adv-x="428" d="M-106 -246q74 98 119.5 227.5t56.5 264.5h229q-10 -133 -68.5 -263t-150.5 -229h-186z" />
<glyph unicode="&#x201c;" horiz-adv-x="804" d="M182 1065q10 135 67.5 265t149.5 226h189q-74 -96 -120 -225t-56 -266h-230zM559 1065q10 135 67.5 265t149.5 226h189q-74 -96 -120 -225t-56 -266h-230z" />
<glyph unicode="&#x201d;" horiz-adv-x="804" d="M147 1065q74 98 120 227t57 264h229q-10 -133 -68.5 -263t-150.5 -228h-187zM524 1065q74 98 120 227t57 264h229q-10 -133 -68.5 -263t-150.5 -228h-187z" />
<glyph unicode="&#x201e;" horiz-adv-x="804" d="M-106 -246q74 98 119.5 227.5t56.5 264.5h229q-10 -133 -68.5 -263t-150.5 -229h-186zM271 -246q74 98 119.5 227.5t56.5 264.5h229q-10 -133 -68.5 -263t-150.5 -229h-186z" />
<glyph unicode="&#x2020;" horiz-adv-x="1032" d="M154 889l39 198h315l92 469h236l-93 -469h316l-37 -198h-317l-224 -1155h-235l225 1155h-317z" />
<glyph unicode="&#x2021;" horiz-adv-x="1032" d="M16 180l39 199h316l102 530h-315l39 199h315l88 448h236l-88 -448h315l-39 -199h-315l-105 -530h318l-39 -199h-316l-86 -446h-235l86 446h-316z" />
<glyph unicode="&#x2022;" horiz-adv-x="731" d="M113 559q0 109 75.5 184.5t184.5 75.5t184.5 -75.5t75.5 -184.5t-75.5 -184.5t-184.5 -75.5q-106 0 -183 77t-77 183z" />
<glyph unicode="&#x2026;" horiz-adv-x="2048" d="M109 125q0 72 49 120t125 48q61 0 101 -39t40 -98q0 -74 -49 -121t-125 -47q-61 0 -101 39t-40 98zM791 125q0 72 49 120t125 48q61 0 101 -39t40 -98q0 -74 -49 -121t-125 -47q-61 0 -101 39t-40 98zM1477 125q0 72 49 120t125 48q61 0 101 -39t40 -98q0 -74 -49 -121 t-125 -47q-61 0 -101 39t-40 98z" />
<glyph unicode="&#x202f;" horiz-adv-x="440" />
<glyph unicode="&#x2030;" horiz-adv-x="2979" d="M238 1124q0 82 29.5 158t85 137.5t133 99t165.5 37.5q164 0 268.5 -98t104.5 -254q0 -82 -29.5 -158.5t-86 -138t-134.5 -98.5t-166 -37q-104 0 -188 43t-133 124t-49 185zM287 0l1364 1524h239l-1366 -1524h-237zM426 1137q0 -90 50 -141.5t136 -51.5q94 0 159 73 t65 175q0 88 -51.5 140t-137.5 52q-92 0 -156.5 -71.5t-64.5 -175.5zM1165 330q0 82 30 157.5t85 137t133 99.5t166 38q164 0 268.5 -98.5t104.5 -253.5q0 -82 -30 -159t-86 -138.5t-134 -98.5t-166 -37q-104 0 -188 43t-133.5 124t-49.5 186zM1354 342q0 -90 50 -141 t136 -51q94 0 158.5 72.5t64.5 174.5q0 88 -51 140.5t-137 52.5q-92 0 -156.5 -72t-64.5 -176zM2052 330q0 82 29.5 158.5t86 138t134.5 98.5t166 37q104 0 188 -43t133.5 -124t49.5 -185q0 -82 -30 -158t-85 -137.5t-133 -99.5t-166 -38q-164 0 -268.5 98.5t-104.5 254.5z M2241 342q0 -90 50 -141t138 -51q92 0 156.5 71.5t64.5 175.5q0 88 -50 140.5t-136 52.5q-94 0 -158.5 -73t-64.5 -175z" />
<glyph unicode="&#x2032;" horiz-adv-x="413" d="M127 961l209 595h237l-254 -595h-192z" />
<glyph unicode="&#x2033;" horiz-adv-x="839" d="M127 961l209 595h237l-254 -595h-192zM553 961l209 595h237l-254 -595h-192z" />
<glyph unicode="&#x2039;" horiz-adv-x="708" d="M63 526l383 445h269l-402 -463l203 -426h-246z" />
<glyph unicode="&#x203a;" horiz-adv-x="708" d="M-2 82l401 463l-202 426h245l207 -445l-383 -444h-268z" />
<glyph unicode="&#x2044;" horiz-adv-x="337" d="M-586 0l1364 1524h240l-1366 -1524h-238z" />
<glyph unicode="&#x205f;" horiz-adv-x="551" />
<glyph unicode="&#x2070;" d="M198 1260q0 68 15 133q37 182 143.5 289.5t251.5 107.5q139 0 223 -95t84 -251q0 -70 -14 -133q-39 -182 -145.5 -289.5t-249.5 -107.5q-139 0 -223.5 94t-84.5 252zM383 1262q0 -90 37 -140.5t100 -50.5t116.5 65.5t77.5 178.5q14 76 15 127q0 90 -36 140t-99 50 q-68 0 -122 -66.5t-75 -176.5q-14 -76 -14 -127z" />
<glyph unicode="&#x2074;" d="M164 1114l26 146l477 510h185l-99 -508h113l-29 -148h-110l-35 -180h-166l35 180h-397zM377 1262h213l55 286z" />
<glyph unicode="&#x2075;" d="M200 987l41 152q102 -72 224 -72q82 0 130 38t48 103q0 57 -47 89t-133 32q-94 0 -162 -18l102 459h473l-30 -154h-312l-35 -147q6 2 25 2q143 0 221 -67t78 -189q0 -137 -99 -219t-263 -82q-78 0 -149 20t-112 53z" />
<glyph unicode="&#x2076;" d="M207 1194q0 143 111.5 303t291.5 279l229 -8q-121 -76 -216 -160t-154 -164q55 35 123 35q117 0 188.5 -68.5t71.5 -181.5q0 -137 -98 -226t-248 -89q-141 0 -220 74.5t-79 205.5zM379 1184q0 -55 36 -89t93 -34q72 0 121 46t49 114q0 55 -36 89t-93 34q-72 0 -121 -46.5 t-49 -113.5z" />
<glyph unicode="&#x2077;" d="M282 938l412 668h-387l33 164h588l-31 -152l-412 -688z" />
<glyph unicode="&#x2078;" d="M196 1145q0 84 52.5 150.5t132.5 87.5q-84 41 -84 153q0 111 90 182.5t227 71.5q125 0 203 -60.5t78 -158.5q0 -72 -39 -128t-107 -85q45 -25 71 -70t26 -102q0 -123 -93 -197.5t-249 -74.5q-141 0 -224.5 62t-83.5 169zM375 1161q0 -51 36 -79.5t99 -28.5q70 0 113.5 40 t43.5 99q0 49 -35.5 78t-99.5 29q-70 0 -113.5 -39t-43.5 -99zM463 1530q0 -47 31.5 -72.5t88.5 -25.5q61 0 101.5 35.5t40.5 89.5q0 47 -32 72.5t-89 25.5q-59 0 -100 -36t-41 -89z" />
<glyph unicode="&#x2079;" d="M262 1475q0 137 98 226t248 89q141 0 220 -74.5t79 -206.5q0 -143 -111.5 -302.5t-291.5 -278.5l-230 8q246 156 371 322q-53 -33 -123 -33q-117 0 -188.5 68.5t-71.5 181.5zM436 1483q0 -55 36 -89t93 -34q72 0 121 46t49 114q0 55 -36 89t-93 34q-72 0 -121 -46.5 t-49 -113.5z" />
<glyph unicode="&#x2080;" d="M-31 70q0 68 15 133q37 182 143.5 289.5t251.5 107.5q139 0 223 -95t84 -251q0 -70 -14 -133q-39 -182 -145.5 -289.5t-249.5 -107.5q-139 0 -223.5 94t-84.5 252zM154 72q0 -90 37 -140.5t100 -50.5t116.5 65.5t77.5 178.5q14 76 15 127q0 90 -36 140t-99 50 q-68 0 -122 -66.5t-75 -176.5q-14 -76 -14 -127z" />
<glyph unicode="&#x2081;" d="M111 272l6 183l289 125h165l-163 -836h-183l121 631z" />
<glyph unicode="&#x2082;" d="M-43 -256l29 158q184 127 282 213q92 80 130 133t38 104q0 41 -30.5 65.5t-83.5 24.5q-55 0 -115.5 -28.5t-103.5 -73.5l-27 158q47 47 119.5 74.5t150.5 27.5q123 0 199 -63.5t76 -165.5q0 -86 -46 -162t-157 -172q-72 -63 -186 -135h354l-31 -158h-598z" />
<glyph unicode="&#x2083;" d="M-43 -199l35 152q49 -35 109.5 -55.5t119.5 -20.5q78 0 127 38t49 99q0 106 -141 107q-35 0 -69 -12l-35 100l243 217h-323l31 154h548l-26 -146l-219 -192q84 -16 131 -76t47 -150q0 -131 -100.5 -211.5t-262.5 -80.5q-76 0 -150.5 22.5t-113.5 54.5z" />
<glyph unicode="&#x2084;" d="M-63 -76l26 146l477 510h185l-99 -508h113l-29 -148h-110l-35 -180h-166l35 180h-397zM150 72h213l55 286z" />
<glyph unicode="&#x2085;" d="M-29 -203l41 152q102 -72 224 -72q82 0 130 38t48 103q0 57 -47 89t-133 32q-94 0 -162 -18l102 459h473l-30 -154h-312l-35 -147q6 2 25 2q143 0 221 -67t78 -189q0 -137 -99 -219t-263 -82q-78 0 -149 20t-112 53z" />
<glyph unicode="&#x2086;" d="M-22 4q0 143 111.5 303t291.5 279l229 -8q-121 -76 -216 -160t-154 -164q55 35 123 35q117 0 188.5 -68.5t71.5 -181.5q0 -137 -98 -226t-248 -89q-141 0 -220 74.5t-79 205.5zM150 -6q0 -55 36 -89t93 -34q72 0 121 46t49 114q0 55 -36 89t-93 34q-72 0 -121 -46.5 t-49 -113.5z" />
<glyph unicode="&#x2087;" d="M53 -252l412 668h-387l33 164h588l-31 -152l-412 -688z" />
<glyph unicode="&#x2088;" d="M-33 -45q0 84 52.5 150.5t132.5 87.5q-84 41 -84 153q0 111 90 182.5t227 71.5q125 0 203 -60.5t78 -158.5q0 -72 -39 -128t-107 -85q45 -25 71 -70t26 -102q0 -123 -93 -197.5t-249 -74.5q-141 0 -224.5 62t-83.5 169zM146 -29q0 -51 36 -79.5t99 -28.5q70 0 113.5 40 t43.5 99q0 49 -35.5 78t-99.5 29q-70 0 -113.5 -39t-43.5 -99zM234 340q0 -47 31.5 -72.5t88.5 -25.5q61 0 101.5 35.5t40.5 89.5q0 47 -32 72.5t-89 25.5q-59 0 -100 -36t-41 -89z" />
<glyph unicode="&#x2089;" d="M33 285q0 137 98 226t248 89q141 0 220 -74.5t79 -206.5q0 -143 -111.5 -302.5t-291.5 -278.5l-230 8q246 156 371 322q-53 -33 -123 -33q-117 0 -188.5 68.5t-71.5 181.5zM207 293q0 -55 36 -89t93 -34q72 0 121 46t49 114q0 55 -36 89t-93 34q-72 0 -121 -46.5 t-49 -113.5z" />
<glyph unicode="&#x20ac;" horiz-adv-x="1269" d="M59 502l33 172h191q2 74 16 176h-172l33 172h184q53 158 154.5 278.5t241 188t296.5 67.5q98 0 189.5 -22.5t156.5 -60.5l-49 -197q-145 78 -307 78q-137 0 -257 -89t-185 -243h538l-32 -172h-560q-14 -80 -18 -176h543l-33 -172h-502q23 -170 113 -251t256 -81 q135 0 278 70l4 -205q-125 -68 -313 -68q-256 0 -402.5 136.5t-170.5 398.5h-226z" />
<glyph unicode="&#x20ba;" horiz-adv-x="1269" d="M80 518l33 174l204 70l33 164l-200 -68l32 174l201 68l84 424h229l-69 -353l366 123l-32 -172l-367 -125l-33 -163l363 120l-33 -172l-365 -123l-94 -487h23q217 0 352 126t176 370l213 -17q-41 -334 -250 -509t-569 -175q-117 0 -209 23l117 598z" />
<glyph unicode="&#x2122;" horiz-adv-x="1703" d="M201 1403l28 153h619l-29 -153h-219l-117 -604h-182l117 604h-217zM809 799l190 757h183l112 -436l289 436h184l-106 -757h-162l72 493l-242 -364h-135l-100 383l-121 -512h-164z" />
<glyph unicode="&#x2126;" horiz-adv-x="1896" d="M86 0l43 217h340q-121 92 -186.5 232.5t-65.5 304.5q0 221 107.5 410.5t302 307t432.5 117.5q211 0 377 -84t261 -240.5t95 -363.5q0 -205 -111.5 -390t-300.5 -294h312l-43 -217h-666l39 205q231 102 367.5 286.5t136.5 397.5q0 137 -57.5 242.5t-165 166t-252.5 60.5 q-156 0 -286 -78t-208 -221.5t-78 -323.5q0 -168 61.5 -292t202.5 -238l-38 -205h-619z" />
<glyph unicode="&#x2150;" horiz-adv-x="1918" d="M143 0l1364 1524h240l-1366 -1524h-238zM293 1216l6 183l289 125h165l-163 -836h-183l121 631zM1230 4l412 668h-387l33 164h588l-31 -152l-412 -688z" />
<glyph unicode="&#x2151;" horiz-adv-x="1918" d="M155 0l1364 1524h240l-1366 -1524h-238zM293 1216l6 183l289 125h165l-163 -836h-183l121 631zM1208 541q0 137 98 226t248 89q141 0 220 -74.5t79 -206.5q0 -143 -111.5 -302.5t-291.5 -278.5l-230 8q246 156 371 322q-53 -33 -123 -33q-117 0 -188.5 68.5t-71.5 181.5z M1382 549q0 -55 36 -89t93 -34q72 0 121 46t49 114q0 55 -36 89t-93 34q-72 0 -121 -46.5t-49 -113.5z" />
<glyph unicode="&#x2153;" horiz-adv-x="1918" d="M135 0l1364 1524h240l-1366 -1524h-238zM291 1216l6 183l289 125h165l-163 -836h-183l121 631zM1134 57l35 152q49 -35 109.5 -55.5t119.5 -20.5q78 0 127 38t49 99q0 106 -141 107q-35 0 -69 -12l-35 100l243 217h-323l31 154h548l-26 -146l-219 -192q84 -16 131 -76 t47 -150q0 -131 -100.5 -211.5t-262.5 -80.5q-76 0 -150.5 22.5t-113.5 54.5z" />
<glyph unicode="&#x2154;" horiz-adv-x="1918" d="M139 688l29 158q184 127 282 213q92 80 130 133t38 104q0 41 -30.5 65.5t-83.5 24.5q-55 0 -115.5 -28.5t-103.5 -73.5l-27 158q47 47 119.5 74.5t150.5 27.5q123 0 199 -63.5t76 -165.5q0 -86 -46 -162t-157 -172q-72 -63 -186 -135h354l-31 -158h-598zM202 0l1364 1524 h240l-1366 -1524h-238zM1134 57l35 152q49 -35 109.5 -55.5t119.5 -20.5q78 0 127 38t49 99q0 106 -141 107q-35 0 -69 -12l-35 100l243 217h-323l31 154h548l-26 -146l-219 -192q84 -16 131 -76t47 -150q0 -131 -100.5 -211.5t-262.5 -80.5q-76 0 -150.5 22.5t-113.5 54.5z " />
<glyph unicode="&#x2155;" horiz-adv-x="1918" d="M162 0l1364 1524h240l-1366 -1524h-238zM293 1216l6 183l289 125h165l-163 -836h-183l121 631zM1148 53l41 152q102 -72 224 -72q82 0 130 38t48 103q0 57 -47 89t-133 32q-94 0 -162 -18l102 459h473l-30 -154h-312l-35 -147q6 2 25 2q143 0 221 -67t78 -189 q0 -137 -99 -219t-263 -82q-78 0 -149 20t-112 53z" />
<glyph unicode="&#x2156;" horiz-adv-x="1918" d="M139 688l29 158q184 127 282 213q92 80 130 133t38 104q0 41 -30.5 65.5t-83.5 24.5q-55 0 -115.5 -28.5t-103.5 -73.5l-27 158q47 47 119.5 74.5t150.5 27.5q123 0 199 -63.5t76 -165.5q0 -86 -46 -162t-157 -172q-72 -63 -186 -135h354l-31 -158h-598zM235 0l1364 1524 h240l-1366 -1524h-238zM1148 53l41 152q102 -72 224 -72q82 0 130 38t48 103q0 57 -47 89t-133 32q-94 0 -162 -18l102 459h473l-30 -154h-312l-35 -147q6 2 25 2q143 0 221 -67t78 -189q0 -137 -99 -219t-263 -82q-78 0 -149 20t-112 53z" />
<glyph unicode="&#x2157;" horiz-adv-x="1918" d="M139 745l35 152q49 -35 109.5 -55.5t119.5 -20.5q78 0 127 38t49 99q0 106 -141 107q-35 0 -69 -12l-35 100l243 217h-323l31 154h548l-26 -146l-219 -192q84 -16 131 -76t47 -150q0 -131 -100.5 -211.5t-262.5 -80.5q-76 0 -150.5 22.5t-113.5 54.5zM182 0l1364 1524 h240l-1366 -1524h-238zM1148 53l41 152q102 -72 224 -72q82 0 130 38t48 103q0 57 -47 89t-133 32q-94 0 -162 -18l102 459h473l-30 -154h-312l-35 -147q6 2 25 2q143 0 221 -67t78 -189q0 -137 -99 -219t-263 -82q-78 0 -149 20t-112 53z" />
<glyph unicode="&#x2158;" horiz-adv-x="1918" d="M117 868l26 146l477 510h185l-99 -508h113l-29 -148h-110l-35 -180h-166l35 180h-397zM202 0l1364 1524h240l-1366 -1524h-238zM330 1016h213l55 286zM1148 53l41 152q102 -72 224 -72q82 0 130 38t48 103q0 57 -47 89t-133 32q-94 0 -162 -18l102 459h473l-30 -154h-312 l-35 -147q6 2 25 2q143 0 221 -67t78 -189q0 -137 -99 -219t-263 -82q-78 0 -149 20t-112 53z" />
<glyph unicode="&#x2159;" horiz-adv-x="1918" d="M213 0l1364 1524h240l-1366 -1524h-238zM293 1216l6 183l289 125h165l-163 -836h-183l121 631zM1155 260q0 143 111.5 303t291.5 279l229 -8q-121 -76 -216 -160t-154 -164q55 35 123 35q117 0 188.5 -68.5t71.5 -181.5q0 -137 -98 -226t-248 -89q-141 0 -220 74.5 t-79 205.5zM1327 250q0 -55 36 -89t93 -34q72 0 121 46t49 114q0 55 -36 89t-93 34q-72 0 -121 -46.5t-49 -113.5z" />
<glyph unicode="&#x215a;" horiz-adv-x="1918" d="M153 741l41 152q102 -72 224 -72q82 0 130 38t48 103q0 57 -47 89t-133 32q-94 0 -162 -18l102 459h473l-30 -154h-312l-35 -147q6 2 25 2q143 0 221 -67t78 -189q0 -137 -99 -219t-263 -82q-78 0 -149 20t-112 53zM225 0l1364 1524h240l-1366 -1524h-238zM1155 260 q0 143 111.5 303t291.5 279l229 -8q-121 -76 -216 -160t-154 -164q55 35 123 35q117 0 188.5 -68.5t71.5 -181.5q0 -137 -98 -226t-248 -89q-141 0 -220 74.5t-79 205.5zM1327 250q0 -55 36 -89t93 -34q72 0 121 46t49 114q0 55 -36 89t-93 34q-72 0 -121 -46.5t-49 -113.5z " />
<glyph unicode="&#x215b;" horiz-adv-x="1918" d="M164 0l1364 1524h240l-1366 -1524h-238zM293 1216l6 183l289 125h165l-163 -836h-183l121 631zM1142 211q0 84 52.5 150.5t132.5 87.5q-84 41 -84 153q0 111 90 182.5t227 71.5q125 0 203 -60.5t78 -158.5q0 -72 -39 -128t-107 -85q45 -25 71 -70t26 -102 q0 -123 -93 -197.5t-249 -74.5q-141 0 -224.5 62t-83.5 169zM1321 227q0 -51 36 -79.5t99 -28.5q70 0 113.5 40t43.5 99q0 49 -35.5 78t-99.5 29q-70 0 -113.5 -39t-43.5 -99zM1409 596q0 -47 31.5 -72.5t88.5 -25.5q61 0 101.5 35.5t40.5 89.5q0 47 -32 72.5t-89 25.5 q-59 0 -100 -36t-41 -89z" />
<glyph unicode="&#x215c;" horiz-adv-x="1918" d="M139 745l35 152q49 -35 109.5 -55.5t119.5 -20.5q78 0 127 38t49 99q0 106 -141 107q-35 0 -69 -12l-35 100l243 217h-323l31 154h548l-26 -146l-219 -192q84 -16 131 -76t47 -150q0 -131 -100.5 -211.5t-262.5 -80.5q-76 0 -150.5 22.5t-113.5 54.5zM186 0l1364 1524 h240l-1366 -1524h-238zM1142 211q0 84 52.5 150.5t132.5 87.5q-84 41 -84 153q0 111 90 182.5t227 71.5q125 0 203 -60.5t78 -158.5q0 -72 -39 -128t-107 -85q45 -25 71 -70t26 -102q0 -123 -93 -197.5t-249 -74.5q-141 0 -224.5 62t-83.5 169zM1321 227q0 -51 36 -79.5 t99 -28.5q70 0 113.5 40t43.5 99q0 49 -35.5 78t-99.5 29q-70 0 -113.5 -39t-43.5 -99zM1409 596q0 -47 31.5 -72.5t88.5 -25.5q61 0 101.5 35.5t40.5 89.5q0 47 -32 72.5t-89 25.5q-59 0 -100 -36t-41 -89z" />
<glyph unicode="&#x215d;" horiz-adv-x="1918" d="M153 741l41 152q102 -72 224 -72q82 0 130 38t48 103q0 57 -47 89t-133 32q-94 0 -162 -18l102 459h473l-30 -154h-312l-35 -147q6 2 25 2q143 0 221 -67t78 -189q0 -137 -99 -219t-263 -82q-78 0 -149 20t-112 53zM196 0l1364 1524h240l-1366 -1524h-238zM1142 211 q0 84 52.5 150.5t132.5 87.5q-84 41 -84 153q0 111 90 182.5t227 71.5q125 0 203 -60.5t78 -158.5q0 -72 -39 -128t-107 -85q45 -25 71 -70t26 -102q0 -123 -93 -197.5t-249 -74.5q-141 0 -224.5 62t-83.5 169zM1321 227q0 -51 36 -79.5t99 -28.5q70 0 113.5 40t43.5 99 q0 49 -35.5 78t-99.5 29q-70 0 -113.5 -39t-43.5 -99zM1409 596q0 -47 31.5 -72.5t88.5 -25.5q61 0 101.5 35.5t40.5 89.5q0 47 -32 72.5t-89 25.5q-59 0 -100 -36t-41 -89z" />
<glyph unicode="&#x215e;" horiz-adv-x="1918" d="M110 0l1364 1524h240l-1366 -1524h-238zM235 692l412 668h-387l33 164h588l-31 -152l-412 -688zM1142 211q0 84 52.5 150.5t132.5 87.5q-84 41 -84 153q0 111 90 182.5t227 71.5q125 0 203 -60.5t78 -158.5q0 -72 -39 -128t-107 -85q45 -25 71 -70t26 -102 q0 -123 -93 -197.5t-249 -74.5q-141 0 -224.5 62t-83.5 169zM1321 227q0 -51 36 -79.5t99 -28.5q70 0 113.5 40t43.5 99q0 49 -35.5 78t-99.5 29q-70 0 -113.5 -39t-43.5 -99zM1409 596q0 -47 31.5 -72.5t88.5 -25.5q61 0 101.5 35.5t40.5 89.5q0 47 -32 72.5t-89 25.5 q-59 0 -100 -36t-41 -89z" />
<glyph unicode="&#x2202;" horiz-adv-x="1261" d="M74 381q0 145 71.5 271t199.5 205t284 79q123 0 215 -53.5t125 -141.5q25 104 24 224q0 385 -309 385q-160 0 -301 -111l-14 205q57 51 148 81.5t194 30.5q248 0 384 -152.5t136 -430.5q0 -281 -89 -509t-254 -362.5t-378 -134.5q-195 0 -315.5 115t-120.5 299zM309 395 q0 -98 66 -160.5t170 -62.5q88 0 163.5 44t123 125t47.5 181t-65.5 161.5t-168.5 61.5q-139 0 -237.5 -102t-98.5 -248z" />
<glyph unicode="&#x2206;" horiz-adv-x="1585" d="M-51 0l911 1556h266l310 -1556h-1487zM326 203h811l-189 1118z" />
<glyph unicode="&#x220f;" horiz-adv-x="1490" d="M66 -164l333 1720h1094l-334 -1720h-256l291 1505h-582l-290 -1505h-256z" />
<glyph unicode="&#x2211;" horiz-adv-x="1216" d="M-59 -162l34 187l592 698l-303 647l37 186h999l-40 -210h-728l306 -650l-551 -647h751l-41 -211h-1056z" />
<glyph unicode="&#x2212;" horiz-adv-x="1269" d="M188 582l41 206h918l-39 -206h-920z" />
<glyph unicode="&#x2215;" horiz-adv-x="337" d="M-586 0l1364 1524h240l-1366 -1524h-238z" />
<glyph unicode="&#x2219;" horiz-adv-x="608" d="M197 760q0 72 49 120t125 48q61 0 101 -39t40 -98q0 -74 -49 -121t-125 -47q-61 0 -101 39t-40 98z" />
<glyph unicode="&#x221a;" horiz-adv-x="1398" d="M113 739l37 197h391l118 -670l787 1407h248l-963 -1673h-225l-160 739h-233z" />
<glyph unicode="&#x221e;" horiz-adv-x="1484" d="M111 666q0 113 49 208t137 152t197 57q100 0 177 -46t124 -136q59 86 148 134t187 48q147 0 232.5 -87t85.5 -238q0 -115 -48 -210t-136 -152.5t-199 -57.5q-102 0 -180 47t-123 135q-59 -86 -147.5 -134t-186.5 -48q-143 0 -230 89t-87 239zM309 680q0 -72 38 -114 t104 -42q125 0 243 189q-72 184 -202 184q-76 0 -129.5 -63.5t-53.5 -153.5zM866 711q37 -96 85 -141.5t118 -45.5q76 0 128 63.5t52 153.5q0 72 -36.5 114t-102.5 42q-68 0 -127 -46t-117 -140z" />
<glyph unicode="&#x222b;" horiz-adv-x="849" d="M-254 -469l45 195q72 -41 154 -41q104 0 162.5 81.5t82.5 264.5l148 1132q33 256 145.5 387t300.5 131q61 0 122 -15t100 -40l-45 -192q-74 43 -158 43q-100 0 -158.5 -85t-81.5 -262l-149 -1132q-35 -268 -145.5 -393t-313.5 -125q-57 0 -114.5 14t-94.5 37z" />
<glyph unicode="&#x2248;" horiz-adv-x="1269" d="M66 246q29 199 121 308t233 109q59 0 107.5 -21.5t88 -52t75.5 -60.5t70 -51.5t68 -21.5q57 0 97.5 53.5t58.5 153.5h199q-29 -199 -122 -308t-233 -109q-59 0 -107 21.5t-88 52t-76 60t-69.5 51t-68.5 21.5q-57 0 -97 -53t-59 -153h-198zM166 781q29 199 121 308 t233 109q59 0 107.5 -21.5t88 -52t75.5 -60.5t70 -51.5t68 -21.5q57 0 97.5 53.5t58.5 153.5h199q-29 -199 -122 -308t-233 -109q-59 0 -107 21.5t-88 52t-76 60t-69.5 51t-68.5 21.5q-57 0 -97 -53t-59 -153h-198z" />
<glyph unicode="&#x2260;" horiz-adv-x="1269" d="M172 340l39 201h276l172 282h-393l39 201h475l144 233h190l-143 -233h192l-39 -201h-274l-172 -282h391l-39 -201h-475l-141 -234h-191l142 234h-193z" />
<glyph unicode="&#x2264;" horiz-adv-x="1269" d="M77 2l41 206h918l-39 -206h-920zM246 723l45 227l940 377l-45 -236l-682 -264l580 -266l-41 -213z" />
<glyph unicode="&#x2265;" horiz-adv-x="1269" d="M77 2l41 206h918l-39 -206h-920zM162 348l45 235l682 263l-577 266l41 215l794 -377l-45 -227z" />
<glyph unicode="&#x25ca;" horiz-adv-x="1310" d="M150 829l626 832h203l303 -830l-627 -831h-202zM385 803l203 -557l459 608l-203 559z" />
<glyph unicode="&#x25fc;" horiz-adv-x="1034" d="M0 0v1034h1034v-1034h-1034z" />
<glyph unicode="&#xf507;" horiz-adv-x="1918" d="M139 688l29 158q184 127 282 213q92 80 130 133t38 104q0 41 -30.5 65.5t-83.5 24.5q-55 0 -115.5 -28.5t-103.5 -73.5l-27 158q47 47 119.5 74.5t150.5 27.5q123 0 199 -63.5t76 -165.5q0 -86 -46 -162t-157 -172q-72 -63 -186 -135h354l-31 -158h-598zM207 0l1364 1524 h240l-1366 -1524h-238zM1230 4l412 668h-387l33 164h588l-31 -152l-412 -688z" />
<glyph unicode="&#xf508;" horiz-adv-x="1918" d="M139 745l35 152q49 -35 109.5 -55.5t119.5 -20.5q78 0 127 38t49 99q0 106 -141 107q-35 0 -69 -12l-35 100l243 217h-323l31 154h548l-26 -146l-219 -192q84 -16 131 -76t47 -150q0 -131 -100.5 -211.5t-262.5 -80.5q-76 0 -150.5 22.5t-113.5 54.5zM153 0l1364 1524 h240l-1366 -1524h-238zM1230 4l412 668h-387l33 164h588l-31 -152l-412 -688z" />
<glyph unicode="&#xf509;" horiz-adv-x="1918" d="M117 868l26 146l477 510h185l-99 -508h113l-29 -148h-110l-35 -180h-166l35 180h-397zM170 0l1364 1524h240l-1366 -1524h-238zM330 1016h213l55 286zM1230 4l412 668h-387l33 164h588l-31 -152l-412 -688z" />
<glyph unicode="&#xf50a;" horiz-adv-x="1918" d="M153 741l41 152q102 -72 224 -72q82 0 130 38t48 103q0 57 -47 89t-133 32q-94 0 -162 -18l102 459h473l-30 -154h-312l-35 -147q6 2 25 2q143 0 221 -67t78 -189q0 -137 -99 -219t-263 -82q-78 0 -149 20t-112 53zM174 0l1364 1524h240l-1366 -1524h-238zM1230 4 l412 668h-387l33 164h588l-31 -152l-412 -688z" />
<glyph unicode="&#xf50b;" horiz-adv-x="1918" d="M160 948q0 143 111.5 303t291.5 279l229 -8q-121 -76 -216 -160t-154 -164q55 35 123 35q117 0 188.5 -68.5t71.5 -181.5q0 -137 -98 -226t-248 -89q-141 0 -220 74.5t-79 205.5zM176 0l1364 1524h240l-1366 -1524h-238zM332 938q0 -55 36 -89t93 -34q72 0 121 46t49 114 q0 55 -36 89t-93 34q-72 0 -121 -46.5t-49 -113.5zM1230 4l412 668h-387l33 164h588l-31 -152l-412 -688z" />
<glyph unicode="&#xf50d;" horiz-adv-x="1918" d="M139 688l29 158q184 127 282 213q92 80 130 133t38 104q0 41 -30.5 65.5t-83.5 24.5q-55 0 -115.5 -28.5t-103.5 -73.5l-27 158q47 47 119.5 74.5t150.5 27.5q123 0 199 -63.5t76 -165.5q0 -86 -46 -162t-157 -172q-72 -63 -186 -135h354l-31 -158h-598zM233 0l1364 1524 h240l-1366 -1524h-238zM1208 541q0 137 98 226t248 89q141 0 220 -74.5t79 -206.5q0 -143 -111.5 -302.5t-291.5 -278.5l-230 8q246 156 371 322q-53 -33 -123 -33q-117 0 -188.5 68.5t-71.5 181.5zM1382 549q0 -55 36 -89t93 -34q72 0 121 46t49 114q0 55 -36 89t-93 34 q-72 0 -121 -46.5t-49 -113.5z" />
<glyph unicode="&#xf50e;" horiz-adv-x="1918" d="M117 868l26 146l477 510h185l-99 -508h113l-29 -148h-110l-35 -180h-166l35 180h-397zM205 0l1364 1524h240l-1366 -1524h-238zM330 1016h213l55 286zM1208 541q0 137 98 226t248 89q141 0 220 -74.5t79 -206.5q0 -143 -111.5 -302.5t-291.5 -278.5l-230 8 q246 156 371 322q-53 -33 -123 -33q-117 0 -188.5 68.5t-71.5 181.5zM1382 549q0 -55 36 -89t93 -34q72 0 121 46t49 114q0 55 -36 89t-93 34q-72 0 -121 -46.5t-49 -113.5z" />
<glyph unicode="&#xf50f;" horiz-adv-x="1918" d="M153 741l41 152q102 -72 224 -72q82 0 130 38t48 103q0 57 -47 89t-133 32q-94 0 -162 -18l102 459h473l-30 -154h-312l-35 -147q6 2 25 2q143 0 221 -67t78 -189q0 -137 -99 -219t-263 -82q-78 0 -149 20t-112 53zM190 0l1364 1524h240l-1366 -1524h-238zM1208 541 q0 137 98 226t248 89q141 0 220 -74.5t79 -206.5q0 -143 -111.5 -302.5t-291.5 -278.5l-230 8q246 156 371 322q-53 -33 -123 -33q-117 0 -188.5 68.5t-71.5 181.5zM1382 549q0 -55 36 -89t93 -34q72 0 121 46t49 114q0 55 -36 89t-93 34q-72 0 -121 -46.5t-49 -113.5z" />
<glyph unicode="&#xf510;" horiz-adv-x="1918" d="M92 0l1364 1524h240l-1366 -1524h-238zM235 692l412 668h-387l33 164h588l-31 -152l-412 -688zM1208 541q0 137 98 226t248 89q141 0 220 -74.5t79 -206.5q0 -143 -111.5 -302.5t-291.5 -278.5l-230 8q246 156 371 322q-53 -33 -123 -33q-117 0 -188.5 68.5t-71.5 181.5z M1382 549q0 -55 36 -89t93 -34q72 0 121 46t49 114q0 55 -36 89t-93 34q-72 0 -121 -46.5t-49 -113.5z" />
<glyph unicode="&#xf511;" horiz-adv-x="1918" d="M149 899q0 84 52.5 150.5t132.5 87.5q-84 41 -84 153q0 111 90 182.5t227 71.5q125 0 203 -60.5t78 -158.5q0 -72 -39 -128t-107 -85q45 -25 71 -70t26 -102q0 -123 -93 -197.5t-249 -74.5q-141 0 -224.5 62t-83.5 169zM196 0l1364 1524h240l-1366 -1524h-238zM328 915 q0 -51 36 -79.5t99 -28.5q70 0 113.5 40t43.5 99q0 49 -35.5 78t-99.5 29q-70 0 -113.5 -39t-43.5 -99zM416 1284q0 -47 31.5 -72.5t88.5 -25.5q61 0 101.5 35.5t40.5 89.5q0 47 -32 72.5t-89 25.5q-59 0 -100 -36t-41 -89zM1208 541q0 137 98 226t248 89q141 0 220 -74.5 t79 -206.5q0 -143 -111.5 -302.5t-291.5 -278.5l-230 8q246 156 371 322q-53 -33 -123 -33q-117 0 -188.5 68.5t-71.5 181.5zM1382 549q0 -55 36 -89t93 -34q72 0 121 46t49 114q0 55 -36 89t-93 34q-72 0 -121 -46.5t-49 -113.5z" />
<glyph unicode="&#xfb01;" horiz-adv-x="1388" d="M111 836l36 198h191l29 142q96 494 497 493q106 0 189 -39l-47 -192q-63 25 -132 24q-111 0 -178 -76.5t-102 -246.5l-21 -105h289l-37 -198h-290l-160 -836h-238l162 836h-188zM887 0l200 1034h236l-201 -1034h-235zM1130 1409q0 68 46.5 113t115.5 45q59 0 96 -37 t37 -96q0 -68 -44.5 -114t-114.5 -46q-59 0 -97.5 38t-38.5 97z" />
<glyph unicode="&#xfb02;" horiz-adv-x="1388" d="M111 836l36 198h191l29 142q96 494 497 493q106 0 189 -39l-47 -192q-63 25 -132 24q-111 0 -178 -76.5t-102 -246.5l-21 -105h289l-37 -198h-290l-160 -836h-238l162 836h-188zM887 0l321 1659h236l-322 -1659h-235z" />
<glyph unicode="&#xfeff;" horiz-adv-x="0" />
<glyph horiz-adv-x="1280" d="M111 537q0 141 30 297q41 211 134.5 374.5t228.5 255.5t293 92q223 0 345 -147t122 -422q0 -139 -31 -297q-41 -211 -134 -373.5t-227 -256t-292 -93.5q-225 0 -347 147.5t-122 422.5zM360 541q0 -174 59.5 -266.5t172.5 -92.5q131 0 236.5 140.5t152.5 371.5 q33 166 33 289q0 174 -59.5 266t-172.5 92q-131 0 -236.5 -140t-152.5 -372q-33 -166 -33 -288z" />
<glyph horiz-adv-x="1009" d="M229 1102l11 223l499 199h209l-297 -1524h-239l245 1272z" />
<glyph horiz-adv-x="1294" d="M79 0l35 193q106 82 246.5 204.5t253.5 231.5q174 172 248 286.5t74 214.5q0 102 -64.5 160t-179.5 58q-98 0 -189.5 -43t-179.5 -134l-26 220q72 78 186.5 121.5t243.5 43.5q209 0 332.5 -109.5t123.5 -293.5q0 -135 -75.5 -266t-262.5 -320q-162 -164 -395 -350h639 l-43 -217h-967z" />
<glyph horiz-adv-x="1212" d="M23 84l47 205q76 -51 178 -83t195 -32q162 0 262 87t100 226q0 111 -73.5 172.5t-209.5 61.5q-66 0 -108 -14l-53 137l475 463h-580l43 217h885l-35 -189l-450 -440q158 -20 254 -131t96 -277q0 -147 -75 -265t-213 -186.5t-318 -68.5q-117 0 -234 33t-186 84z" />
<glyph horiz-adv-x="1288" d="M57 360l37 201l840 963h258l-186 -961h196l-39 -203h-198l-70 -360h-233l69 360h-674zM346 563h424l123 629z" />
<glyph horiz-adv-x="1208" d="M37 88l49 205q76 -55 175 -87t195 -32q168 0 269.5 89t101.5 237q0 121 -88 189.5t-242 68.5q-158 0 -278 -35l182 801h764l-45 -217h-553l-80 -357q23 4 44.5 5t41.5 1q227 0 362.5 -119.5t135.5 -320.5q0 -158 -75 -281.5t-214.5 -195.5t-323.5 -72q-125 0 -236.5 32 t-184.5 89z" />
<glyph horiz-adv-x="1267" d="M117 440q0 166 87 358.5t249 384t375 345.5l313 -10q-207 -139 -383 -313.5t-275 -334.5q92 74 250 74q121 0 218.5 -52t154.5 -150.5t57 -225.5q0 -150 -70.5 -274.5t-199.5 -199.5t-293 -75q-225 0 -354 127t-129 346zM350 424q0 -119 68.5 -188.5t185.5 -69.5 q86 0 160 41t118 116.5t44 172.5q0 117 -70.5 187.5t-185.5 70.5q-86 0 -159 -41t-117 -118t-44 -171z" />
<glyph horiz-adv-x="1171" d="M205 6l762 1292h-713l48 226h972l-39 -205l-768 -1323z" />
<glyph horiz-adv-x="1259" d="M78 371q0 156 95 281.5t241 162.5q-74 43 -114 117t-40 168q0 125 65.5 228.5t186.5 165.5t274 62q207 0 333 -103t126 -273q0 -133 -75.5 -242t-204.5 -158q84 -45 134 -130t50 -185q0 -139 -70.5 -252t-199.5 -179.5t-295 -66.5q-238 0 -372 107.5t-134 296.5zM320 397 q0 -104 72.5 -164.5t197.5 -60.5q88 0 159.5 36t114.5 103.5t43 153.5q0 106 -71.5 166.5t-196.5 60.5q-139 0 -229 -83t-90 -212zM490 1100q0 -98 65 -155.5t176 -57.5q121 0 203 76.5t82 187.5q0 94 -67.5 151.5t-178.5 57.5q-119 0 -199.5 -76t-80.5 -184z" />
<glyph horiz-adv-x="1269" d="M203 1008q0 150 71 274.5t200 199t292 74.5q225 0 354.5 -126.5t129.5 -346.5q0 -166 -87 -358.5t-249 -383.5t-375 -345l-313 10q213 145 387 317.5t270 329.5q-88 -74 -250 -73q-121 0 -218 52t-154.5 150.5t-57.5 225.5zM441 1028q0 -117 70.5 -187.5t185.5 -70.5 q86 0 158.5 41t116.5 118t44 171q0 119 -68.5 188.5t-185.5 69.5q-86 0 -159.5 -41t-117.5 -117t-44 -172z" />
<glyph d="M16 326q0 68 15 133q37 182 143.5 289.5t251.5 107.5q139 0 223 -95t84 -251q0 -70 -14 -133q-39 -182 -145.5 -289.5t-249.5 -107.5q-139 0 -223.5 94t-84.5 252zM201 328q0 -90 37 -140.5t100 -50.5t116.5 65.5t77.5 178.5q14 76 15 127q0 90 -36 140t-99 50 q-68 0 -122 -66.5t-75 -176.5q-14 -76 -14 -127z" />
<glyph d="M158 528l6 183l289 125h165l-163 -836h-183l121 631z" />
<glyph d="M6 0l29 158q184 127 282 213q92 80 130 133t38 104q0 41 -30.5 65.5t-83.5 24.5q-55 0 -115.5 -28.5t-103.5 -73.5l-27 158q47 47 119.5 74.5t150.5 27.5q123 0 199 -63.5t76 -165.5q0 -86 -46 -162t-157 -172q-72 -63 -186 -135h354l-31 -158h-598z" />
<glyph d="M6 57l35 152q49 -35 109.5 -55.5t119.5 -20.5q78 0 127 38t49 99q0 106 -141 107q-35 0 -69 -12l-35 100l243 217h-323l31 154h548l-26 -146l-219 -192q84 -16 131 -76t47 -150q0 -131 -100.5 -211.5t-262.5 -80.5q-76 0 -150.5 22.5t-113.5 54.5z" />
<glyph d="M-16 180l26 146l477 510h185l-99 -508h113l-29 -148h-110l-35 -180h-166l35 180h-397zM197 328h213l55 286z" />
<glyph d="M20 53l41 152q102 -72 224 -72q82 0 130 38t48 103q0 57 -47 89t-133 32q-94 0 -162 -18l102 459h473l-30 -154h-312l-35 -147q6 2 25 2q143 0 221 -67t78 -189q0 -137 -99 -219t-263 -82q-78 0 -149 20t-112 53z" />
<glyph d="M27 260q0 143 111.5 303t291.5 279l229 -8q-121 -76 -216 -160t-154 -164q55 35 123 35q117 0 188.5 -68.5t71.5 -181.5q0 -137 -98 -226t-248 -89q-141 0 -220 74.5t-79 205.5zM199 250q0 -55 36 -89t93 -34q72 0 121 46t49 114q0 55 -36 89t-93 34q-72 0 -121 -46.5 t-49 -113.5z" />
<glyph d="M102 4l412 668h-387l33 164h588l-31 -152l-412 -688z" />
<glyph d="M14 211q0 84 52.5 150.5t132.5 87.5q-84 41 -84 153q0 111 90 182.5t227 71.5q125 0 203 -60.5t78 -158.5q0 -72 -39 -128t-107 -85q45 -25 71 -70t26 -102q0 -123 -93 -197.5t-249 -74.5q-141 0 -224.5 62t-83.5 169zM193 227q0 -51 36 -79.5t99 -28.5q70 0 113.5 40 t43.5 99q0 49 -35.5 78t-99.5 29q-70 0 -113.5 -39t-43.5 -99zM281 596q0 -47 31.5 -72.5t88.5 -25.5q61 0 101.5 35.5t40.5 89.5q0 47 -32 72.5t-89 25.5q-59 0 -100 -36t-41 -89z" />
<glyph d="M80 541q0 137 98 226t248 89q141 0 220 -74.5t79 -206.5q0 -143 -111.5 -302.5t-291.5 -278.5l-230 8q246 156 371 322q-53 -33 -123 -33q-117 0 -188.5 68.5t-71.5 181.5zM254 549q0 -55 36 -89t93 -34q72 0 121 46t49 114q0 55 -36 89t-93 34q-72 0 -121 -46.5 t-49 -113.5z" />
<glyph d="M151 1014q0 68 15 133q37 182 143.5 289.5t251.5 107.5q139 0 223 -95t84 -251q0 -70 -14 -133q-39 -182 -145.5 -289.5t-249.5 -107.5q-139 0 -223.5 94t-84.5 252zM336 1016q0 -90 37 -140.5t100 -50.5t116.5 65.5t77.5 178.5q14 76 15 127q0 90 -36 140t-99 50 q-68 0 -122 -66.5t-75 -176.5q-14 -76 -14 -127z" />
<glyph d="M291 1216l6 183l289 125h165l-163 -836h-183l121 631z" />
<glyph d="M139 688l29 158q184 127 282 213q92 80 130 133t38 104q0 41 -30.5 65.5t-83.5 24.5q-55 0 -115.5 -28.5t-103.5 -73.5l-27 158q47 47 119.5 74.5t150.5 27.5q123 0 199 -63.5t76 -165.5q0 -86 -46 -162t-157 -172q-72 -63 -186 -135h354l-31 -158h-598z" />
<glyph d="M139 745l35 152q49 -35 109.5 -55.5t119.5 -20.5q78 0 127 38t49 99q0 106 -141 107q-35 0 -69 -12l-35 100l243 217h-323l31 154h548l-26 -146l-219 -192q84 -16 131 -76t47 -150q0 -131 -100.5 -211.5t-262.5 -80.5q-76 0 -150.5 22.5t-113.5 54.5z" />
<glyph d="M117 868l26 146l477 510h185l-99 -508h113l-29 -148h-110l-35 -180h-166l35 180h-397zM330 1016h213l55 286z" />
<glyph d="M153 741l41 152q102 -72 224 -72q82 0 130 38t48 103q0 57 -47 89t-133 32q-94 0 -162 -18l102 459h473l-30 -154h-312l-35 -147q6 2 25 2q143 0 221 -67t78 -189q0 -137 -99 -219t-263 -82q-78 0 -149 20t-112 53z" />
<glyph d="M160 948q0 143 111.5 303t291.5 279l229 -8q-121 -76 -216 -160t-154 -164q55 35 123 35q117 0 188.5 -68.5t71.5 -181.5q0 -137 -98 -226t-248 -89q-141 0 -220 74.5t-79 205.5zM332 938q0 -55 36 -89t93 -34q72 0 121 46t49 114q0 55 -36 89t-93 34q-72 0 -121 -46.5 t-49 -113.5z" />
<glyph d="M235 692l412 668h-387l33 164h588l-31 -152l-412 -688z" />
<glyph d="M147 899q0 84 52.5 150.5t132.5 87.5q-84 41 -84 153q0 111 90 182.5t227 71.5q125 0 203 -60.5t78 -158.5q0 -72 -39 -128t-107 -85q45 -25 71 -70t26 -102q0 -123 -93 -197.5t-249 -74.5q-141 0 -224.5 62t-83.5 169zM326 915q0 -51 36 -79.5t99 -28.5q70 0 113.5 40 t43.5 99q0 49 -35.5 78t-99.5 29q-70 0 -113.5 -39t-43.5 -99zM414 1284q0 -47 31.5 -72.5t88.5 -25.5q61 0 101.5 35.5t40.5 89.5q0 47 -32 72.5t-89 25.5q-59 0 -100 -36t-41 -89z" />
<glyph d="M213 1229q0 137 98 226t248 89q141 0 220 -74.5t79 -206.5q0 -143 -111.5 -302.5t-291.5 -278.5l-230 8q246 156 371 322q-53 -33 -123 -33q-117 0 -188.5 68.5t-71.5 181.5zM387 1237q0 -55 36 -89t93 -34q72 0 121 46t49 114q0 55 -36 89t-93 34q-72 0 -121 -46.5 t-49 -113.5z" />
<glyph horiz-adv-x="882" d="M168 669l43 215h606l-43 -215h-606z" />
<glyph horiz-adv-x="1024" d="M33 682l37 192h1024l-37 -192h-1024z" />
<glyph horiz-adv-x="2048" d="M33 682l37 192h2048l-37 -192h-2048z" />
<glyph horiz-adv-x="858" d="M209 605q0 350 159 676.5t435 547.5h279q-305 -225 -476 -544.5t-171 -665.5q0 -430 243 -741h-250q-100 139 -159.5 333.5t-59.5 393.5z" />
<glyph horiz-adv-x="858" d="M-94 -122q305 225 476 544.5t171 665.5q0 430 -243 741h249q100 -139 160 -333.5t60 -393.5q0 -350 -159 -676.5t-435 -547.5h-279z" />
<glyph horiz-adv-x="1087" d="M-107 -188l1157 1931h244l-1157 -1931h-244z" />
<glyph horiz-adv-x="1087" d="M278 1743h225l408 -1931h-227z" />
<glyph horiz-adv-x="833" d="M101 -125l379 1951h528l-37 -194h-311l-305 -1563h317l-37 -194h-534z" />
<glyph horiz-adv-x="833" d="M-45 -125l37 194h311l306 1563h-318l37 194h535l-379 -1951h-529z" />
<glyph horiz-adv-x="868" d="M146 762l39 199h47q96 0 141 39t66 145q18 102 29.5 200.5t29.5 186.5t57 156t114 106.5t200 38.5q86 0 151 -16l-37 -186q-53 12 -94 12q-72 0 -112.5 -27.5t-59 -77t-26 -114t-13.5 -137t-20 -148.5q-25 -121 -75 -187.5t-138 -90.5q57 -16 91 -63.5t34 -115.5 q-2 -57 -21.5 -124.5t-45 -137t-45 -133t-21.5 -112.5q0 -68 40.5 -96.5t137.5 -28.5q43 0 61 2l-37 -191q-32 -4 -67 -4q-174 0 -265.5 69.5t-91.5 202.5q2 66 21.5 137.5t45.5 144.5t45 137.5t21 115.5q0 55 -32.5 76.5t-114.5 21.5h-55z" />
<glyph horiz-adv-x="868" d="M-24 -127l37 187q53 -12 94 -12q72 0 112.5 27.5t59 76.5t26 113.5t13.5 137.5t20 148q25 121 75 187.5t138 91.5q-57 16 -91 63t-34 115q2 57 21.5 125t45 137.5t45 133t21.5 112.5q0 68 -41 96.5t-137 28.5q-43 0 -61 -2l37 190q33 4 67 4q174 0 265.5 -69.5 t91.5 -202.5q-2 -66 -21.5 -137.5t-45.5 -144t-45.5 -137t-21.5 -116.5q0 -55 33 -76.5t115 -21.5h55l-39 -198h-47q-96 0 -141 -39t-66 -146q-18 -102 -29.5 -200.5t-29.5 -186.5t-57 -155.5t-114 -106.5t-200 -39q-86 0 -151 16z" />
<glyph horiz-adv-x="731" d="M136 670q0 109 75.5 184.5t184.5 75.5t184.5 -75.5t75.5 -184.5t-75.5 -184.5t-184.5 -75.5q-106 0 -183 77t-77 183z" />
<glyph horiz-adv-x="708" d="M112 778l383 445h269l-402 -463l203 -426h-246z" />
<glyph horiz-adv-x="708" d="M47 334l401 463l-202 426h245l207 -445l-383 -444h-268z" />
<glyph horiz-adv-x="1177" d="M112 778l383 445h269l-402 -463l203 -426h-246zM581 778l383 445h269l-402 -463l203 -426h-246z" />
<glyph horiz-adv-x="1177" d="M47 334l401 463l-202 426h245l207 -445l-383 -444h-268zM516 334l401 463l-202 426h245l207 -445l-383 -444h-268z" />
<glyph horiz-adv-x="2068" d="M139 622q0 279 141 520.5t398.5 392t570.5 150.5q223 0 404.5 -88t288 -251t106.5 -373q0 -182 -69 -337t-195 -250t-283 -95q-94 0 -158.5 39.5t-87.5 111.5q-51 -70 -131 -109.5t-172 -39.5q-160 0 -252 98t-92 268q0 141 65.5 267t182 207t254.5 81q203 0 266 -172 l49 139h190l-165 -524q-18 -61 -19 -96q0 -49 27.5 -77t77.5 -28q80 0 153.5 67t120.5 185.5t47 255.5q0 250 -169 397.5t-458 147.5q-238 0 -442.5 -111.5t-331.5 -314.5t-127 -450q0 -295 172 -457t484 -162q100 0 219 24.5t207 63.5l-6 -182q-82 -37 -197.5 -59.5 t-230.5 -22.5q-252 0 -440.5 93t-293 270.5t-104.5 420.5zM817 674q0 -92 51 -144.5t139 -52.5q74 0 141.5 47t110.5 129t43 178q0 92 -51 144.5t-139 52.5q-74 0 -141.5 -47t-110.5 -129t-43 -178z" />
<glyph horiz-adv-x="608" d="M203 801q0 72 49 120t125 48q61 0 101 -39t40 -98q0 -74 -49 -121t-125 -47q-61 0 -101 39t-40 98z" />
<glyph horiz-adv-x="567" d="M-33 -502l299 1536h236l-299 -1536h-236zM309 1409q0 68 46 113t116 45q59 0 96 -37t37 -96q0 -68 -45 -114t-115 -46q-59 0 -97 38t-38 97z" />
<glyph horiz-adv-x="1994" d="M98 0l301 1556h265l337 -978l717 978h279l-301 -1556h-246l225 1169l-608 -823h-209l-287 828l-227 -1174h-246z" />
<glyph horiz-adv-x="823" d="M109 836l38 198h234l57 289h236l-58 -289h261l-39 -198h-260l-162 -836h-236l162 836h-233z" />
<glyph horiz-adv-x="1222" d="M125 338q0 61 12 129l113 567h233l-112 -577q-8 -41 -9 -90q0 -94 48.5 -142.5t142.5 -48.5q111 0 174.5 65.5t91.5 211.5l113 581h233l-116 -598q-47 -238 -171 -353.5t-335 -115.5q-201 0 -309.5 96.5t-108.5 274.5z" />
<glyph horiz-adv-x="608" d="M197 762q0 72 49 120t125 48q61 0 101 -39t40 -98q0 -74 -49 -121t-125 -47q-61 0 -101 38.5t-40 98.5z" />
<glyph horiz-adv-x="608" d="M209 821q0 72 49 120t125 48q61 0 101 -39t40 -98q0 -74 -49 -121t-125 -47q-61 0 -101 39t-40 98z" />
<glyph horiz-adv-x="567" d="M-33 -502l299 1536h236l-299 -1536h-236z" />
<glyph horiz-adv-x="1134" d="M66 0l200 1034h236l-201 -1034h-235zM309 1409q0 68 46 113t116 45q59 0 96 -37t37 -96q0 -68 -45 -114t-115 -46q-59 0 -97 38t-38 97zM534 -502l299 1536h236l-299 -1536h-236zM876 1409q0 68 46 113t116 45q59 0 96 -37t37 -96q0 -68 -45 -114t-115 -46q-59 0 -97 38 t-38 97z" />
<glyph horiz-adv-x="0" d="M-442 -485l39 143q29 -16 69.5 -26.5t79.5 -10.5q123 0 123 76q0 63 -111 63q-45 0 -69 -6l112 266h156l-59 -141q78 -14 121.5 -61t43.5 -119q0 -109 -81 -169t-226 -60q-59 0 -114.5 12t-83.5 33z" />
<glyph horiz-adv-x="0" d="M-387 -504q137 180 160 373h233q-16 -104 -72.5 -206.5t-134.5 -166.5h-186z" />
<glyph horiz-adv-x="0" d="M-461 -334q0 109 101.5 214.5t277.5 180.5l72 -61q-117 -82 -179.5 -154.5t-62.5 -128.5q0 -59 74 -59q53 0 106 27l-4 -172q-64 -37 -160 -37q-106 0 -165.5 50t-59.5 140z" />
<glyph horiz-adv-x="0" d="M-358 -342q0 119 111.5 227.5t295.5 167.5l119 -14q-156 -84 -240 -167t-84 -153q0 -63 76 -63q59 0 107 25l-2 -168q-62 -37 -160 -37q-104 0 -163.5 49t-59.5 133z" />
<glyph horiz-adv-x="0" d="M-414 -336q0 117 117 229.5t307 178.5l111 -21q-158 -88 -242 -173t-84 -154q0 -66 80 -66q51 0 111 27l-4 -172q-68 -37 -164 -37q-109 0 -170.5 50t-61.5 138z" />
<glyph horiz-adv-x="823" d="M-8 -483l39 135q31 -16 71.5 -26.5t77.5 -10.5q63 0 96 22.5t33 63.5q0 66 -104 66q-49 0 -82 -9l110 262h154l-59 -139q162 -29 161 -182q0 -106 -81 -167.5t-218 -61.5q-57 0 -111.5 13t-86.5 34zM109 836l38 198h234l57 289h236l-58 -289h261l-39 -198h-260l-162 -836 h-236l162 836h-233z" />
<glyph horiz-adv-x="823" d="M6 -504q137 178 161 373h228q-14 -104 -70.5 -206.5t-136.5 -166.5h-182zM109 836l38 198h234l57 289h236l-58 -289h261l-39 -198h-260l-162 -836h-236l162 836h-233z" />
<glyph horiz-adv-x="1222" d="M125 338q0 61 12 129l113 567h233l-112 -577q-8 -41 -9 -90q0 -94 48.5 -142.5t142.5 -48.5q111 0 174.5 65.5t91.5 211.5l113 581h233l-116 -598q-47 -238 -171 -353.5t-335 -115.5q-201 0 -309.5 96.5t-108.5 274.5zM287 -344q0 119 111.5 227.5t295.5 167.5l119 -14 q-156 -84 -240 -167t-84 -153q0 -63 76 -63q59 0 107 25l-2 -168q-62 -37 -160 -37q-104 0 -163.5 49t-59.5 133z" />
<glyph horiz-adv-x="0" d="M31 1710l268 281h305l-340 -281h-233z" />
<glyph horiz-adv-x="0" d="M-123 1710l189 279h270l-240 -279h-219zM279 1710l188 279h268l-237 -279h-219z" />
<glyph horiz-adv-x="1222" d="M125 338q0 61 12 129l113 567h233l-112 -577q-8 -41 -9 -90q0 -94 48.5 -142.5t142.5 -48.5q111 0 174.5 65.5t91.5 211.5l113 581h233l-116 -598q-47 -238 -171 -353.5t-335 -115.5q-201 0 -309.5 96.5t-108.5 274.5zM561 1249l271 338h278l-334 -338h-215z" />
<glyph horiz-adv-x="1222" d="M125 338q0 61 12 129l113 567h233l-112 -577q-8 -41 -9 -90q0 -94 48.5 -142.5t142.5 -48.5q111 0 174.5 65.5t91.5 211.5l113 581h233l-116 -598q-47 -238 -171 -353.5t-335 -115.5q-201 0 -309.5 96.5t-108.5 274.5zM414 1249l217 338h246l-268 -338h-195zM785 1249 l219 338h246l-269 -338h-196z" />
<glyph horiz-adv-x="0" d="M-20 1991h276l170 -281h-219z" />
<glyph horiz-adv-x="1222" d="M125 338q0 61 12 129l113 567h233l-112 -577q-8 -41 -9 -90q0 -94 48.5 -142.5t142.5 -48.5q111 0 174.5 65.5t91.5 211.5l113 581h233l-116 -598q-47 -238 -171 -353.5t-335 -115.5q-201 0 -309.5 96.5t-108.5 274.5zM465 1587h250l149 -338h-197z" />
<glyph horiz-adv-x="0" d="M-164 1710l340 301h221l228 -301h-226l-123 168l-190 -168h-250z" />
<glyph horiz-adv-x="0" d="M-129 1708q18 147 82.5 225t169.5 78q57 -2 94 -21.5t64.5 -45t52 -45t57.5 -21.5q39 0 60.5 29.5t33.5 99.5h164q-20 -145 -86 -223t-168 -78q-55 2 -93 21.5t-64.5 45t-51 45t-57.5 19.5q-39 0 -60.5 -29.5t-35.5 -99.5h-162z" />
<glyph horiz-adv-x="1222" d="M125 338q0 61 12 129l113 567h233l-112 -577q-8 -41 -9 -90q0 -94 48.5 -142.5t142.5 -48.5q111 0 174.5 65.5t91.5 211.5l113 581h233l-116 -598q-47 -238 -171 -353.5t-335 -115.5q-201 0 -309.5 96.5t-108.5 274.5zM350 1249l347 338h196l213 -338h-201l-126 201 l-203 -201h-226z" />
<glyph horiz-adv-x="1222" d="M125 338q0 61 12 129l113 567h233l-112 -577q-8 -41 -9 -90q0 -94 48.5 -142.5t142.5 -48.5q111 0 174.5 65.5t91.5 211.5l113 581h233l-116 -598q-47 -238 -171 -353.5t-335 -115.5q-201 0 -309.5 96.5t-108.5 274.5zM373 1266q18 145 82.5 222t169.5 77q57 0 94 -19.5 t64.5 -45t52 -45t57.5 -21.5q39 0 60.5 29.5t33.5 99.5h164q-18 -145 -83 -222t-169 -77q-57 2 -94 21.5t-64.5 45t-52 45t-57.5 19.5q-39 0 -60.5 -30t-33.5 -99h-164z" />
<glyph horiz-adv-x="0" d="M-104 2011h225l125 -172l190 172h248l-340 -301h-221z" />
<glyph horiz-adv-x="0" d="M8 1227l103 432h229l-176 -432h-156z" />
<glyph horiz-adv-x="0" d="M-84 1741l33 180h643l-33 -180h-643z" />
<glyph horiz-adv-x="823" d="M109 836l38 198h234l57 289h236l-58 -289h261l-39 -198h-260l-162 -836h-236l162 836h-233zM782 1227l103 432h229l-176 -432h-156z" />
<glyph horiz-adv-x="1222" d="M125 338q0 61 12 129l113 567h233l-112 -577q-8 -41 -9 -90q0 -94 48.5 -142.5t142.5 -48.5q111 0 174.5 65.5t91.5 211.5l113 581h233l-116 -598q-47 -238 -171 -353.5t-335 -115.5q-201 0 -309.5 96.5t-108.5 274.5zM422 1309l33 178h639l-33 -178h-639z" />
<glyph horiz-adv-x="0" d="M-86 1819q0 63 40 104t103 41q53 0 87 -33t34 -86q0 -63 -40 -104t-103 -41q-53 0 -87 32.5t-34 86.5zM332 1819q0 63 41 104t104 41q53 0 87 -33t34 -86q0 -63 -41 -104t-104 -41q-53 0 -87 32.5t-34 86.5z" />
<glyph horiz-adv-x="0" d="M-61 1923q0 29 10 80h172q-4 -25 -4 -45q0 -57 35.5 -87t105.5 -30q80 0 129 42t64 120h176q-14 -156 -113.5 -238t-267.5 -82q-139 0 -223 66t-84 174z" />
<glyph horiz-adv-x="1222" d="M125 338q0 61 12 129l113 567h233l-112 -577q-8 -41 -9 -90q0 -94 48.5 -142.5t142.5 -48.5q111 0 174.5 65.5t91.5 211.5l113 581h233l-116 -598q-47 -238 -171 -353.5t-335 -115.5q-201 0 -309.5 96.5t-108.5 274.5zM420 1401q0 61 41 102t102 41q53 0 87 -32.5 t34 -86.5q0 -61 -41 -102t-102 -41q-53 0 -87 33t-34 86zM836 1401q0 61 41 102t102 41q53 0 86 -32.5t33 -86.5q0 -61 -40 -102t-101 -41q-53 0 -87 33t-34 86z" />
<glyph horiz-adv-x="0" d="M111 1831q0 68 45 112t114 44q59 0 95 -36t36 -96q0 -70 -44.5 -113.5t-114.5 -43.5q-57 0 -94 37t-37 96z" />
<glyph horiz-adv-x="0" d="M-10 1939q0 113 78.5 189t199.5 76q119 0 199 -76t80 -189t-80 -189.5t-199 -76.5t-198.5 76t-79.5 190zM137 1939q0 -59 36 -95t95 -36t94 36t35 95t-34.5 94t-94.5 35q-59 0 -95 -34.5t-36 -94.5z" />
<glyph horiz-adv-x="1222" d="M125 338q0 61 12 129l113 567h233l-112 -577q-8 -41 -9 -90q0 -94 48.5 -142.5t142.5 -48.5q111 0 174.5 65.5t91.5 211.5l113 581h233l-116 -598q-47 -238 -171 -353.5t-335 -115.5q-201 0 -309.5 96.5t-108.5 274.5zM475 1458q0 113 79 188.5t200 75.5t199.5 -75.5 t78.5 -188.5t-78.5 -188.5t-199.5 -75.5t-200 76t-79 188zM623 1458q0 -57 37 -94t94 -37q59 0 94 36t35 95t-35 95t-94 36t-95 -35.5t-36 -95.5z" />
</font>
</defs>
</svg>
