<?xml version="1.0" standalone="no"?>
<!DOCTYPE svg PUBLIC "-//W3C//DTD SVG 1.1//EN" "http://www.w3.org/Graphics/SVG/1.1/DTD/svg11.dtd" >
<svg xmlns="http://www.w3.org/2000/svg" xmlns:xlink="http://www.w3.org/1999/xlink" version="1.1">
<metadata></metadata>
<defs>
<font id="objektiv_mk3light_italic" horiz-adv-x="778" >
<font-face units-per-em="2048" ascent="1638" descent="-410" />
<missing-glyph horiz-adv-x="450" />
<glyph unicode=" "  horiz-adv-x="450" />
<glyph unicode="&#x09;" horiz-adv-x="450" />
<glyph unicode="&#xa0;" horiz-adv-x="450" />
<glyph unicode="!" horiz-adv-x="559" d="M104 72q0 45 31 74.5t74 29.5q37 0 62.5 -25.5t25.5 -62.5q0 -45 -31 -74.5t-76 -29.5q-37 0 -61.5 25.5t-24.5 62.5zM219 449l219 1167h119l-235 -1167h-103z" />
<glyph unicode="&#x22;" horiz-adv-x="647" d="M203 958l104 598h125l-131 -598h-98zM520 958l104 598h125l-131 -598h-98z" />
<glyph unicode="#" horiz-adv-x="1380" d="M98 379l19 94h229l182 440h-252l19 95h274l156 378h100l-155 -378h368l158 378h100l-155 -378h209l-19 -95h-231l-182 -440h253l-18 -94h-274l-158 -379h-100l157 379h-370l-156 -379h-102l157 379h-209zM446 473h371l182 440h-370z" />
<glyph unicode="$" horiz-adv-x="1269" d="M104 117l27 102q68 -57 162 -94t199 -45l129 668q-174 88 -247 179t-73 220q0 106 58.5 194.5t167 142.5t249.5 58l49 252h93l-52 -256q82 -12 160 -43t135 -74l-22 -104q-57 45 -134 76.5t-157 44.5l-119 -615q184 -94 260 -186t76 -225q0 -119 -61.5 -215.5 t-176 -154.5t-264.5 -62l-47 -246h-92l49 250q-111 8 -207 42.5t-162 90.5zM410 1151q0 -94 51 -158.5t182 -132.5l113 582q-150 -6 -248 -89t-98 -202zM584 80q164 10 266 101t102 229q0 96 -54 162.5t-191 138.5z" />
<glyph unicode="%" horiz-adv-x="1916" d="M223 0l1424 1524h141l-1423 -1524h-142zM242 1155q0 104 49 195.5t138 148.5t196 57q92 0 166.5 -38.5t118.5 -112.5t44 -168q0 -104 -50 -195.5t-139.5 -149.5t-195.5 -58q-143 0 -235 90t-92 231zM348 1163q0 -104 62.5 -166.5t164.5 -62.5q72 0 133.5 38t100.5 105.5 t39 151.5q0 104 -62.5 165.5t-169.5 61.5q-113 0 -190.5 -85t-77.5 -208zM1067 303q0 104 49 195.5t138 149t196 57.5q92 0 167 -39t119 -113t44 -168q0 -104 -50.5 -195.5t-139.5 -149.5t-195 -58q-143 0 -235.5 90t-92.5 231zM1174 311q0 -104 62.5 -166.5t164.5 -62.5 q72 0 133 38t100 105.5t39 151.5q0 104 -62.5 165.5t-168.5 61.5q-113 0 -190.5 -85t-77.5 -208z" />
<glyph unicode="&#x26;" horiz-adv-x="1505" d="M127 360q0 152 105.5 273t324.5 223q-76 117 -105.5 195.5t-29.5 165.5q0 102 48 188t136 137t199 51q150 0 243 -80.5t93 -214.5q0 -139 -101.5 -255.5t-318.5 -225.5l366 -498q66 88 109 205t61 254l101 -14q-35 -317 -207 -531l172 -233h-139l-113 150 q-94 -88 -213 -135.5t-250 -47.5q-139 0 -247.5 48t-171 137.5t-62.5 207.5zM244 373q0 -86 45 -154.5t128.5 -107.5t192.5 -39q236 0 402 161l-402 545q-197 -100 -281.5 -193t-84.5 -212zM537 1231q0 -82 28.5 -155t100.5 -179q197 100 279.5 191.5t82.5 205.5 q0 92 -61.5 147.5t-165.5 55.5q-68 0 -128.5 -35t-98 -96t-37.5 -135z" />
<glyph unicode="'" horiz-adv-x="329" d="M203 958l104 598h125l-131 -598h-98z" />
<glyph unicode="(" horiz-adv-x="790" d="M203 459q0 346 155.5 671.5t427.5 548.5h140q-291 -240 -450 -556t-159 -660q0 -205 55.5 -390.5t164.5 -338.5h-127q-98 145 -152.5 334.5t-54.5 390.5z" />
<glyph unicode=")" horiz-adv-x="790" d="M-55 -266q291 240 449.5 557t158.5 659q0 205 -55.5 390.5t-163.5 338.5h127q98 -145 152.5 -334.5t54.5 -390.5q0 -346 -156 -671.5t-428 -548.5h-139z" />
<glyph unicode="*" horiz-adv-x="989" d="M244 1243l43 96l299 -125l49 342h110l-75 -342l311 123l31 -102l-326 -105l197 -288l-92 -56l-183 308l-241 -303l-80 67l252 283z" />
<glyph unicode="+" horiz-adv-x="1269" d="M215 633l21 108h387l77 406h117l-80 -406h387l-20 -108h-387l-80 -404h-115l80 404h-387z" />
<glyph unicode="," horiz-adv-x="593" d="M-88 -371q100 115 169 257.5t93 281.5h131q-23 -141 -97.5 -283.5t-184.5 -255.5h-111z" />
<glyph unicode="-" horiz-adv-x="892" d="M164 524l22 117h576l-23 -117h-575z" />
<glyph unicode="." horiz-adv-x="593" d="M119 72q0 45 30.5 74.5t73.5 29.5q37 0 62.5 -25.5t25.5 -62.5q0 -45 -30.5 -74.5t-75.5 -29.5q-37 0 -61.5 25.5t-24.5 62.5z" />
<glyph unicode="/" horiz-adv-x="1026" d="M-117 -272l1202 1931h134l-1205 -1931h-131z" />
<glyph unicode="0" horiz-adv-x="1269" d="M156 539q0 133 26 286q37 213 125 379t215 259t277 93q199 0 305 -147t106 -424q0 -166 -26 -301q-39 -209 -127 -370.5t-214.5 -254t-273.5 -92.5q-201 0 -307 147.5t-106 424.5zM281 539q0 -225 74.5 -345t217.5 -120q106 0 203.5 73.5t171.5 212t109 322.5 q31 152 30 303q0 225 -74.5 345t-217.5 120q-109 0 -208.5 -78t-174 -222t-107.5 -337q-25 -131 -24 -274z" />
<glyph unicode="1" horiz-adv-x="1269" d="M358 1208l7 117l505 199h103l-295 -1524h-121l268 1391z" />
<glyph unicode="2" horiz-adv-x="1269" d="M96 0l17 100q295 258 475 439q176 172 263 278.5t122 188t35 168.5q0 125 -78 198.5t-213 73.5q-213 0 -385 -189l-21 111q72 86 184.5 137t231.5 51q115 0 206 -46t143 -131t52 -197q0 -113 -42 -209t-135 -209t-261 -275q-215 -205 -422 -376h750l-21 -113h-901z" />
<glyph unicode="3" horiz-adv-x="1269" d="M86 88l29 109q72 -57 172 -91t196 -34q123 0 223.5 49t160 140t59.5 210q0 141 -91.5 224t-248.5 83q-68 0 -111 -14l-33 72l576 579h-674l21 109h815l-21 -107l-538 -543h14q117 0 210 -49t146 -141t53 -213q0 -137 -69.5 -252t-198.5 -183.5t-291 -68.5q-111 0 -221 34 t-178 87z" />
<glyph unicode="4" horiz-adv-x="1269" d="M100 410l19 98l893 1016h118l-196 -1014h209l-21 -100h-209l-77 -410h-113l80 410h-703zM246 510h575l164 840z" />
<glyph unicode="5" horiz-adv-x="1269" d="M100 90l31 109q70 -59 165 -93t196 -34q129 0 231 52t161.5 149.5t59.5 224.5q0 160 -104.5 248t-292.5 88q-117 0 -242 -35l164 725h696l-22 -113h-594l-111 -487q66 12 133 12q229 0 360.5 -114.5t131.5 -317.5q0 -150 -69.5 -271.5t-199.5 -193.5t-298 -72 q-115 0 -221.5 33t-174.5 90z" />
<glyph unicode="6" horiz-adv-x="1269" d="M162 410q0 172 95 378.5t266 404.5t384 333l160 -10q-236 -147 -430.5 -356.5t-288.5 -416.5q63 78 153.5 122t190.5 44q117 0 213 -53t153.5 -151.5t57.5 -225.5q0 -137 -64.5 -253.5t-183.5 -187.5t-266 -71q-199 0 -319.5 122t-120.5 321zM279 408q0 -154 90.5 -246 t240.5 -92q104 0 192.5 50t141.5 142t53 205q0 154 -91 247t-242 93q-102 0 -190.5 -51t-141.5 -143.5t-53 -204.5z" />
<glyph unicode="7" horiz-adv-x="1269" d="M246 4l839 1405h-766l23 115h895l-18 -101l-846 -1427z" />
<glyph unicode="8" horiz-adv-x="1269" d="M115 365q0 166 110.5 289.5t290.5 158.5q-98 41 -153.5 122t-55.5 187q0 115 62.5 214.5t175 159.5t252.5 60q121 0 216 -44t150.5 -126.5t55.5 -191.5q0 -147 -96.5 -260t-250.5 -148q113 -41 178.5 -133t65.5 -209q0 -129 -66.5 -237.5t-189 -174t-278.5 -65.5 q-211 0 -339 108.5t-128 289.5zM231 375q0 -137 96.5 -219t256.5 -82q113 0 207 46t151 131t57 191q0 139 -95 221t-257 82q-113 0 -208 -46t-151.5 -132t-56.5 -192zM420 1122q0 -121 86 -195.5t229 -74.5q100 0 184.5 42t135.5 117.5t51 172.5q0 123 -87 197.5t-231 74.5 q-100 0 -184 -42t-134 -118.5t-50 -173.5z" />
<glyph unicode="9" horiz-adv-x="1269" d="M246 1044q0 139 64.5 255t183 186.5t266.5 70.5q201 0 320.5 -120.5t119.5 -321.5q0 -172 -95 -379t-266 -404.5t-384 -332.5l-160 10q231 141 427 350t292 420q-59 -78 -150.5 -121t-193.5 -43q-117 0 -213.5 53.5t-153.5 152t-57 224.5zM365 1057q0 -154 90.5 -247 t242.5 -93q102 0 190.5 51t141.5 143.5t53 204.5q0 154 -91 246t-240 92q-104 0 -192.5 -50t-141.5 -142.5t-53 -204.5z" />
<glyph unicode=":" horiz-adv-x="593" d="M119 72q0 45 30.5 74.5t73.5 29.5q37 0 62.5 -25.5t25.5 -62.5q0 -45 -30.5 -74.5t-75.5 -29.5q-37 0 -61.5 25.5t-24.5 62.5zM281 910q0 45 30.5 74.5t73.5 29.5q37 0 62.5 -25.5t25.5 -62.5q0 -45 -30.5 -74.5t-75.5 -29.5q-37 0 -61.5 25.5t-24.5 62.5z" />
<glyph unicode=";" horiz-adv-x="593" d="M-88 -371q100 115 169 257.5t93 281.5h131q-23 -141 -97.5 -283.5t-184.5 -255.5h-111zM281 910q0 45 30.5 74.5t73.5 29.5q37 0 62.5 -25.5t25.5 -62.5q0 -45 -30.5 -74.5t-75.5 -29.5q-37 0 -61.5 25.5t-24.5 62.5z" />
<glyph unicode="&#x3c;" horiz-adv-x="1269" d="M248 637l20 115l903 397l-24 -125l-760 -334l631 -334l-23 -114z" />
<glyph unicode="=" horiz-adv-x="1269" d="M195 397l20 109h840l-21 -109h-839zM285 866l20 109h840l-21 -109h-839z" />
<glyph unicode="&#x3e;" horiz-adv-x="1269" d="M170 242l25 125l759 333l-630 334l22 115l748 -395l-21 -115z" />
<glyph unicode="?" horiz-adv-x="974" d="M242 1460q70 80 180 128t223 48q104 0 191.5 -40t138.5 -113.5t51 -169.5q-2 -104 -41 -181t-100.5 -136.5t-131 -113t-133 -113.5t-104.5 -137t-45 -183h-109q4 121 45.5 207.5t102.5 152t129 119t128 106.5t98 116.5t40 149.5q0 102 -73.5 165t-194.5 63 q-102 0 -200.5 -46t-176.5 -130zM256 72q0 45 30.5 74.5t73.5 29.5q37 0 63 -25.5t26 -62.5q0 -45 -31 -74.5t-76 -29.5q-37 0 -61.5 25.5t-24.5 62.5z" />
<glyph unicode="@" horiz-adv-x="2007" d="M96 291q0 199 76 384t218 335.5t343 241.5t430 91q215 0 386 -86t271.5 -243.5t100.5 -362.5q0 -172 -63.5 -323.5t-176 -247.5t-247.5 -96q-92 0 -150.5 47t-66.5 129q-61 -82 -153.5 -128t-189.5 -46q-145 0 -237 100t-92 258q0 135 64.5 257t178 199t248.5 77 q111 0 193 -67t106 -175l66 209h94l-164 -543q-18 -63 -18 -98q0 -61 33.5 -95t95.5 -34q92 0 177 75.5t141.5 209t56.5 286.5q0 174 -80 310.5t-229.5 214t-352.5 77.5q-178 0 -345 -67.5t-304 -194.5t-221 -305t-84 -379q0 -199 79.5 -348.5t232.5 -232t364 -82.5 q109 0 221 24.5t207 67.5l2 -99q-90 -43 -203.5 -66.5t-226.5 -23.5q-229 0 -405.5 90t-276 260t-99.5 400zM653 348q0 -121 66.5 -193.5t175.5 -72.5q98 0 186 56.5t144.5 158.5t56.5 223q0 119 -67.5 189.5t-180.5 70.5q-96 0 -183 -57t-142.5 -157.5t-55.5 -217.5z" />
<glyph unicode="A" horiz-adv-x="1505" d="M-37 0l922 1556h139l322 -1556h-132l-98 498h-729l-291 -498h-133zM449 604h647l-164 828z" />
<glyph unicode="B" horiz-adv-x="1439" d="M154 0l301 1556h428q209 0 321.5 -91t112.5 -259q0 -139 -79 -244.5t-216 -146.5q115 -29 183.5 -121t68.5 -215q0 -141 -68.5 -249.5t-197.5 -169t-303 -60.5h-551zM297 109h426q193 0 307.5 101t114.5 271q0 137 -90 208t-264 71h-369zM442 868h373q174 0 275.5 89.5 t101.5 240.5q0 250 -322 250h-315z" />
<glyph unicode="C" horiz-adv-x="1579" d="M195 684q0 240 109.5 443.5t309 327.5t447.5 124q131 0 258 -38t225 -105l-31 -113q-215 139 -462 139q-193 0 -358 -97t-266 -274.5t-101 -394.5q0 -174 70.5 -310t205.5 -214t316 -78q106 0 220.5 28t219.5 79l4 -119q-209 -105 -449 -105q-209 0 -371.5 86.5 t-254.5 247t-92 373.5z" />
<glyph unicode="D" horiz-adv-x="1720" d="M154 0l301 1556h458q340 0 531.5 -175t191.5 -484q0 -260 -116.5 -463t-334.5 -318.5t-509 -115.5h-522zM301 113h385q238 0 423 94t290.5 271t105.5 413q0 266 -156.5 409.5t-447.5 143.5h-342z" />
<glyph unicode="E" horiz-adv-x="1333" d="M154 0l301 1556h874l-20 -110h-750l-115 -590h674l-20 -108h-674l-123 -637h803l-21 -111h-929z" />
<glyph unicode="F" horiz-adv-x="1216" d="M154 0l301 1556h850l-23 -110h-723l-121 -625h627l-21 -110h-628l-137 -711h-125z" />
<glyph unicode="G" horiz-adv-x="1699" d="M195 682q0 244 110.5 447.5t312 326.5t455.5 123q141 0 276.5 -41t241.5 -115l-30 -112q-104 74 -231.5 112.5t-260.5 38.5q-201 0 -370 -96t-271 -272t-102 -398q0 -178 73.5 -314t212 -212t324.5 -76q207 0 383 76l100 512h-401l20 113h527l-138 -701 q-109 -57 -237.5 -87t-263.5 -30q-211 0 -377 86.5t-260 246t-94 372.5z" />
<glyph unicode="H" horiz-adv-x="1732" d="M154 0l301 1556h125l-134 -688h984l133 688h125l-302 -1556h-124l145 760h-981l-147 -760h-125z" />
<glyph unicode="I" horiz-adv-x="624" d="M154 0l301 1556h125l-301 -1556h-125z" />
<glyph unicode="J" horiz-adv-x="1081" d="M12 51l29 113q61 -39 137 -59.5t154 -20.5q309 0 389 405l207 1067h125l-209 -1081q-100 -508 -520 -508q-80 0 -165 22.5t-147 61.5z" />
<glyph unicode="K" horiz-adv-x="1515" d="M154 0l301 1556h125l-140 -712l961 712h180l-1018 -755l797 -801h-172l-762 768l-147 -768h-125z" />
<glyph unicode="L" horiz-adv-x="1218" d="M154 0l301 1556h125l-281 -1445h748l-21 -111h-872z" />
<glyph unicode="M" horiz-adv-x="2121" d="M137 0l365 1556h133l403 -1161l860 1161h127l-235 -1556h-121l205 1346l-805 -1082h-104l-390 1098l-317 -1362h-121z" />
<glyph unicode="N" horiz-adv-x="1777" d="M154 0l301 1556h123l770 -1382l266 1382h119l-301 -1556h-121l-770 1382l-269 -1382h-118z" />
<glyph unicode="O" horiz-adv-x="1843" d="M195 674q0 240 108.5 447.5t305 337.5t433.5 130q203 0 365 -88t256 -249.5t94 -370.5q0 -240 -108.5 -447t-304 -337t-433.5 -130q-201 0 -363.5 87t-257.5 249t-95 371zM326 688q0 -176 71.5 -312t208 -214t316.5 -78q182 0 341.5 101.5t261 282.5t101.5 400 q0 176 -71.5 312.5t-207 214.5t-315.5 78q-184 0 -345 -101.5t-261 -283t-100 -400.5z" />
<glyph unicode="P" horiz-adv-x="1300" d="M154 0l301 1556h350q231 0 361 -107.5t130 -297.5q0 -156 -71.5 -275.5t-205.5 -186t-314 -66.5h-308l-118 -623h-125zM420 733h293q211 0 333.5 110.5t122.5 299.5q0 150 -97 226.5t-284 76.5h-231z" />
<glyph unicode="Q" horiz-adv-x="1843" d="M195 674q0 240 108.5 447.5t305 337.5t433.5 130q203 0 365 -88t256 -249.5t94 -370.5q0 -195 -73.5 -372t-211 -310t-319.5 -193l281 -379h-154l-252 350q-72 -10 -117 -10q-201 0 -363.5 87t-257.5 249t-95 371zM326 688q0 -176 71.5 -312t208 -214t316.5 -78 q182 0 341.5 101.5t261 282.5t101.5 400q0 176 -71.5 312.5t-207 214.5t-315.5 78q-184 0 -345 -101.5t-261 -283t-100 -400.5z" />
<glyph unicode="R" horiz-adv-x="1404" d="M154 0l301 1556h344q227 0 356 -109.5t129 -301.5q0 -168 -102.5 -295t-278.5 -176l318 -674h-144l-295 651q-29 -2 -48 -3t-36 -1h-295l-124 -647h-125zM424 758h293q123 0 222 47t157.5 133t58.5 199q0 150 -95 229.5t-276 79.5h-227z" />
<glyph unicode="S" horiz-adv-x="1296" d="M86 119l31 119q94 -74 217 -116t239 -42q182 0 295 90t113 236q0 100 -71.5 175.5t-245.5 161.5q-143 72 -220 133.5t-110 129t-33 157.5q0 119 62.5 215.5t180.5 153.5t269 57q106 0 219 -33.5t193 -91.5l-31 -112q-86 59 -186.5 92t-196.5 33q-170 0 -278.5 -87 t-108.5 -225q0 -94 63.5 -160.5t233.5 -150.5q156 -78 237.5 -143.5t115.5 -137t34 -167.5q0 -123 -65.5 -222.5t-187.5 -158t-284 -58.5q-131 0 -260 40t-225 112z" />
<glyph unicode="T" horiz-adv-x="1398" d="M276 1446l21 110h1214l-20 -110h-545l-280 -1446h-125l280 1446h-545z" />
<glyph unicode="U" horiz-adv-x="1687" d="M233 487q0 74 19 160l176 909h125l-172 -890q-16 -92 -16 -164q0 -201 113.5 -309.5t322.5 -108.5q233 0 372.5 139t196.5 432l174 901h125l-180 -931q-125 -658 -698 -658q-256 0 -407 140.5t-151 379.5z" />
<glyph unicode="V" horiz-adv-x="1501" d="M276 1556h132l272 -1427l817 1427h137l-903 -1556h-145z" />
<glyph unicode="W" horiz-adv-x="2199" d="M281 1556h129l141 -1394l684 1374h127l151 -1368l685 1388h131l-775 -1556h-131l-155 1370l-682 -1370h-133z" />
<glyph unicode="X" horiz-adv-x="1433" d="M-31 0l740 823l-381 733h139l330 -653l581 653h146l-674 -751l422 -805h-142l-366 727l-645 -727h-150z" />
<glyph unicode="Y" horiz-adv-x="1406" d="M264 1556h133l357 -765l655 765h143l-751 -870l-133 -686h-125l133 692z" />
<glyph unicode="Z" horiz-adv-x="1427" d="M33 0l18 102l1229 1344h-924l21 110h1085l-18 -102l-1233 -1343h993l-20 -111h-1151z" />
<glyph unicode="[" horiz-adv-x="759" d="M72 -272l379 1951h452l-18 -100h-344l-340 -1751h344l-19 -100h-454z" />
<glyph unicode="\" horiz-adv-x="1026" d="M260 1659h119l455 -1931h-121z" />
<glyph unicode="]" horiz-adv-x="759" d="M-63 -272l18 100h344l340 1751h-344l18 100h455l-379 -1951h-452z" />
<glyph unicode="^" horiz-adv-x="1269" d="M215 670l549 755h106l248 -755h-117l-202 635l-457 -635h-127z" />
<glyph unicode="_" horiz-adv-x="1024" d="M-143 -240l20 109h1024l-20 -109h-1024z" />
<glyph unicode="`" horiz-adv-x="1024" d="M533 1583h131l178 -356h-107z" />
<glyph unicode="a" horiz-adv-x="1314" d="M117 422q0 158 72.5 297t202.5 227t286 88q129 0 229.5 -63.5t151.5 -177.5l45 208h113l-193 -1001h-115l27 160q-70 -90 -174 -141.5t-221 -51.5q-121 0 -217.5 56.5t-151.5 160t-55 238.5zM238 426q0 -160 90.5 -256t240.5 -96q117 0 218.5 64.5t165 180t63.5 254.5 q0 162 -90 258.5t-240 96.5q-117 0 -218 -64.5t-165.5 -180.5t-64.5 -257z" />
<glyph unicode="b" horiz-adv-x="1318" d="M100 0l322 1659h119l-156 -811q70 88 173.5 137t217.5 49q121 0 217.5 -56t151.5 -159.5t55 -238.5q0 -158 -72.5 -297.5t-202.5 -227.5t-286 -88q-131 0 -231.5 63.5t-149.5 178.5l-45 -209h-113zM301 428q0 -162 90 -258t240 -96q117 0 218 64.5t165.5 180t64.5 256.5 q0 160 -91 256.5t-240 96.5q-117 0 -218.5 -64.5t-165 -180.5t-63.5 -255z" />
<glyph unicode="c" horiz-adv-x="1075" d="M117 430q0 156 74.5 292t209 222t297.5 86q86 0 171 -25.5t147 -68.5l-23 -107q-61 45 -140 70t-157 25q-119 0 -223 -62.5t-169.5 -175.5t-65.5 -250q0 -166 100 -263t270 -97q70 0 144.5 21.5t134.5 58.5l2 -107q-51 -37 -132 -58.5t-165 -21.5q-217 0 -346 125 t-129 336z" />
<glyph unicode="d" horiz-adv-x="1316" d="M117 422q0 158 72.5 297t202.5 227t286 88q129 0 229.5 -64.5t149.5 -176.5l170 866h119l-322 -1659h-115l27 160q-70 -90 -174 -141.5t-221 -51.5q-121 0 -217.5 56.5t-151.5 160t-55 238.5zM238 426q0 -160 90.5 -256t240.5 -96q117 0 218.5 64.5t165 180t63.5 254.5 q0 162 -90 258.5t-240 96.5q-117 0 -218 -64.5t-165.5 -180.5t-64.5 -257z" />
<glyph unicode="e" horiz-adv-x="1177" d="M117 422q0 162 70.5 301t199.5 225t287 86q176 0 285.5 -107.5t109.5 -279.5q0 -94 -25 -180h-808v-37q0 -172 100 -264t289 -92q74 0 155.5 21.5t155.5 60.5l4 -105q-61 -39 -152.5 -61.5t-179.5 -22.5q-227 0 -359 123t-132 332zM252 569h694q6 43 6 76 q0 133 -75.5 209t-210.5 76q-145 0 -261 -101.5t-153 -259.5z" />
<glyph unicode="f" horiz-adv-x="780" d="M139 897l21 104h205l38 205q90 463 451 463q57 0 111.5 -14.5t93.5 -40.5l-25 -103q-35 25 -85 39.5t-99 14.5q-133 0 -213 -92.5t-117 -284.5l-37 -187h330l-20 -104h-330l-174 -897h-119l174 897h-205z" />
<glyph unicode="g" horiz-adv-x="1316" d="M72 -406l26 105q70 -53 163 -84t190 -31q199 0 307 111.5t160 372.5l16 88q-70 -88 -173.5 -138.5t-219.5 -50.5q-121 0 -217.5 56.5t-151.5 160t-55 238.5q0 158 72.5 297t202.5 227t286 88q129 0 229.5 -63.5t151.5 -177.5l45 208h113l-181 -938q-57 -309 -196 -447 t-389 -138q-106 0 -211 32.5t-168 83.5zM238 426q0 -160 90.5 -256t240.5 -96q117 0 218.5 64.5t165 180t63.5 254.5q0 162 -90 258.5t-240 96.5q-117 0 -218 -64.5t-165.5 -180.5t-64.5 -257z" />
<glyph unicode="h" horiz-adv-x="1218" d="M100 0l322 1659h119l-158 -805q66 88 157 134t197 46q150 0 238 -87t88 -234q0 -45 -10 -103l-119 -610h-119l115 592q12 66 12 108q0 113 -59.5 170.5t-173.5 57.5q-90 0 -169 -45t-135.5 -131t-78.5 -203l-107 -549h-119z" />
<glyph unicode="i" horiz-adv-x="512" d="M100 0l195 1001h119l-195 -1001h-119zM340 1391q0 41 27.5 68.5t70.5 27.5q35 0 57.5 -22.5t22.5 -59.5q0 -41 -27.5 -68.5t-68.5 -27.5q-35 0 -58.5 23.5t-23.5 58.5z" />
<glyph unicode="j" horiz-adv-x="509" d="M-387 -477l25 98q78 -39 167 -39q109 0 175.5 73t95.5 220l217 1126h119l-217 -1120q-41 -207 -135.5 -305t-254.5 -98q-121 0 -192 45zM338 1391q0 41 27.5 68.5t70.5 27.5q35 0 57.5 -22.5t22.5 -59.5q0 -41 -27.5 -68.5t-68.5 -27.5q-35 0 -58.5 23.5t-23.5 58.5z" />
<glyph unicode="k" horiz-adv-x="1112" d="M100 0l322 1659h119l-205 -1059l584 401h172l-646 -440l535 -561h-154l-505 532l-103 -532h-119z" />
<glyph unicode="l" horiz-adv-x="514" d="M100 0l322 1659h119l-322 -1659h-119z" />
<glyph unicode="m" horiz-adv-x="1890" d="M100 0l195 1001h111l-29 -153q66 84 159 135t187 51q119 0 201 -62.5t104 -170.5q70 111 172.5 172t216.5 61q145 0 231.5 -86t86.5 -233q0 -43 -11 -105l-118 -610h-119l115 592q12 61 12 110q0 225 -225 226q-135 0 -235.5 -103.5t-135.5 -275.5l-107 -549h-118 l114 590q12 61 13 112q0 225 -222 226q-135 0 -236.5 -102.5t-135.5 -276.5l-107 -549h-119z" />
<glyph unicode="n" horiz-adv-x="1218" d="M100 0l195 1001h111l-29 -155q66 90 159 139t201 49q150 0 238 -87t88 -234q0 -45 -10 -103l-119 -610h-119l115 592q12 66 12 108q0 113 -59.5 170.5t-173.5 57.5q-90 0 -169 -45t-135.5 -131t-78.5 -203l-107 -549h-119z" />
<glyph unicode="o" horiz-adv-x="1255" d="M117 420q0 160 73.5 300t207.5 227t296 87q125 0 225.5 -56t159 -159.5t58.5 -236.5q0 -160 -74 -300.5t-207 -227.5t-295 -87q-125 0 -225 55.5t-159.5 159t-59.5 238.5zM238 426q0 -160 90.5 -256t240.5 -96q117 0 218.5 64.5t165 180t63.5 254.5q0 162 -90 258.5 t-240 96.5q-117 0 -218 -64.5t-165.5 -180.5t-64.5 -257z" />
<glyph unicode="p" horiz-adv-x="1318" d="M2 -502l291 1503h115l-29 -159q70 90 174 141t223 51q121 0 217.5 -56t151.5 -159.5t55 -238.5q0 -158 -72.5 -297.5t-202.5 -227.5t-286 -88q-129 0 -229.5 63.5t-151.5 178.5l-137 -711h-119zM301 428q0 -162 90 -258t240 -96q117 0 218 64.5t165.5 180t64.5 256.5 q0 160 -91 256.5t-240 96.5q-117 0 -218.5 -64.5t-165 -180.5t-63.5 -255z" />
<glyph unicode="q" horiz-adv-x="1314" d="M117 422q0 158 72.5 297t202.5 227t286 88q129 0 229.5 -63.5t151.5 -177.5l45 208h113l-291 -1503h-119l125 656q-70 -88 -173.5 -137.5t-217.5 -49.5q-121 0 -217.5 56.5t-151.5 160t-55 238.5zM238 426q0 -160 90.5 -256t240.5 -96q117 0 218.5 64.5t165 180 t63.5 254.5q0 162 -90 258.5t-240 96.5q-117 0 -218 -64.5t-165.5 -180.5t-64.5 -257z" />
<glyph unicode="r" horiz-adv-x="808" d="M100 0l195 1001h111l-35 -188q59 94 149 148.5t189 54.5q78 0 125 -27l-27 -108q-53 24 -114 24h-5q-135 0 -236.5 -116.5t-142.5 -321.5l-90 -467h-119z" />
<glyph unicode="s" horiz-adv-x="925" d="M35 88l26 105q72 -59 160 -91t178 -32q115 0 182.5 50t67.5 132q0 66 -47 112t-174 103q-139 63 -199.5 130t-60.5 159q0 123 95 200.5t247 77.5q82 0 169 -26.5t150 -71.5l-24 -102q-143 98 -297 98q-100 0 -162.5 -46t-62.5 -120q0 -59 43 -102t151 -93 q162 -74 227.5 -142.5t65.5 -166.5q0 -133 -103.5 -214t-275.5 -81q-98 0 -197.5 34t-158.5 87z" />
<glyph unicode="t" horiz-adv-x="864" d="M109 897l20 104h229l62 318h119l-62 -318h340l-20 -104h-340l-105 -539q-10 -57 -10 -112q0 -88 43 -131t131 -43q84 0 189 43l8 -101q-100 -47 -211 -47q-137 0 -209 68.5t-72 200.5q0 55 12 118l105 543h-229z" />
<glyph unicode="u" horiz-adv-x="1214" d="M158 289q0 47 10 102l119 610h119l-115 -591q-12 -63 -12 -109q0 -227 231 -227q141 0 243.5 102.5t137.5 276.5l106 548h119l-194 -1001h-111l27 156q-66 -92 -157 -140.5t-200 -48.5q-150 0 -236.5 87t-86.5 235z" />
<glyph unicode="v" horiz-adv-x="1050" d="M150 1001h122l183 -866l510 866h129l-607 -1001h-116z" />
<glyph unicode="w" horiz-adv-x="1607" d="M160 1001h116l123 -862l435 850h102l121 -846l459 858h124l-548 -1001h-111l-125 838l-426 -838h-115z" />
<glyph unicode="x" horiz-adv-x="1071" d="M-23 0l498 528l-272 473h131l221 -401l365 401h139l-455 -489l299 -512h-133l-246 438l-403 -438h-144z" />
<glyph unicode="y" horiz-adv-x="1073" d="M25 -502l362 559l-237 944h122l199 -821l514 821h131l-960 -1503h-131z" />
<glyph unicode="z" horiz-adv-x="1038" d="M16 0l17 98l766 799h-588l20 104h734l-19 -98l-766 -801h654l-19 -102h-799z" />
<glyph unicode="{" horiz-adv-x="866" d="M152 662l20 108h41q119 0 173 45t75 160q10 70 16 147.5t13.5 156.5t26 151.5t56 129t101 89t162.5 32.5q66 0 127 -16l-21 -94q-49 14 -102 14q-88 -2 -137.5 -42t-72 -107.5t-30.5 -148.5t-13 -164t-18 -154q-25 -121 -75 -179.5t-144 -76.5q66 -16 101.5 -63.5 t35.5 -121.5q-2 -63 -24.5 -138t-54 -153.5t-54 -151.5t-24.5 -130q0 -84 49 -120t166 -36q29 0 49 4l-16 -96q-37 -4 -70 -4q-141 0 -215 62.5t-74 183.5q2 63 24.5 139t54.5 156t54.5 153.5t24.5 128.5q0 72 -42 104t-136 32h-47z" />
<glyph unicode="|" horiz-adv-x="555" d="M31 -465l434 2239h119l-434 -2239h-119z" />
<glyph unicode="}" horiz-adv-x="866" d="M-23 -281l21 95q51 -14 102 -15q88 2 137.5 42t72 107.5t30.5 148.5t13 164t18 155q25 121 75 179t144 77q-66 16 -101.5 63t-35.5 121q2 63 24.5 138t54 154t54 151.5t24.5 130.5q0 84 -49 119.5t-166 35.5q-29 0 -49 -4l16 96q37 4 70 4q141 0 215 -62.5t74 -182.5 q-2 -63 -24.5 -139t-54.5 -156t-54.5 -154t-24.5 -129q0 -72 42 -103.5t136 -31.5h47l-20 -109h-41q-119 0 -173 -45t-75 -159q-10 -70 -16 -148t-13.5 -156.5t-25.5 -151.5t-56 -129t-102 -89t-162 -33q-66 0 -127 16z" />
<glyph unicode="~" horiz-adv-x="1269" d="M156 522q33 170 110.5 260t192.5 90q55 0 102 -24.5t89 -60t82 -71.5t79 -60.5t80 -24.5q68 0 113 58.5t73 182.5h107q-33 -170 -110 -260t-191 -90q-55 0 -102.5 24.5t-90.5 60.5t-83 72t-79 60.5t-77 24.5q-137 0 -189 -242h-106z" />
<glyph unicode="&#xa1;" horiz-adv-x="559" d="M8 -598l236 1167h102l-219 -1167h-119zM268 930q0 45 31 74.5t76 29.5q37 0 61.5 -25.5t24.5 -62.5q0 -45 -31 -74.5t-74 -29.5q-37 0 -62.5 25.5t-25.5 62.5z" />
<glyph unicode="&#xa2;" horiz-adv-x="1269" d="M219 440q0 141 65.5 271.5t183.5 217.5t265 101l51 260h93l-52 -258q74 -6 149 -30.5t124 -59.5l-23 -106q-59 41 -131 66.5t-137 27.5l-164 -836q10 -2 22.5 -2h24.5q145 0 279 82l2 -106q-49 -35 -127 -57.5t-154 -22.5q-35 0 -67 4l-50 -260h-92l54 274 q-150 39 -233 154.5t-83 279.5zM338 446q0 -121 56.5 -210t160.5 -123l158 809q-104 -18 -188.5 -85t-135.5 -170.5t-51 -220.5z" />
<glyph unicode="&#xa3;" horiz-adv-x="1269" d="M86 0l18 104h199l115 592h-199l21 103h198l37 196q53 274 190.5 417.5t348.5 143.5q70 0 143.5 -22.5t124.5 -58.5l-25 -105q-113 80 -245 80q-336 0 -424 -471l-35 -180h430l-20 -103h-431l-114 -592h645l-21 -104h-956z" />
<glyph unicode="&#xa4;" horiz-adv-x="1269" d="M205 451l153 155q-74 109 -73 248q0 137 73 250l-153 156l71 65l146 -149q119 109 278 108q78 0 151 -28.5t128 -79.5l147 149l72 -65l-156 -158q74 -106 74 -248q0 -135 -74 -248l156 -155l-72 -66l-145 147q-119 -106 -281 -106q-78 0 -150.5 27.5t-127.5 78.5 l-146 -147zM389 854q0 -147 87 -242.5t224 -95.5t225.5 95.5t88.5 242.5q0 150 -88 244t-226 94q-137 0 -224 -95.5t-87 -242.5z" />
<glyph unicode="&#xa5;" horiz-adv-x="1269" d="M143 342l21 100h401l45 234h-401l20 100h344l-297 748h123l283 -746l575 746h134l-588 -748h342l-21 -100h-401l-43 -234h399l-20 -100h-400l-63 -342h-115l66 342h-404z" />
<glyph unicode="&#xa6;" horiz-adv-x="555" d="M31 -465l178 911h119l-178 -911h-119zM289 862l176 912h119l-176 -912h-119z" />
<glyph unicode="&#xa7;" horiz-adv-x="983" d="M14 -139l27 104q66 -53 148.5 -82.5t170.5 -29.5q121 0 201 64.5t80 160.5q0 84 -51 136t-189 110q-127 53 -187 125.5t-60 173.5q0 135 89 234t230 122q-88 47 -129 108.5t-41 147.5q0 133 97.5 216t256.5 83q76 0 165 -27.5t151 -70.5l-25 -101q-68 47 -144.5 73 t-148.5 26q-109 0 -176 -53.5t-67 -137.5q0 -78 47 -124t178 -99q260 -106 260 -311q0 -135 -87 -232.5t-226 -120.5q90 -47 132 -112.5t42 -157.5t-50.5 -168t-142.5 -121t-211 -45q-96 0 -189 30t-151 79zM262 631q0 -88 67 -147.5t165 -59.5q123 0 207.5 80t84.5 196 q0 94 -64.5 152.5t-168.5 58.5q-123 0 -207 -80.5t-84 -199.5z" />
<glyph unicode="&#xa8;" horiz-adv-x="1024" d="M420 1391q0 41 27 67.5t65 26.5q33 0 54.5 -22.5t21.5 -55.5q0 -41 -26.5 -67.5t-65.5 -26.5q-33 0 -54.5 21.5t-21.5 56.5zM785 1391q0 41 26.5 67.5t65.5 26.5q33 0 54.5 -22.5t21.5 -55.5q0 -41 -26.5 -67.5t-65.5 -26.5q-33 0 -54.5 22.5t-21.5 55.5z" />
<glyph unicode="&#xa9;" horiz-adv-x="1660" d="M174 778q0 195 89 356.5t252 258t372 96.5q197 0 357.5 -88t256.5 -251t96 -372q0 -197 -88 -357.5t-250.5 -256.5t-371.5 -96q-197 0 -358.5 89t-258 251.5t-96.5 369.5zM276 778q0 -172 75 -311t214.5 -221t321.5 -82q172 0 309 75.5t218 216t81 322.5 q0 172 -74.5 311.5t-214 221.5t-319.5 82q-172 0 -310.5 -76t-219.5 -216t-81 -323zM532 784q0 106 47.5 193.5t133.5 138.5t198 51q123 0 215 -49l-14 -102q-86 49 -201 49q-117 0 -190.5 -77t-73.5 -202t75 -201.5t198 -76.5q106 0 210 55l15 -100q-98 -55 -227 -55 q-172 0 -279 103t-107 273z" />
<glyph unicode="&#xaa;" horiz-adv-x="952" d="M188 584l17 88h647l-16 -88h-648zM242 1137q0 109 50 204t139 155t198 60q84 0 149.5 -39.5t98.5 -109.5l32 129h90l-133 -680h-90l12 102q-53 -61 -120.5 -91.5t-143.5 -30.5q-123 0 -202.5 84t-79.5 217zM346 1145q0 -102 56.5 -160.5t152.5 -58.5q74 0 139.5 41 t107.5 114.5t42 163.5q0 102 -57.5 161.5t-155.5 59.5q-74 0 -138.5 -42t-105.5 -115.5t-41 -163.5z" />
<glyph unicode="&#xab;" horiz-adv-x="958" d="M72 526l368 426h138l-373 -434l196 -418h-127zM441 526l368 426h138l-373 -434l196 -418h-127z" />
<glyph unicode="&#xac;" horiz-adv-x="1269" d="M254 684l22 109h834l-84 -437h-115l64 328h-721z" />
<glyph unicode="&#xad;" horiz-adv-x="892" d="M164 524l22 117h576l-23 -117h-575z" />
<glyph unicode="&#xae;" horiz-adv-x="1056" d="M240 1241q0 117 54 214t154.5 157.5t223.5 60.5q117 0 215 -55t157.5 -154.5t59.5 -222.5q0 -115 -54.5 -213t-154.5 -158.5t-223 -60.5q-115 0 -213.5 55.5t-158.5 154.5t-60 222zM322 1241q0 -96 44 -177t125 -130t181 -49q94 0 174 45t129 127t49 184q0 96 -45 177 t-126 130t-181 49q-94 0 -174 -45t-128 -127t-48 -184zM526 1044v414h140q78 0 120.5 -34.5t42.5 -96.5q0 -84 -75 -119l102 -164h-86l-90 150h-80v-150h-74zM600 1260h57q49 0 71 15t22 52q0 35 -21.5 50.5t-66.5 15.5h-62v-133z" />
<glyph unicode="&#xaf;" horiz-adv-x="1024" d="M377 1337l19 105h594l-19 -105h-594z" />
<glyph unicode="&#xb0;" horiz-adv-x="1032" d="M322 1239q0 92 42 171t119.5 128t173.5 49q92 0 169 -44t123 -124t46 -180q0 -94 -43 -173t-121 -128t-174 -49q-90 0 -166.5 44t-122.5 125t-46 181zM424 1239q0 -111 65.5 -182.5t167.5 -71.5q100 0 167 71.5t67 182.5q0 109 -66.5 180.5t-167.5 71.5 q-100 0 -166.5 -71.5t-66.5 -180.5z" />
<glyph unicode="&#xb1;" horiz-adv-x="1269" d="M92 2l20 108h899l-20 -108h-899zM238 739l21 108h387l77 406h117l-80 -406h387l-20 -108h-387l-80 -404h-115l80 404h-387z" />
<glyph unicode="&#xb2;" d="M219 934l14 92q119 90 281 234q121 109 167 174t46 131q0 61 -39 97t-109 36q-61 0 -120.5 -28.5t-104.5 -80.5l-16 93q43 49 111.5 78.5t138.5 29.5q109 0 174 -61.5t65 -159.5q0 -82 -55 -164t-195 -205q-82 -72 -213 -174h408l-19 -92h-534z" />
<glyph unicode="&#xb3;" d="M209 989l22 88q96 -78 215 -77q94 0 158.5 57t64.5 141q0 70 -41.5 109t-121.5 39q-41 0 -78 -11l-25 64l297 280h-358l20 91h480l-17 -84l-278 -263q98 -2 160.5 -64.5t62.5 -158.5q0 -123 -92.5 -204.5t-231.5 -81.5q-68 0 -132 20t-105 55z" />
<glyph unicode="&#xb4;" horiz-adv-x="1024" d="M467 1227l318 356h149l-342 -356h-125z" />
<glyph unicode="&#xb5;" horiz-adv-x="1210" d="M-10 -502l291 1503h118l-114 -587q-12 -61 -13 -113q0 -111 58.5 -169t173.5 -58q141 0 243.5 102.5t137.5 276.5l106 548h119l-195 -1001h-110l29 158q-70 -92 -162 -141.5t-197 -49.5q-100 0 -162.5 37t-83.5 109l-120 -615h-119z" />
<glyph unicode="&#xb6;" horiz-adv-x="1216" d="M219 1085q0 139 62.5 245t180.5 166t277 60h486l-355 -1822h-112l332 1714h-265l-331 -1714h-115l196 1011q-166 4 -261 94.5t-95 245.5z" />
<glyph unicode="&#xb7;" horiz-adv-x="593" d="M256 768q0 45 30.5 74.5t73.5 29.5q37 0 62.5 -25.5t25.5 -62.5q0 -45 -30.5 -74.5t-75.5 -29.5q-37 0 -61.5 25.5t-24.5 62.5z" />
<glyph unicode="&#xb8;" horiz-adv-x="1024" d="M123 -479l20 88q31 -18 75 -29.5t87 -11.5q72 0 114.5 31.5t42.5 83.5q0 94 -122 94q-51 0 -84 -8l106 251h88l-71 -167q82 0 133 -47.5t51 -122.5q0 -92 -71.5 -148.5t-186.5 -56.5q-117 0 -182 43z" />
<glyph unicode="&#xb9;" d="M364 1544l4 95l301 131h86l-161 -836h-101l140 725z" />
<glyph unicode="&#xba;" horiz-adv-x="915" d="M168 584l16 88h645l-18 -88h-643zM240 1143q0 109 50 203t142 152t205 58q135 0 220 -86t85 -223q0 -109 -51 -203t-143 -151t-205 -57q-133 0 -218 86t-85 221zM344 1149q0 -104 56.5 -164.5t152.5 -60.5q74 0 139.5 41t106.5 114.5t41 161.5q0 106 -57.5 166.5 t-155.5 60.5q-72 0 -136.5 -41t-105.5 -114.5t-41 -163.5z" />
<glyph unicode="&#xbb;" horiz-adv-x="958" d="M20 100l373 435l-196 417h127l202 -426l-368 -426h-138zM389 100l373 435l-196 417h127l202 -426l-368 -426h-138z" />
<glyph unicode="&#xbc;" horiz-adv-x="1906" d="M262 0l1427 1524h137l-1427 -1524h-137zM317 1298l4 95l301 131h86l-161 -836h-101l140 725zM1153 213l16 84l500 539h98l-104 -539h116l-16 -84h-117l-41 -213h-92l41 213h-401zM1275 297h297l78 401z" />
<glyph unicode="&#xbd;" horiz-adv-x="1906" d="M162 0l1427 1524h137l-1427 -1524h-137zM317 1298l4 95l301 131h86l-161 -836h-101l140 725zM1165 0l14 92q119 90 281 234q121 109 167 174t46 131q0 61 -39 97t-109 36q-61 0 -120.5 -28.5t-104.5 -80.5l-16 93q43 49 111.5 78.5t138.5 29.5q109 0 174 -61.5t65 -159.5 q0 -82 -55 -164t-195 -205q-82 -72 -213 -174h408l-19 -92h-534z" />
<glyph unicode="&#xbe;" horiz-adv-x="1906" d="M162 743l22 88q96 -78 215 -77q94 0 158.5 57t64.5 141q0 70 -41.5 109t-121.5 39q-41 0 -78 -11l-25 64l297 280h-358l20 91h480l-17 -84l-278 -263q98 -2 160.5 -64.5t62.5 -158.5q0 -123 -92.5 -204.5t-231.5 -81.5q-68 0 -132 20t-105 55zM283 0l1427 1524h137 l-1427 -1524h-137zM1153 213l16 84l500 539h98l-104 -539h116l-16 -84h-117l-41 -213h-92l41 213h-401zM1275 297h297l78 401z" />
<glyph unicode="&#xbf;" horiz-adv-x="974" d="M-51 -295q2 104 41 181t100.5 136.5t131 112.5t133 113.5t104.5 137.5t45 183h108q-4 -121 -45 -208t-102.5 -152.5t-129 -118.5t-128 -106.5t-98 -117t-39.5 -149.5q0 -102 73.5 -164.5t194.5 -62.5q102 0 200.5 46t176.5 130l18 -108q-70 -80 -180 -128t-223 -48 q-104 0 -191.5 39.5t-138.5 113.5t-51 170zM526 930q0 45 31 74.5t76 29.5q37 0 61.5 -25.5t24.5 -62.5q0 -45 -31 -74.5t-74 -29.5q-37 0 -62.5 25.5t-25.5 62.5z" />
<glyph unicode="&#xc0;" horiz-adv-x="1505" d="M-37 0l922 1556h139l322 -1556h-132l-98 498h-729l-291 -498h-133zM449 604h647l-164 828zM737 1974h148l223 -264h-125z" />
<glyph unicode="&#xc1;" horiz-adv-x="1505" d="M-37 0l922 1556h139l322 -1556h-132l-98 498h-729l-291 -498h-133zM449 604h647l-164 828zM831 1710l320 264h170l-352 -264h-138z" />
<glyph unicode="&#xc2;" horiz-adv-x="1505" d="M-37 0l922 1556h139l322 -1556h-132l-98 498h-729l-291 -498h-133zM449 604h647l-164 828zM632 1710l345 291h106l231 -291h-124l-168 211l-246 -211h-144z" />
<glyph unicode="&#xc3;" horiz-adv-x="1505" d="M-37 0l922 1556h139l322 -1556h-132l-98 498h-729l-291 -498h-133zM449 604h647l-164 828zM655 1708q16 125 71.5 190.5t141.5 65.5q51 -2 88 -25.5t66 -54.5t56.5 -54.5t62.5 -25.5q49 0 76.5 37t39.5 121h93q-16 -125 -71.5 -190.5t-141.5 -65.5q-51 2 -88 25.5 t-66 55.5t-56.5 55.5t-62.5 25.5q-49 0 -76.5 -39t-39.5 -121h-93z" />
<glyph unicode="&#xc4;" horiz-adv-x="1505" d="M-37 0l922 1556h139l322 -1556h-132l-98 498h-729l-291 -498h-133zM449 604h647l-164 828zM733 1808q0 41 26.5 68t65.5 27q33 0 55.5 -21.5t22.5 -54.5q0 -41 -26.5 -67.5t-65.5 -26.5q-33 0 -55.5 21.5t-22.5 53.5zM1100 1808q0 41 26.5 68t65.5 27q33 0 54.5 -21.5 t21.5 -54.5q0 -41 -25.5 -67.5t-66.5 -26.5q-33 0 -54.5 21.5t-21.5 53.5z" />
<glyph unicode="&#xc5;" horiz-adv-x="1505" d="M-37 0l922 1556h139l322 -1556h-132l-98 498h-729l-291 -498h-133zM449 604h647l-164 828zM761 1923q0 109 73 178.5t185 69.5q113 0 187 -70.5t74 -177.5q0 -106 -74 -177t-187 -71q-111 0 -184.5 71t-73.5 177zM852 1923q0 -74 45.5 -120t121.5 -46t123 46t47 120 t-47 120t-123 46t-121.5 -45t-45.5 -121z" />
<glyph unicode="&#xc6;" horiz-adv-x="2205" d="M-55 0l1329 1556h928l-21 -110h-749l-115 -590h674l-21 -108h-674l-122 -637h802l-20 -111h-930l96 498h-604l-422 -498h-151zM608 604h535l157 813z" />
<glyph unicode="&#xc7;" horiz-adv-x="1579" d="M195 684q0 240 109.5 443.5t309 327.5t447.5 124q131 0 258 -38t225 -105l-31 -113q-215 139 -462 139q-193 0 -358 -97t-266 -274.5t-101 -394.5q0 -174 70.5 -310t205.5 -214t316 -78q106 0 220.5 28t219.5 79l4 -119q-209 -105 -449 -105q-209 0 -371.5 86.5 t-254.5 247t-92 373.5zM524 -479l21 90q29 -20 73 -31.5t89 -11.5q72 0 114.5 31.5t42.5 83.5q0 92 -125 92q-49 0 -82 -8l107 253h90l-72 -167h11q51 -2 90 -24t60.5 -58.5t21.5 -85.5q0 -90 -72.5 -148.5t-185.5 -58.5q-51 0 -100.5 11t-82.5 32z" />
<glyph unicode="&#xc8;" horiz-adv-x="1333" d="M154 0l301 1556h874l-20 -110h-750l-115 -590h674l-20 -108h-674l-123 -637h803l-21 -111h-929zM688 1974h148l223 -264h-125z" />
<glyph unicode="&#xc9;" horiz-adv-x="1333" d="M154 0l301 1556h874l-20 -110h-750l-115 -590h674l-20 -108h-674l-123 -637h803l-21 -111h-929zM782 1710l320 264h170l-352 -264h-138z" />
<glyph unicode="&#xca;" horiz-adv-x="1333" d="M154 0l301 1556h874l-20 -110h-750l-115 -590h674l-20 -108h-674l-123 -637h803l-21 -111h-929zM583 1710l345 291h106l231 -291h-124l-168 211l-246 -211h-144z" />
<glyph unicode="&#xcb;" horiz-adv-x="1333" d="M154 0l301 1556h874l-20 -110h-750l-115 -590h674l-20 -108h-674l-123 -637h803l-21 -111h-929zM684 1808q0 41 26.5 68t65.5 27q33 0 55.5 -21.5t22.5 -54.5q0 -41 -26.5 -67.5t-65.5 -26.5q-33 0 -55.5 21.5t-22.5 53.5zM1051 1808q0 41 26.5 68t65.5 27 q33 0 54.5 -21.5t21.5 -54.5q0 -41 -25.5 -67.5t-66.5 -26.5q-33 0 -54.5 21.5t-21.5 53.5z" />
<glyph unicode="&#xcc;" horiz-adv-x="624" d="M154 0l301 1556h125l-301 -1556h-125zM299 1974h148l223 -264h-125z" />
<glyph unicode="&#xcd;" horiz-adv-x="624" d="M154 0l301 1556h125l-301 -1556h-125zM393 1710l320 264h170l-352 -264h-138z" />
<glyph unicode="&#xce;" horiz-adv-x="624" d="M154 0l301 1556h125l-301 -1556h-125zM194 1710l345 291h106l231 -291h-124l-168 211l-246 -211h-144z" />
<glyph unicode="&#xcf;" horiz-adv-x="624" d="M154 0l301 1556h125l-301 -1556h-125zM295 1808q0 41 26.5 68t65.5 27q33 0 55.5 -21.5t22.5 -54.5q0 -41 -26.5 -67.5t-65.5 -26.5q-33 0 -55.5 21.5t-22.5 53.5zM662 1808q0 41 26.5 68t65.5 27q33 0 54.5 -21.5t21.5 -54.5q0 -41 -25.5 -67.5t-66.5 -26.5 q-33 0 -54.5 21.5t-21.5 53.5z" />
<glyph unicode="&#xd0;" horiz-adv-x="1740" d="M104 733l19 103h213l139 720h459q340 0 531.5 -175t191.5 -484q0 -260 -117 -463t-335 -318.5t-509 -115.5h-522l141 733h-211zM322 113h385q238 0 423 94t290.5 271t105.5 413q0 266 -157 409.5t-447 143.5h-342l-119 -608h381l-21 -103h-381z" />
<glyph unicode="&#xd1;" horiz-adv-x="1777" d="M154 0l301 1556h123l770 -1382l266 1382h119l-301 -1556h-121l-770 1382l-269 -1382h-118zM792 1708q16 125 71.5 190.5t141.5 65.5q51 -2 88 -25.5t66 -54.5t56.5 -54.5t62.5 -25.5q49 0 76.5 37t39.5 121h93q-16 -125 -71.5 -190.5t-141.5 -65.5q-51 2 -88 25.5 t-66 55.5t-56.5 55.5t-62.5 25.5q-49 0 -76.5 -39t-39.5 -121h-93z" />
<glyph unicode="&#xd2;" horiz-adv-x="1843" d="M195 674q0 240 108.5 447.5t305 337.5t433.5 130q203 0 365 -88t256 -249.5t94 -370.5q0 -240 -108.5 -447t-304 -337t-433.5 -130q-201 0 -363.5 87t-257.5 249t-95 371zM326 688q0 -176 71.5 -312t208 -214t316.5 -78q182 0 341.5 101.5t261 282.5t101.5 400 q0 176 -71.5 312.5t-207 214.5t-315.5 78q-184 0 -345 -101.5t-261 -283t-100 -400.5zM852 1974h148l223 -264h-125z" />
<glyph unicode="&#xd3;" horiz-adv-x="1843" d="M195 674q0 240 108.5 447.5t305 337.5t433.5 130q203 0 365 -88t256 -249.5t94 -370.5q0 -240 -108.5 -447t-304 -337t-433.5 -130q-201 0 -363.5 87t-257.5 249t-95 371zM326 688q0 -176 71.5 -312t208 -214t316.5 -78q182 0 341.5 101.5t261 282.5t101.5 400 q0 176 -71.5 312.5t-207 214.5t-315.5 78q-184 0 -345 -101.5t-261 -283t-100 -400.5zM946 1710l320 264h170l-352 -264h-138z" />
<glyph unicode="&#xd4;" horiz-adv-x="1843" d="M195 674q0 240 108.5 447.5t305 337.5t433.5 130q203 0 365 -88t256 -249.5t94 -370.5q0 -240 -108.5 -447t-304 -337t-433.5 -130q-201 0 -363.5 87t-257.5 249t-95 371zM326 688q0 -176 71.5 -312t208 -214t316.5 -78q182 0 341.5 101.5t261 282.5t101.5 400 q0 176 -71.5 312.5t-207 214.5t-315.5 78q-184 0 -345 -101.5t-261 -283t-100 -400.5zM747 1710l345 291h106l231 -291h-124l-168 211l-246 -211h-144z" />
<glyph unicode="&#xd5;" horiz-adv-x="1843" d="M195 674q0 240 108.5 447.5t305 337.5t433.5 130q203 0 365 -88t256 -249.5t94 -370.5q0 -240 -108.5 -447t-304 -337t-433.5 -130q-201 0 -363.5 87t-257.5 249t-95 371zM326 688q0 -176 71.5 -312t208 -214t316.5 -78q182 0 341.5 101.5t261 282.5t101.5 400 q0 176 -71.5 312.5t-207 214.5t-315.5 78q-184 0 -345 -101.5t-261 -283t-100 -400.5zM770 1708q16 125 71.5 190.5t141.5 65.5q51 -2 88 -25.5t66 -54.5t56.5 -54.5t62.5 -25.5q49 0 76.5 37t39.5 121h93q-16 -125 -71.5 -190.5t-141.5 -65.5q-51 2 -88 25.5t-66 55.5 t-56.5 55.5t-62.5 25.5q-49 0 -76.5 -39t-39.5 -121h-93z" />
<glyph unicode="&#xd6;" horiz-adv-x="1843" d="M195 674q0 240 108.5 447.5t305 337.5t433.5 130q203 0 365 -88t256 -249.5t94 -370.5q0 -240 -108.5 -447t-304 -337t-433.5 -130q-201 0 -363.5 87t-257.5 249t-95 371zM326 688q0 -176 71.5 -312t208 -214t316.5 -78q182 0 341.5 101.5t261 282.5t101.5 400 q0 176 -71.5 312.5t-207 214.5t-315.5 78q-184 0 -345 -101.5t-261 -283t-100 -400.5zM848 1808q0 41 26.5 68t65.5 27q33 0 55.5 -21.5t22.5 -54.5q0 -41 -26.5 -67.5t-65.5 -26.5q-33 0 -55.5 21.5t-22.5 53.5zM1215 1808q0 41 26.5 68t65.5 27q33 0 54.5 -21.5 t21.5 -54.5q0 -41 -25.5 -67.5t-66.5 -26.5q-33 0 -54.5 21.5t-21.5 53.5z" />
<glyph unicode="&#xd7;" horiz-adv-x="1269" d="M246 373l354 315l-238 316l84 67l234 -311l348 311l68 -72l-357 -317l238 -311l-86 -70l-232 309l-348 -309z" />
<glyph unicode="&#xd8;" horiz-adv-x="1843" d="M147 61l187 177q-139 184 -139 436q0 240 108.5 447.5t305 337.5t433.5 130q152 0 284 -51t230 -147l187 176l65 -76l-186 -176q135 -184 135 -434q0 -240 -108.5 -447t-304 -337t-433.5 -130q-152 0 -281.5 50.5t-228.5 144.5l-186 -176zM326 688q0 -215 100 -362 l1038 979q-80 82 -190.5 125t-241.5 43q-184 0 -345 -101.5t-261 -283t-100 -400.5zM492 248q80 -80 189.5 -122t240.5 -42q182 0 341.5 101.5t261 282.5t101.5 400q0 207 -98 357z" />
<glyph unicode="&#xd9;" horiz-adv-x="1687" d="M233 487q0 74 19 160l176 909h125l-172 -890q-16 -92 -16 -164q0 -201 113.5 -309.5t322.5 -108.5q233 0 372.5 139t196.5 432l174 901h125l-180 -931q-125 -658 -698 -658q-256 0 -407 140.5t-151 379.5zM815 1974h148l223 -264h-125z" />
<glyph unicode="&#xda;" horiz-adv-x="1687" d="M233 487q0 74 19 160l176 909h125l-172 -890q-16 -92 -16 -164q0 -201 113.5 -309.5t322.5 -108.5q233 0 372.5 139t196.5 432l174 901h125l-180 -931q-125 -658 -698 -658q-256 0 -407 140.5t-151 379.5zM909 1710l320 264h170l-352 -264h-138z" />
<glyph unicode="&#xdb;" horiz-adv-x="1687" d="M233 487q0 74 19 160l176 909h125l-172 -890q-16 -92 -16 -164q0 -201 113.5 -309.5t322.5 -108.5q233 0 372.5 139t196.5 432l174 901h125l-180 -931q-125 -658 -698 -658q-256 0 -407 140.5t-151 379.5zM710 1710l345 291h106l231 -291h-124l-168 211l-246 -211h-144z " />
<glyph unicode="&#xdc;" horiz-adv-x="1687" d="M233 487q0 74 19 160l176 909h125l-172 -890q-16 -92 -16 -164q0 -201 113.5 -309.5t322.5 -108.5q233 0 372.5 139t196.5 432l174 901h125l-180 -931q-125 -658 -698 -658q-256 0 -407 140.5t-151 379.5zM811 1808q0 41 26.5 68t65.5 27q33 0 55.5 -21.5t22.5 -54.5 q0 -41 -26.5 -67.5t-65.5 -26.5q-33 0 -55.5 21.5t-22.5 53.5zM1178 1808q0 41 26.5 68t65.5 27q33 0 54.5 -21.5t21.5 -54.5q0 -41 -25.5 -67.5t-66.5 -26.5q-33 0 -54.5 21.5t-21.5 53.5z" />
<glyph unicode="&#xdd;" horiz-adv-x="1406" d="M264 1556h133l357 -765l655 765h143l-751 -870l-133 -686h-125l133 692zM774 1710l320 264h170l-352 -264h-138z" />
<glyph unicode="&#xde;" horiz-adv-x="1300" d="M154 0l301 1556h125l-58 -292h226q231 0 361 -107.5t130 -298.5q0 -156 -71.5 -275.5t-206 -186t-314.5 -66.5h-305l-63 -330h-125zM362 440h293q211 0 334 111t123 299q0 150 -97 226.5t-284 76.5h-229z" />
<glyph unicode="&#xdf;" horiz-adv-x="1310" d="M98 0l230 1174q47 238 179 366.5t327 128.5q174 0 283.5 -100.5t109.5 -259.5q0 -147 -88 -268t-232 -169q80 -23 140.5 -76t94.5 -131.5t34 -172.5q0 -143 -64.5 -262t-182.5 -191t-270 -72q-84 0 -158.5 22.5t-123.5 61.5l29 101q49 -39 116.5 -60.5t136.5 -21.5 q109 0 199 53t144.5 149.5t54.5 216.5q0 156 -96.5 242t-266.5 86h-57l20 105h76q96 0 181 48t139.5 134t54.5 190q0 125 -75 197t-208 72q-152 0 -250 -106.5t-137 -311.5l-221 -1145h-119z" />
<glyph unicode="&#xe0;" horiz-adv-x="1314" d="M117 422q0 158 72 297q73 139 203 227t286 88q129 0 229 -63t152 -178l45 208h113l-193 -1001h-115l27 160q-70 -90 -174 -142q-104 -51 -221 -51q-121 0 -217 57q-96 56 -152 159q-55 103 -55 239zM238 426q0 -160 91 -256q90 -96 240 -96q117 0 218 64q101 65 165 180 q63 116 64 255q0 162 -90 258t-240 97q-117 0 -218 -65t-166 -180q-65 -116 -64 -257zM605 1583h131l178 -356h-107z" />
<glyph unicode="&#xe1;" horiz-adv-x="1314" d="M117 422q0 158 72 297q73 139 203 227t286 88q129 0 229 -63t152 -178l45 208h113l-193 -1001h-115l27 160q-70 -90 -174 -142q-104 -51 -221 -51q-121 0 -217 57q-96 56 -152 159q-55 103 -55 239zM238 426q0 -160 91 -256q90 -96 240 -96q117 0 218 64q101 65 165 180 q63 116 64 255q0 162 -90 258t-240 97q-117 0 -218 -65t-166 -180q-65 -116 -64 -257zM629 1227l318 356h149l-342 -356h-125z" />
<glyph unicode="&#xe2;" horiz-adv-x="1314" d="M117 422q0 158 72 297q73 139 203 227t286 88q129 0 229 -63t152 -178l45 208h113l-193 -1001h-115l27 160q-70 -90 -174 -142q-104 -51 -221 -51q-121 0 -217 57q-96 56 -152 159q-55 103 -55 239zM238 426q0 -160 91 -256q90 -96 240 -96q117 0 218 64q101 65 165 180 q63 116 64 255q0 162 -90 258t-240 97q-117 0 -218 -65t-166 -180q-65 -116 -64 -257zM441 1227l350 356h96l227 -356h-114l-168 274l-264 -274h-127z" />
<glyph unicode="&#xe3;" horiz-adv-x="1314" d="M117 422q0 158 72 297q73 139 203 227t286 88q129 0 229 -63t152 -178l45 208h113l-193 -1001h-115l27 160q-70 -90 -174 -142q-104 -51 -221 -51q-121 0 -217 57q-96 56 -152 159q-55 103 -55 239zM238 426q0 -160 91 -256q90 -96 240 -96q117 0 218 64q101 65 165 180 q63 116 64 255q0 162 -90 258t-240 97q-117 0 -218 -65t-166 -180q-65 -116 -64 -257zM465 1274q16 125 70.5 190.5t142.5 65.5q51 -2 87 -25.5t64 -55.5t53.5 -55.5t58.5 -25.5q92 0 118 160h92q-16 -125 -70.5 -190.5t-142.5 -65.5q-51 2 -86.5 25.5t-62.5 54t-53.5 54.5 t-59.5 26q-47 0 -75.5 -39t-40.5 -119h-95z" />
<glyph unicode="&#xe4;" horiz-adv-x="1314" d="M117 422q0 158 72 297q73 139 203 227t286 88q129 0 229 -63t152 -178l45 208h113l-193 -1001h-115l27 160q-70 -90 -174 -142q-104 -51 -221 -51q-121 0 -217 57q-96 56 -152 159q-55 103 -55 239zM238 426q0 -160 91 -256q90 -96 240 -96q117 0 218 64q101 65 165 180 q63 116 64 255q0 162 -90 258t-240 97q-117 0 -218 -65t-166 -180q-65 -116 -64 -257zM547 1391q0 41 27 67.5t65 26.5q33 0 54.5 -22.5t21.5 -55.5q0 -41 -26.5 -67.5t-65.5 -26.5q-33 0 -54.5 21.5t-21.5 56.5zM912 1391q0 41 26.5 67.5t65.5 26.5q33 0 54.5 -22.5 t21.5 -55.5q0 -41 -26.5 -67.5t-65.5 -26.5q-33 0 -54.5 22.5t-21.5 55.5z" />
<glyph unicode="&#xe5;" horiz-adv-x="1314" d="M117 422q0 158 72 297q73 139 203 227t286 88q129 0 229 -63t152 -178l45 208h113l-193 -1001h-115l27 160q-70 -90 -174 -142q-104 -51 -221 -51q-121 0 -217 57q-96 56 -152 159q-55 103 -55 239zM238 426q0 -160 91 -256q90 -96 240 -96q117 0 218 64q101 65 165 180 q63 116 64 255q0 162 -90 258t-240 97q-117 0 -218 -65t-166 -180q-65 -116 -64 -257zM547 1452q0 109 73 178.5t185 69.5q113 0 186.5 -70.5t73.5 -177.5q0 -106 -73.5 -177t-186.5 -71q-111 0 -184.5 71t-73.5 177zM637 1452q0 -74 47 -120t121 -46q76 0 123 46t47 120 t-47 120t-123 46t-122 -46t-46 -120z" />
<glyph unicode="&#xe6;" horiz-adv-x="2050" d="M117 422q0 158 72.5 297t202.5 227t286 88q129 0 229.5 -63.5t151.5 -177.5l45 208h102l-30 -155q74 90 169 139t201 49q176 0 286 -107.5t110 -279.5q0 -94 -25 -180h-809v-37q0 -172 100.5 -264t288.5 -92q74 0 156 21.5t155 60.5l4 -105q-61 -39 -152 -61.5 t-179 -22.5q-158 0 -268.5 64.5t-157.5 185.5l-41 -217h-105l27 160q-70 -90 -174 -141.5t-221 -51.5q-121 0 -217.5 56.5t-151.5 160t-55 238.5zM238 426q0 -160 90.5 -256t240.5 -96q117 0 218.5 64.5t165 180t63.5 254.5q0 162 -90 258.5t-240 96.5q-117 0 -218 -64.5 t-165.5 -180.5t-64.5 -257zM1124 569h695q6 43 6 76q0 133 -76 209t-211 76q-145 0 -261 -101.5t-153 -259.5z" />
<glyph unicode="&#xe7;" horiz-adv-x="1075" d="M117 430q0 156 74.5 292t209 222t297.5 86q86 0 171 -25.5t147 -68.5l-23 -107q-61 45 -140 70t-157 25q-119 0 -223 -62.5t-169.5 -175.5t-65.5 -250q0 -166 100 -263t270 -97q70 0 144.5 21.5t134.5 58.5l2 -107q-51 -37 -132 -58.5t-165 -21.5q-217 0 -346 125 t-129 336zM271 -479l20 88q31 -18 75 -29.5t87 -11.5q72 0 114.5 31.5t42.5 83.5q0 94 -122 94q-51 0 -84 -8l106 251h88l-71 -167q82 0 133 -47.5t51 -122.5q0 -92 -71.5 -148.5t-186.5 -56.5q-117 0 -182 43z" />
<glyph unicode="&#xe8;" horiz-adv-x="1177" d="M117 422q0 162 70.5 301t199.5 225t287 86q176 0 285.5 -107.5t109.5 -279.5q0 -94 -25 -180h-808v-37q0 -172 100 -264t289 -92q74 0 155.5 21.5t155.5 60.5l4 -105q-61 -39 -152.5 -61.5t-179.5 -22.5q-227 0 -359 123t-132 332zM252 569h694q6 43 6 76 q0 133 -75.5 209t-210.5 76q-145 0 -261 -101.5t-153 -259.5zM514 1583h131l178 -356h-107z" />
<glyph unicode="&#xe9;" horiz-adv-x="1177" d="M117 422q0 162 70.5 301t199.5 225t287 86q176 0 285.5 -107.5t109.5 -279.5q0 -94 -25 -180h-808v-37q0 -172 100 -264t289 -92q74 0 155.5 21.5t155.5 60.5l4 -105q-61 -39 -152.5 -61.5t-179.5 -22.5q-227 0 -359 123t-132 332zM252 569h694q6 43 6 76 q0 133 -75.5 209t-210.5 76q-145 0 -261 -101.5t-153 -259.5zM538 1227l318 356h149l-342 -356h-125z" />
<glyph unicode="&#xea;" horiz-adv-x="1177" d="M117 422q0 162 70.5 301t199.5 225t287 86q176 0 285.5 -107.5t109.5 -279.5q0 -94 -25 -180h-808v-37q0 -172 100 -264t289 -92q74 0 155.5 21.5t155.5 60.5l4 -105q-61 -39 -152.5 -61.5t-179.5 -22.5q-227 0 -359 123t-132 332zM252 569h694q6 43 6 76 q0 133 -75.5 209t-210.5 76q-145 0 -261 -101.5t-153 -259.5zM351 1227l350 356h96l227 -356h-114l-168 274l-264 -274h-127z" />
<glyph unicode="&#xeb;" horiz-adv-x="1177" d="M117 422q0 162 70.5 301t199.5 225t287 86q176 0 285.5 -107.5t109.5 -279.5q0 -94 -25 -180h-808v-37q0 -172 100 -264t289 -92q74 0 155.5 21.5t155.5 60.5l4 -105q-61 -39 -152.5 -61.5t-179.5 -22.5q-227 0 -359 123t-132 332zM252 569h694q6 43 6 76 q0 133 -75.5 209t-210.5 76q-145 0 -261 -101.5t-153 -259.5zM456 1391q0 41 27 67.5t65 26.5q33 0 54.5 -22.5t21.5 -55.5q0 -41 -26.5 -67.5t-65.5 -26.5q-33 0 -54.5 21.5t-21.5 56.5zM821 1391q0 41 26.5 67.5t65.5 26.5q33 0 54.5 -22.5t21.5 -55.5q0 -41 -26.5 -67.5 t-65.5 -26.5q-33 0 -54.5 22.5t-21.5 55.5z" />
<glyph unicode="&#xec;" horiz-adv-x="512" d="M100 0l195 1001h119l-195 -1001h-119zM222 1583h131l178 -356h-107z" />
<glyph unicode="&#xed;" horiz-adv-x="512" d="M100 0l195 1001h119l-195 -1001h-119zM246 1227l318 356h149l-342 -356h-125z" />
<glyph unicode="&#xee;" horiz-adv-x="512" d="M58 1227l350 356h96l227 -356h-114l-168 274l-264 -274h-127zM100 0l195 1001h119l-195 -1001h-119z" />
<glyph unicode="&#xef;" horiz-adv-x="512" d="M100 0l195 1001h119l-195 -1001h-119zM164 1391q0 41 27 67.5t65 26.5q33 0 54.5 -22.5t21.5 -55.5q0 -41 -26.5 -67.5t-65.5 -26.5q-33 0 -54.5 21.5t-21.5 56.5zM529 1391q0 41 26.5 67.5t65.5 26.5q33 0 54.5 -22.5t21.5 -55.5q0 -41 -26.5 -67.5t-65.5 -26.5 q-33 0 -54.5 22.5t-21.5 55.5z" />
<glyph unicode="&#xf0;" horiz-adv-x="1267" d="M117 434q0 154 71.5 290t200.5 223t283 87q117 0 207 -51t137 -143q-49 264 -205 495l-317 -157l-37 86l301 149q-102 127 -219 225l143 13q96 -86 174 -189l246 121l37 -86l-226 -113q111 -168 168.5 -354t57.5 -377q0 -188 -70 -343.5t-199 -249t-295 -93.5 q-133 0 -236 57.5t-162.5 163t-59.5 246.5zM236 444q0 -170 93 -270t249 -100q113 0 212 64.5t162.5 180t63.5 254.5q0 160 -91 257.5t-241 97.5q-115 0 -216 -62.5t-166.5 -174t-65.5 -247.5z" />
<glyph unicode="&#xf1;" horiz-adv-x="1218" d="M100 0l195 1001h111l-29 -155q66 90 159 139t201 49q150 0 238 -87t88 -234q0 -45 -10 -103l-119 -610h-119l115 592q12 66 12 108q0 113 -59.5 170.5t-173.5 57.5q-90 0 -169 -45t-135.5 -131t-78.5 -203l-107 -549h-119zM442 1274q16 125 70.5 190.5t142.5 65.5 q51 -2 87 -25.5t64 -55.5t53.5 -55.5t58.5 -25.5q92 0 118 160h92q-16 -125 -70.5 -190.5t-142.5 -65.5q-51 2 -86.5 25.5t-62.5 54t-53.5 54.5t-59.5 26q-47 0 -75.5 -39t-40.5 -119h-95z" />
<glyph unicode="&#xf2;" horiz-adv-x="1255" d="M117 420q0 160 73.5 300t207.5 227t296 87q125 0 225.5 -56t159 -159.5t58.5 -236.5q0 -160 -74 -300.5t-207 -227.5t-295 -87q-125 0 -225 55.5t-159.5 159t-59.5 238.5zM238 426q0 -160 90.5 -256t240.5 -96q117 0 218.5 64.5t165 180t63.5 254.5q0 162 -90 258.5 t-240 96.5q-117 0 -218 -64.5t-165.5 -180.5t-64.5 -257zM576 1583h131l178 -356h-107z" />
<glyph unicode="&#xf3;" horiz-adv-x="1255" d="M117 420q0 160 73.5 300t207.5 227t296 87q125 0 225.5 -56t159 -159.5t58.5 -236.5q0 -160 -74 -300.5t-207 -227.5t-295 -87q-125 0 -225 55.5t-159.5 159t-59.5 238.5zM238 426q0 -160 90.5 -256t240.5 -96q117 0 218.5 64.5t165 180t63.5 254.5q0 162 -90 258.5 t-240 96.5q-117 0 -218 -64.5t-165.5 -180.5t-64.5 -257zM600 1227l318 356h149l-342 -356h-125z" />
<glyph unicode="&#xf4;" horiz-adv-x="1255" d="M117 420q0 160 73.5 300t207.5 227t296 87q125 0 225.5 -56t159 -159.5t58.5 -236.5q0 -160 -74 -300.5t-207 -227.5t-295 -87q-125 0 -225 55.5t-159.5 159t-59.5 238.5zM238 426q0 -160 90.5 -256t240.5 -96q117 0 218.5 64.5t165 180t63.5 254.5q0 162 -90 258.5 t-240 96.5q-117 0 -218 -64.5t-165.5 -180.5t-64.5 -257zM412 1227l350 356h96l227 -356h-114l-168 274l-264 -274h-127z" />
<glyph unicode="&#xf5;" horiz-adv-x="1255" d="M117 420q0 160 73.5 300t207.5 227t296 87q125 0 225.5 -56t159 -159.5t58.5 -236.5q0 -160 -74 -300.5t-207 -227.5t-295 -87q-125 0 -225 55.5t-159.5 159t-59.5 238.5zM238 426q0 -160 90.5 -256t240.5 -96q117 0 218.5 64.5t165 180t63.5 254.5q0 162 -90 258.5 t-240 96.5q-117 0 -218 -64.5t-165.5 -180.5t-64.5 -257zM436 1274q16 125 70.5 190.5t142.5 65.5q51 -2 87 -25.5t64 -55.5t53.5 -55.5t58.5 -25.5q92 0 118 160h92q-16 -125 -70.5 -190.5t-142.5 -65.5q-51 2 -86.5 25.5t-62.5 54t-53.5 54.5t-59.5 26q-47 0 -75.5 -39 t-40.5 -119h-95z" />
<glyph unicode="&#xf6;" horiz-adv-x="1255" d="M117 420q0 160 73.5 300t207.5 227t296 87q125 0 225.5 -56t159 -159.5t58.5 -236.5q0 -160 -74 -300.5t-207 -227.5t-295 -87q-125 0 -225 55.5t-159.5 159t-59.5 238.5zM238 426q0 -160 90.5 -256t240.5 -96q117 0 218.5 64.5t165 180t63.5 254.5q0 162 -90 258.5 t-240 96.5q-117 0 -218 -64.5t-165.5 -180.5t-64.5 -257zM518 1391q0 41 27 67.5t65 26.5q33 0 54.5 -22.5t21.5 -55.5q0 -41 -26.5 -67.5t-65.5 -26.5q-33 0 -54.5 21.5t-21.5 56.5zM883 1391q0 41 26.5 67.5t65.5 26.5q33 0 54.5 -22.5t21.5 -55.5q0 -41 -26.5 -67.5 t-65.5 -26.5q-33 0 -54.5 22.5t-21.5 55.5z" />
<glyph unicode="&#xf7;" horiz-adv-x="1269" d="M209 633l22 108h899l-22 -108h-899zM506 315q0 43 29.5 72t70.5 29q37 0 61.5 -24.5t24.5 -61.5q0 -43 -29.5 -72t-72.5 -29q-37 0 -60.5 25t-23.5 61zM645 1036q0 43 30 72t70 29q37 0 61.5 -25t24.5 -61q0 -43 -29.5 -72t-72.5 -29q-37 0 -60.5 24.5t-23.5 61.5z" />
<glyph unicode="&#xf8;" horiz-adv-x="1255" d="M74 33l121 119q-78 109 -78 268q0 160 73.5 300t207.5 227t296 87q172 0 293 -104l125 123l64 -62l-129 -125q90 -119 90 -284q0 -160 -74 -300.5t-207 -227.5t-295 -87q-186 0 -309 117l-115 -113zM238 426q0 -111 43 -190l624 614q-90 78 -219 78q-117 0 -218 -64.5 t-165.5 -180.5t-64.5 -257zM334 164q85 -90 235 -90q117 0 218.5 64.5t165 180t63.5 254.5q0 119 -53 209z" />
<glyph unicode="&#xf9;" horiz-adv-x="1214" d="M158 289q0 47 10 102l119 610h119l-115 -591q-12 -63 -12 -109q0 -227 231 -227q141 0 243.5 102.5t137.5 276.5l106 548h119l-194 -1001h-111l27 156q-66 -92 -157 -140.5t-200 -48.5q-150 0 -236.5 87t-86.5 235zM562 1583h131l178 -356h-107z" />
<glyph unicode="&#xfa;" horiz-adv-x="1214" d="M158 289q0 47 10 102l119 610h119l-115 -591q-12 -63 -12 -109q0 -227 231 -227q141 0 243.5 102.5t137.5 276.5l106 548h119l-194 -1001h-111l27 156q-66 -92 -157 -140.5t-200 -48.5q-150 0 -236.5 87t-86.5 235zM586 1227l318 356h149l-342 -356h-125z" />
<glyph unicode="&#xfb;" horiz-adv-x="1214" d="M158 289q0 47 10 102l119 610h119l-115 -591q-12 -63 -12 -109q0 -227 231 -227q141 0 243.5 102.5t137.5 276.5l106 548h119l-194 -1001h-111l27 156q-66 -92 -157 -140.5t-200 -48.5q-150 0 -236.5 87t-86.5 235zM398 1227l350 356h96l227 -356h-114l-168 274 l-264 -274h-127z" />
<glyph unicode="&#xfc;" horiz-adv-x="1214" d="M158 289q0 47 10 102l119 610h119l-115 -591q-12 -63 -12 -109q0 -227 231 -227q141 0 243.5 102.5t137.5 276.5l106 548h119l-194 -1001h-111l27 156q-66 -92 -157 -140.5t-200 -48.5q-150 0 -236.5 87t-86.5 235zM504 1391q0 41 27 67.5t65 26.5q33 0 54.5 -22.5 t21.5 -55.5q0 -41 -26.5 -67.5t-65.5 -26.5q-33 0 -54.5 21.5t-21.5 56.5zM869 1391q0 41 26.5 67.5t65.5 26.5q33 0 54.5 -22.5t21.5 -55.5q0 -41 -26.5 -67.5t-65.5 -26.5q-33 0 -54.5 22.5t-21.5 55.5z" />
<glyph unicode="&#xfd;" horiz-adv-x="1073" d="M25 -502l362 559l-237 944h122l199 -821l514 821h131l-960 -1503h-131zM512 1227l318 356h149l-342 -356h-125z" />
<glyph unicode="&#xfe;" horiz-adv-x="1318" d="M2 -502l420 2161h119l-156 -809q70 88 173.5 136t217.5 48q121 0 217.5 -55t151.5 -158.5t55 -240.5q0 -158 -72.5 -297.5t-203.5 -227.5t-285 -88q-131 0 -231.5 62.5t-149.5 177.5l-137 -709h-119zM301 428q0 -160 90 -257t240 -97q117 0 219 64.5t165.5 181 t63.5 255.5q0 160 -90 256.5t-241 96.5q-117 0 -218.5 -64.5t-165 -180.5t-63.5 -255z" />
<glyph unicode="&#xff;" horiz-adv-x="1073" d="M25 -502l362 559l-237 944h122l199 -821l514 821h131l-960 -1503h-131zM430 1391q0 41 27 67.5t65 26.5q33 0 54.5 -22.5t21.5 -55.5q0 -41 -26.5 -67.5t-65.5 -26.5q-33 0 -54.5 21.5t-21.5 56.5zM795 1391q0 41 26.5 67.5t65.5 26.5q33 0 54.5 -22.5t21.5 -55.5 q0 -41 -26.5 -67.5t-65.5 -26.5q-33 0 -54.5 22.5t-21.5 55.5z" />
<glyph unicode="&#x100;" horiz-adv-x="1505" d="M-37 0l922 1556h139l322 -1556h-132l-98 498h-729l-291 -498h-133zM449 604h647l-164 828zM694 1772l19 104h596l-19 -104h-596z" />
<glyph unicode="&#x101;" horiz-adv-x="1314" d="M117 422q0 158 72 297q73 139 203 227t286 88q129 0 229 -63t152 -178l45 208h113l-193 -1001h-115l27 160q-70 -90 -174 -142q-104 -51 -221 -51q-121 0 -217 57q-96 56 -152 159q-55 103 -55 239zM238 426q0 -160 91 -256q90 -96 240 -96q117 0 218 64q101 65 165 180 q63 116 64 255q0 162 -90 258t-240 97q-117 0 -218 -65t-166 -180q-65 -116 -64 -257zM502 1337l19 105h594l-19 -105h-594z" />
<glyph unicode="&#x102;" horiz-adv-x="1505" d="M-37 0l922 1556h139l322 -1556h-132l-98 498h-729l-291 -498h-133zM449 604h647l-164 828zM723 1909q0 41 8 71h90q-2 -16 -3 -29.5t-1 -21.5q0 -150 172 -149q98 0 156.5 50t75.5 150h94q-10 -135 -98.5 -212.5t-233.5 -77.5q-121 0 -190.5 58t-69.5 161z" />
<glyph unicode="&#x103;" horiz-adv-x="1314" d="M117 422q0 158 72 297q73 139 203 227t286 88q129 0 229 -63t152 -178l45 208h113l-193 -1001h-115l27 160q-70 -90 -174 -142q-104 -51 -221 -51q-121 0 -217 57q-96 56 -152 159q-55 103 -55 239zM238 426q0 -160 91 -256q90 -96 240 -96q117 0 218 64q101 65 165 180 q63 116 64 255q0 162 -90 258t-240 97q-117 0 -218 -65t-166 -180q-65 -116 -64 -257zM545 1454q0 49 13 82h88q-6 -33 -7 -61q0 -160 168 -160q98 0 152.5 53t71.5 168h96q-12 -147 -96.5 -228t-225.5 -81q-121 0 -190.5 60.5t-69.5 166.5z" />
<glyph unicode="&#x104;" horiz-adv-x="1505" d="M-37 0l922 1556h139l322 -1556h-132l-98 498h-729l-291 -498h-133zM449 604h647l-164 828zM947 -354q0 92 86 192.5t249 198.5l64 -37q-289 -193 -289 -338q0 -82 94 -82q66 0 129 37l4 -94q-65 -39 -149 -39t-136 45t-52 117z" />
<glyph unicode="&#x105;" horiz-adv-x="1314" d="M117 422q0 158 72 297q73 139 203 227t286 88q129 0 229 -63t152 -178l45 208h113l-193 -1001h-115l27 160q-70 -90 -174 -142q-104 -51 -221 -51q-121 0 -217 57q-96 56 -152 159q-55 103 -55 239zM238 426q0 -160 91 -256q90 -96 240 -96q117 0 218 64q101 65 165 180 q63 116 64 255q0 162 -90 258t-240 97q-117 0 -218 -65t-166 -180q-65 -116 -64 -257zM635 -356q0 92 87 197.5t238 195.5l64 -37q-135 -90 -207 -176t-72 -162q0 -82 88 -82q66 0 131 39l5 -94q-27 -18 -69 -29.5t-83 -11.5q-82 0 -132 44t-50 116z" />
<glyph unicode="&#x106;" horiz-adv-x="1579" d="M195 684q0 240 109.5 443.5t309 327.5t447.5 124q131 0 258 -38t225 -105l-31 -113q-215 139 -462 139q-193 0 -358 -97t-266 -274.5t-101 -394.5q0 -174 70.5 -310t205.5 -214t316 -78q106 0 220.5 28t219.5 79l4 -119q-209 -105 -449 -105q-209 0 -371.5 86.5 t-254.5 247t-92 373.5zM942 1710l320 264h170l-352 -264h-138z" />
<glyph unicode="&#x107;" horiz-adv-x="1075" d="M117 430q0 156 74.5 292t209 222t297.5 86q86 0 171 -25.5t147 -68.5l-23 -107q-61 45 -140 70t-157 25q-119 0 -223 -62.5t-169.5 -175.5t-65.5 -250q0 -166 100 -263t270 -97q70 0 144.5 21.5t134.5 58.5l2 -107q-51 -37 -132 -58.5t-165 -21.5q-217 0 -346 125 t-129 336zM590 1227l318 356h149l-342 -356h-125z" />
<glyph unicode="&#x10a;" horiz-adv-x="1579" d="M195 684q0 240 109.5 443.5t309 327.5t447.5 124q131 0 258 -38t225 -105l-31 -113q-215 139 -462 139q-193 0 -358 -97t-266 -274.5t-101 -394.5q0 -174 70.5 -310t205.5 -214t316 -78q106 0 220.5 28t219.5 79l4 -119q-209 -105 -449 -105q-209 0 -371.5 86.5 t-254.5 247t-92 373.5zM1024 1815q0 41 29 69.5t70 28.5q35 0 57.5 -23.5t22.5 -60.5q0 -41 -28 -68.5t-71 -27.5q-35 0 -57.5 23.5t-22.5 58.5z" />
<glyph unicode="&#x10b;" horiz-adv-x="1075" d="M117 430q0 156 74.5 292t209 222t297.5 86q86 0 171 -25.5t147 -68.5l-23 -107q-61 45 -140 70t-157 25q-119 0 -223 -62.5t-169.5 -175.5t-65.5 -250q0 -166 100 -263t270 -97q70 0 144.5 21.5t134.5 58.5l2 -107q-51 -37 -132 -58.5t-165 -21.5q-217 0 -346 125 t-129 336zM663 1391q0 41 29 68.5t70 27.5q35 0 57 -23.5t22 -58.5q0 -41 -27.5 -68.5t-70.5 -27.5q-35 0 -57.5 23.5t-22.5 58.5z" />
<glyph unicode="&#x10c;" horiz-adv-x="1579" d="M195 684q0 240 109.5 443.5t309 327.5t447.5 124q131 0 258 -38t225 -105l-31 -113q-215 139 -462 139q-193 0 -358 -97t-266 -274.5t-101 -394.5q0 -174 70.5 -310t205.5 -214t316 -78q106 0 220.5 28t219.5 79l4 -119q-209 -105 -449 -105q-209 0 -371.5 86.5 t-254.5 247t-92 373.5zM805 2001h125l168 -213l248 213h141l-342 -291h-108z" />
<glyph unicode="&#x10d;" horiz-adv-x="1075" d="M117 430q0 156 74.5 292t209 222t297.5 86q86 0 171 -25.5t147 -68.5l-23 -107q-61 45 -140 70t-157 25q-119 0 -223 -62.5t-169.5 -175.5t-65.5 -250q0 -166 100 -263t270 -97q70 0 144.5 21.5t134.5 58.5l2 -107q-51 -37 -132 -58.5t-165 -21.5q-217 0 -346 125 t-129 336zM463 1583h115l168 -274l264 274h127l-350 -356h-96z" />
<glyph unicode="&#x10e;" horiz-adv-x="1720" d="M154 0l301 1556h458q340 0 531.5 -175t191.5 -484q0 -260 -116.5 -463t-334.5 -318.5t-509 -115.5h-522zM301 113h385q238 0 423 94t290.5 271t105.5 413q0 266 -156.5 409.5t-447.5 143.5h-342zM737 2001h125l168 -213l248 213h141l-342 -291h-108z" />
<glyph unicode="&#x10f;" horiz-adv-x="1316" d="M117 422q0 158 72.5 297t202.5 227t286 88q129 0 229.5 -64.5t149.5 -176.5l170 866h119l-322 -1659h-115l27 160q-70 -90 -174 -141.5t-221 -51.5q-121 0 -217.5 56.5t-151.5 160t-55 238.5zM238 426q0 -160 90.5 -256t240.5 -96q117 0 218.5 64.5t165 180t63.5 254.5 q0 162 -90 258.5t-240 96.5q-117 0 -218 -64.5t-165.5 -180.5t-64.5 -257zM1409 1188l119 471h119l-154 -471h-84z" />
<glyph unicode="&#x110;" horiz-adv-x="1740" d="M104 733l19 103h213l139 720h459q340 0 531.5 -175t191.5 -484q0 -260 -117 -463t-335 -318.5t-509 -115.5h-522l141 733h-211zM322 113h385q238 0 423 94t290.5 271t105.5 413q0 266 -157 409.5t-447 143.5h-342l-119 -608h381l-21 -103h-381z" />
<glyph unicode="&#x111;" horiz-adv-x="1316" d="M117 422q0 158 72.5 297t202.5 227t286 88q129 0 229.5 -64.5t149.5 -176.5l96 485h-356l18 94h356l56 287h119l-56 -287h150l-19 -94h-149l-248 -1278h-115l27 160q-70 -90 -174 -141.5t-221 -51.5q-121 0 -217.5 56.5t-151.5 160t-55 238.5zM238 426q0 -160 90.5 -256 t240.5 -96q117 0 218.5 64.5t165 180t63.5 254.5q0 162 -90 258.5t-240 96.5q-117 0 -218 -64.5t-165.5 -180.5t-64.5 -257z" />
<glyph unicode="&#x112;" horiz-adv-x="1333" d="M154 0l301 1556h874l-20 -110h-750l-115 -590h674l-20 -108h-674l-123 -637h803l-21 -111h-929zM645 1772l19 104h596l-19 -104h-596z" />
<glyph unicode="&#x113;" horiz-adv-x="1177" d="M117 422q0 162 70.5 301t199.5 225t287 86q176 0 285.5 -107.5t109.5 -279.5q0 -94 -25 -180h-808v-37q0 -172 100 -264t289 -92q74 0 155.5 21.5t155.5 60.5l4 -105q-61 -39 -152.5 -61.5t-179.5 -22.5q-227 0 -359 123t-132 332zM252 569h694q6 43 6 76 q0 133 -75.5 209t-210.5 76q-145 0 -261 -101.5t-153 -259.5zM411 1337l19 105h594l-19 -105h-594z" />
<glyph unicode="&#x116;" horiz-adv-x="1333" d="M154 0l301 1556h874l-20 -110h-750l-115 -590h674l-20 -108h-674l-123 -637h803l-21 -111h-929zM864 1815q0 41 29 69.5t70 28.5q35 0 57.5 -23.5t22.5 -60.5q0 -41 -28 -68.5t-71 -27.5q-35 0 -57.5 23.5t-22.5 58.5z" />
<glyph unicode="&#x117;" horiz-adv-x="1177" d="M117 422q0 162 70.5 301t199.5 225t287 86q176 0 285.5 -107.5t109.5 -279.5q0 -94 -25 -180h-808v-37q0 -172 100 -264t289 -92q74 0 155.5 21.5t155.5 60.5l4 -105q-61 -39 -152.5 -61.5t-179.5 -22.5q-227 0 -359 123t-132 332zM252 569h694q6 43 6 76 q0 133 -75.5 209t-210.5 76q-145 0 -261 -101.5t-153 -259.5zM612 1391q0 41 29 68.5t70 27.5q35 0 57 -23.5t22 -58.5q0 -41 -27.5 -68.5t-70.5 -27.5q-35 0 -57.5 23.5t-22.5 58.5z" />
<glyph unicode="&#x118;" horiz-adv-x="1333" d="M154 0l301 1556h874l-20 -110h-750l-115 -590h674l-20 -108h-674l-123 -637h803l-21 -111h-929zM685 -354q0 92 86 192.5t249 198.5l64 -37q-289 -193 -289 -338q0 -82 94 -82q66 0 129 37l4 -94q-65 -39 -149 -39t-136 45t-52 117z" />
<glyph unicode="&#x119;" horiz-adv-x="1177" d="M117 422q0 162 70.5 301t199.5 225t287 86q176 0 285.5 -107.5t109.5 -279.5q0 -94 -25 -180h-808v-37q0 -172 100 -264t289 -92q74 0 155.5 21.5t155.5 60.5l4 -105q-61 -39 -152.5 -61.5t-179.5 -22.5q-227 0 -359 123t-132 332zM252 569h694q6 43 6 76 q0 133 -75.5 209t-210.5 76q-145 0 -261 -101.5t-153 -259.5zM442 -356q0 94 100.5 199.5t282.5 201.5l88 -8q-186 -121 -273 -211t-87 -162q0 -84 92 -84q68 0 131 37l4 -94q-68 -39 -152 -39q-82 0 -134 44t-52 116z" />
<glyph unicode="&#x11a;" horiz-adv-x="1333" d="M154 0l301 1556h874l-20 -110h-750l-115 -590h674l-20 -108h-674l-123 -637h803l-21 -111h-929zM645 2001h125l168 -213l248 213h141l-342 -291h-108z" />
<glyph unicode="&#x11b;" horiz-adv-x="1177" d="M117 422q0 162 70.5 301t199.5 225t287 86q176 0 285.5 -107.5t109.5 -279.5q0 -94 -25 -180h-808v-37q0 -172 100 -264t289 -92q74 0 155.5 21.5t155.5 60.5l4 -105q-61 -39 -152.5 -61.5t-179.5 -22.5q-227 0 -359 123t-132 332zM252 569h694q6 43 6 76 q0 133 -75.5 209t-210.5 76q-145 0 -261 -101.5t-153 -259.5zM411 1583h115l168 -274l264 274h127l-350 -356h-96z" />
<glyph unicode="&#x11e;" horiz-adv-x="1699" d="M195 682q0 244 110.5 447.5t312 326.5t455.5 123q141 0 276.5 -41t241.5 -115l-30 -112q-104 74 -231.5 112.5t-260.5 38.5q-201 0 -370 -96t-271 -272t-102 -398q0 -178 73.5 -314t212 -212t324.5 -76q207 0 383 76l100 512h-401l20 113h527l-138 -701 q-109 -57 -237.5 -87t-263.5 -30q-211 0 -377 86.5t-260 246t-94 372.5zM844 1909q0 41 8 71h90q-2 -16 -3 -29.5t-1 -21.5q0 -150 172 -149q98 0 156.5 50t75.5 150h94q-10 -135 -98.5 -212.5t-233.5 -77.5q-121 0 -190.5 58t-69.5 161z" />
<glyph unicode="&#x11f;" horiz-adv-x="1316" d="M72 -406l26 105q70 -53 163 -84t190 -31q199 0 307 112q109 112 160 372l16 88q-70 -88 -173 -139q-103 -50 -220 -50q-121 0 -217 57q-96 56 -152 159q-55 103 -55 239q0 158 72 297q73 139 203 227t286 88q129 0 229 -63t152 -178l45 208h113l-181 -938 q-57 -309 -196 -447t-389 -138q-106 0 -211 33q-104 33 -168 83zM238 426q0 -160 91 -256q90 -96 240 -96q117 0 218 64q101 65 165 180q63 116 64 255q0 162 -90 258t-240 97q-117 0 -218 -65t-166 -180q-65 -116 -64 -257zM545 1454q0 49 13 82h88q-6 -33 -7 -61 q0 -160 168 -160q98 0 152.5 53t71.5 168h96q-12 -147 -96.5 -228t-225.5 -81q-121 0 -190.5 60.5t-69.5 166.5z" />
<glyph unicode="&#x120;" horiz-adv-x="1699" d="M195 682q0 244 110.5 447.5t312 326.5t455.5 123q141 0 276.5 -41t241.5 -115l-30 -112q-104 74 -231.5 112.5t-260.5 38.5q-201 0 -370 -96t-271 -272t-102 -398q0 -178 73.5 -314t212 -212t324.5 -76q207 0 383 76l100 512h-401l20 113h527l-138 -701 q-109 -57 -237.5 -87t-263.5 -30q-211 0 -377 86.5t-260 246t-94 372.5zM1034 1815q0 41 29 69.5t70 28.5q35 0 57.5 -23.5t22.5 -60.5q0 -41 -28 -68.5t-71 -27.5q-35 0 -57.5 23.5t-22.5 58.5z" />
<glyph unicode="&#x121;" horiz-adv-x="1316" d="M72 -406l26 105q70 -53 163 -84t190 -31q199 0 307 112q109 112 160 372l16 88q-70 -88 -173 -139q-103 -50 -220 -50q-121 0 -217 57q-96 56 -152 159q-55 103 -55 239q0 158 72 297q73 139 203 227t286 88q129 0 229 -63t152 -178l45 208h113l-181 -938 q-57 -309 -196 -447t-389 -138q-106 0 -211 33q-104 33 -168 83zM238 426q0 -160 91 -256q90 -96 240 -96q117 0 218 64q101 65 165 180q63 116 64 255q0 162 -90 258t-240 97q-117 0 -218 -65t-166 -180q-65 -116 -64 -257zM702 1391q0 41 29 68.5t70 27.5q35 0 57 -23.5 t22 -58.5q0 -41 -27.5 -68.5t-70.5 -27.5q-35 0 -57.5 23.5t-22.5 58.5z" />
<glyph unicode="&#x122;" horiz-adv-x="1699" d="M195 682q0 244 110.5 447.5t312 326.5t455.5 123q141 0 276.5 -41t241.5 -115l-30 -112q-104 74 -231.5 112.5t-260.5 38.5q-201 0 -370 -96t-271 -272t-102 -398q0 -178 73.5 -314t212 -212t324.5 -76q207 0 383 76l100 512h-401l20 113h527l-138 -701 q-109 -57 -237.5 -87t-263.5 -30q-211 0 -377 86.5t-260 246t-94 372.5zM650 -502q119 156 168 369h116q-20 -96 -71.5 -196.5t-118.5 -172.5h-94z" />
<glyph unicode="&#x123;" horiz-adv-x="1316" d="M72 -406l26 105q70 -53 163 -84t190 -31q199 0 307 112q109 112 160 372l16 88q-70 -88 -173 -139q-103 -50 -220 -50q-121 0 -217 57q-96 56 -152 159q-55 103 -55 239q0 158 72 297q73 139 203 227t286 88q129 0 229 -63t152 -178l45 208h113l-181 -938 q-57 -309 -196 -447t-389 -138q-106 0 -211 33q-104 33 -168 83zM238 426q0 -160 91 -256q90 -96 240 -96q117 0 218 64q101 65 165 180q63 116 64 255q0 162 -90 258t-240 97q-117 0 -218 -65t-166 -180q-65 -116 -64 -257zM727 1249q18 88 67.5 181.5t108.5 152.5h90 q-53 -66 -93 -154t-56 -180h-117z" />
<glyph unicode="&#x126;" horiz-adv-x="1773" d="M174 0l225 1165h-211l21 103h209l57 288h125l-57 -288h983l57 288h125l-57 -288h213l-19 -103h-213l-225 -1165h-125l145 760h-981l-147 -760h-125zM467 868h983l57 297h-983z" />
<glyph unicode="&#x127;" horiz-adv-x="1218" d="M100 0l248 1278h-182l18 94h183l55 287h119l-58 -287h322l-19 -94h-321l-82 -428q68 88 160 136t194 48q150 0 238 -87t88 -234q0 -45 -10 -103l-119 -610h-119l115 592q12 66 12 108q0 113 -59.5 170.5t-173.5 57.5q-90 0 -169 -45t-135.5 -131t-78.5 -203l-107 -549 h-119z" />
<glyph unicode="&#x128;" horiz-adv-x="624" d="M154 0l301 1556h125l-301 -1556h-125zM217 1708q16 125 71.5 190.5t141.5 65.5q51 -2 88 -25.5t66 -54.5t56.5 -54.5t62.5 -25.5q49 0 76.5 37t39.5 121h93q-16 -125 -71.5 -190.5t-141.5 -65.5q-51 2 -88 25.5t-66 55.5t-56.5 55.5t-62.5 25.5q-49 0 -76.5 -39 t-39.5 -121h-93z" />
<glyph unicode="&#x129;" horiz-adv-x="512" d="M82 1274q16 125 70.5 190.5t142.5 65.5q51 -2 87 -25.5t64 -55.5t53.5 -55.5t58.5 -25.5q92 0 118 160h92q-16 -125 -70.5 -190.5t-142.5 -65.5q-51 2 -86.5 25.5t-62.5 54t-53.5 54.5t-59.5 26q-47 0 -75.5 -39t-40.5 -119h-95zM100 0l195 1001h119l-195 -1001h-119z " />
<glyph unicode="&#x12a;" horiz-adv-x="624" d="M154 0l301 1556h125l-301 -1556h-125zM256 1772l19 104h596l-19 -104h-596z" />
<glyph unicode="&#x12b;" horiz-adv-x="512" d="M100 0l195 1001h119l-195 -1001h-119zM119 1337l19 105h594l-19 -105h-594z" />
<glyph unicode="&#x12e;" horiz-adv-x="624" d="M-120 -354q0 92 86 192.5t249 198.5l64 -37q-289 -193 -289 -338q0 -82 94 -82q66 0 129 37l4 -94q-65 -39 -149 -39t-136 45t-52 117zM154 0l301 1556h125l-301 -1556h-125z" />
<glyph unicode="&#x12f;" horiz-adv-x="512" d="M-170 -356q0 92 87 197.5t238 195.5l64 -37q-135 -90 -207 -176t-72 -162q0 -82 88 -82q66 0 131 39l5 -94q-27 -18 -69 -29.5t-83 -11.5q-82 0 -132 44t-50 116zM100 0l195 1001h119l-195 -1001h-119zM340 1391q0 41 27.5 68.5t70.5 27.5q35 0 57.5 -22.5t22.5 -59.5 q0 -41 -27.5 -68.5t-68.5 -27.5q-35 0 -58.5 23.5t-23.5 58.5z" />
<glyph unicode="&#x130;" horiz-adv-x="624" d="M154 0l301 1556h125l-301 -1556h-125zM475 1815q0 41 29 69.5t70 28.5q35 0 57.5 -23.5t22.5 -60.5q0 -41 -28 -68.5t-71 -27.5q-35 0 -57.5 23.5t-22.5 58.5z" />
<glyph unicode="&#x131;" horiz-adv-x="512" d="M100 0l195 1001h119l-195 -1001h-119z" />
<glyph unicode="&#x132;" horiz-adv-x="1705" d="M154 0l301 1556h125l-301 -1556h-125zM637 51l29 113q61 -39 137 -59.5t154 -20.5q309 0 389 405l207 1067h125l-209 -1081q-100 -508 -520 -508q-80 0 -165 22.5t-147 61.5z" />
<glyph unicode="&#x133;" horiz-adv-x="1021" d="M100 0l195 1001h119l-195 -1001h-119zM125 -477l25 98q78 -39 167 -39q109 0 175.5 73t95.5 220l217 1126h119l-217 -1120q-41 -207 -135.5 -305t-254.5 -98q-121 0 -192 45zM340 1391q0 41 27.5 68.5t70.5 27.5q35 0 57.5 -22.5t22.5 -59.5q0 -41 -27.5 -68.5 t-68.5 -27.5q-35 0 -58.5 23.5t-23.5 58.5zM850 1391q0 41 27.5 68.5t70.5 27.5q35 0 57.5 -22.5t22.5 -59.5q0 -41 -27.5 -68.5t-68.5 -27.5q-35 0 -58.5 23.5t-23.5 58.5z" />
<glyph unicode="&#x136;" horiz-adv-x="1515" d="M154 0l301 1556h125l-140 -712l961 712h180l-1018 -755l797 -801h-172l-762 768l-147 -768h-125zM480 -502q119 156 168 369h116q-20 -96 -71.5 -196.5t-118.5 -172.5h-94z" />
<glyph unicode="&#x137;" horiz-adv-x="1112" d="M100 0l322 1659h119l-205 -1059l584 401h172l-646 -440l535 -561h-154l-505 532l-103 -532h-119zM246 -502q125 170 166 369h118q-20 -96 -71.5 -195.5t-118.5 -173.5h-94z" />
<glyph unicode="&#x138;" horiz-adv-x="1112" d="M100 0l195 1001h119l-82 -423l590 423h168l-646 -460l537 -541h-158l-506 512l-98 -512h-119z" />
<glyph unicode="&#x139;" horiz-adv-x="1218" d="M154 0l301 1556h125l-281 -1445h748l-21 -111h-872zM397 1710l320 264h170l-352 -264h-138z" />
<glyph unicode="&#x13a;" horiz-adv-x="514" d="M100 0l322 1659h119l-322 -1659h-119zM348 1741l320 264h170l-352 -264h-138z" />
<glyph unicode="&#x13b;" horiz-adv-x="1218" d="M154 0l301 1556h125l-281 -1445h748l-21 -111h-872zM396 -502q119 156 168 369h116q-20 -96 -71.5 -196.5t-118.5 -172.5h-94z" />
<glyph unicode="&#x13c;" horiz-adv-x="514" d="M-79 -502q125 170 166 369h118q-20 -96 -71.5 -195.5t-118.5 -173.5h-94zM100 0l322 1659h119l-322 -1659h-119z" />
<glyph unicode="&#x13d;" horiz-adv-x="1218" d="M154 0l301 1556h125l-281 -1445h748l-21 -111h-872zM741 1188l119 471h119l-154 -471h-84z" />
<glyph unicode="&#x13e;" horiz-adv-x="514" d="M100 0l322 1659h119l-322 -1659h-119zM604 1188l119 471h119l-154 -471h-84z" />
<glyph unicode="&#x141;" horiz-adv-x="1239" d="M68 449l10 124l235 150l162 833h125l-147 -759l446 288l-10 -124l-463 -299l-107 -551h748l-20 -111h-873l113 588z" />
<glyph unicode="&#x142;" horiz-adv-x="555" d="M47 596l10 117l226 121l159 825h119l-149 -768l211 115l-11 -117l-225 -121l-147 -768h-119l137 711z" />
<glyph unicode="&#x143;" horiz-adv-x="1777" d="M154 0l301 1556h123l770 -1382l266 1382h119l-301 -1556h-121l-770 1382l-269 -1382h-118zM968 1710l320 264h170l-352 -264h-138z" />
<glyph unicode="&#x144;" horiz-adv-x="1218" d="M100 0l195 1001h111l-29 -155q66 90 159 139t201 49q150 0 238 -87t88 -234q0 -45 -10 -103l-119 -610h-119l115 592q12 66 12 108q0 113 -59.5 170.5t-173.5 57.5q-90 0 -169 -45t-135.5 -131t-78.5 -203l-107 -549h-119zM606 1227l318 356h149l-342 -356h-125z" />
<glyph unicode="&#x145;" horiz-adv-x="1777" d="M154 0l301 1556h123l770 -1382l266 1382h119l-301 -1556h-121l-770 1382l-269 -1382h-118zM557 -502q119 156 168 369h116q-20 -96 -71.5 -196.5t-118.5 -172.5h-94z" />
<glyph unicode="&#x146;" horiz-adv-x="1220" d="M100 0l195 1001h111l-29 -155q66 90 159 139t201 49q150 0 238 -87t88 -234q0 -45 -10 -103l-119 -610h-119l115 592q12 66 12 108q0 113 -59.5 170.5t-173.5 57.5q-90 0 -169 -45t-135.5 -131t-78.5 -203l-107 -549h-119zM267 -502q125 170 166 369h118 q-20 -96 -71.5 -195.5t-118.5 -173.5h-94z" />
<glyph unicode="&#x147;" horiz-adv-x="1777" d="M154 0l301 1556h123l770 -1382l266 1382h119l-301 -1556h-121l-770 1382l-269 -1382h-118zM831 2001h125l168 -213l248 213h141l-342 -291h-108z" />
<glyph unicode="&#x148;" horiz-adv-x="1218" d="M100 0l195 1001h111l-29 -155q66 90 159 139t201 49q150 0 238 -87t88 -234q0 -45 -10 -103l-119 -610h-119l115 592q12 66 12 108q0 113 -59.5 170.5t-173.5 57.5q-90 0 -169 -45t-135.5 -131t-78.5 -203l-107 -549h-119zM479 1583h115l168 -274l264 274h127l-350 -356 h-96z" />
<glyph unicode="&#x14c;" horiz-adv-x="1843" d="M195 674q0 240 108.5 447.5t305 337.5t433.5 130q203 0 365 -88t256 -249.5t94 -370.5q0 -240 -108.5 -447t-304 -337t-433.5 -130q-201 0 -363.5 87t-257.5 249t-95 371zM326 688q0 -176 71.5 -312t208 -214t316.5 -78q182 0 341.5 101.5t261 282.5t101.5 400 q0 176 -71.5 312.5t-207 214.5t-315.5 78q-184 0 -345 -101.5t-261 -283t-100 -400.5zM809 1772l19 104h596l-19 -104h-596z" />
<glyph unicode="&#x14d;" horiz-adv-x="1255" d="M117 420q0 160 73.5 300t207.5 227t296 87q125 0 225.5 -56t159 -159.5t58.5 -236.5q0 -160 -74 -300.5t-207 -227.5t-295 -87q-125 0 -225 55.5t-159.5 159t-59.5 238.5zM238 426q0 -160 90.5 -256t240.5 -96q117 0 218.5 64.5t165 180t63.5 254.5q0 162 -90 258.5 t-240 96.5q-117 0 -218 -64.5t-165.5 -180.5t-64.5 -257zM473 1337l19 105h594l-19 -105h-594z" />
<glyph unicode="&#x150;" horiz-adv-x="1843" d="M195 674q0 240 108.5 447.5t305 337.5t433.5 130q203 0 365 -88t256 -249.5t94 -370.5q0 -240 -108.5 -447t-304 -337t-433.5 -130q-201 0 -363.5 87t-257.5 249t-95 371zM326 688q0 -176 71.5 -312t208 -214t316.5 -78q182 0 341.5 101.5t261 282.5t101.5 400 q0 176 -71.5 312.5t-207 214.5t-315.5 78q-184 0 -345 -101.5t-261 -283t-100 -400.5zM822 1710l248 264h141l-275 -264h-114zM1127 1710l246 264h143l-272 -264h-117z" />
<glyph unicode="&#x151;" horiz-adv-x="1255" d="M117 420q0 160 73.5 300t207.5 227t296 87q125 0 225.5 -56t159 -159.5t58.5 -236.5q0 -160 -74 -300.5t-207 -227.5t-295 -87q-125 0 -225 55.5t-159.5 159t-59.5 238.5zM238 426q0 -160 90.5 -256t240.5 -96q117 0 218.5 64.5t165 180t63.5 254.5q0 162 -90 258.5 t-240 96.5q-117 0 -218 -64.5t-165.5 -180.5t-64.5 -257zM486 1223l293 360h135l-318 -360h-110zM797 1223l295 360h135l-319 -360h-111z" />
<glyph unicode="&#x152;" horiz-adv-x="2650" d="M195 674q0 240 108.5 447.5t305 337.5t433.5 130q231 0 404.5 -124t241.5 -337l84 428h874l-20 -110h-750l-115 -590h674l-20 -108h-674l-123 -637h803l-21 -111h-930l56 289q-115 -152 -277 -237t-338 -85q-201 0 -363.5 87t-257.5 249t-95 371zM326 688 q0 -176 71.5 -312t208 -214t316.5 -78q182 0 341.5 101.5t261 282.5t101.5 400q0 176 -71.5 312.5t-207 214.5t-315.5 78q-184 0 -345 -101.5t-261 -283t-100 -400.5z" />
<glyph unicode="&#x153;" horiz-adv-x="2050" d="M117 420q0 160 73.5 300t207.5 227t296 87q141 0 247 -77.5t149 -215.5q74 137 194.5 215t261.5 78q176 0 286 -107.5t110 -279.5q0 -94 -25 -180h-809v-37q0 -172 100.5 -264t288.5 -92q74 0 156 21.5t155 60.5l4 -105q-61 -39 -152 -61.5t-179 -22.5q-170 0 -288 78 t-159 219q-76 -137 -202 -217t-271 -80q-125 0 -225 55.5t-159.5 159t-59.5 238.5zM238 426q0 -160 90.5 -256t240.5 -96q117 0 218.5 64.5t165 180t63.5 254.5q0 162 -90 258.5t-240 96.5q-117 0 -218 -64.5t-165.5 -180.5t-64.5 -257zM1124 569h695q6 43 6 76 q0 133 -76 209t-211 76q-145 0 -261 -101.5t-153 -259.5z" />
<glyph unicode="&#x154;" horiz-adv-x="1404" d="M154 0l301 1556h344q227 0 356 -109.5t129 -301.5q0 -168 -102.5 -295t-278.5 -176l318 -674h-144l-295 651q-29 -2 -48 -3t-36 -1h-295l-124 -647h-125zM424 758h293q123 0 222 47t157.5 133t58.5 199q0 150 -95 229.5t-276 79.5h-227zM743 1710l320 264h170l-352 -264 h-138z" />
<glyph unicode="&#x155;" horiz-adv-x="808" d="M100 0l195 1001h111l-35 -188q59 94 149 148.5t189 54.5q78 0 125 -27l-27 -108q-55 25 -119 24q-135 0 -236.5 -116.5t-142.5 -321.5l-90 -467h-119zM434 1227l318 356h149l-342 -356h-125z" />
<glyph unicode="&#x158;" horiz-adv-x="1404" d="M154 0l301 1556h344q227 0 356 -109.5t129 -301.5q0 -168 -102.5 -295t-278.5 -176l318 -674h-144l-295 651q-29 -2 -48 -3t-36 -1h-295l-124 -647h-125zM424 758h293q123 0 222 47t157.5 133t58.5 199q0 150 -95 229.5t-276 79.5h-227zM606 2001h125l168 -213l248 213 h141l-342 -291h-108z" />
<glyph unicode="&#x159;" horiz-adv-x="808" d="M100 0l195 1001h111l-35 -188q59 94 149 148.5t189 54.5q78 0 125 -27l-27 -108q-55 25 -119 24q-135 0 -236.5 -116.5t-142.5 -321.5l-90 -467h-119zM307 1583h115l168 -274l264 274h127l-350 -356h-96z" />
<glyph unicode="&#x15a;" horiz-adv-x="1296" d="M86 119l31 119q94 -74 217 -116t239 -42q182 0 295 90t113 236q0 100 -71.5 175.5t-245.5 161.5q-143 72 -220 133.5t-110 129t-33 157.5q0 119 62.5 215.5t180.5 153.5t269 57q106 0 219 -33.5t193 -91.5l-31 -112q-86 59 -186.5 92t-196.5 33q-170 0 -278.5 -87 t-108.5 -225q0 -94 63.5 -160.5t233.5 -150.5q156 -78 237.5 -143.5t115.5 -137t34 -167.5q0 -123 -65.5 -222.5t-187.5 -158t-284 -58.5q-131 0 -260 40t-225 112zM698 1710l320 264h170l-352 -264h-138z" />
<glyph unicode="&#x15b;" horiz-adv-x="925" d="M35 88l26 105q72 -59 160 -91t178 -32q115 0 182.5 50t67.5 132q0 66 -47 112t-174 103q-139 63 -199.5 130t-60.5 159q0 123 95 200.5t247 77.5q82 0 169 -26.5t150 -71.5l-24 -102q-143 98 -297 98q-100 0 -162.5 -46t-62.5 -120q0 -59 43 -102t151 -93 q162 -74 227.5 -142.5t65.5 -166.5q0 -133 -103.5 -214t-275.5 -81q-98 0 -197.5 34t-158.5 87zM416 1227l318 356h149l-342 -356h-125z" />
<glyph unicode="&#x15e;" horiz-adv-x="1296" d="M86 119l31 119q94 -74 217 -116t239 -42q182 0 295 90t113 236q0 100 -71.5 175.5t-245.5 161.5q-143 72 -220 133.5t-110 129t-33 157.5q0 119 62.5 215.5t180.5 153.5t269 57q106 0 219 -33.5t193 -91.5l-31 -112q-86 59 -186.5 92t-196.5 33q-170 0 -278.5 -87 t-108.5 -225q0 -94 63.5 -160.5t233.5 -150.5q156 -78 237.5 -143.5t115.5 -137t34 -167.5q0 -123 -65.5 -222.5t-187.5 -158t-284 -58.5q-131 0 -260 40t-225 112zM270 -479l21 90q29 -20 73 -31.5t89 -11.5q72 0 114.5 31.5t42.5 83.5q0 92 -125 92q-49 0 -82 -8l107 253 h90l-72 -167h11q51 -2 90 -24t60.5 -58.5t21.5 -85.5q0 -90 -72.5 -148.5t-185.5 -58.5q-51 0 -100.5 11t-82.5 32z" />
<glyph unicode="&#x15f;" horiz-adv-x="925" d="M35 88l26 105q72 -59 160 -91t178 -32q115 0 182.5 50t67.5 132q0 66 -47 112t-174 103q-139 63 -199.5 130t-60.5 159q0 123 95 200.5t247 77.5q82 0 169 -26.5t150 -71.5l-24 -102q-143 98 -297 98q-100 0 -162.5 -46t-62.5 -120q0 -59 43 -102t151 -93 q162 -74 227.5 -142.5t65.5 -166.5q0 -133 -103.5 -214t-275.5 -81q-98 0 -197.5 34t-158.5 87zM105 -479l20 88q31 -18 75 -29.5t87 -11.5q72 0 114.5 31.5t42.5 83.5q0 94 -122 94q-51 0 -84 -8l106 251h88l-71 -167q82 0 133 -47.5t51 -122.5q0 -92 -71.5 -148.5 t-186.5 -56.5q-117 0 -182 43z" />
<glyph unicode="&#x160;" horiz-adv-x="1296" d="M86 119l31 119q94 -74 217 -116t239 -42q182 0 295 90t113 236q0 100 -71.5 175.5t-245.5 161.5q-143 72 -220 133.5t-110 129t-33 157.5q0 119 62.5 215.5t180.5 153.5t269 57q106 0 219 -33.5t193 -91.5l-31 -112q-86 59 -186.5 92t-196.5 33q-170 0 -278.5 -87 t-108.5 -225q0 -94 63.5 -160.5t233.5 -150.5q156 -78 237.5 -143.5t115.5 -137t34 -167.5q0 -123 -65.5 -222.5t-187.5 -158t-284 -58.5q-131 0 -260 40t-225 112zM561 2001h125l168 -213l248 213h141l-342 -291h-108z" />
<glyph unicode="&#x161;" horiz-adv-x="925" d="M35 88l26 105q72 -59 160 -91t178 -32q115 0 182.5 50t67.5 132q0 66 -47 112t-174 103q-139 63 -199.5 130t-60.5 159q0 123 95 200.5t247 77.5q82 0 169 -26.5t150 -71.5l-24 -102q-143 98 -297 98q-100 0 -162.5 -46t-62.5 -120q0 -59 43 -102t151 -93 q162 -74 227.5 -142.5t65.5 -166.5q0 -133 -103.5 -214t-275.5 -81q-98 0 -197.5 34t-158.5 87zM289 1583h115l168 -274l264 274h127l-350 -356h-96z" />
<glyph unicode="&#x162;" horiz-adv-x="1398" d="M276 1446l21 110h1214l-20 -110h-545l-280 -1446h-125l280 1446h-545zM329 -479l21 90q29 -20 73 -31.5t89 -11.5q72 0 114.5 31.5t42.5 83.5q0 92 -125 92q-49 0 -82 -8l107 253h90l-72 -167h11q51 -2 90 -24t60.5 -58.5t21.5 -85.5q0 -90 -72.5 -148.5t-185.5 -58.5 q-51 0 -100.5 11t-82.5 32z" />
<glyph unicode="&#x163;" horiz-adv-x="864" d="M109 897l20 104h229l62 318h119l-62 -318h340l-20 -104h-340l-105 -539q-10 -57 -10 -112q0 -88 43 -131t131 -43q84 0 189 43l8 -101q-100 -47 -211 -47q-137 0 -209 68.5t-72 200.5q0 55 12 118l105 543h-229zM175 -479l20 88q31 -18 75 -29.5t87 -11.5 q72 0 114.5 31.5t42.5 83.5q0 94 -122 94q-51 0 -84 -8l106 251h88l-71 -167q82 0 133 -47.5t51 -122.5q0 -92 -71.5 -148.5t-186.5 -56.5q-117 0 -182 43z" />
<glyph unicode="&#x164;" horiz-adv-x="1398" d="M276 1446l21 110h1214l-20 -110h-545l-280 -1446h-125l280 1446h-545zM649 2001h125l168 -213l248 213h141l-342 -291h-108z" />
<glyph unicode="&#x165;" horiz-adv-x="864" d="M109 897l20 104h229l62 318h119l-62 -318h340l-20 -104h-340l-105 -539q-10 -57 -10 -112q0 -88 43 -131t131 -43q84 0 189 43l8 -101q-100 -47 -211 -47q-137 0 -209 68.5t-72 200.5q0 55 12 118l105 543h-229zM686 1239l105 420h121l-142 -420h-84z" />
<glyph unicode="&#x168;" horiz-adv-x="1687" d="M233 487q0 74 19 160l176 909h125l-172 -890q-16 -92 -16 -164q0 -201 113.5 -309.5t322.5 -108.5q233 0 372.5 139t196.5 432l174 901h125l-180 -931q-125 -658 -698 -658q-256 0 -407 140.5t-151 379.5zM733 1708q16 125 71.5 190.5t141.5 65.5q51 -2 88 -25.5 t66 -54.5t56.5 -54.5t62.5 -25.5q49 0 76.5 37t39.5 121h93q-16 -125 -71.5 -190.5t-141.5 -65.5q-51 2 -88 25.5t-66 55.5t-56.5 55.5t-62.5 25.5q-49 0 -76.5 -39t-39.5 -121h-93z" />
<glyph unicode="&#x169;" horiz-adv-x="1214" d="M158 289q0 47 10 102l119 610h119l-115 -591q-12 -63 -12 -109q0 -227 231 -227q141 0 243.5 102.5t137.5 276.5l106 548h119l-194 -1001h-111l27 156q-66 -92 -157 -140.5t-200 -48.5q-150 0 -236.5 87t-86.5 235zM422 1274q16 125 70.5 190.5t142.5 65.5 q51 -2 87 -25.5t64 -55.5t53.5 -55.5t58.5 -25.5q92 0 118 160h92q-16 -125 -70.5 -190.5t-142.5 -65.5q-51 2 -86.5 25.5t-62.5 54t-53.5 54.5t-59.5 26q-47 0 -75.5 -39t-40.5 -119h-95z" />
<glyph unicode="&#x16a;" horiz-adv-x="1687" d="M233 487q0 74 19 160l176 909h125l-172 -890q-16 -92 -16 -164q0 -201 113.5 -309.5t322.5 -108.5q233 0 372.5 139t196.5 432l174 901h125l-180 -931q-125 -658 -698 -658q-256 0 -407 140.5t-151 379.5zM772 1772l19 104h596l-19 -104h-596z" />
<glyph unicode="&#x16b;" horiz-adv-x="1214" d="M158 289q0 47 10 102l119 610h119l-115 -591q-12 -63 -12 -109q0 -227 231 -227q141 0 243.5 102.5t137.5 276.5l106 548h119l-194 -1001h-111l27 156q-66 -92 -157 -140.5t-200 -48.5q-150 0 -236.5 87t-86.5 235zM459 1337l19 105h594l-19 -105h-594z" />
<glyph unicode="&#x16e;" horiz-adv-x="1687" d="M233 487q0 74 19 160l176 909h125l-172 -890q-16 -92 -16 -164q0 -201 113.5 -309.5t322.5 -108.5q233 0 372.5 139t196.5 432l174 901h125l-180 -931q-125 -658 -698 -658q-256 0 -407 140.5t-151 379.5zM839 1923q0 109 73 178.5t185 69.5q113 0 187 -70.5t74 -177.5 q0 -106 -74 -177t-187 -71q-111 0 -184.5 71t-73.5 177zM930 1923q0 -74 45.5 -120t121.5 -46t123 46t47 120t-47 120t-123 46t-121.5 -45t-45.5 -121z" />
<glyph unicode="&#x16f;" horiz-adv-x="1214" d="M158 289q0 47 10 102l119 610h119l-115 -591q-12 -63 -12 -109q0 -227 231 -227q141 0 243.5 102.5t137.5 276.5l106 548h119l-194 -1001h-111l27 156q-66 -92 -157 -140.5t-200 -48.5q-150 0 -236.5 87t-86.5 235zM504 1452q0 109 73 178.5t185 69.5q113 0 186.5 -70.5 t73.5 -177.5q0 -106 -73.5 -177t-186.5 -71q-111 0 -184.5 71t-73.5 177zM594 1452q0 -74 47 -120t121 -46q76 0 123 46t47 120t-47 120t-123 46t-122 -46t-46 -120z" />
<glyph unicode="&#x170;" horiz-adv-x="1687" d="M233 487q0 74 19 160l176 909h125l-172 -890q-16 -92 -16 -164q0 -201 113.5 -309.5t322.5 -108.5q233 0 372.5 139t196.5 432l174 901h125l-180 -931q-125 -658 -698 -658q-256 0 -407 140.5t-151 379.5zM785 1710l248 264h141l-275 -264h-114zM1090 1710l246 264h143 l-272 -264h-117z" />
<glyph unicode="&#x171;" horiz-adv-x="1214" d="M158 289q0 47 10 102l119 610h119l-115 -591q-12 -63 -12 -109q0 -227 231 -227q141 0 243.5 102.5t137.5 276.5l106 548h119l-194 -1001h-111l27 156q-66 -92 -157 -140.5t-200 -48.5q-150 0 -236.5 87t-86.5 235zM471 1223l293 360h135l-318 -360h-110zM782 1223 l295 360h135l-319 -360h-111z" />
<glyph unicode="&#x172;" horiz-adv-x="1687" d="M233 487q0 74 19 160l176 909h125l-172 -890q-16 -92 -16 -164q0 -201 113.5 -309.5t322.5 -108.5q233 0 372.5 139t196.5 432l174 901h125l-180 -931q-125 -658 -698 -658q-256 0 -407 140.5t-151 379.5zM645 -356q0 94 100.5 199.5t282.5 201.5l88 -8 q-186 -121 -273 -211t-87 -162q0 -84 92 -84q68 0 131 37l4 -94q-68 -39 -152 -39q-82 0 -134 44t-52 116z" />
<glyph unicode="&#x173;" horiz-adv-x="1214" d="M158 289q0 47 10 102l119 610h119l-115 -591q-12 -63 -12 -109q0 -227 231 -227q141 0 243.5 102.5t137.5 276.5l106 548h119l-194 -1001h-111l27 156q-66 -92 -157 -140.5t-200 -48.5q-150 0 -236.5 87t-86.5 235zM533 -356q0 92 87 197.5t238 195.5l64 -37 q-135 -90 -207 -176t-72 -162q0 -82 88 -82q66 0 131 39l5 -94q-27 -18 -69 -29.5t-83 -11.5q-82 0 -132 44t-50 116z" />
<glyph unicode="&#x174;" horiz-adv-x="2199" d="M281 1556h129l141 -1394l684 1374h127l151 -1368l685 1388h131l-775 -1556h-131l-155 1370l-682 -1370h-133zM974 1710l345 291h106l231 -291h-124l-168 211l-246 -211h-144z" />
<glyph unicode="&#x175;" horiz-adv-x="1607" d="M160 1001h116l123 -862l435 850h102l121 -846l459 858h124l-548 -1001h-111l-125 838l-426 -838h-115zM572 1227l350 356h96l227 -356h-114l-168 274l-264 -274h-127z" />
<glyph unicode="&#x176;" horiz-adv-x="1406" d="M264 1556h133l357 -765l655 765h143l-751 -870l-133 -686h-125l133 692zM575 1710l345 291h106l231 -291h-124l-168 211l-246 -211h-144z" />
<glyph unicode="&#x177;" horiz-adv-x="1073" d="M25 -502l362 559l-237 944h122l199 -821l514 821h131l-960 -1503h-131zM324 1227l350 356h96l227 -356h-114l-168 274l-264 -274h-127z" />
<glyph unicode="&#x178;" horiz-adv-x="1406" d="M264 1556h133l357 -765l655 765h143l-751 -870l-133 -686h-125l133 692zM676 1808q0 41 26.5 68t65.5 27q33 0 55.5 -21.5t22.5 -54.5q0 -41 -26.5 -67.5t-65.5 -26.5q-33 0 -55.5 21.5t-22.5 53.5zM1043 1808q0 41 26.5 68t65.5 27q33 0 54.5 -21.5t21.5 -54.5 q0 -41 -25.5 -67.5t-66.5 -26.5q-33 0 -54.5 21.5t-21.5 53.5z" />
<glyph unicode="&#x179;" horiz-adv-x="1427" d="M33 0l18 102l1229 1344h-924l21 110h1085l-18 -102l-1233 -1343h993l-20 -111h-1151zM761 1710l320 264h170l-352 -264h-138z" />
<glyph unicode="&#x17a;" horiz-adv-x="1038" d="M16 0l17 98l766 799h-588l20 104h734l-19 -98l-766 -801h654l-19 -102h-799zM481 1227l318 356h149l-342 -356h-125z" />
<glyph unicode="&#x17b;" horiz-adv-x="1427" d="M33 0l18 102l1229 1344h-924l21 110h1085l-18 -102l-1233 -1343h993l-20 -111h-1151zM843 1815q0 41 29 69.5t70 28.5q35 0 57.5 -23.5t22.5 -60.5q0 -41 -28 -68.5t-71 -27.5q-35 0 -57.5 23.5t-22.5 58.5z" />
<glyph unicode="&#x17c;" horiz-adv-x="1038" d="M16 0l17 98l766 799h-588l20 104h734l-19 -98l-766 -801h654l-19 -102h-799zM555 1391q0 41 29 68.5t70 27.5q35 0 57 -23.5t22 -58.5q0 -41 -27.5 -68.5t-70.5 -27.5q-35 0 -57.5 23.5t-22.5 58.5z" />
<glyph unicode="&#x17d;" horiz-adv-x="1427" d="M33 0l18 102l1229 1344h-924l21 110h1085l-18 -102l-1233 -1343h993l-20 -111h-1151zM624 2001h125l168 -213l248 213h141l-342 -291h-108z" />
<glyph unicode="&#x17e;" horiz-adv-x="1038" d="M16 0l17 98l766 799h-588l20 104h734l-19 -98l-766 -801h654l-19 -102h-799zM354 1583h115l168 -274l264 274h127l-350 -356h-96z" />
<glyph unicode="&#x192;" horiz-adv-x="780" d="M-315 -477l24 98q78 -39 168 -39q109 0 175.5 73t94.5 220l197 1022h-205l21 104h205l38 205q90 463 451 463q57 0 111.5 -14.5t93.5 -40.5l-25 -103q-35 25 -85 39.5t-99 14.5q-133 0 -213 -92.5t-117 -284.5l-37 -187h330l-20 -104h-330l-197 -1016q-41 -207 -135 -305 t-254 -98q-121 0 -192 45z" />
<glyph unicode="&#x218;" horiz-adv-x="1296" d="M86 119l31 119q94 -74 217 -116t239 -42q182 0 295 90t113 236q0 100 -71.5 175.5t-245.5 161.5q-143 72 -220 133.5t-110 129t-33 157.5q0 119 62.5 215.5t180.5 153.5t269 57q106 0 219 -33.5t193 -91.5l-31 -112q-86 59 -186.5 92t-196.5 33q-170 0 -278.5 -87 t-108.5 -225q0 -94 63.5 -160.5t233.5 -150.5q156 -78 237.5 -143.5t115.5 -137t34 -167.5q0 -123 -65.5 -222.5t-187.5 -158t-284 -58.5q-131 0 -260 40t-225 112zM320 -502q119 156 168 369h116q-20 -96 -71.5 -196.5t-118.5 -172.5h-94z" />
<glyph unicode="&#x219;" horiz-adv-x="925" d="M35 88l26 105q72 -59 160 -91t178 -32q115 0 182.5 50t67.5 132q0 66 -47 112t-174 103q-139 63 -199.5 130t-60.5 159q0 123 95 200.5t247 77.5q82 0 169 -26.5t150 -71.5l-24 -102q-143 98 -297 98q-100 0 -162.5 -46t-62.5 -120q0 -59 43 -102t151 -93 q162 -74 227.5 -142.5t65.5 -166.5q0 -133 -103.5 -214t-275.5 -81q-98 0 -197.5 34t-158.5 87zM119 -502q125 170 166 369h118q-20 -96 -71.5 -195.5t-118.5 -173.5h-94z" />
<glyph unicode="&#x21a;" horiz-adv-x="1398" d="M276 1446l21 110h1214l-20 -110h-545l-280 -1446h-125l280 1446h-545zM357 -502q119 156 168 369h116q-20 -96 -71.5 -196.5t-118.5 -172.5h-94z" />
<glyph unicode="&#x21b;" horiz-adv-x="864" d="M109 897l20 104h229l62 318h119l-62 -318h340l-20 -104h-340l-105 -539q-10 -57 -10 -112q0 -88 43 -131t131 -43q84 0 189 43l8 -101q-100 -47 -211 -47q-137 0 -209 68.5t-72 200.5q0 55 12 118l105 543h-229zM199 -502q125 170 166 369h118q-20 -96 -71.5 -195.5 t-118.5 -173.5h-94z" />
<glyph unicode="&#x237;" horiz-adv-x="509" d="M-387 -477l25 98q78 -39 167 -39q109 0 175.5 73t95.5 220l217 1126h119l-217 -1120q-41 -207 -135.5 -305t-254.5 -98q-121 0 -192 45z" />
<glyph unicode="&#x2c6;" horiz-adv-x="1024" d="M396 1227l350 356h96l227 -356h-114l-168 274l-264 -274h-127z" />
<glyph unicode="&#x2c7;" horiz-adv-x="1024" d="M383 1583h115l168 -274l264 274h127l-350 -356h-96z" />
<glyph unicode="&#x2c9;" horiz-adv-x="1024" d="M377 1337l19 105h594l-19 -105h-594z" />
<glyph unicode="&#x2cb;" horiz-adv-x="1024" d="M533 1583h131l178 -356h-107z" />
<glyph unicode="&#x2d8;" horiz-adv-x="1024" d="M413 1454q0 49 13 82h88q-6 -33 -7 -61q0 -160 168 -160q98 0 152.5 53t71.5 168h96q-12 -147 -96.5 -228t-225.5 -81q-121 0 -190.5 60.5t-69.5 166.5z" />
<glyph unicode="&#x2d9;" horiz-adv-x="1024" d="M596 1391q0 41 29 68.5t70 27.5q35 0 57 -23.5t22 -58.5q0 -41 -27.5 -68.5t-70.5 -27.5q-35 0 -57.5 23.5t-22.5 58.5z" />
<glyph unicode="&#x2da;" horiz-adv-x="1024" d="M428 1452q0 109 73 178.5t185 69.5q113 0 186.5 -70.5t73.5 -177.5q0 -106 -73.5 -177t-186.5 -71q-111 0 -184.5 71t-73.5 177zM518 1452q0 -74 47 -120t121 -46q76 0 123 46t47 120t-47 120t-123 46t-122 -46t-46 -120z" />
<glyph unicode="&#x2db;" horiz-adv-x="1024" d="M248 -356q0 92 87 197.5t238 195.5l64 -37q-135 -90 -207 -176t-72 -162q0 -82 88 -82q66 0 131 39l5 -94q-27 -18 -69 -29.5t-83 -11.5q-82 0 -132 44t-50 116z" />
<glyph unicode="&#x2dc;" horiz-adv-x="1024" d="M344 1274q16 125 70.5 190.5t142.5 65.5q51 -2 87 -25.5t64 -55.5t53.5 -55.5t58.5 -25.5q92 0 118 160h92q-16 -125 -70.5 -190.5t-142.5 -65.5q-51 2 -86.5 25.5t-62.5 54t-53.5 54.5t-59.5 26q-47 0 -75.5 -39t-40.5 -119h-95z" />
<glyph unicode="&#x2dd;" horiz-adv-x="1024" d="M332 1223l293 360h135l-318 -360h-110zM643 1223l295 360h135l-319 -360h-111z" />
<glyph unicode="&#x300;" horiz-adv-x="0" d="M-104 1583h131l178 -356h-107z" />
<glyph unicode="&#x301;" horiz-adv-x="0" d="M-76 1227l318 356h149l-342 -356h-125z" />
<glyph unicode="&#x302;" horiz-adv-x="0" d="M-190 1227l350 356h96l227 -356h-114l-168 274l-264 -274h-127z" />
<glyph unicode="&#x303;" horiz-adv-x="0" d="M-240 1274q16 125 70.5 190.5t142.5 65.5q51 -2 87 -25.5t64 -55.5t53.5 -55.5t58.5 -25.5q92 0 118 160h92q-16 -125 -70.5 -190.5t-142.5 -65.5q-51 2 -86.5 25.5t-62.5 54t-53.5 54.5t-59.5 26q-47 0 -75.5 -39t-40.5 -119h-95z" />
<glyph unicode="&#x304;" horiz-adv-x="0" d="M-205 1337l19 105h594l-19 -105h-594z" />
<glyph unicode="&#x306;" horiz-adv-x="0" d="M-160 1454q0 49 13 82h88q-6 -33 -7 -61q0 -160 168 -160q98 0 152.5 53t71.5 168h96q-12 -147 -96.5 -228t-225.5 -81q-121 0 -190.5 60.5t-69.5 166.5z" />
<glyph unicode="&#x307;" horiz-adv-x="0" d="M12 1391q0 41 29 68.5t70 27.5q35 0 57 -23.5t22 -58.5q0 -41 -27.5 -68.5t-70.5 -27.5q-35 0 -57.5 23.5t-22.5 58.5z" />
<glyph unicode="&#x308;" horiz-adv-x="0" d="M-158 1391q0 41 27 67.5t65 26.5q33 0 54.5 -22.5t21.5 -55.5q0 -41 -26.5 -67.5t-65.5 -26.5q-33 0 -54.5 21.5t-21.5 56.5zM207 1391q0 41 26.5 67.5t65.5 26.5q33 0 54.5 -22.5t21.5 -55.5q0 -41 -26.5 -67.5t-65.5 -26.5q-33 0 -54.5 22.5t-21.5 55.5z" />
<glyph unicode="&#x30a;" horiz-adv-x="0" d="M-162 1452q0 109 73 178.5t185 69.5q113 0 186.5 -70.5t73.5 -177.5q0 -106 -73.5 -177t-186.5 -71q-111 0 -184.5 71t-73.5 177zM-72 1452q0 -74 47 -120t121 -46q76 0 123 46t47 120t-47 120t-123 46t-122 -46t-46 -120z" />
<glyph unicode="&#x30b;" horiz-adv-x="0" d="M-180 1223l293 360h135l-318 -360h-110zM131 1223l295 360h135l-319 -360h-111z" />
<glyph unicode="&#x30c;" horiz-adv-x="0" d="M-203 1583h115l168 -274l264 274h127l-350 -356h-96z" />
<glyph unicode="&#x312;" horiz-adv-x="0" d="M45 1249q18 88 67.5 181.5t108.5 152.5h90q-53 -66 -93 -154t-56 -180h-117z" />
<glyph unicode="&#x315;" horiz-adv-x="0" d="M2 1188l119 471h119l-154 -471h-84z" />
<glyph unicode="&#x326;" horiz-adv-x="0" d="M-272 -502q125 170 166 369h118q-20 -96 -71.5 -195.5t-118.5 -173.5h-94z" />
<glyph unicode="&#x327;" horiz-adv-x="0" d="M-319 -479l20 88q31 -18 75 -29.5t87 -11.5q72 0 114.5 31.5t42.5 83.5q0 94 -122 94q-51 0 -84 -8l106 251h88l-71 -167q82 0 133 -47.5t51 -122.5q0 -92 -71.5 -148.5t-186.5 -56.5q-117 0 -182 43z" />
<glyph unicode="&#x328;" horiz-adv-x="0" d="M-352 -356q0 92 87 197.5t238 195.5l64 -37q-135 -90 -207 -176t-72 -162q0 -82 88 -82q66 0 131 39l5 -94q-27 -18 -69 -29.5t-83 -11.5q-82 0 -132 44t-50 116z" />
<glyph unicode="&#x3c0;" horiz-adv-x="1286" d="M174 0l174 897h-166l21 104h1067l-21 -104h-162l-129 -666q-6 -29 -6 -65q0 -72 74 -72q33 0 82 19l-14 -103q-46 -20 -99 -20q-80 0 -122 41t-42 119q0 23 9 71l131 676h-506l-174 -897h-117z" />
<glyph unicode="&#x1e80;" horiz-adv-x="2199" d="M281 1556h129l141 -1394l684 1374h127l151 -1368l685 1388h131l-775 -1556h-131l-155 1370l-682 -1370h-133zM1079 1974h148l223 -264h-125z" />
<glyph unicode="&#x1e81;" horiz-adv-x="1607" d="M160 1001h116l123 -862l435 850h102l121 -846l459 858h124l-548 -1001h-111l-125 838l-426 -838h-115zM736 1583h131l178 -356h-107z" />
<glyph unicode="&#x1e82;" horiz-adv-x="2199" d="M281 1556h129l141 -1394l684 1374h127l151 -1368l685 1388h131l-775 -1556h-131l-155 1370l-682 -1370h-133zM1173 1710l320 264h170l-352 -264h-138z" />
<glyph unicode="&#x1e83;" horiz-adv-x="1607" d="M160 1001h116l123 -862l435 850h102l121 -846l459 858h124l-548 -1001h-111l-125 838l-426 -838h-115zM760 1227l318 356h149l-342 -356h-125z" />
<glyph unicode="&#x1e84;" horiz-adv-x="2199" d="M281 1556h129l141 -1394l684 1374h127l151 -1368l685 1388h131l-775 -1556h-131l-155 1370l-682 -1370h-133zM1075 1808q0 41 26.5 68t65.5 27q33 0 55.5 -21.5t22.5 -54.5q0 -41 -26.5 -67.5t-65.5 -26.5q-33 0 -55.5 21.5t-22.5 53.5zM1442 1808q0 41 26.5 68t65.5 27 q33 0 54.5 -21.5t21.5 -54.5q0 -41 -25.5 -67.5t-66.5 -26.5q-33 0 -54.5 21.5t-21.5 53.5z" />
<glyph unicode="&#x1e85;" horiz-adv-x="1607" d="M160 1001h116l123 -862l435 850h102l121 -846l459 858h124l-548 -1001h-111l-125 838l-426 -838h-115zM678 1391q0 41 27 67.5t65 26.5q33 0 54.5 -22.5t21.5 -55.5q0 -41 -26.5 -67.5t-65.5 -26.5q-33 0 -54.5 21.5t-21.5 56.5zM1043 1391q0 41 26.5 67.5t65.5 26.5 q33 0 54.5 -22.5t21.5 -55.5q0 -41 -26.5 -67.5t-65.5 -26.5q-33 0 -54.5 22.5t-21.5 55.5z" />
<glyph unicode="&#x1e9e;" horiz-adv-x="1603" d="M139 0l174 895q66 336 243 515t450 179q143 0 275 -55t220 -150l-14 -86l-404 -421q162 -16 264.5 -129t102.5 -277q0 -143 -66.5 -257t-188.5 -180.5t-280 -66.5q-109 0 -214 35t-173 92l25 115q150 -131 360 -131q117 0 211.5 48t149.5 137t55 208q0 137 -90 223 t-238 86q-41 0 -69 -6l-27 70l471 493q-72 63 -170 100.5t-200 37.5q-225 0 -371 -156t-203 -457l-166 -862h-127z" />
<glyph unicode="&#x1ef2;" horiz-adv-x="1406" d="M264 1556h133l357 -765l655 765h143l-751 -870l-133 -686h-125l133 692zM680 1974h148l223 -264h-125z" />
<glyph unicode="&#x1ef3;" horiz-adv-x="1073" d="M25 -502l362 559l-237 944h122l199 -821l514 821h131l-960 -1503h-131zM488 1583h131l178 -356h-107z" />
<glyph unicode="&#x2000;" horiz-adv-x="1024" />
<glyph unicode="&#x2001;" horiz-adv-x="2048" />
<glyph unicode="&#x2002;" horiz-adv-x="1024" />
<glyph unicode="&#x2003;" horiz-adv-x="2048" />
<glyph unicode="&#x2004;" horiz-adv-x="681" />
<glyph unicode="&#x2005;" horiz-adv-x="512" />
<glyph unicode="&#x2006;" horiz-adv-x="339" />
<glyph unicode="&#x2007;" horiz-adv-x="1269" />
<glyph unicode="&#x2008;" horiz-adv-x="593" />
<glyph unicode="&#x2009;" horiz-adv-x="409" />
<glyph unicode="&#x200a;" horiz-adv-x="112" />
<glyph unicode="&#x200b;" horiz-adv-x="0" />
<glyph unicode="&#x2010;" horiz-adv-x="892" d="M164 524l22 117h576l-23 -117h-575z" />
<glyph unicode="&#x2011;" horiz-adv-x="892" d="M164 524l22 117h576l-23 -117h-575z" />
<glyph unicode="&#x2012;" horiz-adv-x="1024" d="M0 539l20 108h1024l-20 -108h-1024z" />
<glyph unicode="&#x2013;" horiz-adv-x="1024" d="M0 539l20 108h1024l-20 -108h-1024z" />
<glyph unicode="&#x2014;" horiz-adv-x="2048" d="M0 539l20 108h2048l-20 -108h-2048z" />
<glyph unicode="&#x2015;" horiz-adv-x="2048" d="M0 539l20 108h2048l-20 -108h-2048z" />
<glyph unicode="&#x2018;" horiz-adv-x="393" d="M219 1085q20 123 76.5 249t134.5 222h94q-68 -96 -116 -217.5t-70 -253.5h-119z" />
<glyph unicode="&#x2019;" horiz-adv-x="393" d="M186 1085q68 96 116 218t71 253h119q-20 -123 -77 -248.5t-134 -222.5h-95z" />
<glyph unicode="&#x201a;" horiz-adv-x="393" d="M-68 -229q68 96 116 218t71 253h119q-20 -123 -77 -249t-134 -222h-95z" />
<glyph unicode="&#x201c;" horiz-adv-x="684" d="M219 1085q20 123 76.5 249t134.5 222h94q-68 -96 -116 -217.5t-70 -253.5h-119zM510 1085q20 123 76.5 249t134.5 222h94q-68 -96 -116 -217.5t-70 -253.5h-119z" />
<glyph unicode="&#x201d;" horiz-adv-x="684" d="M186 1085q68 96 116 218t71 253h119q-20 -123 -77 -248.5t-134 -222.5h-95zM477 1085q68 96 116 218t71 253h119q-20 -123 -77 -248.5t-134 -222.5h-95z" />
<glyph unicode="&#x201e;" horiz-adv-x="684" d="M-68 -229q68 96 116 218t71 253h119q-20 -123 -77 -249t-134 -222h-95zM223 -229q68 96 116 218t71 253h119q-20 -123 -77 -249t-134 -222h-95z" />
<glyph unicode="&#x2020;" horiz-adv-x="997" d="M180 930l23 110h342l100 516h117l-103 -516h345l-21 -110h-344l-231 -1196h-117l233 1196h-344z" />
<glyph unicode="&#x2021;" horiz-adv-x="997" d="M45 229l21 111h344l118 610h-344l23 111h342l96 495h117l-98 -495h344l-21 -111h-344l-119 -610h344l-20 -111h-344l-96 -495h-117l98 495h-344z" />
<glyph unicode="&#x2022;" horiz-adv-x="704" d="M135 561q0 94 66.5 160.5t160.5 66.5t161 -66.5t67 -160.5t-67 -160.5t-161 -66.5t-160.5 66.5t-66.5 160.5z" />
<glyph unicode="&#x2026;" horiz-adv-x="2048" d="M162 72q0 45 30.5 74.5t73.5 29.5q37 0 62.5 -25.5t25.5 -62.5q0 -45 -30.5 -74.5t-75.5 -29.5q-37 0 -61.5 25.5t-24.5 62.5zM844 72q0 45 30.5 74.5t73.5 29.5q37 0 62.5 -25.5t25.5 -62.5q0 -45 -30.5 -74.5t-75.5 -29.5q-37 0 -61.5 25.5t-24.5 62.5zM1528 72 q0 45 30.5 74.5t73.5 29.5q37 0 62.5 -25.5t25.5 -62.5q0 -45 -30.5 -74.5t-75.5 -29.5q-37 0 -61.5 25.5t-24.5 62.5z" />
<glyph unicode="&#x202f;" horiz-adv-x="434" />
<glyph unicode="&#x2030;" horiz-adv-x="2770" d="M223 0l1424 1524h141l-1423 -1524h-142zM242 1155q0 104 49 195.5t138 148.5t196 57q92 0 166.5 -38.5t118.5 -112.5t44 -168q0 -104 -50 -195.5t-139.5 -149.5t-195.5 -58q-143 0 -235 90t-92 231zM348 1163q0 -104 62.5 -166.5t164.5 -62.5q72 0 133.5 38t100.5 105.5 t39 151.5q0 104 -62.5 165.5t-169.5 61.5q-113 0 -190.5 -85t-77.5 -208zM1067 303q0 104 49 195.5t138 149t196 57.5q92 0 167 -39t119 -113t44 -168q0 -104 -50.5 -195.5t-139.5 -149.5t-195 -58q-143 0 -235.5 90t-92.5 231zM1174 311q0 -104 62.5 -166.5t164.5 -62.5 q72 0 133 38t100 105.5t39 151.5q0 104 -62.5 165.5t-168.5 61.5q-113 0 -190.5 -85t-77.5 -208zM1921 303q0 104 49 195.5t138.5 149t195.5 57.5q92 0 167 -39t119 -113t44 -168q0 -104 -50.5 -195.5t-139.5 -149.5t-195 -58q-143 0 -235.5 90t-92.5 231zM2028 311 q0 -104 62.5 -166.5t164.5 -62.5q72 0 133 38t100 105.5t39 151.5q0 104 -62.5 165.5t-168.5 61.5q-113 0 -190.5 -85t-77.5 -208z" />
<glyph unicode="&#x2032;" horiz-adv-x="460" d="M205 961l221 595h125l-248 -595h-98z" />
<glyph unicode="&#x2033;" horiz-adv-x="768" d="M205 961l221 595h125l-248 -595h-98zM512 961l221 595h125l-248 -595h-98z" />
<glyph unicode="&#x2039;" horiz-adv-x="589" d="M72 526l368 426h138l-373 -434l196 -418h-127z" />
<glyph unicode="&#x203a;" horiz-adv-x="589" d="M20 100l373 435l-196 417h127l202 -426l-368 -426h-138z" />
<glyph unicode="&#x2044;" horiz-adv-x="337" d="M-563 0l1427 1524h137l-1427 -1524h-137z" />
<glyph unicode="&#x205f;" horiz-adv-x="542" />
<glyph unicode="&#x2070;" d="M221 1247q0 86 14 150q37 178 137.5 285.5t235.5 107.5q127 0 203 -91t76 -243q0 -86 -15 -149q-37 -178 -137.5 -285.5t-235.5 -107.5q-127 0 -202.5 91t-75.5 242zM323 1249q0 -119 48.5 -183t136.5 -64q90 0 161.5 82.5t100.5 220.5q14 59 14 149q0 119 -48 183.5 t-136 64.5q-90 0 -162 -83t-100 -220q-14 -59 -15 -150z" />
<glyph unicode="&#x2074;" d="M205 1147l16 84l500 539h98l-104 -539h116l-16 -84h-117l-41 -213h-92l41 213h-401zM327 1231h297l78 401z" />
<glyph unicode="&#x2075;" d="M223 989l23 86q94 -74 227 -73q96 0 161.5 57t65.5 141q0 80 -54 123t-153 43q-88 0 -157 -16l92 420h422l-21 -95h-334l-49 -229q29 6 66 6q135 0 209.5 -65.5t74.5 -184.5q0 -123 -92 -205.5t-231 -82.5q-80 0 -145.5 19t-104.5 56z" />
<glyph unicode="&#x2076;" d="M239 1174q0 156 119 322.5t311 279.5l129 -8q-139 -82 -244.5 -180.5t-164.5 -198.5q78 68 184 67q109 0 178.5 -68.5t69.5 -174.5q0 -78 -40 -147t-111.5 -110.5t-159.5 -41.5q-121 0 -196 71.5t-75 188.5zM334 1172q0 -78 49 -126.5t127 -48.5q90 0 152.5 61.5 t62.5 149.5q0 78 -46 123t-126 45q-94 0 -156.5 -58t-62.5 -146z" />
<glyph unicode="&#x2077;" d="M311 936l459 737h-424l18 97h533l-19 -88l-460 -752z" />
<glyph unicode="&#x2078;" d="M227 1135q0 92 58.5 161.5t154.5 90.5q-51 23 -79.5 65.5t-28.5 95.5q0 102 80.5 172t201.5 70q106 0 177 -60.5t71 -152.5q0 -78 -49 -135t-131 -76q61 -27 93 -76t32 -112q0 -72 -38 -132.5t-107.5 -96t-157.5 -35.5q-125 0 -201 60t-76 161zM325 1143q0 -68 49.5 -107 t131.5 -39q88 0 145 53.5t57 135.5q0 68 -49 107.5t-131 39.5q-88 0 -145.5 -54t-57.5 -136zM426 1552q0 -59 43.5 -98t113.5 -39q76 0 130.5 46t54.5 112q0 61 -44 99t-114 38q-78 0 -131 -46t-53 -112z" />
<glyph unicode="&#x2079;" d="M293 1491q0 78 39.5 146.5t111.5 110.5t160 42q121 0 195.5 -71.5t74.5 -188.5q0 -156 -118.5 -323t-311.5 -279l-129 8q141 84 246.5 181.5t161.5 195.5q-68 -66 -183 -66q-109 0 -178 69t-69 175zM389 1495q0 -78 46 -123t126 -45q94 0 156.5 58.5t62.5 146.5 q0 78 -49 126t-127 48q-90 0 -152.5 -61.5t-62.5 -149.5z" />
<glyph unicode="&#x2080;" d="M-8 57q0 86 14 150q37 178 137.5 285.5t235.5 107.5q127 0 203 -91t76 -243q0 -86 -15 -149q-37 -178 -137.5 -285.5t-235.5 -107.5q-127 0 -202.5 91t-75.5 242zM94 59q0 -119 48.5 -183t136.5 -64q90 0 161.5 82.5t100.5 220.5q14 59 14 149q0 119 -48 183.5t-136 64.5 q-90 0 -162 -83t-100 -220q-14 -59 -15 -150z" />
<glyph unicode="&#x2081;" d="M135 354l4 95l301 131h86l-161 -836h-101l140 725z" />
<glyph unicode="&#x2082;" d="M-10 -256l14 92q119 90 281 234q121 109 167 174t46 131q0 61 -39 97t-109 36q-61 0 -120.5 -28.5t-104.5 -80.5l-16 93q43 49 111.5 78.5t138.5 29.5q109 0 174 -61.5t65 -159.5q0 -82 -55 -164t-195 -205q-82 -72 -213 -174h408l-19 -92h-534z" />
<glyph unicode="&#x2083;" d="M-18 -201l22 88q96 -78 215 -77q94 0 158.5 57t64.5 141q0 70 -41.5 109t-121.5 39q-41 0 -78 -11l-25 64l297 280h-358l20 91h480l-17 -84l-278 -263q98 -2 160.5 -64.5t62.5 -158.5q0 -123 -92.5 -204.5t-231.5 -81.5q-68 0 -132 20t-105 55z" />
<glyph unicode="&#x2084;" d="M-22 -43l16 84l500 539h98l-104 -539h116l-16 -84h-117l-41 -213h-92l41 213h-401zM100 41h297l78 401z" />
<glyph unicode="&#x2085;" d="M-4 -201l23 86q94 -74 227 -73q96 0 161.5 57t65.5 141q0 80 -54 123t-153 43q-88 0 -157 -16l92 420h422l-21 -95h-334l-49 -229q29 6 66 6q135 0 209.5 -65.5t74.5 -184.5q0 -123 -92 -205.5t-231 -82.5q-80 0 -145.5 19t-104.5 56z" />
<glyph unicode="&#x2086;" d="M10 -16q0 156 119 322.5t311 279.5l129 -8q-139 -82 -244.5 -180.5t-164.5 -198.5q78 68 184 67q109 0 178.5 -68.5t69.5 -174.5q0 -78 -40 -147t-111.5 -110.5t-159.5 -41.5q-121 0 -196 71.5t-75 188.5zM105 -18q0 -78 49 -126.5t127 -48.5q90 0 152.5 61.5t62.5 149.5 q0 78 -46 123t-126 45q-94 0 -156.5 -58t-62.5 -146z" />
<glyph unicode="&#x2087;" d="M82 -254l459 737h-424l18 97h533l-19 -88l-460 -752z" />
<glyph unicode="&#x2088;" d="M-2 -55q0 92 58.5 161.5t154.5 90.5q-51 23 -79.5 65.5t-28.5 95.5q0 102 80.5 172t201.5 70q106 0 177 -60.5t71 -152.5q0 -78 -49 -135t-131 -76q61 -27 93 -76t32 -112q0 -72 -38 -132.5t-107.5 -96t-157.5 -35.5q-125 0 -201 60t-76 161zM96 -47q0 -68 49.5 -107 t131.5 -39q88 0 145 53.5t57 135.5q0 68 -49 107.5t-131 39.5q-88 0 -145.5 -54t-57.5 -136zM197 362q0 -59 43.5 -98t113.5 -39q76 0 130.5 46t54.5 112q0 61 -44 99t-114 38q-78 0 -131 -46t-53 -112z" />
<glyph unicode="&#x2089;" d="M64 301q0 78 39.5 146.5t111.5 110.5t160 42q121 0 195.5 -71.5t74.5 -188.5q0 -156 -118.5 -323t-311.5 -279l-129 8q141 84 246.5 181.5t161.5 195.5q-68 -66 -183 -66q-109 0 -178 69t-69 175zM160 305q0 -78 46 -123t126 -45q94 0 156.5 58.5t62.5 146.5 q0 78 -49 126t-127 48q-90 0 -152.5 -61.5t-62.5 -149.5z" />
<glyph unicode="&#x20ac;" horiz-adv-x="1269" d="M94 532l19 101h209q0 133 30 258h-190l18 100h199q84 260 265 412.5t407 152.5q168 0 295 -77l-27 -107q-123 76 -277 76q-174 0 -319 -123t-221 -334h571l-18 -100h-582q-33 -125 -33 -258h564l-19 -101h-543q14 -221 121 -335.5t299 -114.5q133 0 271 74l4 -113 q-57 -33 -131 -51.5t-150 -18.5q-244 0 -382 144.5t-152 414.5h-228z" />
<glyph unicode="&#x20ba;" horiz-adv-x="1269" d="M131 580l21 102l217 63l45 236l-217 -63l20 102l217 63l86 441h115l-80 -406l418 121l-21 -102l-415 -121l-48 -236l418 121l-20 -102l-418 -121l-115 -590q33 -4 58 -4q260 0 419.5 141.5t206.5 415.5l109 -12q-45 -313 -240 -484.5t-508 -171.5q-92 0 -176 21l125 649z " />
<glyph unicode="&#x2122;" horiz-adv-x="1695" d="M242 1466l18 90h578l-19 -90h-235l-131 -667h-101l129 667h-239zM829 799l185 757h108l144 -530l350 530h108l-110 -757h-96l94 614l-320 -483h-84l-135 493l-149 -624h-95z" />
<glyph unicode="&#x2126;" horiz-adv-x="1916" d="M143 0l21 113h414q-152 98 -237 261t-85 357q0 223 103.5 419t290 317.5t413.5 121.5q197 0 354.5 -82t248.5 -234.5t91 -350.5q0 -256 -138 -474.5t-372 -334.5h404l-21 -113h-606l16 98q272 119 430 337t158 478q0 164 -69.5 290t-199.5 198t-302 72q-176 0 -329 -95.5 t-248 -266.5t-95 -380q0 -406 363 -633l-17 -98h-588z" />
<glyph unicode="&#x2150;" horiz-adv-x="1906" d="M142 0l1427 1524h137l-1427 -1524h-137zM317 1298l4 95l301 131h86l-161 -836h-101l140 725zM1259 2l459 737h-424l18 97h533l-19 -88l-460 -752z" />
<glyph unicode="&#x2151;" horiz-adv-x="1906" d="M178 0l1427 1524h137l-1427 -1524h-137zM317 1298l4 95l301 131h86l-161 -836h-101l140 725zM1239 557q0 78 39.5 146.5t111.5 110.5t160 42q121 0 195.5 -71.5t74.5 -188.5q0 -156 -118.5 -323t-311.5 -279l-129 8q141 84 246.5 181.5t161.5 195.5q-68 -66 -183 -66 q-109 0 -178 69t-69 175zM1335 561q0 -78 46 -123t126 -45q94 0 156.5 58.5t62.5 146.5q0 78 -49 126t-127 48q-90 0 -152.5 -61.5t-62.5 -149.5z" />
<glyph unicode="&#x2153;" horiz-adv-x="1906" d="M174 0l1427 1524h137l-1427 -1524h-137zM317 1298l4 95l301 131h86l-161 -836h-101l140 725zM1157 55l22 88q96 -78 215 -77q94 0 158.5 57t64.5 141q0 70 -41.5 109t-121.5 39q-41 0 -78 -11l-25 64l297 280h-358l20 91h480l-17 -84l-278 -263q98 -2 160.5 -64.5 t62.5 -158.5q0 -123 -92.5 -204.5t-231.5 -81.5q-68 0 -132 20t-105 55z" />
<glyph unicode="&#x2154;" horiz-adv-x="1906" d="M170 688l14 92q119 90 281 234q121 109 167 174t46 131q0 61 -39 97t-109 36q-61 0 -120.5 -28.5t-104.5 -80.5l-16 93q43 49 111.5 78.5t138.5 29.5q109 0 174 -61.5t65 -159.5q0 -82 -55 -164t-195 -205q-82 -72 -213 -174h408l-19 -92h-534zM230 0l1427 1524h137 l-1427 -1524h-137zM1157 55l22 88q96 -78 215 -77q94 0 158.5 57t64.5 141q0 70 -41.5 109t-121.5 39q-41 0 -78 -11l-25 64l297 280h-358l20 91h480l-17 -84l-278 -263q98 -2 160.5 -64.5t62.5 -158.5q0 -123 -92.5 -204.5t-231.5 -81.5q-68 0 -132 20t-105 55z" />
<glyph unicode="&#x2155;" horiz-adv-x="1906" d="M201 0l1427 1524h137l-1427 -1524h-137zM317 1298l4 95l301 131h86l-161 -836h-101l140 725zM1171 55l23 86q94 -74 227 -73q96 0 161.5 57t65.5 141q0 80 -54 123t-153 43q-88 0 -157 -16l92 420h422l-21 -95h-334l-49 -229q29 6 66 6q135 0 209.5 -65.5t74.5 -184.5 q0 -123 -92 -205.5t-231 -82.5q-80 0 -145.5 19t-104.5 56z" />
<glyph unicode="&#x2156;" horiz-adv-x="1906" d="M170 688l14 92q119 90 281 234q121 109 167 174t46 131q0 61 -39 97t-109 36q-61 0 -120.5 -28.5t-104.5 -80.5l-16 93q43 49 111.5 78.5t138.5 29.5q109 0 174 -61.5t65 -159.5q0 -82 -55 -164t-195 -205q-82 -72 -213 -174h408l-19 -92h-534zM246 0l1427 1524h137 l-1427 -1524h-137zM1171 55l23 86q94 -74 227 -73q96 0 161.5 57t65.5 141q0 80 -54 123t-153 43q-88 0 -157 -16l92 420h422l-21 -95h-334l-49 -229q29 6 66 6q135 0 209.5 -65.5t74.5 -184.5q0 -123 -92 -205.5t-231 -82.5q-80 0 -145.5 19t-104.5 56z" />
<glyph unicode="&#x2157;" horiz-adv-x="1906" d="M162 743l22 88q96 -78 215 -77q94 0 158.5 57t64.5 141q0 70 -41.5 109t-121.5 39q-41 0 -78 -11l-25 64l297 280h-358l20 91h480l-17 -84l-278 -263q98 -2 160.5 -64.5t62.5 -158.5q0 -123 -92.5 -204.5t-231.5 -81.5q-68 0 -132 20t-105 55zM223 0l1427 1524h137 l-1427 -1524h-137zM1171 55l23 86q94 -74 227 -73q96 0 161.5 57t65.5 141q0 80 -54 123t-153 43q-88 0 -157 -16l92 420h422l-21 -95h-334l-49 -229q29 6 66 6q135 0 209.5 -65.5t74.5 -184.5q0 -123 -92 -205.5t-231 -82.5q-80 0 -145.5 19t-104.5 56z" />
<glyph unicode="&#x2158;" horiz-adv-x="1906" d="M158 901l16 84l500 539h98l-104 -539h116l-16 -84h-117l-41 -213h-92l41 213h-401zM228 0l1427 1524h137l-1427 -1524h-137zM280 985h297l78 401zM1171 55l23 86q94 -74 227 -73q96 0 161.5 57t65.5 141q0 80 -54 123t-153 43q-88 0 -157 -16l92 420h422l-21 -95h-334 l-49 -229q29 6 66 6q135 0 209.5 -65.5t74.5 -184.5q0 -123 -92 -205.5t-231 -82.5q-80 0 -145.5 19t-104.5 56z" />
<glyph unicode="&#x2159;" horiz-adv-x="1906" d="M234 0l1427 1524h137l-1427 -1524h-137zM317 1298l4 95l301 131h86l-161 -836h-101l140 725zM1185 240q0 156 119 322.5t311 279.5l129 -8q-139 -82 -244.5 -180.5t-164.5 -198.5q78 68 184 67q109 0 178.5 -68.5t69.5 -174.5q0 -78 -40 -147t-111.5 -110.5t-159.5 -41.5 q-121 0 -196 71.5t-75 188.5zM1280 238q0 -78 49 -126.5t127 -48.5q90 0 152.5 61.5t62.5 149.5q0 78 -46 123t-126 45q-94 0 -156.5 -58t-62.5 -146z" />
<glyph unicode="&#x215a;" horiz-adv-x="1906" d="M176 743l23 86q94 -74 227 -73q96 0 161.5 57t65.5 141q0 80 -54 123t-153 43q-88 0 -157 -16l92 420h422l-21 -95h-334l-49 -229q29 6 66 6q135 0 209.5 -65.5t74.5 -184.5q0 -123 -92 -205.5t-231 -82.5q-80 0 -145.5 19t-104.5 56zM256 0l1427 1524h137l-1427 -1524 h-137zM1185 240q0 156 119 322.5t311 279.5l129 -8q-139 -82 -244.5 -180.5t-164.5 -198.5q78 68 184 67q109 0 178.5 -68.5t69.5 -174.5q0 -78 -40 -147t-111.5 -110.5t-159.5 -41.5q-121 0 -196 71.5t-75 188.5zM1280 238q0 -78 49 -126.5t127 -48.5q90 0 152.5 61.5 t62.5 149.5q0 78 -46 123t-126 45q-94 0 -156.5 -58t-62.5 -146z" />
<glyph unicode="&#x215b;" horiz-adv-x="1906" d="M174 0l1427 1524h137l-1427 -1524h-137zM317 1298l4 95l301 131h86l-161 -836h-101l140 725zM1173 201q0 92 58.5 161.5t154.5 90.5q-51 23 -79.5 65.5t-28.5 95.5q0 102 80.5 172t201.5 70q106 0 177 -60.5t71 -152.5q0 -78 -49 -135t-131 -76q61 -27 93 -76t32 -112 q0 -72 -38 -132.5t-107.5 -96t-157.5 -35.5q-125 0 -201 60t-76 161zM1271 209q0 -68 49.5 -107t131.5 -39q88 0 145 53.5t57 135.5q0 68 -49 107.5t-131 39.5q-88 0 -145.5 -54t-57.5 -136zM1372 618q0 -59 43.5 -98t113.5 -39q76 0 130.5 46t54.5 112q0 61 -44 99t-114 38 q-78 0 -131 -46t-53 -112z" />
<glyph unicode="&#x215c;" horiz-adv-x="1906" d="M162 743l22 88q96 -78 215 -77q94 0 158.5 57t64.5 141q0 70 -41.5 109t-121.5 39q-41 0 -78 -11l-25 64l297 280h-358l20 91h480l-17 -84l-278 -263q98 -2 160.5 -64.5t62.5 -158.5q0 -123 -92.5 -204.5t-231.5 -81.5q-68 0 -132 20t-105 55zM201 0l1427 1524h137 l-1427 -1524h-137zM1173 201q0 92 58.5 161.5t154.5 90.5q-51 23 -79.5 65.5t-28.5 95.5q0 102 80.5 172t201.5 70q106 0 177 -60.5t71 -152.5q0 -78 -49 -135t-131 -76q61 -27 93 -76t32 -112q0 -72 -38 -132.5t-107.5 -96t-157.5 -35.5q-125 0 -201 60t-76 161zM1271 209 q0 -68 49.5 -107t131.5 -39q88 0 145 53.5t57 135.5q0 68 -49 107.5t-131 39.5q-88 0 -145.5 -54t-57.5 -136zM1372 618q0 -59 43.5 -98t113.5 -39q76 0 130.5 46t54.5 112q0 61 -44 99t-114 38q-78 0 -131 -46t-53 -112z" />
<glyph unicode="&#x215d;" horiz-adv-x="1906" d="M176 743l23 86q94 -74 227 -73q96 0 161.5 57t65.5 141q0 80 -54 123t-153 43q-88 0 -157 -16l92 420h422l-21 -95h-334l-49 -229q29 6 66 6q135 0 209.5 -65.5t74.5 -184.5q0 -123 -92 -205.5t-231 -82.5q-80 0 -145.5 19t-104.5 56zM230 0l1427 1524h137l-1427 -1524 h-137zM1173 201q0 92 58.5 161.5t154.5 90.5q-51 23 -79.5 65.5t-28.5 95.5q0 102 80.5 172t201.5 70q106 0 177 -60.5t71 -152.5q0 -78 -49 -135t-131 -76q61 -27 93 -76t32 -112q0 -72 -38 -132.5t-107.5 -96t-157.5 -35.5q-125 0 -201 60t-76 161zM1271 209 q0 -68 49.5 -107t131.5 -39q88 0 145 53.5t57 135.5q0 68 -49 107.5t-131 39.5q-88 0 -145.5 -54t-57.5 -136zM1372 618q0 -59 43.5 -98t113.5 -39q76 0 130.5 46t54.5 112q0 61 -44 99t-114 38q-78 0 -131 -46t-53 -112z" />
<glyph unicode="&#x215e;" horiz-adv-x="1906" d="M125 0l1427 1524h137l-1427 -1524h-137zM264 690l459 737h-424l18 97h533l-19 -88l-460 -752zM1173 201q0 92 58.5 161.5t154.5 90.5q-51 23 -79.5 65.5t-28.5 95.5q0 102 80.5 172t201.5 70q106 0 177 -60.5t71 -152.5q0 -78 -49 -135t-131 -76q61 -27 93 -76t32 -112 q0 -72 -38 -132.5t-107.5 -96t-157.5 -35.5q-125 0 -201 60t-76 161zM1271 209q0 -68 49.5 -107t131.5 -39q88 0 145 53.5t57 135.5q0 68 -49 107.5t-131 39.5q-88 0 -145.5 -54t-57.5 -136zM1372 618q0 -59 43.5 -98t113.5 -39q76 0 130.5 46t54.5 112q0 61 -44 99t-114 38 q-78 0 -131 -46t-53 -112z" />
<glyph unicode="&#x2202;" horiz-adv-x="1234" d="M84 362q0 145 68.5 272.5t192.5 207.5t271 80q156 0 259.5 -81t125.5 -223q35 158 35 347q0 240 -90 362.5t-264 122.5q-168 0 -311 -121l-11 109q59 55 147.5 86.5t182.5 31.5q219 0 342 -153.5t123 -427.5q0 -281 -80 -509t-229 -363.5t-342 -135.5q-121 0 -216 48 t-149.5 138.5t-54.5 208.5zM205 369q0 -135 85 -216t226 -81q106 0 199.5 58t152 161.5t58.5 228.5q0 133 -85 215t-227 82q-104 0 -197 -58.5t-152.5 -161.5t-59.5 -228z" />
<glyph unicode="&#x2206;" horiz-adv-x="1505" d="M-37 0l922 1556h139l322 -1556h-1383zM158 104h1036l-262 1328z" />
<glyph unicode="&#x220f;" horiz-adv-x="1478" d="M121 -164l334 1720h979l-334 -1720h-125l311 1610h-729l-311 -1610h-125z" />
<glyph unicode="&#x2211;" horiz-adv-x="1146" d="M-45 -162l20 105l676 776l-348 731l21 106h907l-23 -108h-772l352 -741l-663 -760h815l-20 -109h-965z" />
<glyph unicode="&#x2212;" horiz-adv-x="1269" d="M209 633l20 108h899l-20 -108h-899z" />
<glyph unicode="&#x2215;" horiz-adv-x="337" d="M-563 0l1427 1524h137l-1427 -1524h-137z" />
<glyph unicode="&#x2219;" horiz-adv-x="593" d="M254 770q0 45 30.5 74.5t73.5 29.5q37 0 62.5 -25.5t25.5 -62.5q0 -45 -30.5 -74.5t-75.5 -29.5q-37 0 -61.5 25.5t-24.5 62.5z" />
<glyph unicode="&#x221a;" horiz-adv-x="1318" d="M137 807l21 106h288l156 -784l868 1530h125l-952 -1659h-121l-174 807h-211z" />
<glyph unicode="&#x221e;" horiz-adv-x="1470" d="M135 668q0 102 46 189t129 140.5t186 53.5q102 0 178 -58.5t114 -165.5q66 109 155 166.5t192 57.5q131 0 207.5 -81t76.5 -216q0 -102 -46 -189.5t-129 -140.5t-185 -53t-178 57t-115 164q-66 -109 -155 -165t-191 -56q-131 0 -208 80.5t-77 216.5zM244 670 q0 -90 50 -143.5t134 -53.5q174 0 301 240q-68 236 -242 235q-100 0 -171.5 -82t-71.5 -196zM823 707q68 -234 242 -234q100 0 172 82t72 197q0 90 -49.5 143t-133.5 53q-88 0 -165.5 -61.5t-137.5 -179.5z" />
<glyph unicode="&#x222b;" horiz-adv-x="751" d="M-260 -475l24 104q63 -41 146 -41q117 0 183.5 89.5t90.5 277.5l166 1272q29 223 128.5 338.5t262.5 115.5q102 0 172 -41l-20 -104q-68 37 -150 37q-115 0 -182 -90t-92 -277l-166 -1272q-29 -229 -126 -341.5t-269 -112.5q-104 0 -168 45z" />
<glyph unicode="&#x2248;" horiz-adv-x="1269" d="M115 286q33 170 110.5 260t192.5 90q55 0 102 -24.5t89 -60t82 -71.5t79 -60.5t80 -24.5q68 0 113 58.5t73 182.5h107q-33 -170 -110 -260t-191 -90q-55 0 -102.5 24.5t-90.5 60.5t-83 72t-79 60.5t-77 24.5q-137 0 -189 -242h-106zM213 805q33 170 110.5 260t192.5 90 q55 0 102 -24.5t89 -60t82 -71.5t79 -60.5t80 -24.5q68 0 113 58.5t73 182.5h107q-33 -170 -110 -260t-191 -90q-55 0 -102.5 24.5t-90.5 60.5t-83 72t-79 60.5t-77 24.5q-137 0 -189 -242h-106z" />
<glyph unicode="&#x2260;" horiz-adv-x="1269" d="M195 397l20 109h281l213 360h-424l20 109h467l154 262h112l-155 -262h262l-21 -109h-305l-211 -360h447l-21 -109h-491l-156 -266h-111l156 266h-237z" />
<glyph unicode="&#x2264;" horiz-adv-x="1269" d="M90 2l20 108h899l-20 -108h-899zM266 737l20 115l903 397l-24 -125l-760 -334l631 -334l-23 -114z" />
<glyph unicode="&#x2265;" horiz-adv-x="1269" d="M90 2l20 108h899l-20 -108h-899zM188 340l25 125l759 333l-630 334l22 115l748 -395l-21 -115z" />
<glyph unicode="&#x25ca;" horiz-adv-x="1222" d="M156 829l624 832h115l299 -832l-623 -829h-112zM279 815l249 -690l543 717l-254 694z" />
<glyph unicode="&#x25fc;" horiz-adv-x="1003" d="M0 0v1004h1004v-1004h-1004z" />
<glyph unicode="&#xf507;" horiz-adv-x="1906" d="M170 688l14 92q119 90 281 234q121 109 167 174t46 131q0 61 -39 97t-109 36q-61 0 -120.5 -28.5t-104.5 -80.5l-16 93q43 49 111.5 78.5t138.5 29.5q109 0 174 -61.5t65 -159.5q0 -82 -55 -164t-195 -205q-82 -72 -213 -174h408l-19 -92h-534zM223 0l1427 1524h137 l-1427 -1524h-137zM1259 2l459 737h-424l18 97h533l-19 -88l-460 -752z" />
<glyph unicode="&#xf508;" horiz-adv-x="1906" d="M162 743l22 88q96 -78 215 -77q94 0 158.5 57t64.5 141q0 70 -41.5 109t-121.5 39q-41 0 -78 -11l-25 64l297 280h-358l20 91h480l-17 -84l-278 -263q98 -2 160.5 -64.5t62.5 -158.5q0 -123 -92.5 -204.5t-231.5 -81.5q-68 0 -132 20t-105 55zM189 0l1427 1524h137 l-1427 -1524h-137zM1259 2l459 737h-424l18 97h533l-19 -88l-460 -752z" />
<glyph unicode="&#xf509;" horiz-adv-x="1906" d="M158 901l16 84l500 539h98l-104 -539h116l-16 -84h-117l-41 -213h-92l41 213h-401zM176 0l1427 1524h137l-1427 -1524h-137zM280 985h297l78 401zM1259 2l459 737h-424l18 97h533l-19 -88l-460 -752z" />
<glyph unicode="&#xf50a;" horiz-adv-x="1906" d="M176 743l23 86q94 -74 227 -73q96 0 161.5 57t65.5 141q0 80 -54 123t-153 43q-88 0 -157 -16l92 420h422l-21 -95h-334l-49 -229q29 6 66 6q135 0 209.5 -65.5t74.5 -184.5q0 -123 -92 -205.5t-231 -82.5q-80 0 -145.5 19t-104.5 56zM178 0l1427 1524h137l-1427 -1524 h-137zM1259 2l459 737h-424l18 97h533l-19 -88l-460 -752z" />
<glyph unicode="&#xf50b;" horiz-adv-x="1906" d="M190 928q0 156 119 322.5t311 279.5l129 -8q-139 -82 -244.5 -180.5t-164.5 -198.5q78 68 184 67q109 0 178.5 -68.5t69.5 -174.5q0 -78 -40 -147t-111.5 -110.5t-159.5 -41.5q-121 0 -196 71.5t-75 188.5zM199 0l1427 1524h137l-1427 -1524h-137zM285 926 q0 -78 49 -126.5t127 -48.5q90 0 152.5 61.5t62.5 149.5q0 78 -46 123t-126 45q-94 0 -156.5 -58t-62.5 -146zM1259 2l459 737h-424l18 97h533l-19 -88l-460 -752z" />
<glyph unicode="&#xf50d;" horiz-adv-x="1906" d="M170 688l14 92q119 90 281 234q121 109 167 174t46 131q0 61 -39 97t-109 36q-61 0 -120.5 -28.5t-104.5 -80.5l-16 93q43 49 111.5 78.5t138.5 29.5q109 0 174 -61.5t65 -159.5q0 -82 -55 -164t-195 -205q-82 -72 -213 -174h408l-19 -92h-534zM252 0l1427 1524h137 l-1427 -1524h-137zM1239 557q0 78 39.5 146.5t111.5 110.5t160 42q121 0 195.5 -71.5t74.5 -188.5q0 -156 -118.5 -323t-311.5 -279l-129 8q141 84 246.5 181.5t161.5 195.5q-68 -66 -183 -66q-109 0 -178 69t-69 175zM1335 561q0 -78 46 -123t126 -45q94 0 156.5 58.5 t62.5 146.5q0 78 -49 126t-127 48q-90 0 -152.5 -61.5t-62.5 -149.5z" />
<glyph unicode="&#xf50e;" horiz-adv-x="1906" d="M158 901l16 84l500 539h98l-104 -539h116l-16 -84h-117l-41 -213h-92l41 213h-401zM221 0l1427 1524h137l-1427 -1524h-137zM280 985h297l78 401zM1239 557q0 78 39.5 146.5t111.5 110.5t160 42q121 0 195.5 -71.5t74.5 -188.5q0 -156 -118.5 -323t-311.5 -279l-129 8 q141 84 246.5 181.5t161.5 195.5q-68 -66 -183 -66q-109 0 -178 69t-69 175zM1335 561q0 -78 46 -123t126 -45q94 0 156.5 58.5t62.5 146.5q0 78 -49 126t-127 48q-90 0 -152.5 -61.5t-62.5 -149.5z" />
<glyph unicode="&#xf50f;" horiz-adv-x="1906" d="M176 743l23 86q94 -74 227 -73q96 0 161.5 57t65.5 141q0 80 -54 123t-153 43q-88 0 -157 -16l92 420h422l-21 -95h-334l-49 -229q29 6 66 6q135 0 209.5 -65.5t74.5 -184.5q0 -123 -92 -205.5t-231 -82.5q-80 0 -145.5 19t-104.5 56zM230 0l1427 1524h137l-1427 -1524 h-137zM1239 557q0 78 39.5 146.5t111.5 110.5t160 42q121 0 195.5 -71.5t74.5 -188.5q0 -156 -118.5 -323t-311.5 -279l-129 8q141 84 246.5 181.5t161.5 195.5q-68 -66 -183 -66q-109 0 -178 69t-69 175zM1335 561q0 -78 46 -123t126 -45q94 0 156.5 58.5t62.5 146.5 q0 78 -49 126t-127 48q-90 0 -152.5 -61.5t-62.5 -149.5z" />
<glyph unicode="&#xf510;" horiz-adv-x="1906" d="M127 0l1427 1524h137l-1427 -1524h-137zM264 690l459 737h-424l18 97h533l-19 -88l-460 -752zM1239 557q0 78 39.5 146.5t111.5 110.5t160 42q121 0 195.5 -71.5t74.5 -188.5q0 -156 -118.5 -323t-311.5 -279l-129 8q141 84 246.5 181.5t161.5 195.5q-68 -66 -183 -66 q-109 0 -178 69t-69 175zM1335 561q0 -78 46 -123t126 -45q94 0 156.5 58.5t62.5 146.5q0 78 -49 126t-127 48q-90 0 -152.5 -61.5t-62.5 -149.5z" />
<glyph unicode="&#xf511;" horiz-adv-x="1906" d="M178 889q0 92 58.5 161.5t154.5 90.5q-51 23 -79.5 65.5t-28.5 95.5q0 102 80.5 172t201.5 70q106 0 177 -60.5t71 -152.5q0 -78 -49 -135t-131 -76q61 -27 93 -76t32 -112q0 -72 -38 -132.5t-107.5 -96t-157.5 -35.5q-125 0 -201 60t-76 161zM225 0l1427 1524h137 l-1427 -1524h-137zM276 897q0 -68 49.5 -107t131.5 -39q88 0 145 53.5t57 135.5q0 68 -49 107.5t-131 39.5q-88 0 -145.5 -54t-57.5 -136zM377 1306q0 -59 43.5 -98t113.5 -39q76 0 130.5 46t54.5 112q0 61 -44 99t-114 38q-78 0 -131 -46t-53 -112zM1239 557 q0 78 39.5 146.5t111.5 110.5t160 42q121 0 195.5 -71.5t74.5 -188.5q0 -156 -118.5 -323t-311.5 -279l-129 8q141 84 246.5 181.5t161.5 195.5q-68 -66 -183 -66q-109 0 -178 69t-69 175zM1335 561q0 -78 46 -123t126 -45q94 0 156.5 58.5t62.5 146.5q0 78 -49 126t-127 48 q-90 0 -152.5 -61.5t-62.5 -149.5z" />
<glyph unicode="&#xfb01;" horiz-adv-x="1292" d="M139 897l21 104h205l36 193q45 236 159 355.5t290 119.5q100 0 170 -35l-27 -102q-76 33 -145 33q-129 0 -210 -97.5t-122 -298.5l-33 -168h312l-21 -104h-311l-174 -897h-119l174 897h-205zM881 0l194 1001h119l-195 -1001h-118zM1120 1391q0 41 28 68.5t71 27.5 q35 0 57 -22.5t22 -59.5q0 -41 -27.5 -68.5t-68.5 -27.5q-35 0 -58.5 23.5t-23.5 58.5z" />
<glyph unicode="&#xfb02;" horiz-adv-x="1290" d="M139 897l21 104h205l36 193q45 236 159 355.5t290 119.5q100 0 170 -35l-27 -102q-76 33 -145 33q-129 0 -210 -97.5t-122 -298.5l-33 -168h312l-21 -104h-311l-174 -897h-119l174 897h-205zM879 0l321 1659h119l-322 -1659h-118z" />
<glyph unicode="&#xfeff;" horiz-adv-x="0" />
<glyph horiz-adv-x="1212" d="M125 539q0 133 27 286q37 215 125 380t216 258t277 93q203 0 310.5 -147t107.5 -424q0 -145 -29 -301q-39 -209 -127 -370.5t-214.5 -254t-276.5 -92.5q-201 0 -308.5 147.5t-107.5 424.5zM250 539q0 -227 76 -346t219 -119q106 0 204.5 73.5t173 212t109.5 322.5 q31 152 31 303q0 225 -77 345t-220 120q-109 0 -208 -77t-174 -222t-110 -338q-25 -131 -24 -274z" />
<glyph horiz-adv-x="978" d="M258 1208l7 117l505 199h103l-295 -1524h-121l268 1391z" />
<glyph horiz-adv-x="1228" d="M88 0l17 100q295 258 475 439q176 172 263 278.5t122 188t35 168.5q0 125 -78 198.5t-213 73.5q-213 0 -385 -189l-21 111q72 86 184.5 137t231.5 51q115 0 206 -46t143 -131t52 -197q0 -113 -42 -209t-135 -209t-261 -275q-215 -205 -422 -376h750l-21 -113h-901z" />
<glyph horiz-adv-x="1198" d="M51 88l29 109q72 -57 172 -91t196 -34q123 0 223.5 49t160 140t59.5 210q0 141 -91.5 224t-248.5 83q-68 0 -111 -14l-33 72l576 579h-674l21 109h815l-21 -107l-538 -543h14q117 0 210 -49t146 -141t53 -213q0 -137 -69.5 -252t-198.5 -183.5t-291 -68.5q-111 0 -221 34 t-178 87z" />
<glyph horiz-adv-x="1236" d="M92 410l19 98l893 1016h118l-196 -1014h209l-21 -100h-209l-77 -410h-113l80 410h-703zM238 510h575l164 840z" />
<glyph horiz-adv-x="1185" d="M65 90l31 109q70 -59 165 -93t196 -34q129 0 231 52t161.5 149.5t59.5 224.5q0 160 -104.5 248t-292.5 88q-117 0 -242 -35l164 725h696l-22 -113h-594l-111 -487q66 12 133 12q229 0 360.5 -114.5t131.5 -317.5q0 -150 -69.5 -271.5t-199.5 -193.5t-298 -72 q-115 0 -221.5 33t-174.5 90z" />
<glyph horiz-adv-x="1202" d="M119 410q0 172 95 378.5t266 404.5t384 333l160 -10q-236 -147 -430.5 -356.5t-288.5 -416.5q63 78 153.5 122t190.5 44q117 0 213 -53t153.5 -151.5t57.5 -225.5q0 -137 -64.5 -253.5t-183.5 -187.5t-266 -71q-199 0 -319.5 122t-120.5 321zM236 408q0 -154 90.5 -246 t240.5 -92q104 0 192.5 50t141.5 142t53 205q0 154 -91 247t-242 93q-102 0 -190.5 -51t-141.5 -143.5t-53 -204.5z" />
<glyph horiz-adv-x="1120" d="M174 4l839 1405h-766l23 115h895l-18 -101l-846 -1427z" />
<glyph horiz-adv-x="1232" d="M99 365q0 166 110.5 289.5t290.5 158.5q-98 41 -153.5 122t-55.5 187q0 115 62.5 214.5t175 159.5t252.5 60q121 0 216 -44t150.5 -126.5t55.5 -191.5q0 -147 -96.5 -260t-250.5 -148q113 -41 178.5 -133t65.5 -209q0 -129 -66.5 -237.5t-189 -174t-278.5 -65.5 q-211 0 -339 108.5t-128 289.5zM215 375q0 -137 96.5 -219t256.5 -82q113 0 207 46t151 131t57 191q0 139 -95 221t-257 82q-113 0 -208 -46t-151.5 -132t-56.5 -192zM404 1122q0 -121 86 -195.5t229 -74.5q100 0 184.5 42t135.5 117.5t51 172.5q0 123 -87 197.5t-231 74.5 q-100 0 -184 -42t-134 -118.5t-50 -173.5z" />
<glyph horiz-adv-x="1210" d="M219 1044q0 139 64.5 255t183 186.5t266.5 70.5q201 0 320.5 -120.5t119.5 -321.5q0 -172 -95 -379t-266 -404.5t-384 -332.5l-160 10q231 141 427 350t292 420q-59 -78 -150.5 -121t-193.5 -43q-117 0 -213.5 53.5t-153.5 152t-57 224.5zM338 1057q0 -154 90.5 -247 t242.5 -93q102 0 190.5 51t141.5 143.5t53 204.5q0 154 -91 246t-240 92q-104 0 -192.5 -50t-141.5 -142.5t-53 -204.5z" />
<glyph d="M41 313q0 86 14 150q37 178 137.5 285.5t235.5 107.5q127 0 203 -91t76 -243q0 -86 -15 -149q-37 -178 -137.5 -285.5t-235.5 -107.5q-127 0 -202.5 91t-75.5 242zM143 315q0 -119 48.5 -183t136.5 -64q90 0 161.5 82.5t100.5 220.5q14 59 14 149q0 119 -48 183.5 t-136 64.5q-90 0 -162 -83t-100 -220q-14 -59 -15 -150z" />
<glyph d="M184 610l4 95l301 131h86l-161 -836h-101l140 725z" />
<glyph d="M37 0l14 92q119 90 281 234q121 109 167 174t46 131q0 61 -39 97t-109 36q-61 0 -120.5 -28.5t-104.5 -80.5l-16 93q43 49 111.5 78.5t138.5 29.5q109 0 174 -61.5t65 -159.5q0 -82 -55 -164t-195 -205q-82 -72 -213 -174h408l-19 -92h-534z" />
<glyph d="M29 55l22 88q96 -78 215 -77q94 0 158.5 57t64.5 141q0 70 -41.5 109t-121.5 39q-41 0 -78 -11l-25 64l297 280h-358l20 91h480l-17 -84l-278 -263q98 -2 160.5 -64.5t62.5 -158.5q0 -123 -92.5 -204.5t-231.5 -81.5q-68 0 -132 20t-105 55z" />
<glyph d="M25 213l16 84l500 539h98l-104 -539h116l-16 -84h-117l-41 -213h-92l41 213h-401zM147 297h297l78 401z" />
<glyph d="M43 55l23 86q94 -74 227 -73q96 0 161.5 57t65.5 141q0 80 -54 123t-153 43q-88 0 -157 -16l92 420h422l-21 -95h-334l-49 -229q29 6 66 6q135 0 209.5 -65.5t74.5 -184.5q0 -123 -92 -205.5t-231 -82.5q-80 0 -145.5 19t-104.5 56z" />
<glyph d="M57 240q0 156 119 322.5t311 279.5l129 -8q-139 -82 -244.5 -180.5t-164.5 -198.5q78 68 184 67q109 0 178.5 -68.5t69.5 -174.5q0 -78 -40 -147t-111.5 -110.5t-159.5 -41.5q-121 0 -196 71.5t-75 188.5zM152 238q0 -78 49 -126.5t127 -48.5q90 0 152.5 61.5t62.5 149.5 q0 78 -46 123t-126 45q-94 0 -156.5 -58t-62.5 -146z" />
<glyph d="M131 2l459 737h-424l18 97h533l-19 -88l-460 -752z" />
<glyph d="M45 201q0 92 58.5 161.5t154.5 90.5q-51 23 -79.5 65.5t-28.5 95.5q0 102 80.5 172t201.5 70q106 0 177 -60.5t71 -152.5q0 -78 -49 -135t-131 -76q61 -27 93 -76t32 -112q0 -72 -38 -132.5t-107.5 -96t-157.5 -35.5q-125 0 -201 60t-76 161zM143 209q0 -68 49.5 -107 t131.5 -39q88 0 145 53.5t57 135.5q0 68 -49 107.5t-131 39.5q-88 0 -145.5 -54t-57.5 -136zM244 618q0 -59 43.5 -98t113.5 -39q76 0 130.5 46t54.5 112q0 61 -44 99t-114 38q-78 0 -131 -46t-53 -112z" />
<glyph d="M111 557q0 78 39.5 146.5t111.5 110.5t160 42q121 0 195.5 -71.5t74.5 -188.5q0 -156 -118.5 -323t-311.5 -279l-129 8q141 84 246.5 181.5t161.5 195.5q-68 -66 -183 -66q-109 0 -178 69t-69 175zM207 561q0 -78 46 -123t126 -45q94 0 156.5 58.5t62.5 146.5 q0 78 -49 126t-127 48q-90 0 -152.5 -61.5t-62.5 -149.5z" />
<glyph d="M174 1001q0 86 14 150q37 178 137.5 285.5t235.5 107.5q127 0 203 -91t76 -243q0 -86 -15 -149q-37 -178 -137.5 -285.5t-235.5 -107.5q-127 0 -202.5 91t-75.5 242zM276 1003q0 -119 48.5 -183t136.5 -64q90 0 161.5 82.5t100.5 220.5q14 59 14 149q0 119 -48 183.5 t-136 64.5q-90 0 -162 -83t-100 -220q-14 -59 -15 -150z" />
<glyph d="M317 1298l4 95l301 131h86l-161 -836h-101l140 725z" />
<glyph d="M170 688l14 92q119 90 281 234q121 109 167 174t46 131q0 61 -39 97t-109 36q-61 0 -120.5 -28.5t-104.5 -80.5l-16 93q43 49 111.5 78.5t138.5 29.5q109 0 174 -61.5t65 -159.5q0 -82 -55 -164t-195 -205q-82 -72 -213 -174h408l-19 -92h-534z" />
<glyph d="M162 743l22 88q96 -78 215 -77q94 0 158.5 57t64.5 141q0 70 -41.5 109t-121.5 39q-41 0 -78 -11l-25 64l297 280h-358l20 91h480l-17 -84l-278 -263q98 -2 160.5 -64.5t62.5 -158.5q0 -123 -92.5 -204.5t-231.5 -81.5q-68 0 -132 20t-105 55z" />
<glyph d="M158 901l16 84l500 539h98l-104 -539h116l-16 -84h-117l-41 -213h-92l41 213h-401zM280 985h297l78 401z" />
<glyph d="M176 743l23 86q94 -74 227 -73q96 0 161.5 57t65.5 141q0 80 -54 123t-153 43q-88 0 -157 -16l92 420h422l-21 -95h-334l-49 -229q29 6 66 6q135 0 209.5 -65.5t74.5 -184.5q0 -123 -92 -205.5t-231 -82.5q-80 0 -145.5 19t-104.5 56z" />
<glyph d="M192 928q0 156 119 322.5t311 279.5l129 -8q-139 -82 -244.5 -180.5t-164.5 -198.5q78 68 184 67q109 0 178.5 -68.5t69.5 -174.5q0 -78 -40 -147t-111.5 -110.5t-159.5 -41.5q-121 0 -196 71.5t-75 188.5zM287 926q0 -78 49 -126.5t127 -48.5q90 0 152.5 61.5 t62.5 149.5q0 78 -46 123t-126 45q-94 0 -156.5 -58t-62.5 -146z" />
<glyph d="M264 690l459 737h-424l18 97h533l-19 -88l-460 -752z" />
<glyph d="M178 889q0 92 58.5 161.5t154.5 90.5q-51 23 -79.5 65.5t-28.5 95.5q0 102 80.5 172t201.5 70q106 0 177 -60.5t71 -152.5q0 -78 -49 -135t-131 -76q61 -27 93 -76t32 -112q0 -72 -38 -132.5t-107.5 -96t-157.5 -35.5q-125 0 -201 60t-76 161zM276 897q0 -68 49.5 -107 t131.5 -39q88 0 145 53.5t57 135.5q0 68 -49 107.5t-131 39.5q-88 0 -145.5 -54t-57.5 -136zM377 1306q0 -59 43.5 -98t113.5 -39q76 0 130.5 46t54.5 112q0 61 -44 99t-114 38q-78 0 -131 -46t-53 -112z" />
<glyph d="M246 1245q0 78 39.5 146.5t111.5 110.5t160 42q121 0 195.5 -71.5t74.5 -188.5q0 -156 -118.5 -323t-311.5 -279l-129 8q141 84 246.5 181.5t161.5 195.5q-68 -66 -183 -66q-109 0 -178 69t-69 175zM342 1249q0 -78 46 -123t126 -45q94 0 156.5 58.5t62.5 146.5 q0 78 -49 126t-127 48q-90 0 -152.5 -61.5t-62.5 -149.5z" />
<glyph horiz-adv-x="892" d="M201 712l22 117h576l-23 -117h-575z" />
<glyph horiz-adv-x="1024" d="M45 727l20 108h1024l-20 -108h-1024z" />
<glyph horiz-adv-x="2048" d="M45 727l20 108h2048l-20 -108h-2048z" />
<glyph horiz-adv-x="790" d="M232 609q0 346 155.5 671.5t427.5 548.5h140q-291 -240 -450 -556t-159 -660q0 -205 55.5 -390.5t164.5 -338.5h-127q-98 145 -152.5 334.5t-54.5 390.5z" />
<glyph horiz-adv-x="790" d="M-26 -116q291 240 449.5 557t158.5 659q0 205 -55.5 390.5t-163.5 338.5h127q98 -145 152.5 -334.5t54.5 -390.5q0 -346 -156 -671.5t-428 -548.5h-139z" />
<glyph horiz-adv-x="1026" d="M-101 -188l1202 1931h134l-1205 -1931h-131z" />
<glyph horiz-adv-x="1026" d="M280 1743h119l455 -1931h-121z" />
<glyph horiz-adv-x="759" d="M101 -125l379 1951h452l-18 -100h-344l-340 -1751h344l-19 -100h-454z" />
<glyph horiz-adv-x="759" d="M-34 -125l18 100h344l340 1751h-344l18 100h455l-379 -1951h-452z" />
<glyph horiz-adv-x="866" d="M181 814l20 108h41q119 0 173 45t75 160q10 70 16 147.5t13.5 156.5t26 151.5t56 129t101 89t162.5 32.5q66 0 127 -16l-21 -94q-49 14 -102 14q-88 -2 -137.5 -42t-72 -107.5t-30.5 -148.5t-13 -164t-18 -154q-25 -121 -75 -179.5t-144 -76.5q66 -16 101.5 -63.5 t35.5 -121.5q-2 -63 -24.5 -138t-54 -153.5t-54 -151.5t-24.5 -130q0 -84 49 -120t166 -36q29 0 49 4l-16 -96q-37 -4 -70 -4q-141 0 -215 62.5t-74 183.5q2 63 24.5 139t54.5 156t54.5 153.5t24.5 128.5q0 72 -42 104t-136 32h-47z" />
<glyph horiz-adv-x="866" d="M6 -129l21 95q51 -14 102 -15q88 2 137.5 42t72 107.5t30.5 148.5t13 164t18 155q25 121 75 179t144 77q-66 16 -101.5 63t-35.5 121q2 63 24.5 138t54 154t54 151.5t24.5 130.5q0 84 -49 119.5t-166 35.5q-29 0 -49 -4l16 96q37 4 70 4q141 0 215 -62.5t74 -182.5 q-2 -63 -24.5 -139t-54.5 -156t-54.5 -154t-24.5 -129q0 -72 42 -103.5t136 -31.5h47l-20 -109h-41q-119 0 -173 -45t-75 -159q-10 -70 -16 -148t-13.5 -156.5t-25.5 -151.5t-56 -129t-102 -89t-162 -33q-66 0 -127 16z" />
<glyph horiz-adv-x="704" d="M155 672q0 94 66.5 160.5t160.5 66.5t161 -66.5t67 -160.5t-67 -160.5t-161 -66.5t-160.5 66.5t-66.5 160.5z" />
<glyph horiz-adv-x="589" d="M121 778l368 426h138l-373 -434l196 -418h-127z" />
<glyph horiz-adv-x="589" d="M67 352l373 435l-196 417h127l202 -426l-368 -426h-138z" />
<glyph horiz-adv-x="958" d="M119 778l368 426h138l-373 -434l196 -418h-127zM484 778l368 426h138l-373 -434l196 -418h-127z" />
<glyph horiz-adv-x="958" d="M65 352l373 435l-196 417h127l202 -426l-368 -426h-138zM432 352l373 435l-196 417h127l202 -426l-368 -426h-138z" />
<glyph horiz-adv-x="2007" d="M155 600q0 199 76 384t218 335.5t343 241.5t430 91q215 0 386 -86t271.5 -243.5t100.5 -362.5q0 -172 -63.5 -323.5t-176 -247.5t-247.5 -96q-92 0 -150.5 47t-66.5 129q-61 -82 -153.5 -128t-189.5 -46q-145 0 -237 100t-92 258q0 135 64.5 257t178 199t248.5 77 q111 0 193 -67t106 -175l66 209h94l-164 -543q-18 -63 -18 -98q0 -61 33.5 -95t95.5 -34q92 0 177 75.5t141.5 209t56.5 286.5q0 174 -80 310.5t-229.5 214t-352.5 77.5q-178 0 -345 -67.5t-304 -194.5t-221 -305t-84 -379q0 -199 79.5 -348.5t232.5 -232t364 -82.5 q109 0 221 24.5t207 67.5l2 -99q-90 -43 -203.5 -66.5t-226.5 -23.5q-229 0 -405.5 90t-276 260t-99.5 400zM712 657q0 -121 66.5 -193.5t175.5 -72.5q98 0 186 56.5t144.5 158.5t56.5 223q0 119 -67.5 189.5t-180.5 70.5q-96 0 -183 -57t-142.5 -157.5t-55.5 -217.5z" />
<glyph horiz-adv-x="593" d="M262 807q0 45 30.5 74.5t73.5 29.5q37 0 62.5 -25.5t25.5 -62.5q0 -45 -30.5 -74.5t-75.5 -29.5q-37 0 -61.5 25.5t-24.5 62.5z" />
<glyph horiz-adv-x="512" d="M2 -502l293 1503h119l-293 -1503h-119zM340 1391q0 41 27.5 68.5t70.5 27.5q35 0 57.5 -22.5t22.5 -59.5q0 -41 -27.5 -68.5t-68.5 -27.5q-35 0 -58.5 23.5t-23.5 58.5z" />
<glyph horiz-adv-x="2031" d="M154 0l301 1556h133l416 -1071l833 1071h143l-301 -1556h-125l265 1362l-779 -1000h-106l-393 1002l-262 -1364h-125z" />
<glyph horiz-adv-x="727" d="M115 897l20 104h244l61 318h119l-61 -318h280l-20 -104h-281l-174 -897h-119l174 897h-243z" />
<glyph horiz-adv-x="1204" d="M164 307q0 66 8 105l115 589h119l-113 -583q-10 -49 -10 -101q0 -119 67.5 -182t190.5 -63q143 0 225 84t117 266l112 579h119l-115 -589q-45 -225 -158 -335t-306 -110q-172 0 -271.5 91.5t-99.5 248.5z" />
<glyph horiz-adv-x="593" d="M256 768q0 45 29.5 74.5t72.5 29.5q39 0 63.5 -24.5t24.5 -63.5q0 -45 -29.5 -74.5t-74.5 -29.5q-37 0 -61.5 25.5t-24.5 62.5z" />
<glyph horiz-adv-x="593" d="M266 827q0 43 30 73t75 30q37 0 62.5 -24.5t25.5 -61.5q0 -45 -31 -75t-76 -30q-37 0 -61.5 24.5t-24.5 63.5z" />
<glyph horiz-adv-x="512" d="M2 -502l293 1503h119l-293 -1503h-119z" />
<glyph horiz-adv-x="1021" d="M100 0l195 1001h119l-195 -1001h-119zM340 1391q0 41 27.5 68.5t70.5 27.5q35 0 57.5 -22.5t22.5 -59.5q0 -41 -27.5 -68.5t-68.5 -27.5q-35 0 -58.5 23.5t-23.5 58.5zM512 -502l293 1503h119l-293 -1503h-119zM850 1391q0 41 27.5 68.5t70.5 27.5q35 0 57.5 -22.5 t22.5 -59.5q0 -41 -27.5 -68.5t-68.5 -27.5q-35 0 -58.5 23.5t-23.5 58.5z" />
<glyph horiz-adv-x="0" d="M-328 -479l21 90q29 -20 73 -31.5t89 -11.5q72 0 114.5 31.5t42.5 83.5q0 92 -125 92q-49 0 -82 -8l107 253h90l-72 -167h11q51 -2 90 -24t60.5 -58.5t21.5 -85.5q0 -90 -72.5 -148.5t-185.5 -58.5q-51 0 -100.5 11t-82.5 32z" />
<glyph horiz-adv-x="0" d="M-272 -502q119 156 168 369h116q-20 -96 -71.5 -196.5t-118.5 -172.5h-94z" />
<glyph horiz-adv-x="0" d="M-362 -354q0 92 86 192.5t249 198.5l64 -37q-289 -193 -289 -338q0 -82 94 -82q66 0 129 37l4 -94q-65 -39 -149 -39t-136 45t-52 117z" />
<glyph horiz-adv-x="0" d="M-299 -356q0 94 100.5 199.5t282.5 201.5l88 -8q-186 -121 -273 -211t-87 -162q0 -84 92 -84q68 0 131 37l4 -94q-68 -39 -152 -39q-82 0 -134 44t-52 116z" />
<glyph horiz-adv-x="0" d="M-299 -356q0 94 100.5 199.5t282.5 201.5l88 -8q-186 -121 -273 -211t-87 -162q0 -84 92 -84q68 0 131 37l4 -94q-68 -39 -152 -39q-82 0 -134 44t-52 116z" />
<glyph horiz-adv-x="727" d="M-28 -479l20 88q31 -18 75 -29.5t87 -11.5q72 0 114.5 31.5t42.5 83.5q0 94 -122 94q-51 0 -84 -8l106 251h88l-71 -167q82 0 133 -47.5t51 -122.5q0 -92 -71.5 -148.5t-186.5 -56.5q-117 0 -182 43zM115 897l20 104h244l61 318h119l-61 -318h280l-20 -104h-281 l-174 -897h-119l174 897h-243z" />
<glyph horiz-adv-x="727" d="M4 -502q125 170 166 369h118q-20 -96 -71.5 -195.5t-118.5 -173.5h-94zM115 897l20 104h244l61 318h119l-61 -318h280l-20 -104h-281l-174 -897h-119l174 897h-243z" />
<glyph horiz-adv-x="1204" d="M164 307q0 66 8 105l115 589h119l-113 -583q-10 -49 -10 -101q0 -119 67.5 -182t190.5 -63q143 0 225 84t117 266l112 579h119l-115 -589q-45 -225 -158 -335t-306 -110q-172 0 -271.5 91.5t-99.5 248.5zM317 -356q0 94 100.5 199.5t282.5 201.5l88 -8 q-186 -121 -273 -211t-87 -162q0 -84 92 -84q68 0 131 37l4 -94q-68 -39 -152 -39q-82 0 -134 44t-52 116z" />
<glyph horiz-adv-x="0" d="M-23 1710l320 264h170l-352 -264h-138z" />
<glyph horiz-adv-x="0" d="M-139 1710l248 264h141l-275 -264h-114zM166 1710l246 264h143l-272 -264h-117z" />
<glyph horiz-adv-x="1204" d="M164 307q0 66 8 105l115 589h119l-113 -583q-10 -49 -10 -101q0 -119 67.5 -182t190.5 -63q143 0 225 84t117 266l112 579h119l-115 -589q-45 -225 -158 -335t-306 -110q-172 0 -271.5 91.5t-99.5 248.5zM583 1227l318 356h149l-342 -356h-125z" />
<glyph horiz-adv-x="1204" d="M164 307q0 66 8 105l115 589h119l-113 -583q-10 -49 -10 -101q0 -119 67.5 -182t190.5 -63q143 0 225 84t117 266l112 579h119l-115 -589q-45 -225 -158 -335t-306 -110q-172 0 -271.5 91.5t-99.5 248.5zM469 1223l293 360h135l-318 -360h-110zM780 1223l295 360h135 l-319 -360h-111z" />
<glyph horiz-adv-x="0" d="M-119 1974h148l223 -264h-125z" />
<glyph horiz-adv-x="1204" d="M164 307q0 66 8 105l115 589h119l-113 -583q-10 -49 -10 -101q0 -119 67.5 -182t190.5 -63q143 0 225 84t117 266l112 579h119l-115 -589q-45 -225 -158 -335t-306 -110q-172 0 -271.5 91.5t-99.5 248.5zM560 1583h131l178 -356h-107z" />
<glyph horiz-adv-x="0" d="M-109 1710l345 291h106l231 -291h-124l-168 211l-246 -211h-144z" />
<glyph horiz-adv-x="0" d="M-199 1708q16 125 71.5 190.5t141.5 65.5q51 -2 88 -25.5t66 -54.5t56.5 -54.5t62.5 -25.5q49 0 76.5 37t39.5 121h93q-16 -125 -71.5 -190.5t-141.5 -65.5q-51 2 -88 25.5t-66 55.5t-56.5 55.5t-62.5 25.5q-49 0 -76.5 -39t-39.5 -121h-93z" />
<glyph horiz-adv-x="1204" d="M164 307q0 66 8 105l115 589h119l-113 -583q-10 -49 -10 -101q0 -119 67.5 -182t190.5 -63q143 0 225 84t117 266l112 579h119l-115 -589q-45 -225 -158 -335t-306 -110q-172 0 -271.5 91.5t-99.5 248.5zM396 1227l350 356h96l227 -356h-114l-168 274l-264 -274h-127z " />
<glyph horiz-adv-x="1204" d="M164 307q0 66 8 105l115 589h119l-113 -583q-10 -49 -10 -101q0 -119 67.5 -182t190.5 -63q143 0 225 84t117 266l112 579h119l-115 -589q-45 -225 -158 -335t-306 -110q-172 0 -271.5 91.5t-99.5 248.5zM419 1274q16 125 70.5 190.5t142.5 65.5q51 -2 87 -25.5t64 -55.5 t53.5 -55.5t58.5 -25.5q92 0 118 160h92q-16 -125 -70.5 -190.5t-142.5 -65.5q-51 2 -86.5 25.5t-62.5 54t-53.5 54.5t-59.5 26q-47 0 -75.5 -39t-40.5 -119h-95z" />
<glyph horiz-adv-x="0" d="M-160 2001h125l168 -213l248 213h141l-342 -291h-108z" />
<glyph horiz-adv-x="0" d="M10 1239l105 420h121l-142 -420h-84z" />
<glyph horiz-adv-x="0" d="M-162 1772l19 104h596l-19 -104h-596z" />
<glyph horiz-adv-x="727" d="M115 897l20 104h244l61 318h119l-61 -318h280l-20 -104h-281l-174 -897h-119l174 897h-243zM706 1239l105 420h121l-142 -420h-84z" />
<glyph horiz-adv-x="1204" d="M164 307q0 66 8 105l115 589h119l-113 -583q-10 -49 -10 -101q0 -119 67.5 -182t190.5 -63q143 0 225 84t117 266l112 579h119l-115 -589q-45 -225 -158 -335t-306 -110q-172 0 -271.5 91.5t-99.5 248.5zM457 1337l19 105h594l-19 -105h-594z" />
<glyph horiz-adv-x="0" d="M-121 1808q0 41 26.5 68t65.5 27q33 0 55.5 -21.5t22.5 -54.5q0 -41 -26.5 -67.5t-65.5 -26.5q-33 0 -55.5 21.5t-22.5 53.5zM246 1808q0 41 26.5 68t65.5 27q33 0 54.5 -21.5t21.5 -54.5q0 -41 -25.5 -67.5t-66.5 -26.5q-33 0 -54.5 21.5t-21.5 53.5z" />
<glyph horiz-adv-x="0" d="M-131 1909q0 41 8 71h90q-2 -16 -3 -29.5t-1 -21.5q0 -150 172 -149q98 0 156.5 50t75.5 150h94q-10 -135 -98.5 -212.5t-233.5 -77.5q-121 0 -190.5 58t-69.5 161z" />
<glyph horiz-adv-x="1204" d="M164 307q0 66 8 105l115 589h119l-113 -583q-10 -49 -10 -101q0 -119 67.5 -182t190.5 -63q143 0 225 84t117 266l112 579h119l-115 -589q-45 -225 -158 -335t-306 -110q-172 0 -271.5 91.5t-99.5 248.5zM501 1391q0 41 27 67.5t65 26.5q33 0 54.5 -22.5t21.5 -55.5 q0 -41 -26.5 -67.5t-65.5 -26.5q-33 0 -54.5 21.5t-21.5 56.5zM866 1391q0 41 26.5 67.5t65.5 26.5q33 0 54.5 -22.5t21.5 -55.5q0 -41 -26.5 -67.5t-65.5 -26.5q-33 0 -54.5 22.5t-21.5 55.5z" />
<glyph horiz-adv-x="0" d="M59 1815q0 41 29 69.5t70 28.5q35 0 57.5 -23.5t22.5 -60.5q0 -41 -28 -68.5t-71 -27.5q-35 0 -57.5 23.5t-22.5 58.5z" />
<glyph horiz-adv-x="0" d="M-111 1923q0 109 73 178.5t185 69.5q113 0 187 -70.5t74 -177.5q0 -106 -74 -177t-187 -71q-111 0 -184.5 71t-73.5 177zM-20 1923q0 -74 45.5 -120t121.5 -46t123 46t47 120t-47 120t-123 46t-121.5 -45t-45.5 -121z" />
<glyph horiz-adv-x="1204" d="M164 307q0 66 8 105l115 589h119l-113 -583q-10 -49 -10 -101q0 -119 67.5 -182t190.5 -63q143 0 225 84t117 266l112 579h119l-115 -589q-45 -225 -158 -335t-306 -110q-172 0 -271.5 91.5t-99.5 248.5zM502 1452q0 109 73 178.5t185 69.5q113 0 186.5 -70.5 t73.5 -177.5q0 -106 -73.5 -177t-186.5 -71q-111 0 -184.5 71t-73.5 177zM592 1452q0 -74 47 -120t121 -46q76 0 123 46t47 120t-47 120t-123 46t-122 -46t-46 -120z" />
</font>
</defs>
</svg>
