<?xml version="1.0" standalone="no"?>
<!DOCTYPE svg PUBLIC "-//W3C//DTD SVG 1.1//EN" "http://www.w3.org/Graphics/SVG/1.1/DTD/svg11.dtd" >
<svg xmlns="http://www.w3.org/2000/svg" xmlns:xlink="http://www.w3.org/1999/xlink" version="1.1">
<metadata></metadata>
<defs>
<font id="objektiv_mk1xbold_italic" horiz-adv-x="825" >
<font-face units-per-em="2048" ascent="1638" descent="-410" />
<missing-glyph horiz-adv-x="430" />
<glyph unicode=" "  horiz-adv-x="430" />
<glyph unicode="&#x09;" horiz-adv-x="430" />
<glyph unicode="&#xa0;" horiz-adv-x="430" />
<glyph unicode="!" horiz-adv-x="774" d="M113 162q0 94 65.5 154.5t165.5 60.5q82 0 133 -47t51 -125q0 -96 -64.5 -156.5t-164.5 -60.5q-84 0 -135 48t-51 126zM225 537l178 1081h394l-246 -1081h-326z" />
<glyph unicode="&#x22;" horiz-adv-x="993" d="M190 909l95 647h350l-164 -647h-281zM661 909l95 647h350l-164 -647h-281z" />
<glyph unicode="#" horiz-adv-x="1378" d="M-10 309l73 226h205l129 317h-213l74 225h229l127 309h271l-127 -309h235l125 309h271l-125 -309h188l-74 -225h-204l-130 -317h213l-73 -226h-232l-125 -309h-270l125 309h-233l-127 -309h-271l127 309h-188zM539 535h235l129 317h-235z" />
<glyph unicode="$" horiz-adv-x="1323" d="M45 127l78 293q72 -55 184.5 -102.5t210.5 -61.5l78 391q-209 104 -291 201.5t-82 243.5q0 207 151.5 333.5t399.5 128.5l47 246h158l-51 -258q182 -31 338 -129l-84 -283q-156 106 -310 132l-69 -353q154 -76 236.5 -143.5t117.5 -143t35 -176.5q0 -131 -69.5 -236.5 t-200.5 -170t-304 -70.5l-47 -243h-157l51 251q-119 14 -231.5 54.5t-188.5 95.5zM551 1120q0 -49 25.5 -84t82.5 -65l60 299q-80 -8 -124 -47t-44 -103zM676 260q86 14 132 58t46 114q0 47 -26.5 82t-88.5 70z" />
<glyph unicode="%" horiz-adv-x="2158" d="M238 1128q0 115 54 212.5t153.5 156.5t222.5 59q176 0 285.5 -100t109.5 -262q0 -115 -54.5 -212t-154.5 -156.5t-223 -59.5q-113 0 -202 44t-140 127t-51 191zM332 0l1267 1524h314l-1268 -1524h-313zM502 1143q0 -66 36 -105t99 -39q70 0 116 52.5t46 130.5 q0 66 -37 104.5t-98 38.5q-70 0 -116 -52t-46 -130zM1188 334q0 115 54 212t153.5 156.5t222.5 59.5q176 0 285.5 -100.5t109.5 -262.5q0 -115 -54 -212t-154.5 -156.5t-223.5 -59.5q-113 0 -202 44t-140 127t-51 192zM1452 348q0 -66 36 -104.5t99 -38.5q70 0 116 52 t46 130q0 66 -37 104.5t-98 38.5q-70 0 -116 -52t-46 -130z" />
<glyph unicode="&#x26;" horiz-adv-x="1581" d="M61 381q0 162 96.5 282.5t297.5 210.5q-82 139 -82 293q0 195 131 311.5t354 116.5q199 0 318.5 -97t119.5 -257q0 -143 -94 -256t-287 -201l164 -239q80 115 103 264l323 -39q-14 -137 -75.5 -267t-159.5 -237l184 -266h-418l-41 59q-186 -92 -403 -92 q-248 0 -389.5 109.5t-141.5 304.5zM436 422q0 -70 51.5 -112t137.5 -42q90 0 196 54l-221 331q-164 -102 -164 -231zM707 1182q0 -87 61 -183q100 55 147.5 109.5t47.5 118.5q0 49 -33 80.5t-84 31.5q-61 0 -100 -44t-39 -113z" />
<glyph unicode="'" horiz-adv-x="522" d="M190 909l95 647h350l-164 -647h-281z" />
<glyph unicode="(" horiz-adv-x="919" d="M174 453q0 354 142.5 668.5t412.5 557.5h414q-295 -223 -464 -546.5t-169 -669.5q0 -217 60.5 -397.5t185.5 -339.5h-365q-100 127 -158.5 322.5t-58.5 404.5z" />
<glyph unicode=")" horiz-adv-x="919" d="M-158 -274q295 223 464 546.5t169 669.5q0 217 -60.5 397.5t-185.5 339.5h365q100 -127 158.5 -322.5t58.5 -404.5q0 -354 -142.5 -668.5t-412.5 -557.5h-414z" />
<glyph unicode="*" horiz-adv-x="1013" d="M168 1147l125 256l229 -119l13 272h311l-94 -282l268 121l65 -279l-288 -49l168 -225l-246 -144l-123 256l-180 -254l-213 172l219 209z" />
<glyph unicode="+" horiz-adv-x="1323" d="M180 539l58 297h323l70 360h319l-71 -360h323l-57 -297h-324l-71 -359h-318l70 359h-322z" />
<glyph unicode="," horiz-adv-x="626" d="M-176 -346q104 141 176 325.5t98 374.5h340q-27 -207 -112.5 -394t-210.5 -306h-291z" />
<glyph unicode="-" horiz-adv-x="849" d="M86 438l59 301h646l-60 -301h-645z" />
<glyph unicode="." horiz-adv-x="626" d="M39 162q0 94 65.5 154.5t165.5 60.5q82 0 133.5 -47t51.5 -125q0 -96 -65 -156.5t-165 -60.5q-84 0 -135 48t-51 126z" />
<glyph unicode="/" horiz-adv-x="1173" d="M-143 -272l1183 1931h342l-1183 -1931h-342z" />
<glyph unicode="0" horiz-adv-x="1323" d="M104 545q0 133 29 272q74 356 249 547.5t429 191.5q233 0 364.5 -152.5t131.5 -424.5q0 -117 -29 -272q-68 -350 -245 -545t-429 -195q-236 0 -368 152.5t-132 425.5zM508 551q0 -119 32 -182.5t91 -63.5q80 0 143.5 107.5t97.5 306.5q31 168 31 254q0 121 -31.5 183.5 t-91.5 62.5q-80 0 -141 -105.5t-100 -308.5q-31 -156 -31 -254z" />
<glyph unicode="1" horiz-adv-x="1323" d="M291 967l16 346l527 211h311l-297 -1524h-375l221 1128z" />
<glyph unicode="2" horiz-adv-x="1323" d="M35 0l53 281q319 233 444 337q158 133 231 241t73 206q0 82 -52.5 126t-146.5 44q-88 0 -183.5 -39t-185.5 -113l-18 330q84 68 208 105.5t253 37.5q238 0 380 -119.5t142 -320.5q0 -258 -266 -524q-123 -123 -314 -264h498l-66 -328h-1050z" />
<glyph unicode="3" horiz-adv-x="1323" d="M49 72l66 305q82 -45 187.5 -71.5t199.5 -26.5q127 0 203.5 58t76.5 157q0 82 -57 127t-160 45q-35 0 -74.5 -6.5t-64.5 -14.5l-70 201l430 371h-534l61 307h996l-49 -267l-424 -366q156 -27 245.5 -134.5t89.5 -267.5q0 -156 -78.5 -273.5t-227 -183t-353.5 -65.5 q-131 0 -257 29t-206 76z" />
<glyph unicode="4" horiz-adv-x="1323" d="M16 311l56 291l800 922h414l-178 -916h172l-57 -297h-174l-60 -311h-350l61 311h-684zM440 608h316l92 471z" />
<glyph unicode="5" horiz-adv-x="1323" d="M45 72l68 307q82 -47 185 -73.5t200 -26.5q135 0 214 59t79 160q0 92 -79 142t-225 50q-160 0 -286 -37l202 871h867l-64 -318h-536l-56 -235q16 2 29.5 3t22.5 1q238 0 375 -121t137 -328q0 -166 -80 -291.5t-231.5 -196.5t-358.5 -71q-131 0 -255 28t-208 77z" />
<glyph unicode="6" horiz-adv-x="1323" d="M90 485q0 160 82 341.5t237.5 364.5t368.5 339l482 -14q-205 -143 -375 -299t-269 -291q82 45 189 45q121 0 220 -54.5t159.5 -156t60.5 -228.5q0 -158 -74.5 -285.5t-214 -203.5t-319.5 -76q-252 0 -399.5 139.5t-147.5 378.5zM465 459q0 -86 49 -135.5t131 -49.5 q96 0 160.5 64.5t64.5 163.5q0 84 -49 133t-133 49q-96 0 -159.5 -64.5t-63.5 -160.5z" />
<glyph unicode="7" horiz-adv-x="1323" d="M180 4l707 1172h-639l69 348h1067l-59 -299l-719 -1231z" />
<glyph unicode="8" horiz-adv-x="1323" d="M55 387q0 150 92.5 269.5t239.5 158.5q-160 90 -160 277q0 131 70 236.5t202 166.5t306 61q238 0 382 -107.5t144 -285.5q0 -137 -75.5 -241.5t-208.5 -149.5q84 -39 135 -121t51 -180q0 -147 -75 -261t-215.5 -178.5t-326.5 -64.5q-262 0 -411.5 111.5t-149.5 308.5z M442 430q0 -76 51.5 -120t135.5 -44q100 0 162.5 59.5t62.5 153.5q0 76 -50 120t-136 44q-100 0 -163 -59.5t-63 -153.5zM584 1077q0 -72 48 -113.5t130 -41.5q88 0 146.5 56t58.5 140q0 70 -48.5 112t-130.5 42q-88 0 -146 -55.5t-58 -139.5z" />
<glyph unicode="9" horiz-adv-x="1323" d="M145 8q207 145 377 301t266 289q-78 -45 -188 -45q-119 0 -218 55.5t-159.5 155.5t-60.5 227q0 160 75.5 288t214 202.5t318.5 74.5q252 0 398.5 -139t146.5 -379q0 -160 -82 -341t-237.5 -364t-368.5 -339zM537 1022q0 -82 49 -132t131 -50q96 0 159.5 64.5t63.5 160.5 q0 84 -48 134t-130 50q-98 0 -161.5 -64.5t-63.5 -162.5z" />
<glyph unicode=":" horiz-adv-x="626" d="M39 162q0 94 65.5 154.5t165.5 60.5q82 0 133.5 -47t51.5 -125q0 -96 -65 -156.5t-165 -60.5q-84 0 -135 48t-51 126zM152 852q0 94 65.5 154.5t165.5 60.5q82 0 133.5 -47t51.5 -125q0 -96 -65 -156.5t-165 -60.5q-84 0 -135 48t-51 126z" />
<glyph unicode=";" horiz-adv-x="626" d="M-176 -346q104 141 176 325.5t98 374.5h340q-27 -207 -112.5 -394t-210.5 -306h-291zM143 852q0 94 65.5 154.5t165.5 60.5q82 0 133.5 -47t51.5 -125q0 -96 -65 -156.5t-165 -60.5q-84 0 -135 48t-51 126z" />
<glyph unicode="&#x3c;" horiz-adv-x="1323" d="M225 520l68 340l950 361l-69 -351l-562 -198l484 -199l-60 -313z" />
<glyph unicode="=" horiz-adv-x="1323" d="M164 291l55 287h901l-55 -287h-901zM260 780l55 287h902l-56 -287h-901z" />
<glyph unicode="&#x3e;" horiz-adv-x="1323" d="M143 160l70 350l561 199l-483 198l59 314l811 -361l-67 -340z" />
<glyph unicode="?" horiz-adv-x="1122" d="M229 1489q80 68 206 107.5t261 39.5q227 0 361.5 -108.5t134.5 -298.5q0 -135 -65.5 -235.5t-231.5 -205.5q-98 -63 -136 -99t-53.5 -72.5t-17.5 -79.5h-334q-2 8 -3 16t-1 16q0 135 56.5 228.5t211.5 195.5q86 57 117 86t43.5 58.5t12.5 62.5q0 53 -44.5 83t-117.5 30 q-92 0 -194.5 -41t-190.5 -115zM252 162q0 94 65.5 154.5t165.5 60.5q82 0 133.5 -47t51.5 -125q0 -96 -65 -156.5t-165 -60.5q-84 0 -135 48t-51 126z" />
<glyph unicode="@" horiz-adv-x="2146" d="M80 336q0 217 79 410.5t229.5 346t363.5 241.5t465 89q246 0 439 -87t305 -247.5t112 -371.5q0 -197 -76 -358.5t-215.5 -259t-319.5 -97.5q-106 0 -175.5 33t-98.5 98q-51 -61 -125 -94t-162 -33q-158 0 -249 99.5t-91 269.5q0 147 64.5 275t180.5 209t255 81 q84 0 151.5 -35t102.5 -98l41 104h286l-169 -499q-23 -66 -23 -101t19.5 -54t54.5 -19q66 0 129 61t106 171t43 232q0 223 -157.5 348.5t-442.5 125.5q-233 0 -425.5 -102.5t-308.5 -292t-116 -431.5q0 -281 167 -427t487 -146q102 0 218.5 23.5t215.5 64.5l-23 -260 q-78 -35 -195.5 -55.5t-240.5 -20.5q-274 0 -477 95t-313.5 277.5t-110.5 434.5zM879 422q0 -66 38 -103.5t99 -37.5q82 0 143.5 72.5t61.5 170.5q0 66 -37 103t-103 37q-82 0 -142 -72t-60 -170z" />
<glyph unicode="A" horiz-adv-x="1697" d="M-59 0l903 1556h407l301 -1556h-419l-52 358h-530l-186 -358h-424zM715 672h327l-67 495z" />
<glyph unicode="B" horiz-adv-x="1482" d="M61 0l304 1556h528q250 0 385 -99t135 -281q0 -127 -62.5 -224.5t-174.5 -146.5q94 -43 146 -127t52 -193q0 -231 -161.5 -358t-458.5 -127h-693zM492 299h229q129 0 196.5 52t67.5 149q0 141 -209 141h-219zM614 936h168q121 0 184.5 49t63.5 139q0 133 -196 133h-156z " />
<glyph unicode="C" horiz-adv-x="1560" d="M143 707q0 244 113 441.5t321.5 314t479.5 116.5q135 0 279.5 -36t234.5 -93l-98 -342q-199 109 -418 109q-139 0 -251 -60.5t-177.5 -172.5t-65.5 -257q0 -180 113.5 -283.5t314.5 -103.5t387 98l-6 -358q-180 -103 -465 -103q-227 0 -398 87.5t-267.5 252t-96.5 390.5z " />
<glyph unicode="D" horiz-adv-x="1738" d="M61 0l304 1556h540q391 0 593 -169.5t202 -495.5q0 -268 -117 -469t-342 -311.5t-534 -110.5h-646zM535 334h192q162 0 287 64.5t195.5 185.5t70.5 282q0 356 -408 357h-167z" />
<glyph unicode="E" horiz-adv-x="1374" d="M61 0l304 1556h1042l-66 -327h-651l-57 -279h571l-59 -323h-572l-59 -299h705l-64 -328h-1094z" />
<glyph unicode="F" horiz-adv-x="1282" d="M61 0l304 1556h1034l-62 -331h-639l-63 -334h553l-66 -328h-553l-108 -563h-400z" />
<glyph unicode="G" horiz-adv-x="1691" d="M145 700q0 252 117 451t335 313.5t507 114.5q147 0 307 -37t262 -96l-94 -344q-102 57 -230 88t-262 31q-240 0 -387 -137.5t-147 -360.5q0 -182 114.5 -288.5t313.5 -106.5q102 0 176 24l47 240h-258l62 309h628l-157 -813q-92 -49 -233.5 -80t-276.5 -31 q-252 0 -437.5 85t-286 248t-100.5 390z" />
<glyph unicode="H" horiz-adv-x="1738" d="M61 0l304 1556h411l-114 -591h585l117 591h412l-303 -1556h-412l121 631h-586l-123 -631h-412z" />
<glyph unicode="I" horiz-adv-x="739" d="M61 0l304 1556h411l-303 -1556h-412z" />
<glyph unicode="J" horiz-adv-x="1169" d="M-6 70l74 313q121 -80 264 -80q125 0 191.5 71.5t99.5 235.5l184 946h412l-201 -1019q-59 -299 -210 -434.5t-423 -135.5q-117 0 -225.5 29t-165.5 74z" />
<glyph unicode="K" horiz-adv-x="1640" d="M61 0l304 1556h397l-119 -602l617 602h516l-826 -772l576 -784h-498l-440 657l-129 -657h-398z" />
<glyph unicode="L" horiz-adv-x="1294" d="M61 0l304 1556h411l-237 -1224h647l-68 -332h-1057z" />
<glyph unicode="M" horiz-adv-x="2050" d="M20 0l390 1556h366l258 -897l611 897h391l-213 -1556h-379l147 932l-465 -676h-309l-207 682l-211 -938h-379z" />
<glyph unicode="N" horiz-adv-x="1736" d="M61 0l304 1556h352l489 -968l189 968h379l-304 -1556h-352l-491 971l-187 -971h-379z" />
<glyph unicode="O" horiz-adv-x="1843" d="M143 702q0 242 113 443t317.5 322.5t464.5 121.5q215 0 386 -91t271.5 -259t100.5 -385q0 -242 -112.5 -442.5t-317.5 -322.5t-465 -122q-215 0 -386 91.5t-271.5 259t-100.5 384.5zM561 707q0 -170 99.5 -273.5t265.5 -103.5q123 0 226 65.5t164.5 185t61.5 269.5 q0 170 -100 273.5t-266 103.5q-123 0 -225.5 -65.5t-164 -185.5t-61.5 -269z" />
<glyph unicode="P" horiz-adv-x="1394" d="M61 0l304 1556h464q283 0 439.5 -123.5t156.5 -347.5q0 -287 -182 -440t-522 -153h-172l-96 -492h-392zM608 803h121q145 0 224 67.5t79 194.5q0 180 -246 180h-92z" />
<glyph unicode="Q" horiz-adv-x="1845" d="M143 702q0 242 113 444t317.5 322.5t464.5 120.5q215 0 386 -91t271.5 -259t100.5 -385q0 -264 -133 -478t-365 -323l318 -426h-457l-223 342q-8 -2 -35 -2q-215 0 -386 91.5t-271.5 259t-100.5 384.5zM561 707q0 -170 99.5 -273.5t265.5 -103.5q123 0 226 65.5 t164.5 185t61.5 269.5q0 170 -100 273.5t-266 103.5q-123 0 -225.5 -65.5t-164 -185.5t-61.5 -269z" />
<glyph unicode="R" horiz-adv-x="1533" d="M61 0l304 1556h464q283 0 439.5 -120.5t156.5 -339.5q0 -184 -77.5 -315.5t-229.5 -202.5l268 -578h-432l-190 502h-215l-96 -502h-392zM610 813h119q145 0 224 67.5t79 194.5q0 170 -246 170h-92z" />
<glyph unicode="S" horiz-adv-x="1339" d="M33 115l86 327q94 -66 213 -106.5t225 -40.5q125 0 192.5 41t67.5 115q0 41 -20.5 69.5t-69.5 55t-141 65.5q-195 80 -281 186.5t-86 268.5q0 147 73 257.5t211 173t324 62.5q86 0 177.5 -16.5t175.5 -47t145 -71.5l-92 -319q-98 59 -204.5 93t-194.5 34q-102 0 -161 -38 t-59 -104q0 -49 40 -82.5t171 -87.5q217 -90 307.5 -198.5t90.5 -280.5q0 -233 -173.5 -368.5t-478.5 -135.5q-145 0 -289.5 40t-248.5 108z" />
<glyph unicode="T" horiz-adv-x="1484" d="M207 1225l65 331h1340l-66 -331h-463l-239 -1225h-412l240 1225h-465z" />
<glyph unicode="U" horiz-adv-x="1722" d="M174 541q0 86 25 217l153 798h414l-162 -821q-14 -70 -14 -139q0 -266 252 -266q145 0 226 87t122 294l166 845h413l-178 -903q-70 -354 -258 -520t-520 -166q-305 0 -472 149.5t-167 424.5z" />
<glyph unicode="V" horiz-adv-x="1599" d="M225 1556h426l125 -1097l541 1097h459l-871 -1556h-411z" />
<glyph unicode="W" horiz-adv-x="2297" d="M238 1556h426l32 -993l457 973h365l90 -938l397 958h453l-760 -1556h-365l-98 997l-475 -997h-369z" />
<glyph unicode="X" horiz-adv-x="1593" d="M-72 0l693 825l-357 731h451l186 -454l344 454h490l-658 -780l383 -776h-452l-209 508l-383 -508h-488z" />
<glyph unicode="Y" horiz-adv-x="1542" d="M215 1556h432l193 -604l422 604h462l-733 -929l-123 -627h-405l123 633z" />
<glyph unicode="Z" horiz-adv-x="1531" d="M8 0l53 279l906 952h-684l63 325h1221l-56 -278l-905 -952h762l-65 -326h-1295z" />
<glyph unicode="[" horiz-adv-x="921" d="M51 -272l379 1951h606l-55 -299h-274l-265 -1353h293l-57 -299h-627z" />
<glyph unicode="\" horiz-adv-x="1173" d="M240 1659h323l434 -1931h-323z" />
<glyph unicode="]" horiz-adv-x="921" d="M-45 -272l55 299h275l264 1353h-293l57 299h627l-379 -1951h-606z" />
<glyph unicode="^" horiz-adv-x="1323" d="M121 616l551 840h334l229 -840h-326l-123 504l-317 -504h-348z" />
<glyph unicode="_" horiz-adv-x="1024" d="M-166 -326l53 273h1024l-53 -273h-1024z" />
<glyph unicode="`" horiz-adv-x="1024" d="M422 1597h380l146 -348h-297z" />
<glyph unicode="a" horiz-adv-x="1339" d="M76 442q0 170 69.5 317.5t195.5 239t280 91.5q221 0 313 -170l35 137h346l-203 -1057h-342l14 113q-53 -70 -135 -108t-176 -38q-115 0 -205 56.5t-141 165t-51 253.5zM444 492q0 -90 49.5 -143.5t133.5 -53.5q98 0 166.5 79t68.5 191q0 90 -49 143.5t-133 53.5 q-98 0 -167 -79t-69 -191z" />
<glyph unicode="b" horiz-adv-x="1335" d="M23 0l321 1659h369l-133 -686q53 55 127.5 86t156.5 31q115 0 205 -56.5t141.5 -165t51.5 -254.5q0 -170 -70 -317t-195.5 -238.5t-279.5 -91.5q-223 0 -316 170l-32 -137h-346zM475 492q0 -90 49 -143.5t133 -53.5q98 0 167 79t69 191q0 90 -49 143.5t-133 53.5 q-98 0 -167 -79t-69 -191z" />
<glyph unicode="c" horiz-adv-x="1105" d="M78 473q0 168 76.5 307.5t219 222t322.5 82.5q106 0 210 -27.5t167 -72.5l-76 -305q-49 35 -123.5 56.5t-142.5 21.5q-129 0 -208 -70t-79 -182q0 -96 70 -151.5t191 -55.5q119 0 243 59l-10 -323q-43 -27 -132 -45.5t-171 -18.5q-264 0 -410.5 132.5t-146.5 369.5z" />
<glyph unicode="d" horiz-adv-x="1339" d="M76 442q0 170 69.5 317.5t195.5 239t280 91.5q211 0 303 -154l141 723h369l-322 -1659h-342l14 113q-53 -70 -135 -108t-176 -38q-115 0 -205 56.5t-141 165t-51 253.5zM444 492q0 -90 49.5 -143.5t133.5 -53.5q98 0 166.5 79t68.5 191q0 90 -49 143.5t-133 53.5 q-98 0 -167 -79t-69 -191z" />
<glyph unicode="e" horiz-adv-x="1234" d="M76 461q0 174 74.5 316.5t213 227.5t316.5 85q223 0 347 -114t124 -319q0 -123 -33 -227h-696q12 -100 82.5 -142t224.5 -42q72 0 157 18.5t148 46.5l-6 -274q-63 -33 -161.5 -51.5t-207.5 -18.5q-274 0 -428.5 130t-154.5 364zM442 651h375q2 12 2 31q0 72 -40 110.5 t-115 38.5q-82 0 -138.5 -46t-83.5 -134z" />
<glyph unicode="f" horiz-adv-x="901" d="M109 760l55 297h168l22 110q49 254 183.5 378t357.5 124q70 0 140.5 -17.5t113.5 -43.5l-78 -295q-61 37 -139 37q-90 0 -142.5 -55.5t-74.5 -172.5l-15 -65h244l-57 -297h-244l-147 -760h-369l147 760h-165z" />
<glyph unicode="g" horiz-adv-x="1337" d="M25 -395l81 303q70 -49 158 -78t172 -29q147 0 227 72t113 233l2 17q-49 -66 -129 -101.5t-176 -35.5q-180 0 -288.5 125t-108.5 331q0 170 69.5 317.5t195.5 239t280 91.5q221 0 313 -170l35 137h346l-180 -932q-66 -340 -222.5 -492.5t-443.5 -152.5q-125 0 -248 34.5 t-196 90.5zM444 492q0 -80 49.5 -129.5t133.5 -49.5q96 0 165.5 74t69.5 178q0 90 -49 143.5t-133 53.5q-98 0 -167 -79t-69 -191z" />
<glyph unicode="h" horiz-adv-x="1275" d="M25 0l321 1659h369l-137 -705q53 66 129.5 101t164.5 35q152 0 234 -87.5t82 -246.5q0 -82 -14 -148l-119 -608h-369l113 573q6 31 6 62q0 127 -117 127q-70 0 -119 -53.5t-67 -149.5l-109 -559h-368z" />
<glyph unicode="i" horiz-adv-x="620" d="M25 0l204 1057h369l-205 -1057h-368zM276 1403q0 94 65 154.5t161 60.5q84 0 136 -49t52 -129q0 -94 -63.5 -155.5t-159.5 -61.5q-86 0 -138.5 49t-52.5 131z" />
<glyph unicode="j" horiz-adv-x="620" d="M-418 -446l80 286q66 -39 162 -39q86 0 135 55.5t72 174.5l198 1026h369l-205 -1057q-55 -281 -178 -400.5t-352 -119.5q-86 0 -162 19.5t-119 54.5zM276 1403q0 94 65 154.5t161 60.5q84 0 136 -49t52 -129q0 -94 -63.5 -155.5t-159.5 -61.5q-84 0 -137.5 50t-53.5 130z " />
<glyph unicode="k" horiz-adv-x="1302" d="M25 0l321 1659h369l-189 -971l371 369h455l-539 -504l387 -553h-434l-285 451l-88 -451h-368z" />
<glyph unicode="l" horiz-adv-x="620" d="M25 0l321 1659h369l-322 -1659h-368z" />
<glyph unicode="m" horiz-adv-x="1929" d="M25 0l204 1057h357l-21 -125q49 74 131 116t176 42q98 0 170 -46.5t111 -134.5q55 86 146.5 133.5t205.5 47.5q162 0 249 -89.5t87 -252.5q0 -66 -14 -140l-119 -608h-369l113 573q4 27 5 40.5t1 21.5q0 61 -29.5 94t-85.5 33q-68 0 -116.5 -54.5t-67.5 -148.5l-108 -559 h-369l113 573q2 16 3 30.5t1 31.5q0 61 -30 94t-85 33q-68 0 -116 -53.5t-66 -149.5l-109 -559h-368z" />
<glyph unicode="n" horiz-adv-x="1275" d="M25 0l204 1057h357l-21 -119q53 74 133 113t174 39q152 0 234 -87.5t82 -246.5q0 -82 -14 -148l-119 -608h-369l113 573q6 31 6 62q0 127 -117 127q-70 0 -119 -53.5t-67 -149.5l-109 -559h-368z" />
<glyph unicode="o" horiz-adv-x="1300" d="M76 465q0 168 78.5 310.5t223 228.5t324.5 86q152 0 271 -60.5t186.5 -173.5t67.5 -264q0 -168 -79 -310.5t-223.5 -228.5t-324.5 -86q-152 0 -270.5 60.5t-186 173t-67.5 264.5zM442 489q0 -90 50.5 -142t134.5 -52q96 0 164.5 80t68.5 190q0 90 -50 143.5t-134 53.5 q-61 0 -114.5 -35t-86.5 -97.5t-33 -140.5z" />
<glyph unicode="p" horiz-adv-x="1339" d="M-74 -502l303 1559h342l-14 -113q53 70 135 108t176 38q115 0 205 -56.5t141.5 -165t51.5 -254.5q0 -170 -70 -317t-196 -238.5t-279 -91.5q-211 0 -305 154l-121 -623h-369zM479 492q0 -90 49.5 -143.5t133.5 -53.5q98 0 166.5 79t68.5 191q0 90 -49 143.5t-133 53.5 q-98 0 -167 -79t-69 -191z" />
<glyph unicode="q" horiz-adv-x="1337" d="M76 442q0 170 69.5 317.5t195.5 239t280 91.5q221 0 313 -170l35 137h346l-301 -1559h-369l113 584q-55 -55 -129 -85t-156 -30q-115 0 -205 56.5t-141 165t-51 253.5zM444 492q0 -90 49.5 -143.5t133.5 -53.5q98 0 166.5 79t68.5 191q0 90 -49 143.5t-133 53.5 q-98 0 -167 -79t-69 -191z" />
<glyph unicode="r" horiz-adv-x="917" d="M25 0l204 1057h351l-17 -129q47 68 123 108.5t152 40.5t127 -28l-93 -347q-51 31 -133 31q-201 0 -262 -305l-84 -428h-368z" />
<glyph unicode="s" horiz-adv-x="1021" d="M14 86l70 262q74 -53 162 -81.5t176 -28.5q110 0 110 64q0 32 -27.5 53.5t-107.5 56.5q-143 63 -207.5 141t-64.5 190q0 156 125 251.5t328 95.5q98 0 201.5 -28t176.5 -73l-67 -262q-61 39 -143 65.5t-148 26.5q-49 0 -77.5 -18.5t-28.5 -48.5q0 -25 23.5 -43.5 t90.5 -49.5q166 -74 231.5 -149.5t65.5 -192.5q0 -160 -127 -255t-336 -95q-76 0 -156.5 15.5t-153.5 42t-116 61.5z" />
<glyph unicode="t" horiz-adv-x="980" d="M74 760l57 297h176l53 272h367l-53 -272h268l-57 -297h-271l-55 -297q-8 -43 -8 -66q0 -53 27.5 -77.5t87.5 -24.5q98 0 176 33l-11 -310q-47 -23 -120.5 -37t-147.5 -14q-387 0 -387 342q0 72 17 154l55 297h-174z" />
<glyph unicode="u" horiz-adv-x="1273" d="M86 301q0 70 14 148l119 608h369l-113 -574q-6 -31 -6 -61q0 -127 117 -127q70 0 119 53t67 150l109 559h368l-205 -1057h-356l19 117q-53 -72 -133.5 -111t-172.5 -39q-152 0 -233.5 87t-81.5 247z" />
<glyph unicode="v" horiz-adv-x="1198" d="M129 1057h385l53 -676l312 676h397l-590 -1057h-381z" />
<glyph unicode="w" horiz-adv-x="1779" d="M139 1057h371l27 -617l280 617h316l59 -596l256 596h397l-551 -1057h-323l-66 643l-291 -643h-331z" />
<glyph unicode="x" horiz-adv-x="1259" d="M-57 0l489 563l-270 494h395l117 -275l207 275h409l-461 -535l283 -522h-391l-133 309l-236 -309h-409z" />
<glyph unicode="y" horiz-adv-x="1253" d="M-25 -502l379 578l-225 981h389l88 -613l326 613h397l-962 -1559h-392z" />
<glyph unicode="z" horiz-adv-x="1110" d="M-20 0l45 242l534 520h-418l58 295h895l-45 -244l-537 -518h477l-57 -295h-952z" />
<glyph unicode="{" horiz-adv-x="917" d="M96 567l58 295h45q68 0 103.5 18.5t54 62.5t26.5 124q31 260 84 388t144 178t247 50q125 0 189 -20l-58 -281q-33 14 -84 15q-70 0 -104.5 -30t-54 -99.5t-33.5 -206.5q-18 -170 -67.5 -249t-145.5 -97q55 -20 84.5 -68.5t29.5 -114.5q0 -51 -17 -104t-41 -106.5 t-41 -102.5t-17 -94q0 -66 42 -96.5t134 -30.5q35 0 63 4l-55 -287q-33 -8 -96 -8q-199 0 -312.5 84t-113.5 232q0 63 16.5 123.5t39 116.5t38.5 107.5t16 98.5q0 53 -32.5 75.5t-104.5 22.5h-37z" />
<glyph unicode="|" horiz-adv-x="698" d="M-8 -467l434 2241h330l-434 -2241h-330z" />
<glyph unicode="}" horiz-adv-x="917" d="M-63 -272l57 280q33 -14 84 -14q70 0 104.5 29.5t54 99.5t33.5 207q18 170 67.5 248.5t145.5 97.5q-55 20 -84.5 68.5t-29.5 113.5q0 51 17 104.5t41 106.5t41 102.5t17 94.5q0 66 -42 96.5t-134 30.5q-35 0 -63 -4l55 286q33 8 96 8q199 0 312.5 -83.5t113.5 -231.5 q0 -63 -16 -123.5t-39 -117t-39 -107.5t-16 -98q0 -53 32.5 -76t104.5 -23h37l-58 -295h-45q-68 0 -103.5 -18t-54 -62.5t-26.5 -123.5q-31 -260 -84 -388.5t-144 -178.5t-247 -50q-125 0 -188 21z" />
<glyph unicode="~" horiz-adv-x="1323" d="M100 453q31 242 134.5 368.5t269.5 126.5q74 -2 124 -25.5t88 -56t71.5 -56.5t72.5 -26q51 0 82 38t49 124h289q-31 -242 -134.5 -367.5t-271.5 -125.5q-72 2 -122 25.5t-87.5 56t-71.5 56t-73 25.5q-51 0 -81.5 -38.5t-49.5 -124.5h-289z" />
<glyph unicode="&#xa1;" horiz-adv-x="774" d="M-23 -561l246 1081h326l-178 -1081h-394zM246 852q0 96 64.5 156.5t164.5 60.5q84 0 135.5 -48t51.5 -126q0 -94 -66 -154.5t-166 -60.5q-82 0 -133 47t-51 125z" />
<glyph unicode="&#xa2;" horiz-adv-x="1323" d="M176 473q0 164 73 298t209 218t316 96l49 248h158l-51 -254q63 -10 129.5 -35.5t109.5 -56.5l-67 -289q-45 27 -108.5 46.5t-125.5 27.5l-96 -487q154 2 260 57l-14 -307q-43 -27 -130 -44.5t-177 -17.5l-49 -247h-156l51 264q-182 37 -281.5 164t-99.5 319zM510 504 q0 -152 111 -197l90 459q-96 -23 -148.5 -91.5t-52.5 -170.5z" />
<glyph unicode="&#xa3;" horiz-adv-x="1323" d="M0 0l59 305h191l61 305h-184l55 285h187l12 66q59 307 210.5 450t420.5 143q104 0 209.5 -27.5t164.5 -70.5l-75 -291q-125 82 -275 82q-121 0 -190.5 -68.5t-104.5 -220.5l-14 -63h377l-55 -285h-377l-62 -305h586l-59 -305h-1137z" />
<glyph unicode="&#xa4;" horiz-adv-x="1323" d="M129 455l168 182q-47 98 -47 217q0 115 47 215l-168 184l219 195l156 -178q100 53 213 53t215 -53l158 178l217 -195l-170 -184q49 -92 49 -215q0 -121 -49 -217l170 -182l-217 -195l-158 178q-102 -53 -215 -53q-119 0 -213 53l-156 -178zM528 854q0 -90 52.5 -146.5 t136.5 -56.5t136 55.5t52 147.5t-52 147.5t-136 55.5t-136.5 -56.5t-52.5 -146.5z" />
<glyph unicode="&#xa5;" horiz-adv-x="1323" d="M59 274l39 207h367l31 150h-369l41 205h264l-229 688h391l133 -580l360 580h422l-501 -688h268l-39 -205h-381l-31 -150h383l-41 -207h-381l-53 -274h-360l53 274h-367z" />
<glyph unicode="&#xa6;" horiz-adv-x="698" d="M-8 -467l176 911h330l-176 -911h-330zM250 862l176 912h330l-176 -912h-330z" />
<glyph unicode="&#xa7;" horiz-adv-x="1161" d="M-16 -135l67 264q80 -55 179.5 -84t209.5 -29q154 0 154 95q0 39 -33 64.5t-131 60.5q-123 43 -191.5 90t-98 105t-29.5 140q0 123 71.5 214.5t202.5 134.5q-115 82 -115 237q0 176 133.5 277.5t364.5 101.5q104 0 215 -28.5t176 -71.5l-65 -262q-74 43 -164 68.5 t-162 25.5q-143 0 -143 -80q0 -39 30.5 -61.5t130.5 -57.5q125 -45 193 -92t95.5 -107.5t27.5 -144.5q0 -123 -67.5 -214t-188.5 -136q113 -88 112 -236q0 -117 -64.5 -205t-186 -137t-287.5 -49q-125 0 -249 33t-187 84zM461 629q0 -55 35 -88t94 -33q72 0 119 47t47 115 q0 53 -35 85.5t-94 32.5q-72 0 -119 -46t-47 -113z" />
<glyph unicode="&#xa8;" horiz-adv-x="1024" d="M286 1372q0 78 53.5 129t133.5 51q70 0 113.5 -41t43.5 -108q0 -78 -52 -129t-132 -51q-72 0 -116 41t-44 108zM763 1372q0 78 53.5 129t133.5 51q70 0 112.5 -42t42.5 -107q0 -78 -52 -129t-132 -51q-72 0 -115 41t-43 108z" />
<glyph unicode="&#xa9;" horiz-adv-x="1654" d="M125 778q0 203 93 369t265 264t394 98q209 0 378.5 -91t270 -258t100.5 -382q0 -203 -92 -368.5t-264 -264t-393 -98.5q-209 0 -379 91t-271.5 258t-101.5 382zM324 778q0 -154 68.5 -277.5t194.5 -197.5t290 -74q156 0 280.5 68t198.5 193.5t74 287.5q0 154 -69 278 t-195 197.5t-289 73.5q-156 0 -281 -67.5t-198.5 -192.5t-73.5 -289zM489 776q0 180 117 291t307 111q66 0 135.5 -15.5t112.5 -40.5l-35 -231q-98 41 -186 41q-78 0 -124 -41t-46 -109q0 -72 48 -109.5t138 -37.5t183 43l30 -229q-100 -60 -268 -60q-188 0 -300 104.5 t-112 282.5z" />
<glyph unicode="&#xaa;" horiz-adv-x="972" d="M90 393l45 240h778l-45 -240h-778zM190 1077q0 131 49.5 239.5t139.5 174t203 65.5q68 0 123 -28.5t90 -81.5l22 88h264l-145 -746h-258l10 80q-35 -49 -96 -76.5t-131 -27.5q-123 0 -197 85t-74 228zM471 1126q0 -55 31 -86.5t84 -31.5q70 0 113.5 52t43.5 132 q0 57 -30.5 88t-83.5 31q-68 0 -113 -52.5t-45 -132.5z" />
<glyph unicode="&#xab;" horiz-adv-x="1376" d="M49 526l393 457h400l-432 -489l211 -424h-359zM614 526l393 457h400l-432 -489l211 -424h-359z" />
<glyph unicode="&#xac;" horiz-adv-x="1323" d="M201 608l57 303h954l-114 -598h-326l57 295h-628z" />
<glyph unicode="&#xad;" horiz-adv-x="849" d="M86 438l59 301h646l-60 -301h-645z" />
<glyph unicode="&#xae;" horiz-adv-x="1064" d="M199 1241q0 127 59 231.5t166.5 166t245.5 61.5q131 0 237.5 -57.5t170 -162t63.5 -239.5q0 -127 -58.5 -230.5t-166 -166t-246.5 -62.5q-131 0 -237.5 57.5t-170 162t-63.5 239.5zM338 1241q0 -150 91 -242t241 -92t240.5 92.5t90.5 241.5q0 150 -91 242t-240 92 q-150 0 -241 -92t-91 -242zM483 1030v438h189q92 0 142 -39.5t50 -113.5q0 -82 -61 -123l86 -162h-160l-51 115h-51v-115h-144zM627 1260h30q35 0 48.5 10t13.5 37t-14.5 38t-47.5 11h-30v-96z" />
<glyph unicode="&#xaf;" horiz-adv-x="1024" d="M337 1270l46 246h675l-45 -246h-676z" />
<glyph unicode="&#xb0;" horiz-adv-x="1007" d="M240 1206q0 104 50 191.5t140 139.5t205 52q111 0 201 -48t143 -135t53 -200q0 -104 -50 -190t-141 -138.5t-206 -52.5q-170 0 -282.5 108.5t-112.5 272.5zM496 1206q0 -66 39 -106.5t100 -40.5q63 0 103 41t40 106q0 68 -40 110t-103 42q-61 0 -100 -42t-39 -110z" />
<glyph unicode="&#xb1;" horiz-adv-x="1323" d="M91 3l59 305h938l-59 -305h-938zM223 764l58 297h323l70 360h319l-71 -360h323l-57 -297h-324l-71 -359h-318l70 359h-322z" />
<glyph unicode="&#xb2;" d="M178 934l37 201q115 72 180.5 116.5t106.5 79.5q66 55 94 95t28 77q0 33 -25.5 51.5t-68.5 18.5q-51 0 -111.5 -24.5t-105.5 -65.5l-29 211q51 43 135.5 69.5t168.5 26.5q137 0 222 -67.5t85 -176.5q0 -135 -117 -254q-72 -72 -174 -141h268l-43 -217h-651z" />
<glyph unicode="&#xb3;" d="M176 979l47 203q49 -29 111.5 -45.5t117.5 -16.5q63 0 99.5 25t36.5 68q0 70 -109 69q-39 0 -80 -12l-45 131l203 162h-281l39 205h606l-34 -187l-195 -153q76 -23 119 -80.5t43 -137.5q0 -135 -106.5 -215.5t-288.5 -80.5q-76 0 -158 18t-125 47z" />
<glyph unicode="&#xb4;" horiz-adv-x="1024" d="M352 1249l273 348h395l-356 -348h-312z" />
<glyph unicode="&#xb5;" horiz-adv-x="1280" d="M-74 -502l303 1559h369l-113 -574q-2 -16 -3 -30.5t-1 -32.5q0 -125 117 -125q70 0 117 53t65 150l109 559h368l-204 -1057h-355l17 125q-33 -68 -97.5 -113t-128.5 -45q-68 0 -96 43l-98 -512h-369z" />
<glyph unicode="&#xb6;" horiz-adv-x="1320" d="M150 1006q0 164 72.5 288.5t209.5 193t326 68.5h651l-354 -1822h-314l297 1532h-141l-299 -1532h-313l174 905q-147 27 -228 123t-81 244z" />
<glyph unicode="&#xb7;" horiz-adv-x="626" d="M152 754q0 94 65.5 154.5t165.5 60.5q82 0 133.5 -47t51.5 -125q0 -96 -65 -156.5t-165 -60.5q-84 0 -135 48t-51 126z" />
<glyph unicode="&#xb8;" horiz-adv-x="1024" d="M47 -498l59 168q55 -33 135 -32q53 0 84 20t31 55q0 27 -23.5 41.5t-68.5 14.5q-37 0 -74 -9l117 260h194l-59 -133q168 -29 168 -180q0 -115 -92 -184.5t-246 -69.5q-70 0 -133.5 13.5t-91.5 35.5z" />
<glyph unicode="&#xb9;" d="M303 1401l6 242l295 125h242l-162 -834h-273l109 555z" />
<glyph unicode="&#xba;" horiz-adv-x="991" d="M76 393l45 240h778l-45 -240h-778zM190 1112q0 125 56.5 225.5t160 159.5t238.5 59q170 0 273.5 -96t103.5 -254q0 -125 -56.5 -225t-160 -159.5t-236.5 -59.5q-172 0 -275.5 96t-103.5 254zM469 1126q0 -55 31 -86.5t84 -31.5q70 0 114.5 52t44.5 132q0 55 -30.5 87 t-83.5 32q-70 0 -115 -52.5t-45 -132.5z" />
<glyph unicode="&#xbb;" horiz-adv-x="1376" d="M-31 70l432 489l-211 424h359l213 -457l-393 -456h-400zM534 70l432 489l-211 424h359l213 -457l-393 -456h-400z" />
<glyph unicode="&#xbc;" horiz-adv-x="2037" d="M256 1155l6 242l295 125h242l-162 -834h-273l109 555zM309 0l1268 1524h313l-1268 -1524h-313zM1181 154l39 213l438 467h283l-94 -484h104l-39 -196h-102l-29 -154h-235l28 154h-393zM1443 350h170l43 228z" />
<glyph unicode="&#xbd;" horiz-adv-x="2037" d="M205 0l1268 1524h313l-1268 -1524h-313zM256 1155l6 242l295 125h242l-162 -834h-273l109 555zM1210 0l37 201q115 72 180.5 116.5t106.5 79.5q66 55 94 95t28 77q0 33 -25.5 51.5t-68.5 18.5q-51 0 -111.5 -24.5t-105.5 -65.5l-29 211q51 43 135.5 69.5t168.5 26.5 q137 0 222 -67.5t85 -176.5q0 -135 -117 -254q-72 -72 -174 -141h268l-43 -217h-651z" />
<glyph unicode="&#xbe;" horiz-adv-x="2037" d="M129 733l47 203q49 -29 111.5 -45.5t117.5 -16.5q63 0 99.5 25t36.5 68q0 70 -109 69q-39 0 -80 -12l-45 131l203 162h-281l39 205h606l-34 -187l-195 -153q76 -23 119 -80.5t43 -137.5q0 -135 -106.5 -215.5t-288.5 -80.5q-76 0 -158 18t-125 47zM319 0l1268 1524h313 l-1268 -1524h-313zM1181 154l39 213l438 467h283l-94 -484h104l-39 -196h-102l-29 -154h-235l28 154h-393zM1443 350h170l43 228z" />
<glyph unicode="&#xbf;" horiz-adv-x="1122" d="M-70 -172q0 135 65.5 235.5t231.5 204.5q98 63 136 99t53.5 73t17.5 80h334q2 -8 3 -16t1 -17q0 -135 -56.5 -228t-211.5 -196q-86 -57 -117 -85.5t-43 -58.5t-12 -62q0 -53 44 -83t118 -30q92 0 194.5 41t190.5 115l14 -332q-80 -68 -206 -108t-261 -40 q-227 0 -361.5 109t-134.5 299zM455 852q0 96 64.5 156.5t164.5 60.5q84 0 135 -48t51 -126q0 -94 -65.5 -154.5t-165.5 -60.5q-82 0 -133 47t-51 125z" />
<glyph unicode="&#xc0;" horiz-adv-x="1697" d="M-59 0l903 1556h407l301 -1556h-419l-52 358h-530l-186 -358h-424zM695 2025h415l172 -315h-323zM715 672h327l-67 495z" />
<glyph unicode="&#xc1;" horiz-adv-x="1697" d="M-59 0l903 1556h407l301 -1556h-419l-52 358h-530l-186 -358h-424zM715 672h327l-67 495zM831 1710l283 315h434l-383 -315h-334z" />
<glyph unicode="&#xc2;" horiz-adv-x="1697" d="M-59 0l903 1556h407l301 -1556h-419l-52 358h-530l-186 -358h-424zM596 1710l349 322h360l225 -322h-327l-95 141l-149 -141h-363zM715 672h327l-67 495z" />
<glyph unicode="&#xc3;" horiz-adv-x="1697" d="M-59 0l903 1556h407l301 -1556h-419l-52 358h-530l-186 -358h-424zM662 1706q45 352 299 352q55 0 92 -16.5t62.5 -39t49 -38.5t54.5 -16q35 0 53.5 23.5t28.5 82.5h233q-51 -352 -301 -352q-55 0 -92 16.5t-62.5 37t-49 36.5t-54.5 16q-35 0 -53 -22.5t-29 -79.5h-231z M715 672h327l-67 495z" />
<glyph unicode="&#xc4;" horiz-adv-x="1697" d="M-59 0l903 1556h407l301 -1556h-419l-52 358h-530l-186 -358h-424zM674 1855q0 80 55.5 133.5t137.5 53.5q72 0 117 -42t45 -112q0 -80 -54.5 -133t-136.5 -53q-74 0 -119 42t-45 111zM715 672h327l-67 495zM1160 1855q0 80 55 133.5t139 53.5q72 0 116 -43t44 -111 q0 -82 -53.5 -134t-137.5 -52q-74 0 -118.5 42t-44.5 111z" />
<glyph unicode="&#xc5;" horiz-adv-x="1697" d="M-59 0l903 1556h407l301 -1556h-419l-52 358h-530l-186 -358h-424zM715 672h327l-67 495zM800 1960q0 123 86 205t219 82t219.5 -82t86.5 -205q0 -125 -87.5 -207t-218.5 -82t-218 82t-87 207zM997 1960q0 -49 29.5 -79t78.5 -30t79 30t30 79t-29.5 78.5t-79.5 29.5 q-49 0 -78.5 -29.5t-29.5 -78.5z" />
<glyph unicode="&#xc6;" horiz-adv-x="2269" d="M-102 0l1165 1556h1239l-66 -327h-651l-57 -279h571l-59 -323h-572l-59 -299h705l-64 -328h-1094l72 362h-418l-250 -362h-462zM823 672h264l105 532z" />
<glyph unicode="&#xc7;" horiz-adv-x="1560" d="M143 707q0 244 113 441.5t321.5 314t479.5 116.5q135 0 279.5 -36t234.5 -93l-98 -342q-199 109 -418 109q-139 0 -251 -60.5t-177.5 -172.5t-65.5 -257q0 -180 113.5 -283.5t314.5 -103.5t387 98l-6 -358q-180 -103 -465 -103q-227 0 -398 87.5t-267.5 252t-96.5 390.5z M418 -502l61 180q55 -33 136 -32q104 0 104 65q0 51 -94 51q-41 0 -68 -6l119 264h205l-60 -131q82 -12 128 -60t46 -124q0 -117 -95 -184.5t-259 -67.5q-72 0 -133 12.5t-90 32.5z" />
<glyph unicode="&#xc8;" horiz-adv-x="1374" d="M61 0l304 1556h1042l-66 -327h-651l-57 -279h571l-59 -323h-572l-59 -299h705l-64 -328h-1094zM563 2025h415l172 -315h-323z" />
<glyph unicode="&#xc9;" horiz-adv-x="1374" d="M61 0l304 1556h1042l-66 -327h-651l-57 -279h571l-59 -323h-572l-59 -299h705l-64 -328h-1094zM700 1710l283 315h434l-383 -315h-334z" />
<glyph unicode="&#xca;" horiz-adv-x="1374" d="M61 0l304 1556h1042l-66 -327h-651l-57 -279h571l-59 -323h-572l-59 -299h705l-64 -328h-1094zM464 1710l349 322h360l225 -322h-327l-95 141l-149 -141h-363z" />
<glyph unicode="&#xcb;" horiz-adv-x="1374" d="M61 0l304 1556h1042l-66 -327h-651l-57 -279h571l-59 -323h-572l-59 -299h705l-64 -328h-1094zM542 1855q0 80 55.5 133.5t137.5 53.5q72 0 117 -42t45 -112q0 -80 -54.5 -133t-136.5 -53q-74 0 -119 42t-45 111zM1028 1855q0 80 55 133.5t139 53.5q72 0 116 -43t44 -111 q0 -82 -53.5 -134t-137.5 -52q-74 0 -118.5 42t-44.5 111z" />
<glyph unicode="&#xcc;" horiz-adv-x="739" d="M61 0l304 1556h411l-303 -1556h-412zM213 2025h415l172 -315h-323z" />
<glyph unicode="&#xcd;" horiz-adv-x="739" d="M61 0l304 1556h411l-303 -1556h-412zM350 1710l283 315h434l-383 -315h-334z" />
<glyph unicode="&#xce;" horiz-adv-x="739" d="M61 0l304 1556h411l-303 -1556h-412zM114 1710l349 322h360l225 -322h-327l-95 141l-149 -141h-363z" />
<glyph unicode="&#xcf;" horiz-adv-x="739" d="M61 0l304 1556h411l-303 -1556h-412zM192 1855q0 80 55.5 133.5t137.5 53.5q72 0 117 -42t45 -112q0 -80 -54.5 -133t-136.5 -53q-74 0 -119 42t-45 111zM678 1855q0 80 55 133.5t139 53.5q72 0 116 -43t44 -111q0 -82 -53.5 -134t-137.5 -52q-74 0 -118.5 42t-44.5 111z " />
<glyph unicode="&#xd0;" horiz-adv-x="1789" d="M72 653l49 260h170l125 643h540q391 0 593 -169.5t202 -495.5q0 -268 -116.5 -469t-342 -311.5t-534.5 -110.5h-645l127 653h-168zM586 334h192q162 0 287 64.5t195.5 185.5t70.5 282q0 356 -407 357h-168l-60 -310h271l-49 -260h-271z" />
<glyph unicode="&#xd1;" horiz-adv-x="1736" d="M61 0l304 1556h352l489 -968l189 968h379l-304 -1556h-352l-491 971l-187 -971h-379zM690 1706q45 352 299 352q55 0 92 -16.5t62.5 -39t49 -38.5t54.5 -16q35 0 53.5 23.5t28.5 82.5h233q-51 -352 -301 -352q-55 0 -92 16.5t-62.5 37t-49 36.5t-54.5 16q-35 0 -53 -22.5 t-29 -79.5h-231z" />
<glyph unicode="&#xd2;" horiz-adv-x="1843" d="M143 702q0 242 113 443t317.5 322.5t464.5 121.5q215 0 386 -91t271.5 -259t100.5 -385q0 -242 -112.5 -442.5t-317.5 -322.5t-465 -122q-215 0 -386 91.5t-271.5 259t-100.5 384.5zM561 707q0 -170 99.5 -273.5t265.5 -103.5q123 0 226 65.5t164.5 185t61.5 269.5 q0 170 -100 273.5t-266 103.5q-123 0 -225.5 -65.5t-164 -185.5t-61.5 -269zM750 2025h415l172 -315h-323z" />
<glyph unicode="&#xd3;" horiz-adv-x="1843" d="M143 702q0 242 113 443t317.5 322.5t464.5 121.5q215 0 386 -91t271.5 -259t100.5 -385q0 -242 -112.5 -442.5t-317.5 -322.5t-465 -122q-215 0 -386 91.5t-271.5 259t-100.5 384.5zM561 707q0 -170 99.5 -273.5t265.5 -103.5q123 0 226 65.5t164.5 185t61.5 269.5 q0 170 -100 273.5t-266 103.5q-123 0 -225.5 -65.5t-164 -185.5t-61.5 -269zM887 1710l283 315h434l-383 -315h-334z" />
<glyph unicode="&#xd4;" horiz-adv-x="1843" d="M143 702q0 242 113 443t317.5 322.5t464.5 121.5q215 0 386 -91t271.5 -259t100.5 -385q0 -242 -112.5 -442.5t-317.5 -322.5t-465 -122q-215 0 -386 91.5t-271.5 259t-100.5 384.5zM561 707q0 -170 99.5 -273.5t265.5 -103.5q123 0 226 65.5t164.5 185t61.5 269.5 q0 170 -100 273.5t-266 103.5q-123 0 -225.5 -65.5t-164 -185.5t-61.5 -269zM651 1710l349 322h360l225 -322h-327l-95 141l-149 -141h-363z" />
<glyph unicode="&#xd5;" horiz-adv-x="1843" d="M143 702q0 242 113 443t317.5 322.5t464.5 121.5q215 0 386 -91t271.5 -259t100.5 -385q0 -242 -112.5 -442.5t-317.5 -322.5t-465 -122q-215 0 -386 91.5t-271.5 259t-100.5 384.5zM561 707q0 -170 99.5 -273.5t265.5 -103.5q123 0 226 65.5t164.5 185t61.5 269.5 q0 170 -100 273.5t-266 103.5q-123 0 -225.5 -65.5t-164 -185.5t-61.5 -269zM717 1706q45 352 299 352q55 0 92 -16.5t62.5 -39t49 -38.5t54.5 -16q35 0 53.5 23.5t28.5 82.5h233q-51 -352 -301 -352q-55 0 -92 16.5t-62.5 37t-49 36.5t-54.5 16q-35 0 -53 -22.5t-29 -79.5 h-231z" />
<glyph unicode="&#xd6;" horiz-adv-x="1843" d="M143 702q0 242 113 443t317.5 322.5t464.5 121.5q215 0 386 -91t271.5 -259t100.5 -385q0 -242 -112.5 -442.5t-317.5 -322.5t-465 -122q-215 0 -386 91.5t-271.5 259t-100.5 384.5zM561 707q0 -170 99.5 -273.5t265.5 -103.5q123 0 226 65.5t164.5 185t61.5 269.5 q0 170 -100 273.5t-266 103.5q-123 0 -225.5 -65.5t-164 -185.5t-61.5 -269zM729 1855q0 80 55.5 133.5t137.5 53.5q72 0 117 -42t45 -112q0 -80 -54.5 -133t-136.5 -53q-74 0 -119 42t-45 111zM1215 1855q0 80 55 133.5t139 53.5q72 0 116 -43t44 -111q0 -82 -53.5 -134 t-137.5 -52q-74 0 -118.5 42t-44.5 111z" />
<glyph unicode="&#xd7;" horiz-adv-x="1323" d="M180 432l320 283l-209 280l229 183l201 -269l309 273l182 -215l-321 -283l211 -283l-230 -182l-202 270l-308 -274z" />
<glyph unicode="&#xd8;" horiz-adv-x="1843" d="M37 137l207 178q-100 168 -101 387q0 242 113 443t317.5 322.5t464.5 121.5q139 0 265.5 -41t226.5 -118l211 184l160 -189l-209 -180q104 -180 104 -391q0 -242 -112.5 -442.5t-317.5 -322.5t-465 -122q-143 0 -270 41t-225 121l-209 -180zM547 705q0 -61 12 -115 l678 588q-94 66 -223 65q-127 0 -232.5 -67.5t-170 -191.5t-64.5 -279zM694 381q91 -68 230 -68q127 0 233.5 68t171 191.5t64.5 279.5q0 57 -17 119z" />
<glyph unicode="&#xd9;" horiz-adv-x="1722" d="M174 541q0 86 25 217l153 798h414l-162 -821q-14 -70 -14 -139q0 -266 252 -266q145 0 226 87t122 294l166 845h413l-178 -903q-70 -354 -258 -520t-520 -166q-305 0 -472 149.5t-167 424.5zM703 2025h415l172 -315h-323z" />
<glyph unicode="&#xda;" horiz-adv-x="1722" d="M174 541q0 86 25 217l153 798h414l-162 -821q-14 -70 -14 -139q0 -266 252 -266q145 0 226 87t122 294l166 845h413l-178 -903q-70 -354 -258 -520t-520 -166q-305 0 -472 149.5t-167 424.5zM839 1710l283 315h434l-383 -315h-334z" />
<glyph unicode="&#xdb;" horiz-adv-x="1722" d="M174 541q0 86 25 217l153 798h414l-162 -821q-14 -70 -14 -139q0 -266 252 -266q145 0 226 87t122 294l166 845h413l-178 -903q-70 -354 -258 -520t-520 -166q-305 0 -472 149.5t-167 424.5zM604 1710l349 322h360l225 -322h-327l-95 141l-149 -141h-363z" />
<glyph unicode="&#xdc;" horiz-adv-x="1722" d="M174 541q0 86 25 217l153 798h414l-162 -821q-14 -70 -14 -139q0 -266 252 -266q145 0 226 87t122 294l166 845h413l-178 -903q-70 -354 -258 -520t-520 -166q-305 0 -472 149.5t-167 424.5zM682 1855q0 80 55.5 133.5t137.5 53.5q72 0 117 -42t45 -112q0 -80 -54.5 -133 t-136.5 -53q-74 0 -119 42t-45 111zM1168 1855q0 80 55 133.5t139 53.5q72 0 116 -43t44 -111q0 -82 -53.5 -134t-137.5 -52q-74 0 -118.5 42t-44.5 111z" />
<glyph unicode="&#xdd;" horiz-adv-x="1542" d="M215 1556h432l193 -604l422 604h462l-733 -929l-123 -627h-405l123 633zM760 1710l283 315h434l-383 -315h-334z" />
<glyph unicode="&#xde;" horiz-adv-x="1396" d="M61 0l304 1556h391l-45 -225h75q283 0 439.5 -124t156.5 -347q0 -287 -182 -440.5t-522 -153.5h-172l-53 -266h-392zM565 578h121q145 0 224 67.5t79 194.5q0 180 -246 180h-92z" />
<glyph unicode="&#xdf;" horiz-adv-x="1421" d="M25 0l208 1077q59 303 218 447.5t434 144.5q225 0 361 -114.5t136 -301.5q0 -137 -67.5 -241.5t-186.5 -155.5q96 -41 150.5 -133t54.5 -213q0 -160 -67.5 -283t-195.5 -191.5t-300 -68.5q-84 0 -166 18.5t-123 45.5l78 293q84 -43 180 -43q106 0 173 61t67 162 q0 88 -63.5 129t-206.5 41q-29 0 -35 -2l55 309h33q123 0 195.5 60.5t72.5 160.5q0 72 -46 114t-128 42q-104 0 -166.5 -75t-93.5 -236l-203 -1047h-368z" />
<glyph unicode="&#xe0;" horiz-adv-x="1339" d="M76 442q0 170 69.5 317.5t195.5 239t280 91.5q221 0 313 -170l35 137h346l-203 -1057h-342l14 113q-53 -70 -135 -108t-176 -38q-115 0 -205 56.5t-141 165t-51 253.5zM444 492q0 -90 49.5 -143.5t133.5 -53.5q98 0 166.5 79t68.5 191q0 90 -49 143.5t-133 53.5 q-98 0 -167 -79t-69 -191zM469 1597h380l146 -348h-297z" />
<glyph unicode="&#xe1;" horiz-adv-x="1339" d="M76 442q0 170 69.5 317.5t195.5 239t280 91.5q221 0 313 -170l35 137h346l-203 -1057h-342l14 113q-53 -70 -135 -108t-176 -38q-115 0 -205 56.5t-141 165t-51 253.5zM444 492q0 -90 49.5 -143.5t133.5 -53.5q98 0 166.5 79t68.5 191q0 90 -49 143.5t-133 53.5 q-98 0 -167 -79t-69 -191zM610 1249l273 348h395l-356 -348h-312z" />
<glyph unicode="&#xe2;" horiz-adv-x="1339" d="M76 442q0 170 69.5 317.5t195.5 239t280 91.5q221 0 313 -170l35 137h346l-203 -1057h-342l14 113q-53 -70 -135 -108t-176 -38q-115 0 -205 56.5t-141 165t-51 253.5zM381 1249l342 348h314l206 -348h-290l-95 160l-157 -160h-320zM444 492q0 -90 49.5 -143.5 t133.5 -53.5q98 0 166.5 79t68.5 191q0 90 -49 143.5t-133 53.5q-98 0 -167 -79t-69 -191z" />
<glyph unicode="&#xe3;" horiz-adv-x="1339" d="M76 442q0 170 69.5 317.5t195.5 239t280 91.5q221 0 313 -170l35 137h346l-203 -1057h-342l14 113q-53 -70 -135 -108t-176 -38q-115 0 -205 56.5t-141 165t-51 253.5zM410 1247q45 344 299 344q55 0 92 -16t62.5 -39t49 -39t54.5 -16q35 0 53.5 24.5t28.5 81.5h233 q-45 -344 -299 -344q-55 0 -92 16.5t-62.5 39t-49 39t-54.5 16.5q-35 0 -53 -23.5t-29 -83.5h-233zM444 492q0 -90 49.5 -143.5t133.5 -53.5q98 0 166.5 79t68.5 191q0 90 -49 143.5t-133 53.5q-98 0 -167 -79t-69 -191z" />
<glyph unicode="&#xe4;" horiz-adv-x="1339" d="M76 442q0 170 69.5 317.5t195.5 239t280 91.5q221 0 313 -170l35 137h346l-203 -1057h-342l14 113q-53 -70 -135 -108t-176 -38q-115 0 -205 56.5t-141 165t-51 253.5zM428 1372q0 78 53.5 129t133.5 51q70 0 113.5 -41t43.5 -108q0 -78 -52 -129t-132 -51q-72 0 -116 41 t-44 108zM444 492q0 -90 49.5 -143.5t133.5 -53.5q98 0 166.5 79t68.5 191q0 90 -49 143.5t-133 53.5q-98 0 -167 -79t-69 -191zM905 1372q0 78 53.5 129t133.5 51q70 0 112.5 -42t42.5 -107q0 -78 -52 -129t-132 -51q-72 0 -115 41t-43 108z" />
<glyph unicode="&#xe5;" horiz-adv-x="1339" d="M76 442q0 170 69.5 317.5t195.5 239t280 91.5q221 0 313 -170l35 137h346l-203 -1057h-342l14 113q-53 -70 -135 -108t-176 -38q-115 0 -205 56.5t-141 165t-51 253.5zM444 492q0 -90 49.5 -143.5t133.5 -53.5q98 0 166.5 79t68.5 191q0 90 -49 143.5t-133 53.5 q-98 0 -167 -79t-69 -191zM522 1458q0 123 86 205t219 82t219 -82t86 -205t-86 -205t-219 -82t-219 82t-86 205zM719 1458q0 -49 29.5 -78.5t78.5 -29.5t79 29.5t30 78.5t-30 79t-79 30t-78.5 -30t-29.5 -79z" />
<glyph unicode="&#xe6;" horiz-adv-x="2017" d="M76 442q0 170 69.5 317.5t195.5 239t280 91.5q221 0 313 -170l35 137h280l-18 -99q49 63 126 97.5t171 34.5q182 0 293.5 -119t111.5 -314q0 -123 -32 -227h-697q10 -70 44 -109.5t97.5 -57t165.5 -17.5q72 0 157 18.5t149 46.5l-7 -274q-61 -31 -158.5 -50.5 t-195.5 -19.5q-283 0 -389 148l-23 -115h-274l14 113q-53 -70 -135 -108t-176 -38q-115 0 -205 56.5t-141 165t-51 253.5zM444 492q0 -90 49.5 -143.5t133.5 -53.5q98 0 166.5 79t68.5 191q0 90 -49 143.5t-133 53.5q-98 0 -167 -79t-69 -191zM1225 651h374q2 12 3 31 q0 72 -40 110.5t-116 38.5q-82 0 -139.5 -47t-81.5 -133z" />
<glyph unicode="&#xe7;" horiz-adv-x="1105" d="M78 473q0 168 76.5 307.5t219 222t322.5 82.5q106 0 210 -27.5t167 -72.5l-76 -305q-49 35 -123.5 56.5t-142.5 21.5q-129 0 -208 -70t-79 -182q0 -96 70 -151.5t191 -55.5q119 0 243 59l-10 -323q-43 -27 -132 -45.5t-171 -18.5q-264 0 -410.5 132.5t-146.5 369.5z M178 -498l59 168q55 -33 135 -32q53 0 84 20t31 55q0 27 -23.5 41.5t-68.5 14.5q-37 0 -74 -9l117 260h194l-59 -133q168 -29 168 -180q0 -115 -92 -184.5t-246 -69.5q-70 0 -133.5 13.5t-91.5 35.5z" />
<glyph unicode="&#xe8;" horiz-adv-x="1234" d="M76 461q0 174 74.5 316.5t213 227.5t316.5 85q223 0 347 -114t124 -319q0 -123 -33 -227h-696q12 -100 82.5 -142t224.5 -42q72 0 157 18.5t148 46.5l-6 -274q-63 -33 -161.5 -51.5t-207.5 -18.5q-274 0 -428.5 130t-154.5 364zM388 1597h380l146 -348h-297zM442 651h375 q2 12 2 31q0 72 -40 110.5t-115 38.5q-82 0 -138.5 -46t-83.5 -134z" />
<glyph unicode="&#xe9;" horiz-adv-x="1234" d="M76 461q0 174 74.5 316.5t213 227.5t316.5 85q223 0 347 -114t124 -319q0 -123 -33 -227h-696q12 -100 82.5 -142t224.5 -42q72 0 157 18.5t148 46.5l-6 -274q-63 -33 -161.5 -51.5t-207.5 -18.5q-274 0 -428.5 130t-154.5 364zM442 651h375q2 12 2 31q0 72 -40 110.5 t-115 38.5q-82 0 -138.5 -46t-83.5 -134zM528 1249l273 348h395l-356 -348h-312z" />
<glyph unicode="&#xea;" horiz-adv-x="1234" d="M76 461q0 174 74.5 316.5t213 227.5t316.5 85q223 0 347 -114t124 -319q0 -123 -33 -227h-696q12 -100 82.5 -142t224.5 -42q72 0 157 18.5t148 46.5l-6 -274q-63 -33 -161.5 -51.5t-207.5 -18.5q-274 0 -428.5 130t-154.5 364zM299 1249l342 348h314l206 -348h-290 l-95 160l-157 -160h-320zM442 651h375q2 12 2 31q0 72 -40 110.5t-115 38.5q-82 0 -138.5 -46t-83.5 -134z" />
<glyph unicode="&#xeb;" horiz-adv-x="1234" d="M76 461q0 174 74.5 316.5t213 227.5t316.5 85q223 0 347 -114t124 -319q0 -123 -33 -227h-696q12 -100 82.5 -142t224.5 -42q72 0 157 18.5t148 46.5l-6 -274q-63 -33 -161.5 -51.5t-207.5 -18.5q-274 0 -428.5 130t-154.5 364zM346 1372q0 78 53.5 129t133.5 51 q70 0 113.5 -41t43.5 -108q0 -78 -52 -129t-132 -51q-72 0 -116 41t-44 108zM442 651h375q2 12 2 31q0 72 -40 110.5t-115 38.5q-82 0 -138.5 -46t-83.5 -134zM823 1372q0 78 53.5 129t133.5 51q70 0 112.5 -42t42.5 -107q0 -78 -52 -129t-132 -51q-72 0 -115 41t-43 108z " />
<glyph unicode="&#xec;" horiz-adv-x="620" d="M25 0l204 1057h369l-205 -1057h-368zM97 1597h380l146 -348h-297z" />
<glyph unicode="&#xed;" horiz-adv-x="620" d="M25 0l204 1057h369l-205 -1057h-368zM237 1249l273 348h395l-356 -348h-312z" />
<glyph unicode="&#xee;" horiz-adv-x="620" d="M8 1249l342 348h314l206 -348h-290l-95 160l-157 -160h-320zM25 0l204 1057h369l-205 -1057h-368z" />
<glyph unicode="&#xef;" horiz-adv-x="620" d="M25 0l204 1057h369l-205 -1057h-368zM55 1372q0 78 53.5 129t133.5 51q70 0 113.5 -41t43.5 -108q0 -78 -52 -129t-132 -51q-72 0 -116 41t-44 108zM532 1372q0 78 53.5 129t133.5 51q70 0 112.5 -42t42.5 -107q0 -78 -52 -129t-132 -51q-72 0 -115 41t-43 108z" />
<glyph unicode="&#xf0;" horiz-adv-x="1327" d="M76 465q0 156 68.5 290t192.5 218t273 84q82 0 150.5 -25.5t113.5 -70.5q-39 170 -102 292l-326 -112l-63 188l283 101q-76 104 -181 204l392 29q51 -49 108 -127l246 86l63 -188l-202 -72q80 -156 121.5 -320.5t41.5 -322.5q0 -221 -77.5 -391t-225 -265.5t-346.5 -95.5 q-246 0 -388 134.5t-142 363.5zM442 481q0 -88 51.5 -139t139.5 -51q100 0 168.5 76.5t68.5 185.5q0 88 -51 140t-139 52q-100 0 -169 -76.5t-69 -187.5z" />
<glyph unicode="&#xf1;" horiz-adv-x="1275" d="M25 0l204 1057h357l-21 -119q53 74 133 113t174 39q152 0 234 -87.5t82 -246.5q0 -82 -14 -148l-119 -608h-369l113 573q6 31 6 62q0 127 -117 127q-70 0 -119 -53.5t-67 -149.5l-109 -559h-368zM377 1247q45 344 299 344q55 0 92 -16t62.5 -39t49 -39t54.5 -16 q35 0 53.5 24.5t28.5 81.5h233q-45 -344 -299 -344q-55 0 -92 16.5t-62.5 39t-49 39t-54.5 16.5q-35 0 -53 -23.5t-29 -83.5h-233z" />
<glyph unicode="&#xf2;" horiz-adv-x="1300" d="M76 465q0 168 78.5 310.5t223 228.5t324.5 86q152 0 271 -60.5t186.5 -173.5t67.5 -264q0 -168 -79 -310.5t-223.5 -228.5t-324.5 -86q-152 0 -270.5 60.5t-186 173t-67.5 264.5zM437 1597h380l146 -348h-297zM442 489q0 -90 50.5 -142t134.5 -52q96 0 164.5 80t68.5 190 q0 90 -50 143.5t-134 53.5q-61 0 -114.5 -35t-86.5 -97.5t-33 -140.5z" />
<glyph unicode="&#xf3;" horiz-adv-x="1300" d="M76 465q0 168 78.5 310.5t223 228.5t324.5 86q152 0 271 -60.5t186.5 -173.5t67.5 -264q0 -168 -79 -310.5t-223.5 -228.5t-324.5 -86q-152 0 -270.5 60.5t-186 173t-67.5 264.5zM442 489q0 -90 50.5 -142t134.5 -52q96 0 164.5 80t68.5 190q0 90 -50 143.5t-134 53.5 q-61 0 -114.5 -35t-86.5 -97.5t-33 -140.5zM577 1249l273 348h395l-356 -348h-312z" />
<glyph unicode="&#xf4;" horiz-adv-x="1300" d="M76 465q0 168 78.5 310.5t223 228.5t324.5 86q152 0 271 -60.5t186.5 -173.5t67.5 -264q0 -168 -79 -310.5t-223.5 -228.5t-324.5 -86q-152 0 -270.5 60.5t-186 173t-67.5 264.5zM348 1249l342 348h314l206 -348h-290l-95 160l-157 -160h-320zM442 489q0 -90 50.5 -142 t134.5 -52q96 0 164.5 80t68.5 190q0 90 -50 143.5t-134 53.5q-61 0 -114.5 -35t-86.5 -97.5t-33 -140.5z" />
<glyph unicode="&#xf5;" horiz-adv-x="1300" d="M76 465q0 168 78.5 310.5t223 228.5t324.5 86q152 0 271 -60.5t186.5 -173.5t67.5 -264q0 -168 -79 -310.5t-223.5 -228.5t-324.5 -86q-152 0 -270.5 60.5t-186 173t-67.5 264.5zM377 1247q45 344 299 344q55 0 92 -16t62.5 -39t49 -39t54.5 -16q35 0 53.5 24.5 t28.5 81.5h233q-45 -344 -299 -344q-55 0 -92 16.5t-62.5 39t-49 39t-54.5 16.5q-35 0 -53 -23.5t-29 -83.5h-233zM442 489q0 -90 50.5 -142t134.5 -52q96 0 164.5 80t68.5 190q0 90 -50 143.5t-134 53.5q-61 0 -114.5 -35t-86.5 -97.5t-33 -140.5z" />
<glyph unicode="&#xf6;" horiz-adv-x="1300" d="M76 465q0 168 78.5 310.5t223 228.5t324.5 86q152 0 271 -60.5t186.5 -173.5t67.5 -264q0 -168 -79 -310.5t-223.5 -228.5t-324.5 -86q-152 0 -270.5 60.5t-186 173t-67.5 264.5zM395 1372q0 78 53.5 129t133.5 51q70 0 113.5 -41t43.5 -108q0 -78 -52 -129t-132 -51 q-72 0 -116 41t-44 108zM442 489q0 -90 50.5 -142t134.5 -52q96 0 164.5 80t68.5 190q0 90 -50 143.5t-134 53.5q-61 0 -114.5 -35t-86.5 -97.5t-33 -140.5zM872 1372q0 78 53.5 129t133.5 51q70 0 112.5 -42t42.5 -107q0 -78 -52 -129t-132 -51q-72 0 -115 41t-43 108z" />
<glyph unicode="&#xf7;" horiz-adv-x="1323" d="M195 535l59 305h938l-59 -305h-938zM432 258q0 78 55.5 130t137.5 52q76 0 123 -42t47 -109q0 -78 -55.5 -129t-139.5 -51q-76 0 -122 42t-46 107zM590 1085q0 78 55 130.5t137 52.5q76 0 123 -42t47 -110q0 -78 -55 -129t-139 -51q-76 0 -122 42t-46 107z" />
<glyph unicode="&#xf8;" horiz-adv-x="1300" d="M4 88l137 117q-66 113 -65 260q0 168 78.5 310.5t223 228.5t324.5 86q201 0 342 -107l140 121l119 -135l-140 -121q63 -115 64 -256q0 -168 -79 -310.5t-223.5 -228.5t-324.5 -86q-201 0 -338 103l-137 -119zM403 456.5q0 -12.5 3 -22.5l393 338q-53 33 -119 33 q-115 0 -196 -94.5t-81 -229.5v-24.5zM506 281q51 -29 117 -29q72 0 134 41t102 115.5t40 164.5q0 10 -1 21.5t-3 21.5z" />
<glyph unicode="&#xf9;" horiz-adv-x="1273" d="M86 301q0 70 14 148l119 608h369l-113 -574q-6 -31 -6 -61q0 -127 117 -127q70 0 119 53t67 150l109 559h368l-205 -1057h-356l19 117q-53 -72 -134 -111q-80 -39 -172 -39q-152 0 -233 87q-82 87 -82 247zM402 1597h380l146 -348h-297z" />
<glyph unicode="&#xfa;" horiz-adv-x="1273" d="M86 301q0 70 14 148l119 608h369l-113 -574q-6 -31 -6 -61q0 -127 117 -127q70 0 119 53t67 150l109 559h368l-205 -1057h-356l19 117q-53 -72 -134 -111q-80 -39 -172 -39q-152 0 -233 87q-82 87 -82 247zM542 1249l273 348h395l-356 -348h-312z" />
<glyph unicode="&#xfb;" horiz-adv-x="1273" d="M86 301q0 70 14 148l119 608h369l-113 -574q-6 -31 -6 -61q0 -127 117 -127q70 0 119 53t67 150l109 559h368l-205 -1057h-356l19 117q-53 -72 -134 -111q-80 -39 -172 -39q-152 0 -233 87q-82 87 -82 247zM313 1249l342 348h314l206 -348h-290l-95 160l-157 -160h-320z " />
<glyph unicode="&#xfc;" horiz-adv-x="1273" d="M86 301q0 70 14 148l119 608h369l-113 -574q-6 -31 -6 -61q0 -127 117 -127q70 0 119 53t67 150l109 559h368l-205 -1057h-356l19 117q-53 -72 -134 -111q-80 -39 -172 -39q-152 0 -233 87q-82 87 -82 247zM360 1372q0 78 53.5 129t133.5 51q70 0 113.5 -41t43.5 -108 q0 -78 -52 -129t-132 -51q-72 0 -116 41t-44 108zM837 1372q0 78 53.5 129t133.5 51q70 0 112.5 -42t42.5 -107q0 -78 -52 -129t-132 -51q-72 0 -115 41t-43 108z" />
<glyph unicode="&#xfd;" horiz-adv-x="1253" d="M-25 -502l379 578l-225 981h389l88 -613l326 613h397l-962 -1559h-392zM559 1249l273 348h395l-356 -348h-312z" />
<glyph unicode="&#xfe;" horiz-adv-x="1339" d="M-74 -502l422 2161h369l-137 -690q53 57 127.5 89t160.5 32q115 0 205 -56.5t141.5 -165t51.5 -254.5q0 -170 -70 -317t-196 -238.5t-279 -91.5q-209 0 -305 154l-121 -623h-369zM479 492q0 -90 49.5 -143.5t135.5 -53.5q96 0 164.5 79t68.5 191q0 90 -49 143.5 t-133 53.5q-96 0 -166 -79t-70 -191z" />
<glyph unicode="&#xff;" horiz-adv-x="1253" d="M-25 -502l379 578l-225 981h389l88 -613l326 613h397l-962 -1559h-392zM377 1372q0 78 53.5 129t133.5 51q70 0 113.5 -41t43.5 -108q0 -78 -52 -129t-132 -51q-72 0 -116 41t-44 108zM854 1372q0 78 53.5 129t133.5 51q70 0 112.5 -42t42.5 -107q0 -78 -52 -129 t-132 -51q-72 0 -115 41t-43 108z" />
<glyph unicode="&#x100;" horiz-adv-x="1697" d="M-59 0l903 1556h407l301 -1556h-419l-52 358h-530l-186 -358h-424zM715 672h327l-67 495zM721 1720l50 250h688l-50 -250h-688z" />
<glyph unicode="&#x101;" horiz-adv-x="1339" d="M76 442q0 170 69.5 317.5t195.5 239t280 91.5q221 0 313 -170l35 137h346l-203 -1057h-342l14 113q-53 -70 -135 -108t-176 -38q-115 0 -205 56.5t-141 165t-51 253.5zM444 492q0 -90 49.5 -143.5t133.5 -53.5q98 0 166.5 79t68.5 191q0 90 -49 143.5t-133 53.5 q-98 0 -167 -79t-69 -191zM481 1270l46 246h675l-45 -246h-676z" />
<glyph unicode="&#x102;" horiz-adv-x="1697" d="M-59 0l903 1556h407l301 -1556h-419l-52 358h-530l-186 -358h-424zM715 672h327l-67 495zM720 1944q0 41 13 84h250q-2 -10 -2 -35q0 -51 30.5 -78t87.5 -27q129 0 158 140h252q-6 -172 -117.5 -264.5t-312.5 -92.5q-162 0 -260.5 75t-98.5 198z" />
<glyph unicode="&#x103;" horiz-adv-x="1339" d="M76 442q0 170 69.5 317.5t195.5 239t280 91.5q221 0 313 -170l35 137h346l-203 -1057h-342l14 113q-53 -70 -135 -108t-176 -38q-115 0 -205 56.5t-141 165t-51 253.5zM444 492q0 -90 49.5 -143.5t133.5 -53.5q98 0 166.5 79t68.5 191q0 90 -49 143.5t-133 53.5 q-98 0 -167 -79t-69 -191zM475 1473q0 53 15 94h235q-4 -20 -4 -39q0 -115 125 -115q70 0 110 37t54 117h237q-4 -176 -111 -270.5t-306 -94.5q-162 0 -258.5 74t-96.5 197z" />
<glyph unicode="&#x104;" horiz-adv-x="1697" d="M-59 0l903 1556h407l301 -1556h-419l-52 358h-530l-186 -358h-424zM715 672h327l-67 495zM1044 -317q0 125 118 229t325 160l65 -72q-201 -131 -201 -223q0 -55 66 -56q39 0 80 17l-21 -246q-69 -33 -178 -33q-119 0 -186.5 59.5t-67.5 164.5z" />
<glyph unicode="&#x105;" horiz-adv-x="1339" d="M76 442q0 170 69.5 317.5t195.5 239t280 91.5q221 0 313 -170l35 137h346l-203 -1057h-342l14 113q-53 -70 -135 -108t-176 -38q-115 0 -205 56.5t-141 165t-51 253.5zM444 492q0 -90 49.5 -143.5t133.5 -53.5q98 0 166.5 79t68.5 191q0 90 -49 143.5t-133 53.5 q-98 0 -167 -79t-69 -191zM612 -319q0 119 110.5 232.5t296.5 186.5l93 -100q-207 -133 -207 -231q0 -57 73 -58q37 0 80 17l-18 -236q-31 -14 -80 -23.5t-98 -9.5q-117 0 -183.5 58.5t-66.5 163.5z" />
<glyph unicode="&#x106;" horiz-adv-x="1560" d="M143 707q0 244 113 441.5t321.5 314t479.5 116.5q135 0 279.5 -36t234.5 -93l-98 -342q-199 109 -418 109q-139 0 -251 -60.5t-177.5 -172.5t-65.5 -257q0 -180 113.5 -283.5t314.5 -103.5t387 98l-6 -358q-180 -103 -465 -103q-227 0 -398 87.5t-267.5 252t-96.5 390.5z M827 1710l283 315h434l-383 -315h-334z" />
<glyph unicode="&#x107;" horiz-adv-x="1105" d="M78 473q0 168 76.5 307.5t219 222t322.5 82.5q106 0 210 -27.5t167 -72.5l-76 -305q-49 35 -123.5 56.5t-142.5 21.5q-129 0 -208 -70t-79 -182q0 -96 70 -151.5t191 -55.5q119 0 243 59l-10 -323q-43 -27 -132 -45.5t-171 -18.5q-264 0 -410.5 132.5t-146.5 369.5z M549 1249l273 348h395l-356 -348h-312z" />
<glyph unicode="&#x10a;" horiz-adv-x="1560" d="M143 707q0 244 113 441.5t321.5 314t479.5 116.5q135 0 279.5 -36t234.5 -93l-98 -342q-199 109 -418 109q-139 0 -251 -60.5t-177.5 -172.5t-65.5 -257q0 -180 113.5 -283.5t314.5 -103.5t387 98l-6 -358q-180 -103 -465 -103q-227 0 -398 87.5t-267.5 252t-96.5 390.5z M892 1874q0 90 61.5 148.5t158.5 58.5q80 0 130 -47t50 -125q0 -92 -61.5 -150.5t-157.5 -58.5q-80 0 -130.5 48t-50.5 126z" />
<glyph unicode="&#x10b;" horiz-adv-x="1105" d="M78 473q0 168 76.5 307.5t219 222t322.5 82.5q106 0 210 -27.5t167 -72.5l-76 -305q-49 35 -123.5 56.5t-142.5 21.5q-129 0 -208 -70t-79 -182q0 -96 70 -151.5t191 -55.5q119 0 243 59l-10 -323q-43 -27 -132 -45.5t-171 -18.5q-264 0 -410.5 132.5t-146.5 369.5z M584 1386q0 86 58 142.5t148 56.5q78 0 125 -45t47 -119q0 -88 -59 -143t-149 -55q-76 0 -123 45t-47 118z" />
<glyph unicode="&#x10c;" horiz-adv-x="1560" d="M143 707q0 244 113 441.5t321.5 314t479.5 116.5q135 0 279.5 -36t234.5 -93l-98 -342q-199 109 -418 109q-139 0 -251 -60.5t-177.5 -172.5t-65.5 -257q0 -180 113.5 -283.5t314.5 -103.5t387 98l-6 -358q-180 -103 -465 -103q-227 0 -398 87.5t-267.5 252t-96.5 390.5z M633 2032h328l96 -142l149 142h361l-348 -322h-361z" />
<glyph unicode="&#x10d;" horiz-adv-x="1105" d="M78 473q0 168 76.5 307.5t219 222t322.5 82.5q106 0 210 -27.5t167 -72.5l-76 -305q-49 35 -123.5 56.5t-142.5 21.5q-129 0 -208 -70t-79 -182q0 -96 70 -151.5t191 -55.5q119 0 243 59l-10 -323q-43 -27 -132 -45.5t-171 -18.5q-264 0 -410.5 132.5t-146.5 369.5z M387 1597h290l97 -159l155 159h322l-342 -348h-313z" />
<glyph unicode="&#x10e;" horiz-adv-x="1738" d="M61 0l304 1556h540q391 0 593 -169.5t202 -495.5q0 -268 -117 -469t-342 -311.5t-534 -110.5h-646zM535 334h192q162 0 287 64.5t195.5 185.5t70.5 282q0 356 -408 357h-167zM610 2032h328l96 -142l149 142h361l-348 -322h-361z" />
<glyph unicode="&#x10f;" horiz-adv-x="1339" d="M76 442q0 170 69.5 317.5t195.5 239t280 91.5q211 0 303 -154l141 723h369l-322 -1659h-342l14 113q-53 -70 -135 -108t-176 -38q-115 0 -205 56.5t-141 165t-51 253.5zM444 492q0 -90 49.5 -143.5t133.5 -53.5q98 0 166.5 79t68.5 191q0 90 -49 143.5t-133 53.5 q-98 0 -167 -79t-69 -191zM1464 1157l121 502h348l-221 -502h-248z" />
<glyph unicode="&#x110;" horiz-adv-x="1789" d="M72 653l49 260h170l125 643h540q391 0 593 -169.5t202 -495.5q0 -268 -116.5 -469t-342 -311.5t-534.5 -110.5h-645l127 653h-168zM586 334h192q162 0 287 64.5t195.5 185.5t70.5 282q0 356 -407 357h-168l-60 -310h271l-49 -260h-271z" />
<glyph unicode="&#x111;" horiz-adv-x="1339" d="M76 442q0 170 69.5 317.5t195.5 239t280 91.5q211 0 303 -154l59 305h-281l43 213h279l41 205h369l-41 -205h147l-39 -213h-149l-240 -1241h-342l14 113q-53 -70 -135 -108t-176 -38q-115 0 -205 56.5t-141 165t-51 253.5zM444 492q0 -90 49.5 -143.5t133.5 -53.5 q98 0 166.5 79t68.5 191q0 90 -49 143.5t-133 53.5q-98 0 -167 -79t-69 -191z" />
<glyph unicode="&#x112;" horiz-adv-x="1374" d="M61 0l304 1556h1042l-66 -327h-651l-57 -279h571l-59 -323h-572l-59 -299h705l-64 -328h-1094zM589 1720l50 250h688l-50 -250h-688z" />
<glyph unicode="&#x113;" horiz-adv-x="1234" d="M76 461q0 174 74.5 316.5t213 227.5t316.5 85q223 0 347 -114t124 -319q0 -123 -33 -227h-696q12 -100 82.5 -142t224.5 -42q72 0 157 18.5t148 46.5l-6 -274q-63 -33 -161.5 -51.5t-207.5 -18.5q-274 0 -428.5 130t-154.5 364zM399 1270l46 246h675l-45 -246h-676z M442 651h375q2 12 2 31q0 72 -40 110.5t-115 38.5q-82 0 -138.5 -46t-83.5 -134z" />
<glyph unicode="&#x116;" horiz-adv-x="1374" d="M61 0l304 1556h1042l-66 -327h-651l-57 -279h571l-59 -323h-572l-59 -299h705l-64 -328h-1094zM765 1874q0 90 61.5 148.5t158.5 58.5q80 0 130 -47t50 -125q0 -92 -61.5 -150.5t-157.5 -58.5q-80 0 -130.5 48t-50.5 126z" />
<glyph unicode="&#x117;" horiz-adv-x="1234" d="M76 461q0 174 74.5 316.5t213 227.5t316.5 85q223 0 347 -114t124 -319q0 -123 -33 -227h-696q12 -100 82.5 -142t224.5 -42q72 0 157 18.5t148 46.5l-6 -274q-63 -33 -161.5 -51.5t-207.5 -18.5q-274 0 -428.5 130t-154.5 364zM442 651h375q2 12 2 31q0 72 -40 110.5 t-115 38.5q-82 0 -138.5 -46t-83.5 -134zM564 1386q0 86 58 142.5t148 56.5q78 0 125 -45t47 -119q0 -88 -59 -143t-149 -55q-76 0 -123 45t-47 118z" />
<glyph unicode="&#x118;" horiz-adv-x="1374" d="M61 0l304 1556h1042l-66 -327h-651l-57 -279h571l-59 -323h-572l-59 -299h705l-64 -328h-1094zM647 -317q0 125 118 229t325 160l65 -72q-201 -131 -201 -223q0 -55 66 -56q39 0 80 17l-21 -246q-69 -33 -178 -33q-119 0 -186.5 59.5t-67.5 164.5z" />
<glyph unicode="&#x119;" horiz-adv-x="1234" d="M76 461q0 174 74.5 316.5t213 227.5t316.5 85q223 0 347 -114t124 -319q0 -123 -33 -227h-696q12 -100 82.5 -142t224.5 -42q72 0 157 18.5t148 46.5l-6 -274q-63 -33 -161.5 -51.5t-207.5 -18.5q-274 0 -428.5 130t-154.5 364zM442 651h375q2 12 2 31q0 72 -40 110.5 t-115 38.5q-82 0 -138.5 -46t-83.5 -134zM483 -336q0 129 113 232.5t315 160.5l113 -22q-117 -63 -183.5 -134t-66.5 -130q0 -29 20.5 -44.5t55.5 -15.5q41 0 80 15l-17 -234q-76 -33 -174 -33q-121 0 -188.5 54.5t-67.5 150.5z" />
<glyph unicode="&#x11a;" horiz-adv-x="1374" d="M61 0l304 1556h1042l-66 -327h-651l-57 -279h571l-59 -323h-572l-59 -299h705l-64 -328h-1094zM506 2032h328l96 -142l149 142h361l-348 -322h-361z" />
<glyph unicode="&#x11b;" horiz-adv-x="1234" d="M76 461q0 174 74.5 316.5t213 227.5t316.5 85q223 0 347 -114t124 -319q0 -123 -33 -227h-696q12 -100 82.5 -142t224.5 -42q72 0 157 18.5t148 46.5l-6 -274q-63 -33 -161.5 -51.5t-207.5 -18.5q-274 0 -428.5 130t-154.5 364zM367 1597h290l97 -159l155 159h322 l-342 -348h-313zM442 651h375q2 12 2 31q0 72 -40 110.5t-115 38.5q-82 0 -138.5 -46t-83.5 -134z" />
<glyph unicode="&#x11e;" horiz-adv-x="1691" d="M145 700q0 252 117 451t335 313.5t507 114.5q147 0 307 -37t262 -96l-94 -344q-102 57 -230 88t-262 31q-240 0 -387 -137.5t-147 -360.5q0 -182 114.5 -288.5t313.5 -106.5q102 0 176 24l47 240h-258l62 309h628l-157 -813q-92 -49 -233.5 -80t-276.5 -31 q-252 0 -437.5 85t-286 248t-100.5 390zM743 1944q0 41 13 84h250q-2 -10 -2 -35q0 -51 30.5 -78t87.5 -27q129 0 158 140h252q-6 -172 -117.5 -264.5t-312.5 -92.5q-162 0 -260.5 75t-98.5 198z" />
<glyph unicode="&#x11f;" horiz-adv-x="1337" d="M25 -395l81 303q70 -49 158 -78t172 -29q147 0 227 72t113 233l2 17q-49 -66 -129 -101.5t-176 -35.5q-180 0 -288.5 125t-108.5 331q0 170 69.5 317.5t195.5 239t280 91.5q221 0 313 -170l35 137h346l-180 -932q-66 -340 -222.5 -492.5t-443.5 -152.5q-125 0 -248 34.5 t-196 90.5zM444 492q0 -80 49.5 -129.5t133.5 -49.5q96 0 165.5 74t69.5 178q0 90 -49 143.5t-133 53.5q-98 0 -167 -79t-69 -191zM475 1473q0 53 15 94h235q-4 -20 -4 -39q0 -115 125 -115q70 0 110 37t54 117h237q-4 -176 -111 -270.5t-306 -94.5q-162 0 -258.5 74 t-96.5 197z" />
<glyph unicode="&#x120;" horiz-adv-x="1691" d="M145 700q0 252 117 451t335 313.5t507 114.5q147 0 307 -37t262 -96l-94 -344q-102 57 -230 88t-262 31q-240 0 -387 -137.5t-147 -360.5q0 -182 114.5 -288.5t313.5 -106.5q102 0 176 24l47 240h-258l62 309h628l-157 -813q-92 -49 -233.5 -80t-276.5 -31 q-252 0 -437.5 85t-286 248t-100.5 390zM919 1874q0 90 61.5 148.5t158.5 58.5q80 0 130 -47t50 -125q0 -92 -61.5 -150.5t-157.5 -58.5q-80 0 -130.5 48t-50.5 126z" />
<glyph unicode="&#x121;" horiz-adv-x="1337" d="M25 -395l81 303q70 -49 158 -78t172 -29q147 0 227 72t113 233l2 17q-49 -66 -129 -101.5t-176 -35.5q-180 0 -288.5 125t-108.5 331q0 170 69.5 317.5t195.5 239t280 91.5q221 0 313 -170l35 137h346l-180 -932q-66 -340 -222.5 -492.5t-443.5 -152.5q-125 0 -248 34.5 t-196 90.5zM444 492q0 -80 49.5 -129.5t133.5 -49.5q96 0 165.5 74t69.5 178q0 90 -49 143.5t-133 53.5q-98 0 -167 -79t-69 -191zM646 1386q0 86 58 142.5t148 56.5q78 0 125 -45t47 -119q0 -88 -59 -143t-149 -55q-76 0 -123 45t-47 118z" />
<glyph unicode="&#x122;" horiz-adv-x="1691" d="M145 700q0 252 117 451t335 313.5t507 114.5q147 0 307 -37t262 -96l-94 -344q-102 57 -230 88t-262 31q-240 0 -387 -137.5t-147 -360.5q0 -182 114.5 -288.5t313.5 -106.5q102 0 176 24l47 240h-258l62 309h628l-157 -813q-92 -49 -233.5 -80t-276.5 -31 q-252 0 -437.5 85t-286 248t-100.5 390zM502 -510q66 92 107 191.5t51 191.5h340q-16 -104 -73.5 -208.5t-135.5 -174.5h-289z" />
<glyph unicode="&#x123;" horiz-adv-x="1337" d="M25 -395l81 303q70 -49 158 -78t172 -29q147 0 227 72t113 233l2 17q-49 -66 -129 -101.5t-176 -35.5q-180 0 -288.5 125t-108.5 331q0 170 69.5 317.5t195.5 239t280 91.5q221 0 313 -170l35 137h346l-180 -932q-66 -340 -222.5 -492.5t-443.5 -152.5q-125 0 -248 34.5 t-196 90.5zM444 492q0 -80 49.5 -129.5t133.5 -49.5q96 0 165.5 74t69.5 178q0 90 -49 143.5t-133 53.5q-98 0 -167 -79t-69 -191zM635 1249q10 66 38.5 134.5t71.5 132t95 106.5h272q-61 -86 -102 -184.5t-52 -188.5h-323z" />
<glyph unicode="&#x126;" horiz-adv-x="1839" d="M111 0l215 1104h-168l47 244h168l41 208h413l-41 -208h586l41 208h414l-41 -208h166l-47 -244h-166l-215 -1104h-414l111 569h-584l-113 -569h-413zM700 903h586l39 201h-586z" />
<glyph unicode="&#x127;" horiz-adv-x="1275" d="M25 0l239 1241h-147l41 213h147l41 205h369l-41 -205h280l-41 -213h-280l-55 -287q53 66 129.5 101t164.5 35q152 0 234 -87.5t82 -246.5q0 -82 -14 -148l-119 -608h-369l113 573q6 31 6 62q0 127 -117 127q-70 0 -119 -53.5t-67 -149.5l-109 -559h-368z" />
<glyph unicode="&#x128;" horiz-adv-x="739" d="M61 0l304 1556h411l-303 -1556h-412zM180 1706q45 352 299 352q55 0 92 -16.5t62.5 -39t49 -38.5t54.5 -16q35 0 53.5 23.5t28.5 82.5h233q-51 -352 -301 -352q-55 0 -92 16.5t-62.5 37t-49 36.5t-54.5 16q-35 0 -53 -22.5t-29 -79.5h-231z" />
<glyph unicode="&#x129;" horiz-adv-x="620" d="M25 0l204 1057h369l-205 -1057h-368zM37 1247q45 344 299 344q55 0 92 -16t62.5 -39t49 -39t54.5 -16q35 0 53.5 24.5t28.5 81.5h233q-45 -344 -299 -344q-55 0 -92 16.5t-62.5 39t-49 39t-54.5 16.5q-35 0 -53 -23.5t-29 -83.5h-233z" />
<glyph unicode="&#x12a;" horiz-adv-x="739" d="M61 0l304 1556h411l-303 -1556h-412zM239 1720l50 250h688l-50 -250h-688z" />
<glyph unicode="&#x12b;" horiz-adv-x="620" d="M25 0l204 1057h369l-205 -1057h-368zM108 1270l46 246h675l-45 -246h-676z" />
<glyph unicode="&#x12e;" horiz-adv-x="739" d="M-35 -317q0 125 118 229t325 160l65 -72q-201 -131 -201 -223q0 -55 66 -56q39 0 80 17l-21 -246q-69 -33 -178 -33q-119 0 -186.5 59.5t-67.5 164.5zM61 0l304 1556h411l-303 -1556h-412z" />
<glyph unicode="&#x12f;" horiz-adv-x="620" d="M-106 -319q0 119 110.5 232.5t296.5 186.5l93 -100q-207 -133 -207 -231q0 -57 73 -58q37 0 80 17l-18 -236q-31 -14 -80 -23.5t-98 -9.5q-117 0 -183.5 58.5t-66.5 163.5zM25 0l204 1057h369l-205 -1057h-368zM276 1403q0 94 65 154.5t161 60.5q84 0 136 -49t52 -129 q0 -94 -63.5 -155.5t-159.5 -61.5q-86 0 -138.5 49t-52.5 131z" />
<glyph unicode="&#x130;" horiz-adv-x="739" d="M61 0l304 1556h411l-303 -1556h-412zM415 1874q0 90 61.5 148.5t158.5 58.5q80 0 130 -47t50 -125q0 -92 -61.5 -150.5t-157.5 -58.5q-80 0 -130.5 48t-50.5 126z" />
<glyph unicode="&#x131;" horiz-adv-x="620" d="M25 0l204 1057h369l-205 -1057h-368z" />
<glyph unicode="&#x132;" horiz-adv-x="1908" d="M61 0l304 1556h411l-303 -1556h-412zM733 70l74 313q121 -80 264 -80q125 0 191.5 71.5t99.5 235.5l184 946h412l-201 -1019q-59 -299 -210 -434.5t-423 -135.5q-117 0 -225.5 29t-165.5 74z" />
<glyph unicode="&#x133;" horiz-adv-x="1239" d="M25 0l204 1057h369l-205 -1057h-368zM201 -446l80 286q66 -39 161 -39q86 0 136 56q49 55 71 174l199 1026h369l-205 -1057q-55 -281 -178 -400q-124 -120 -353 -120q-86 0 -162 19t-118 55zM276 1403q0 94 65 154.5t161 60.5q84 0 136 -49t52 -129q0 -94 -63.5 -155.5 t-159.5 -61.5q-86 0 -138.5 49t-52.5 131zM895 1403q0 94 64 155q65 60 161 60q84 0 136 -49t53 -129q0 -94 -64 -156q-64 -61 -160 -61q-84 0 -137 50t-53 130z" />
<glyph unicode="&#x136;" horiz-adv-x="1640" d="M61 0l304 1556h397l-119 -602l617 602h516l-826 -772l576 -784h-498l-440 657l-129 -657h-398zM389 -510q66 92 107 191.5t51 191.5h340q-16 -104 -73.5 -208.5t-135.5 -174.5h-289z" />
<glyph unicode="&#x137;" horiz-adv-x="1302" d="M25 0l321 1659h369l-189 -971l371 369h455l-539 -504l387 -553h-434l-285 451l-88 -451h-368zM182 -510q135 201 158 383h326q-14 -102 -71.5 -206.5t-137.5 -176.5h-275z" />
<glyph unicode="&#x138;" horiz-adv-x="1302" d="M25 0l204 1057h369l-72 -369l371 369h455l-539 -504l387 -553h-434l-285 451l-88 -451h-368z" />
<glyph unicode="&#x139;" horiz-adv-x="1294" d="M61 0l304 1556h411l-237 -1224h647l-68 -332h-1057zM352 1710l283 315h434l-383 -315h-334z" />
<glyph unicode="&#x13a;" horiz-adv-x="620" d="M25 0l321 1659h369l-322 -1659h-368zM311 1741l283 315h434l-383 -315h-334z" />
<glyph unicode="&#x13b;" horiz-adv-x="1294" d="M61 0l304 1556h411l-237 -1224h647l-68 -332h-1057zM287 -510q66 92 107 191.5t51 191.5h340q-16 -104 -73.5 -208.5t-135.5 -174.5h-289z" />
<glyph unicode="&#x13c;" horiz-adv-x="620" d="M-123 -510q135 201 158 383h326q-14 -102 -71.5 -206.5t-137.5 -176.5h-275zM25 0l321 1659h369l-322 -1659h-368z" />
<glyph unicode="&#x13d;" horiz-adv-x="1294" d="M61 0l304 1556h411l-237 -1224h647l-68 -332h-1057zM849 1157l121 502h348l-221 -502h-248z" />
<glyph unicode="&#x13e;" horiz-adv-x="620" d="M25 0l321 1659h369l-322 -1659h-368zM745 1157l121 502h348l-221 -502h-248z" />
<glyph unicode="&#x141;" horiz-adv-x="1378" d="M18 340l66 348l219 115l148 753h411l-112 -579l415 215l-65 -348l-420 -219l-55 -293h647l-68 -332h-1057l89 453z" />
<glyph unicode="&#x142;" horiz-adv-x="765" d="M27 494l51 286l184 78l156 801h368l-127 -653l181 73l-52 -286l-184 -78l-139 -715h-369l111 567z" />
<glyph unicode="&#x143;" horiz-adv-x="1736" d="M61 0l304 1556h352l489 -968l189 968h379l-304 -1556h-352l-491 971l-187 -971h-379zM860 1710l283 315h434l-383 -315h-334z" />
<glyph unicode="&#x144;" horiz-adv-x="1275" d="M25 0l204 1057h357l-21 -119q53 74 133 113t174 39q152 0 234 -87.5t82 -246.5q0 -82 -14 -148l-119 -608h-369l113 573q6 31 6 62q0 127 -117 127q-70 0 -119 -53.5t-67 -149.5l-109 -559h-368zM577 1249l273 348h395l-356 -348h-312z" />
<glyph unicode="&#x145;" horiz-adv-x="1736" d="M61 0l304 1556h352l489 -968l189 968h379l-304 -1556h-352l-491 971l-187 -971h-379zM446 -510q66 92 107 191.5t51 191.5h340q-16 -104 -73.5 -208.5t-135.5 -174.5h-289z" />
<glyph unicode="&#x146;" horiz-adv-x="1275" d="M25 0l204 1057h357l-21 -119q53 74 133 113t174 39q152 0 234 -87.5t82 -246.5q0 -82 -14 -148l-119 -608h-369l113 573q6 31 6 62q0 127 -117 127q-70 0 -119 -53.5t-67 -149.5l-109 -559h-368zM206 -510q135 201 158 383h326q-14 -102 -71.5 -206.5t-137.5 -176.5h-275 z" />
<glyph unicode="&#x147;" horiz-adv-x="1736" d="M61 0l304 1556h352l489 -968l189 968h379l-304 -1556h-352l-491 971l-187 -971h-379zM666 2032h328l96 -142l149 142h361l-348 -322h-361z" />
<glyph unicode="&#x148;" horiz-adv-x="1275" d="M25 0l204 1057h357l-21 -119q53 74 133 113t174 39q152 0 234 -87.5t82 -246.5q0 -82 -14 -148l-119 -608h-369l113 573q6 31 6 62q0 127 -117 127q-70 0 -119 -53.5t-67 -149.5l-109 -559h-368zM416 1597h290l97 -159l155 159h322l-342 -348h-313z" />
<glyph unicode="&#x14c;" horiz-adv-x="1843" d="M143 702q0 242 113 443t317.5 322.5t464.5 121.5q215 0 386 -91t271.5 -259t100.5 -385q0 -242 -112.5 -442.5t-317.5 -322.5t-465 -122q-215 0 -386 91.5t-271.5 259t-100.5 384.5zM561 707q0 -170 99.5 -273.5t265.5 -103.5q123 0 226 65.5t164.5 185t61.5 269.5 q0 170 -100 273.5t-266 103.5q-123 0 -225.5 -65.5t-164 -185.5t-61.5 -269zM776 1720l50 250h688l-50 -250h-688z" />
<glyph unicode="&#x14d;" horiz-adv-x="1300" d="M76 465q0 168 78.5 310.5t223 228.5t324.5 86q152 0 271 -60.5t186.5 -173.5t67.5 -264q0 -168 -79 -310.5t-223.5 -228.5t-324.5 -86q-152 0 -270.5 60.5t-186 173t-67.5 264.5zM442 489q0 -90 50.5 -142t134.5 -52q96 0 164.5 80t68.5 190q0 90 -50 143.5t-134 53.5 q-61 0 -114.5 -35t-86.5 -97.5t-33 -140.5zM448 1270l46 246h675l-45 -246h-676z" />
<glyph unicode="&#x150;" horiz-adv-x="1843" d="M143 702q0 242 113 443t317.5 322.5t464.5 121.5q215 0 386 -91t271.5 -259t100.5 -385q0 -242 -112.5 -442.5t-317.5 -322.5t-465 -122q-215 0 -386 91.5t-271.5 259t-100.5 384.5zM561 707q0 -170 99.5 -273.5t265.5 -103.5q123 0 226 65.5t164.5 185t61.5 269.5 q0 170 -100 273.5t-266 103.5q-123 0 -225.5 -65.5t-164 -185.5t-61.5 -269zM662 1710l219 311h393l-281 -311h-331zM1151 1710l217 311h393l-278 -311h-332z" />
<glyph unicode="&#x151;" horiz-adv-x="1300" d="M76 465q0 168 78.5 310.5t223 228.5t324.5 86q152 0 271 -60.5t186.5 -173.5t67.5 -264q0 -168 -79 -310.5t-223.5 -228.5t-324.5 -86q-152 0 -270.5 60.5t-186 173t-67.5 264.5zM389 1249l221 348h344l-282 -348h-283zM442 489q0 -90 50.5 -142t134.5 -52q96 0 164.5 80 t68.5 190q0 90 -50 143.5t-134 53.5q-61 0 -114.5 -35t-86.5 -97.5t-33 -140.5zM805 1249l223 348h344l-280 -348h-287z" />
<glyph unicode="&#x152;" horiz-adv-x="2523" d="M150 686q0 182 57 344t167.5 288t266.5 198.5t342 72.5q168 0 296 -64.5t194 -178.5l40 210h1043l-66 -327h-651l-57 -279h571l-59 -323h-572l-59 -299h704l-63 -328h-1094l27 133q-76 -82 -188.5 -124t-251.5 -42q-186 0 -333 88t-230.5 252t-83.5 379zM567 707 q0 -170 99.5 -273.5t265.5 -103.5q123 0 226.5 65.5t164.5 185t61 269.5q0 170 -99 273.5t-265 103.5q-123 0 -225.5 -65.5t-165 -185.5t-62.5 -269z" />
<glyph unicode="&#x153;" horiz-adv-x="2009" d="M76 465q0 170 78.5 311.5t224 227.5t326.5 86q119 0 216 -48.5t150 -134.5q68 88 169 135.5t226 47.5q217 0 338 -115t121 -318q0 -123 -33 -227h-696q10 -70 44 -109.5t97.5 -57t165.5 -17.5q72 0 157 18.5t148 46.5l-6 -274q-63 -33 -160.5 -51.5t-201.5 -18.5 q-330 0 -445 180q-70 -88 -180.5 -134t-247.5 -46q-143 0 -254.5 60.5t-174 173t-62.5 264.5zM442 489q0 -90 50.5 -142t134.5 -52q96 0 164.5 80t68.5 190q0 90 -50 143.5t-134 53.5q-61 0 -114.5 -35t-86.5 -97.5t-33 -140.5zM1217 651h374q2 12 2 31q0 72 -40 110.5 t-115 38.5q-82 0 -139.5 -47t-81.5 -133z" />
<glyph unicode="&#x154;" horiz-adv-x="1533" d="M61 0l304 1556h464q283 0 439.5 -120.5t156.5 -339.5q0 -184 -77.5 -315.5t-229.5 -202.5l268 -578h-432l-190 502h-215l-96 -502h-392zM610 813h119q145 0 224 67.5t79 194.5q0 170 -246 170h-92zM708 1710l283 315h434l-383 -315h-334z" />
<glyph unicode="&#x155;" horiz-adv-x="917" d="M25 0l204 1057h351l-17 -129q47 68 123 108.5t152 40.5t127 -28l-93 -347q-51 31 -133 31q-201 0 -262 -305l-84 -428h-368zM405 1249l273 348h395l-356 -348h-312z" />
<glyph unicode="&#x158;" horiz-adv-x="1533" d="M61 0l304 1556h464q283 0 439.5 -120.5t156.5 -339.5q0 -184 -77.5 -315.5t-229.5 -202.5l268 -578h-432l-190 502h-215l-96 -502h-392zM514 2032h328l96 -142l149 142h361l-348 -322h-361zM610 813h119q145 0 224 67.5t79 194.5q0 170 -246 170h-92z" />
<glyph unicode="&#x159;" horiz-adv-x="917" d="M25 0l204 1057h351l-17 -129q47 68 123 108.5t152 40.5t127 -28l-93 -347q-51 31 -133 31q-201 0 -262 -305l-84 -428h-368zM244 1597h290l97 -159l155 159h322l-342 -348h-313z" />
<glyph unicode="&#x15a;" horiz-adv-x="1339" d="M33 115l86 327q94 -66 213 -106.5t225 -40.5q125 0 192.5 41t67.5 115q0 41 -20.5 69.5t-69.5 55t-141 65.5q-195 80 -281 186.5t-86 268.5q0 147 73 257.5t211 173t324 62.5q86 0 177.5 -16.5t175.5 -47t145 -71.5l-92 -319q-98 59 -204.5 93t-194.5 34q-102 0 -161 -38 t-59 -104q0 -49 40 -82.5t171 -87.5q217 -90 307.5 -198.5t90.5 -280.5q0 -233 -173.5 -368.5t-478.5 -135.5q-145 0 -289.5 40t-248.5 108zM651 1710l283 315h434l-383 -315h-334z" />
<glyph unicode="&#x15b;" horiz-adv-x="1021" d="M14 86l70 262q74 -53 162 -81.5t176 -28.5q111 0 110 65q0 31 -27.5 52.5t-107.5 56.5q-143 63 -207.5 141t-64.5 190q0 156 125 251.5t328 95.5q98 0 201.5 -28t176.5 -73l-67 -262q-61 39 -143 65.5t-148 26.5q-49 0 -77.5 -18.5t-28.5 -48.5q0 -25 23.5 -43.5 t90.5 -49.5q166 -74 231.5 -149.5t65.5 -192.5q0 -160 -127 -255t-336 -95q-76 0 -156.5 15.5t-153.5 42t-116 61.5zM413 1249l273 348h395l-356 -348h-312z" />
<glyph unicode="&#x15e;" horiz-adv-x="1339" d="M33 115l86 327q94 -66 213 -106.5t225 -40.5q125 0 192.5 41t67.5 115q0 41 -20.5 69.5t-69.5 55t-141 65.5q-195 80 -281 186.5t-86 268.5q0 147 73 257.5t211 173t324 62.5q86 0 177.5 -16.5t175.5 -47t145 -71.5l-92 -319q-98 59 -204.5 93t-194.5 34q-102 0 -161 -38 t-59 -104q0 -49 40 -82.5t171 -87.5q217 -90 307.5 -198.5t90.5 -280.5q0 -233 -173.5 -368.5t-478.5 -135.5q-145 0 -289.5 40t-248.5 108zM184 -502l61 180q55 -33 136 -32q104 0 104 65q0 51 -94 51q-41 0 -68 -6l119 264h205l-60 -131q82 -12 128 -60t46 -124 q0 -117 -95 -184.5t-259 -67.5q-72 0 -133 12.5t-90 32.5z" />
<glyph unicode="&#x15f;" horiz-adv-x="1021" d="M14 86l70 262q74 -53 162 -81.5t176 -28.5q111 0 110 65q0 31 -27.5 52.5t-107.5 56.5q-143 63 -207.5 141t-64.5 190q0 156 125 251.5t328 95.5q98 0 201.5 -28t176.5 -73l-67 -262q-61 39 -143 65.5t-148 26.5q-49 0 -77.5 -18.5t-28.5 -48.5q0 -25 23.5 -43.5 t90.5 -49.5q166 -74 231.5 -149.5t65.5 -192.5q0 -160 -127 -255t-336 -95q-76 0 -156.5 15.5t-153.5 42t-116 61.5zM74 -498l59 168q55 -33 135 -32q53 0 84 20t31 55q0 27 -23.5 41.5t-68.5 14.5q-37 0 -74 -9l117 260h194l-59 -133q168 -29 168 -180q0 -115 -92 -184.5 t-246 -69.5q-70 0 -133.5 13.5t-91.5 35.5z" />
<glyph unicode="&#x160;" horiz-adv-x="1339" d="M33 115l86 327q94 -66 213 -106.5t225 -40.5q125 0 192.5 41t67.5 115q0 41 -20.5 69.5t-69.5 55t-141 65.5q-195 80 -281 186.5t-86 268.5q0 147 73 257.5t211 173t324 62.5q86 0 177.5 -16.5t175.5 -47t145 -71.5l-92 -319q-98 59 -204.5 93t-194.5 34q-102 0 -161 -38 t-59 -104q0 -49 40 -82.5t171 -87.5q217 -90 307.5 -198.5t90.5 -280.5q0 -233 -173.5 -368.5t-478.5 -135.5q-145 0 -289.5 40t-248.5 108zM457 2032h328l96 -142l149 142h361l-348 -322h-361z" />
<glyph unicode="&#x161;" horiz-adv-x="1021" d="M14 86l70 262q74 -53 162 -81.5t176 -28.5q111 0 110 65q0 31 -27.5 52.5t-107.5 56.5q-143 63 -207.5 141t-64.5 190q0 156 125 251.5t328 95.5q98 0 201.5 -28t176.5 -73l-67 -262q-61 39 -143 65.5t-148 26.5q-49 0 -77.5 -18.5t-28.5 -48.5q0 -25 23.5 -43.5 t90.5 -49.5q166 -74 231.5 -149.5t65.5 -192.5q0 -160 -127 -255t-336 -95q-76 0 -156.5 15.5t-153.5 42t-116 61.5zM252 1597h290l97 -159l155 159h322l-342 -348h-313z" />
<glyph unicode="&#x162;" horiz-adv-x="1484" d="M207 1225l65 331h1340l-66 -331h-463l-239 -1225h-412l240 1225h-465zM303 -502l61 180q55 -33 136 -32q104 0 104 65q0 51 -94 51q-41 0 -68 -6l119 264h205l-60 -131q82 -12 128 -60t46 -124q0 -117 -95 -184.5t-259 -67.5q-72 0 -133 12.5t-90 32.5z" />
<glyph unicode="&#x163;" horiz-adv-x="980" d="M74 760l57 297h176l53 272h367l-53 -272h268l-57 -297h-271l-55 -297q-8 -43 -8 -66q0 -53 28 -78t87 -24q98 0 176 33l-11 -310q-47 -23 -120 -36q-74 -15 -148 -15q-387 0 -387 342q0 72 17 154l55 297h-174zM158 -498l59 168q55 -33 135 -32q53 0 84 20t31 55 q0 27 -23.5 41.5t-68.5 14.5q-37 0 -74 -9l117 260h194l-59 -133q168 -29 168 -180q0 -115 -92 -184.5t-246 -69.5q-70 0 -133.5 13.5t-91.5 35.5z" />
<glyph unicode="&#x164;" horiz-adv-x="1484" d="M207 1225l65 331h1340l-66 -331h-463l-239 -1225h-412l240 1225h-465zM547 2032h328l96 -142l149 142h361l-348 -322h-361z" />
<glyph unicode="&#x165;" horiz-adv-x="980" d="M74 760l57 297h176l53 272h367l-53 -272h268l-57 -297h-271l-55 -297q-8 -43 -8 -66q0 -53 28 -78t87 -24q98 0 176 33l-11 -310q-47 -23 -120 -36q-74 -15 -148 -15q-387 0 -387 342q0 72 17 154l55 297h-174zM795 1202l106 457h326l-199 -457h-233z" />
<glyph unicode="&#x168;" horiz-adv-x="1722" d="M174 541q0 86 25 217l153 798h414l-162 -821q-14 -70 -14 -139q0 -266 252 -266q145 0 226 87t122 294l166 845h413l-178 -903q-70 -354 -258 -520t-520 -166q-305 0 -472 149.5t-167 424.5zM670 1706q45 352 299 352q55 0 92 -16.5t62.5 -39t49 -38.5t54.5 -16 q35 0 53.5 23.5t28.5 82.5h233q-51 -352 -301 -352q-55 0 -92 16.5t-62.5 37t-49 36.5t-54.5 16q-35 0 -53 -22.5t-29 -79.5h-231z" />
<glyph unicode="&#x169;" horiz-adv-x="1273" d="M86 301q0 70 14 148l119 608h369l-113 -574q-6 -31 -6 -61q0 -127 117 -127q70 0 119 53t67 150l109 559h368l-205 -1057h-356l19 117q-53 -72 -134 -111q-80 -39 -172 -39q-152 0 -233 87q-82 87 -82 247zM342 1247q45 344 299 344q55 0 92 -16t62.5 -39t49 -39 t54.5 -16q35 0 53.5 24.5t28.5 81.5h233q-45 -344 -299 -344q-55 0 -92 16.5t-62.5 39t-49 39t-54.5 16.5q-35 0 -53 -23.5t-29 -83.5h-233z" />
<glyph unicode="&#x16a;" horiz-adv-x="1722" d="M174 541q0 86 25 217l153 798h414l-162 -821q-14 -70 -14 -139q0 -266 252 -266q145 0 226 87t122 294l166 845h413l-178 -903q-70 -354 -258 -520t-520 -166q-305 0 -472 149.5t-167 424.5zM729 1720l50 250h688l-50 -250h-688z" />
<glyph unicode="&#x16b;" horiz-adv-x="1273" d="M86 301q0 70 14 148l119 608h369l-113 -574q-6 -31 -6 -61q0 -127 117 -127q70 0 119 53t67 150l109 559h368l-205 -1057h-356l19 117q-53 -72 -134 -111q-80 -39 -172 -39q-152 0 -233 87q-82 87 -82 247zM413 1270l46 246h675l-45 -246h-676z" />
<glyph unicode="&#x16e;" horiz-adv-x="1722" d="M174 541q0 86 25 217l153 798h414l-162 -821q-14 -70 -14 -139q0 -266 252 -266q145 0 226 87t122 294l166 845h413l-178 -903q-70 -354 -258 -520t-520 -166q-305 0 -472 149.5t-167 424.5zM809 1960q0 123 86 205t219 82t219.5 -82t86.5 -205q0 -125 -87.5 -207 t-218.5 -82t-218 82t-87 207zM1006 1960q0 -49 29.5 -79t78.5 -30t79 30t30 79t-29.5 78.5t-79.5 29.5q-49 0 -78.5 -29.5t-29.5 -78.5z" />
<glyph unicode="&#x16f;" horiz-adv-x="1273" d="M86 301q0 70 14 148l119 608h369l-113 -574q-6 -31 -6 -61q0 -127 117 -127q70 0 119 53t67 150l109 559h368l-205 -1057h-356l19 117q-53 -72 -134 -111q-80 -39 -172 -39q-152 0 -233 87q-82 87 -82 247zM455 1458q0 123 86 205t219 82t219 -82t86 -205t-86 -205 t-219 -82t-219 82t-86 205zM652 1458q0 -49 29.5 -78.5t78.5 -29.5t79 29.5t30 78.5t-30 79t-79 30t-78.5 -30t-29.5 -79z" />
<glyph unicode="&#x170;" horiz-adv-x="1722" d="M174 541q0 86 25 217l153 798h414l-162 -821q-14 -70 -14 -139q0 -266 252 -266q145 0 226 87t122 294l166 845h413l-178 -903q-70 -354 -258 -520t-520 -166q-305 0 -472 149.5t-167 424.5zM615 1710l219 311h393l-281 -311h-331zM1104 1710l217 311h393l-278 -311h-332 z" />
<glyph unicode="&#x171;" horiz-adv-x="1273" d="M86 301q0 70 14 148l119 608h369l-113 -574q-6 -31 -6 -61q0 -127 117 -127q70 0 119 53t67 150l109 559h368l-205 -1057h-356l19 117q-53 -72 -134 -111q-80 -39 -172 -39q-152 0 -233 87q-82 87 -82 247zM354 1249l221 348h344l-282 -348h-283zM770 1249l223 348h344 l-280 -348h-287z" />
<glyph unicode="&#x172;" horiz-adv-x="1722" d="M174 541q0 86 25 217l153 798h414l-162 -821q-14 -70 -14 -139q0 -266 252 -266q145 0 226 87t122 294l166 845h413l-178 -903q-70 -354 -258 -520t-520 -166q-305 0 -472 149.5t-167 424.5zM686 -317q0 121 119 235.5t332 196.5l110 -43q-117 -70 -185.5 -148 t-68.5 -139q0 -66 84 -66q51 0 93 19l-21 -246q-75 -33 -184 -33q-133 0 -206 58.5t-73 165.5z" />
<glyph unicode="&#x173;" horiz-adv-x="1273" d="M86 301q0 70 14 148l119 608h369l-113 -574q-6 -31 -6 -61q0 -127 117 -127q70 0 119 53t67 150l109 559h368l-205 -1057h-356l19 117q-53 -72 -134 -111q-80 -39 -172 -39q-152 0 -233 87q-82 87 -82 247zM545 -319q0 119 110.5 232.5t296.5 186.5l93 -100 q-207 -133 -207 -231q0 -57 73 -58q37 0 80 17l-18 -236q-31 -14 -80 -23.5t-98 -9.5q-117 0 -183.5 58.5t-66.5 163.5z" />
<glyph unicode="&#x174;" horiz-adv-x="2297" d="M238 1556h426l32 -993l457 973h365l90 -938l397 958h453l-760 -1556h-365l-98 997l-475 -997h-369zM903 1710l349 322h360l225 -322h-327l-95 141l-149 -141h-363z" />
<glyph unicode="&#x175;" horiz-adv-x="1779" d="M139 1057h371l27 -617l280 617h316l59 -596l256 596h397l-551 -1057h-323l-66 643l-291 -643h-331zM588 1249l342 348h314l206 -348h-290l-95 160l-157 -160h-320z" />
<glyph unicode="&#x176;" horiz-adv-x="1542" d="M215 1556h432l193 -604l422 604h462l-733 -929l-123 -627h-405l123 633zM524 1710l349 322h360l225 -322h-327l-95 141l-149 -141h-363z" />
<glyph unicode="&#x177;" horiz-adv-x="1253" d="M-25 -502l379 578l-225 981h389l88 -613l326 613h397l-962 -1559h-392zM330 1249l342 348h314l206 -348h-290l-95 160l-157 -160h-320z" />
<glyph unicode="&#x178;" horiz-adv-x="1542" d="M215 1556h432l193 -604l422 604h462l-733 -929l-123 -627h-405l123 633zM602 1855q0 80 55.5 133.5t137.5 53.5q72 0 117 -42t45 -112q0 -80 -54.5 -133t-136.5 -53q-74 0 -119 42t-45 111zM1088 1855q0 80 55 133.5t139 53.5q72 0 116 -43t44 -111q0 -82 -53.5 -134 t-137.5 -52q-74 0 -118.5 42t-44.5 111z" />
<glyph unicode="&#x179;" horiz-adv-x="1531" d="M8 0l53 279l906 952h-684l63 325h1221l-56 -278l-905 -952h762l-65 -326h-1295zM747 1710l283 315h434l-383 -315h-334z" />
<glyph unicode="&#x17a;" horiz-adv-x="1110" d="M-20 0l45 242l534 520h-418l58 295h895l-45 -244l-537 -518h477l-57 -295h-952zM477 1249l273 348h395l-356 -348h-312z" />
<glyph unicode="&#x17b;" horiz-adv-x="1531" d="M8 0l53 279l906 952h-684l63 325h1221l-56 -278l-905 -952h762l-65 -326h-1295zM813 1874q0 90 61.5 148.5t158.5 58.5q80 0 130 -47t50 -125q0 -92 -61.5 -150.5t-157.5 -58.5q-80 0 -130.5 48t-50.5 126z" />
<glyph unicode="&#x17c;" horiz-adv-x="1110" d="M-20 0l45 242l534 520h-418l58 295h895l-45 -244l-537 -518h477l-57 -295h-952zM512 1386q0 86 58 142.5t148 56.5q78 0 125 -45t47 -119q0 -88 -59 -143t-149 -55q-76 0 -123 45t-47 118z" />
<glyph unicode="&#x17d;" horiz-adv-x="1531" d="M8 0l53 279l906 952h-684l63 325h1221l-56 -278l-905 -952h762l-65 -326h-1295zM553 2032h328l96 -142l149 142h361l-348 -322h-361z" />
<glyph unicode="&#x17e;" horiz-adv-x="1110" d="M-20 0l45 242l534 520h-418l58 295h895l-45 -244l-537 -518h477l-57 -295h-952zM316 1597h290l97 -159l155 159h322l-342 -348h-313z" />
<glyph unicode="&#x192;" horiz-adv-x="901" d="M-315 -446l79 286q66 -39 162 -39q84 0 134.5 55.5t72.5 174.5l141 729h-165l55 297h168l22 110q49 254 183.5 378t357.5 124q70 0 140.5 -17.5t113.5 -43.5l-78 -295q-61 37 -139 37q-90 0 -142.5 -55.5t-74.5 -172.5l-15 -65h244l-57 -297h-244l-147 -760 q-55 -281 -178.5 -400.5t-352.5 -119.5q-86 0 -161.5 19.5t-118.5 54.5z" />
<glyph unicode="&#x218;" horiz-adv-x="1339" d="M33 115l86 327q94 -66 213 -106.5t225 -40.5q125 0 192.5 41t67.5 115q0 41 -20.5 69.5t-69.5 55t-141 65.5q-195 80 -281 186.5t-86 268.5q0 147 73 257.5t211 173t324 62.5q86 0 177.5 -16.5t175.5 -47t145 -71.5l-92 -319q-98 59 -204.5 93t-194.5 34q-102 0 -161 -38 t-59 -104q0 -49 40 -82.5t171 -87.5q217 -90 307.5 -198.5t90.5 -280.5q0 -233 -173.5 -368.5t-478.5 -135.5q-145 0 -289.5 40t-248.5 108zM217 -510q66 92 107 191.5t51 191.5h340q-16 -104 -73.5 -208.5t-135.5 -174.5h-289z" />
<glyph unicode="&#x219;" horiz-adv-x="1021" d="M14 86l70 262q74 -53 162 -81.5t176 -28.5q111 0 110 65q0 31 -27.5 52.5t-107.5 56.5q-143 63 -207.5 141t-64.5 190q0 156 125 251.5t328 95.5q98 0 201.5 -28t176.5 -73l-67 -262q-61 39 -143 65.5t-148 26.5q-49 0 -77.5 -18.5t-28.5 -48.5q0 -25 23.5 -43.5 t90.5 -49.5q166 -74 231.5 -149.5t65.5 -192.5q0 -160 -127 -255t-336 -95q-76 0 -156.5 15.5t-153.5 42t-116 61.5zM77 -510q135 201 158 383h326q-14 -102 -71.5 -206.5t-137.5 -176.5h-275z" />
<glyph unicode="&#x21a;" horiz-adv-x="1484" d="M207 1225l65 331h1340l-66 -331h-463l-239 -1225h-412l240 1225h-465zM293 -510q66 92 107 191.5t51 191.5h340q-16 -104 -73.5 -208.5t-135.5 -174.5h-289z" />
<glyph unicode="&#x21b;" horiz-adv-x="980" d="M74 760l57 297h176l53 272h367l-53 -272h268l-57 -297h-271l-55 -297q-8 -43 -8 -66q0 -53 28 -78t87 -24q98 0 176 33l-11 -310q-47 -23 -120 -36q-74 -15 -148 -15q-387 0 -387 342q0 72 17 154l55 297h-174zM129 -510q135 201 158 383h326q-14 -102 -71.5 -206.5 t-137.5 -176.5h-275z" />
<glyph unicode="&#x237;" horiz-adv-x="620" d="M-418 -446l80 286q66 -39 162 -39q86 0 135 55.5t72 174.5l198 1026h369l-205 -1057q-55 -281 -178 -400.5t-352 -119.5q-86 0 -162 19.5t-119 54.5z" />
<glyph unicode="&#x2c6;" horiz-adv-x="1024" d="M239 1249l342 348h314l206 -348h-290l-95 160l-157 -160h-320z" />
<glyph unicode="&#x2c7;" horiz-adv-x="1024" d="M293 1597h290l97 -159l155 159h322l-342 -348h-313z" />
<glyph unicode="&#x2c9;" horiz-adv-x="1024" d="M337 1270l46 246h675l-45 -246h-676z" />
<glyph unicode="&#x2cb;" horiz-adv-x="1024" d="M422 1597h380l146 -348h-297z" />
<glyph unicode="&#x2d8;" horiz-adv-x="1024" d="M335 1473q0 53 15 94h235q-4 -20 -4 -39q0 -115 125 -115q70 0 110 37t54 117h237q-4 -176 -111 -270.5t-306 -94.5q-162 0 -258.5 74t-96.5 197z" />
<glyph unicode="&#x2d9;" horiz-adv-x="1024" d="M512 1386q0 86 58 142.5t148 56.5q78 0 125 -45t47 -119q0 -88 -59 -143t-149 -55q-76 0 -123 45t-47 118z" />
<glyph unicode="&#x2da;" horiz-adv-x="1024" d="M381 1458q0 123 86 205t219 82t219 -82t86 -205t-86 -205t-219 -82t-219 82t-86 205zM578 1458q0 -49 29.5 -78.5t78.5 -29.5t79 29.5t30 78.5t-30 79t-79 30t-78.5 -30t-29.5 -79z" />
<glyph unicode="&#x2db;" horiz-adv-x="1024" d="M193 -319q0 119 110.5 232.5t296.5 186.5l93 -100q-207 -133 -207 -231q0 -57 73 -58q37 0 80 17l-18 -236q-31 -14 -80 -23.5t-98 -9.5q-117 0 -183.5 58.5t-66.5 163.5z" />
<glyph unicode="&#x2dc;" horiz-adv-x="1024" d="M268 1247q45 344 299 344q55 0 92 -16t62.5 -39t49 -39t54.5 -16q35 0 53.5 24.5t28.5 81.5h233q-45 -344 -299 -344q-55 0 -92 16.5t-62.5 39t-49 39t-54.5 16.5q-35 0 -53 -23.5t-29 -83.5h-233z" />
<glyph unicode="&#x2dd;" horiz-adv-x="1024" d="M211 1249l221 348h344l-282 -348h-283zM627 1249l223 348h344l-280 -348h-287z" />
<glyph unicode="&#x300;" horiz-adv-x="0" d="M-106 1597h380l146 -348h-297z" />
<glyph unicode="&#x301;" horiz-adv-x="0" d="M-74 1249l273 348h395l-356 -348h-312z" />
<glyph unicode="&#x302;" horiz-adv-x="0" d="M-291 1249l342 348h314l206 -348h-290l-95 160l-157 -160h-320z" />
<glyph unicode="&#x303;" horiz-adv-x="0" d="M-264 1247q45 344 299 344q55 0 92 -16t62.5 -39t49 -39t54.5 -16q35 0 53.5 24.5t28.5 81.5h233q-45 -344 -299 -344q-55 0 -92 16.5t-62.5 39t-49 39t-54.5 16.5q-35 0 -53 -23.5t-29 -83.5h-233z" />
<glyph unicode="&#x304;" horiz-adv-x="0" d="M-193 1270l46 246h675l-45 -246h-676z" />
<glyph unicode="&#x306;" horiz-adv-x="0" d="M-197 1473q0 53 15 94h235q-4 -20 -4 -39q0 -115 125 -115q70 0 110 37t54 117h237q-4 -176 -111 -270.5t-306 -94.5q-162 0 -258.5 74t-96.5 197z" />
<glyph unicode="&#x307;" horiz-adv-x="0" d="M-18 1386q0 86 58 142.5t148 56.5q78 0 125 -45t47 -119q0 -88 -59 -143t-149 -55q-76 0 -123 45t-47 118z" />
<glyph unicode="&#x308;" horiz-adv-x="0" d="M-244 1372q0 78 53.5 129t133.5 51q70 0 113.5 -41t43.5 -108q0 -78 -52 -129t-132 -51q-72 0 -116 41t-44 108zM233 1372q0 78 53.5 129t133.5 51q70 0 112.5 -42t42.5 -107q0 -78 -52 -129t-132 -51q-72 0 -115 41t-43 108z" />
<glyph unicode="&#x30a;" horiz-adv-x="0" d="M-129 1458q0 123 86 205t219 82t219 -82t86 -205t-86 -205t-219 -82t-219 82t-86 205zM68 1458q0 -49 29.5 -78.5t78.5 -29.5t79 29.5t30 78.5t-30 79t-79 30t-78.5 -30t-29.5 -79z" />
<glyph unicode="&#x30b;" horiz-adv-x="0" d="M-291 1249l221 348h344l-282 -348h-283zM125 1249l223 348h344l-280 -348h-287z" />
<glyph unicode="&#x30c;" horiz-adv-x="0" d="M-270 1597h290l97 -159l155 159h322l-342 -348h-313z" />
<glyph unicode="&#x312;" horiz-adv-x="0" d="M-53 1249q10 66 38.5 134.5t71.5 132t95 106.5h272q-61 -86 -102 -184.5t-52 -188.5h-323z" />
<glyph unicode="&#x315;" horiz-adv-x="0" d="M-66 1157l121 502h348l-221 -502h-248z" />
<glyph unicode="&#x326;" horiz-adv-x="0" d="M-453 -510q135 201 158 383h326q-14 -102 -71.5 -206.5t-137.5 -176.5h-275z" />
<glyph unicode="&#x327;" horiz-adv-x="0" d="M-481 -498l59 168q55 -33 135 -32q53 0 84 20t31 55q0 27 -23.5 41.5t-68.5 14.5q-37 0 -74 -9l117 260h194l-59 -133q168 -29 168 -180q0 -115 -92 -184.5t-246 -69.5q-70 0 -133.5 13.5t-91.5 35.5z" />
<glyph unicode="&#x328;" horiz-adv-x="0" d="M-346 -319q0 119 110.5 232.5t296.5 186.5l93 -100q-207 -133 -207 -231q0 -57 73 -58q37 0 80 17l-18 -236q-31 -14 -80 -23.5t-98 -9.5q-117 0 -183.5 58.5t-66.5 163.5z" />
<glyph unicode="&#x3c0;" horiz-adv-x="1480" d="M127 760l59 297h1289l-58 -297h-164l-65 -346q-6 -33 -6 -56q0 -39 18.5 -56t61.5 -17q37 0 67 12l-41 -299q-23 -10 -71 -17.5t-95 -7.5q-164 0 -237.5 61.5t-73.5 196.5q0 61 16 154l72 375h-252l-147 -760h-355l148 760h-166z" />
<glyph unicode="&#x1e80;" horiz-adv-x="2297" d="M238 1556h426l32 -993l457 973h365l90 -938l397 958h453l-760 -1556h-365l-98 997l-475 -997h-369zM1002 2025h415l172 -315h-323z" />
<glyph unicode="&#x1e81;" horiz-adv-x="1779" d="M139 1057h371l27 -617l280 617h316l59 -596l256 596h397l-551 -1057h-323l-66 643l-291 -643h-331zM676 1597h380l146 -348h-297z" />
<glyph unicode="&#x1e82;" horiz-adv-x="2297" d="M238 1556h426l32 -993l457 973h365l90 -938l397 958h453l-760 -1556h-365l-98 997l-475 -997h-369zM1138 1710l283 315h434l-383 -315h-334z" />
<glyph unicode="&#x1e83;" horiz-adv-x="1779" d="M139 1057h371l27 -617l280 617h316l59 -596l256 596h397l-551 -1057h-323l-66 643l-291 -643h-331zM817 1249l273 348h395l-356 -348h-312z" />
<glyph unicode="&#x1e84;" horiz-adv-x="2297" d="M238 1556h426l32 -993l457 973h365l90 -938l397 958h453l-760 -1556h-365l-98 997l-475 -997h-369zM981 1855q0 80 55.5 133.5t137.5 53.5q72 0 117 -42t45 -112q0 -80 -54.5 -133t-136.5 -53q-74 0 -119 42t-45 111zM1467 1855q0 80 55 133.5t139 53.5q72 0 116 -43 t44 -111q0 -82 -53.5 -134t-137.5 -52q-74 0 -118.5 42t-44.5 111z" />
<glyph unicode="&#x1e85;" horiz-adv-x="1779" d="M139 1057h371l27 -617l280 617h316l59 -596l256 596h397l-551 -1057h-323l-66 643l-291 -643h-331zM635 1372q0 78 53.5 129t133.5 51q70 0 113.5 -41t43.5 -108q0 -78 -52 -129t-132 -51q-72 0 -116 41t-44 108zM1112 1372q0 78 53.5 129t133.5 51q70 0 112.5 -42 t42.5 -107q0 -78 -52 -129t-132 -51q-72 0 -115 41t-43 108z" />
<glyph unicode="&#x1e9e;" horiz-adv-x="1634" d="M47 0l176 901q66 340 261.5 514t506.5 174q168 0 330 -59.5t260 -155.5l-45 -237l-254 -269q248 -109 248 -379q0 -154 -72 -271.5t-206 -184t-314 -66.5q-113 0 -207 24.5t-145 67.5l90 306q98 -74 235 -74q109 0 172.5 55t63.5 152q0 80 -49 126t-133 46q-41 0 -72 -8 l-59 196l333 352q-82 45 -190 45q-145 0 -238.5 -101t-132.5 -300l-166 -854h-393z" />
<glyph unicode="&#x1ef2;" horiz-adv-x="1542" d="M215 1556h432l193 -604l422 604h462l-733 -929l-123 -627h-405l123 633zM623 2025h415l172 -315h-323z" />
<glyph unicode="&#x1ef3;" horiz-adv-x="1253" d="M-25 -502l379 578l-225 981h389l88 -613l326 613h397l-962 -1559h-392zM418 1597h380l146 -348h-297z" />
<glyph unicode="&#x2000;" horiz-adv-x="1024" />
<glyph unicode="&#x2001;" horiz-adv-x="2048" />
<glyph unicode="&#x2002;" horiz-adv-x="1024" />
<glyph unicode="&#x2003;" horiz-adv-x="2048" />
<glyph unicode="&#x2004;" horiz-adv-x="681" />
<glyph unicode="&#x2005;" horiz-adv-x="512" />
<glyph unicode="&#x2006;" horiz-adv-x="339" />
<glyph unicode="&#x2007;" horiz-adv-x="1323" />
<glyph unicode="&#x2008;" horiz-adv-x="626" />
<glyph unicode="&#x2009;" horiz-adv-x="409" />
<glyph unicode="&#x200a;" horiz-adv-x="112" />
<glyph unicode="&#x200b;" horiz-adv-x="0" />
<glyph unicode="&#x2010;" horiz-adv-x="849" d="M86 438l59 301h646l-60 -301h-645z" />
<glyph unicode="&#x2011;" horiz-adv-x="849" d="M86 438l59 301h646l-60 -301h-645z" />
<glyph unicode="&#x2012;" horiz-adv-x="1024" d="M-16 455l53 272h1024l-53 -272h-1024z" />
<glyph unicode="&#x2013;" horiz-adv-x="1024" d="M-16 455l53 272h1024l-53 -272h-1024z" />
<glyph unicode="&#x2014;" horiz-adv-x="2048" d="M-16 455l53 272h2048l-53 -272h-2048z" />
<glyph unicode="&#x2015;" horiz-adv-x="2048" d="M-16 455l53 272h2048l-53 -272h-2048z" />
<glyph unicode="&#x2018;" horiz-adv-x="514" d="M172 1022q14 158 74.5 298t152.5 236h275q-72 -102 -119 -246.5t-55 -287.5h-328z" />
<glyph unicode="&#x2019;" horiz-adv-x="514" d="M135 1022q72 102 119 246.5t55 287.5h328q-14 -158 -74.5 -298t-152.5 -236h-275z" />
<glyph unicode="&#x201a;" horiz-adv-x="514" d="M-115 -279q72 102 119 247t55 288h328q-14 -158 -74.5 -298t-152.5 -237h-275z" />
<glyph unicode="&#x201c;" horiz-adv-x="966" d="M172 1022q14 158 74.5 298t152.5 236h275q-72 -102 -119 -246.5t-55 -287.5h-328zM623 1022q14 158 74.5 298t152.5 236h275q-72 -102 -119 -246.5t-55 -287.5h-328z" />
<glyph unicode="&#x201d;" horiz-adv-x="966" d="M135 1022q72 102 119 246.5t55 287.5h328q-14 -158 -74.5 -298t-152.5 -236h-275zM588 1022q72 102 119 246.5t55 287.5h328q-14 -158 -74.5 -298t-152.5 -236h-275z" />
<glyph unicode="&#x201e;" horiz-adv-x="966" d="M-115 -279q72 102 119 247t55 288h328q-14 -158 -74.5 -298t-152.5 -237h-275zM338 -279q72 102 119 247t55 288h328q-14 -158 -74.5 -298t-152.5 -237h-275z" />
<glyph unicode="&#x2020;" horiz-adv-x="1067" d="M125 850l55 283h285l84 423h369l-84 -423h288l-53 -283h-289l-217 -1116h-368l217 1116h-287z" />
<glyph unicode="&#x2021;" horiz-adv-x="1067" d="M-14 131l53 283h287l90 458h-287l55 283h285l80 401h369l-80 -401h288l-53 -283h-289l-90 -458h289l-55 -283h-287l-78 -397h-368l77 397h-286z" />
<glyph unicode="&#x2022;" horiz-adv-x="751" d="M100 557q0 117 82 198t197 81q117 0 198.5 -81t81.5 -198t-81.5 -197.5t-198.5 -80.5q-115 0 -197 81.5t-82 196.5z" />
<glyph unicode="&#x2026;" horiz-adv-x="2048" d="M62 162q0 94 65.5 154.5t165.5 60.5q82 0 133.5 -47t51.5 -125q0 -96 -65 -156.5t-165 -60.5q-84 0 -135 48t-51 126zM744 162q0 94 65.5 154.5t165.5 60.5q82 0 133.5 -47t51.5 -125q0 -96 -65 -156.5t-165 -60.5q-84 0 -135 48t-51 126zM1430 162q0 94 65.5 154.5 t165.5 60.5q82 0 133.5 -47t51.5 -125q0 -96 -65 -156.5t-165 -60.5q-84 0 -135 48t-51 126z" />
<glyph unicode="&#x202f;" horiz-adv-x="449" />
<glyph unicode="&#x2030;" horiz-adv-x="3074" d="M238 1128q0 115 54 212.5t153.5 156.5t222.5 59q176 0 285.5 -100t109.5 -262q0 -115 -54.5 -212t-154.5 -156.5t-223 -59.5q-113 0 -202 44t-140 127t-51 191zM332 0l1267 1524h314l-1268 -1524h-313zM502 1143q0 -66 36 -105t99 -39q70 0 116 52.5t46 130.5 q0 66 -37 104.5t-98 38.5q-70 0 -116 -52t-46 -130zM1188 334q0 115 54 212t153.5 156.5t222.5 59.5q176 0 285.5 -100.5t109.5 -262.5q0 -115 -54 -212t-154.5 -156.5t-223.5 -59.5q-113 0 -202 44t-140 127t-51 192zM1452 348q0 -66 36 -104.5t99 -38.5q70 0 116 52 t46 130q0 66 -37 104.5t-98 38.5q-70 0 -116 -52t-46 -130zM2103 334q0 115 54.5 212t153.5 156.5t222 59.5q176 0 286 -100.5t110 -262.5q0 -115 -54.5 -212t-154.5 -156.5t-223 -59.5q-113 0 -202 44t-140.5 127t-51.5 192zM2367 348q0 -66 36.5 -104.5t99.5 -38.5 q70 0 115.5 52t45.5 130q0 66 -36.5 104.5t-98.5 38.5q-70 0 -116 -52t-46 -130z" />
<glyph unicode="&#x2032;" horiz-adv-x="495" d="M125 961l184 595h355l-252 -595h-287z" />
<glyph unicode="&#x2033;" horiz-adv-x="954" d="M125 961l184 595h355l-252 -595h-287zM584 961l184 595h355l-252 -595h-287z" />
<glyph unicode="&#x2039;" horiz-adv-x="811" d="M49 526l393 457h400l-432 -489l211 -424h-359z" />
<glyph unicode="&#x203a;" horiz-adv-x="811" d="M-31 70l432 489l-211 424h359l213 -457l-393 -456h-400z" />
<glyph unicode="&#x2044;" horiz-adv-x="387" d="M-553 0l1268 1524h313l-1268 -1524h-313z" />
<glyph unicode="&#x205f;" horiz-adv-x="561" />
<glyph unicode="&#x2070;" d="M184 1260q0 57 14 123q39 193 150 300t268 107q156 0 249 -94t93 -252q0 -49 -12 -123q-37 -190 -148.5 -298.5t-271.5 -108.5q-156 0 -249 94t-93 252zM452 1268q0 -59 22.5 -92t65.5 -33q49 0 85 49t53 139q12 55 12 105q0 59 -22.5 92t-65.5 33q-49 0 -85 -49.5 t-52 -139.5q-12 -55 -13 -104z" />
<glyph unicode="&#x2074;" d="M149 1088l39 213l438 467h283l-94 -484h104l-39 -196h-102l-29 -154h-235l28 154h-393zM411 1284h170l43 228z" />
<glyph unicode="&#x2075;" d="M182 977l57 203q96 -59 230 -60q68 0 103.5 23.5t35.5 66.5q0 41 -36 60.5t-111 19.5q-113 0 -191 -18l117 496h530l-39 -205h-307l-20 -90h28q137 0 213 -64.5t76 -183.5q0 -147 -108.5 -229t-303.5 -82q-78 0 -155.5 18t-118.5 45z" />
<glyph unicode="&#x2076;" d="M198 1217q0 137 105.5 288.5t284.5 270.5l340 -6q-242 -150 -367 -297q35 18 82 18q117 0 188.5 -67.5t71.5 -178.5q0 -145 -103.5 -238t-267.5 -93q-158 0 -246 80.5t-88 222.5zM446 1202q0 -39 23.5 -62.5t66.5 -23.5q49 0 81 32t32 79q0 39 -24.5 62.5t-65.5 23.5 q-47 0 -80 -32t-33 -79z" />
<glyph unicode="&#x2077;" d="M246 936l393 596h-350l45 236h651l-41 -205l-395 -635z" />
<glyph unicode="&#x2078;" d="M180 1157q0 80 47 142.5t125 85.5q-76 45 -76 151q0 117 94.5 185.5t251.5 68.5q150 0 237 -61.5t87 -163.5q0 -139 -137 -201q43 -25 66.5 -70t23.5 -100q0 -127 -103.5 -203.5t-273.5 -76.5q-160 0 -251 64.5t-91 178.5zM438 1182q0 -37 25.5 -59.5t68.5 -22.5 q49 0 80 28.5t31 73.5q0 37 -24.5 58.5t-67.5 21.5q-49 0 -81 -27.5t-32 -72.5zM516 1518q0 -74 84 -74q43 0 70.5 25.5t27.5 66.5q0 74 -86 74q-43 0 -69.5 -25.5t-26.5 -66.5z" />
<glyph unicode="&#x2079;" d="M217 934q238 145 364 295q-33 -16 -79 -16q-117 0 -189 67.5t-72 177.5q0 147 102.5 239.5t266.5 92.5q158 0 246 -80t88 -223q0 -139 -104.5 -289.5t-282.5 -269.5zM493 1477q0 -37 24.5 -61.5t65.5 -24.5q47 0 80 31.5t33 78.5q0 39 -23.5 62.5t-64.5 23.5 q-51 0 -83 -31.5t-32 -78.5z" />
<glyph unicode="&#x2080;" d="M-45 70q0 57 14 123q39 193 150 300t268 107q156 0 249 -94t93 -252q0 -49 -12 -123q-37 -190 -148.5 -298.5t-271.5 -108.5q-156 0 -249 94t-93 252zM223 78q0 -59 22.5 -92t65.5 -33q49 0 85 49t53 139q12 55 12 105q0 59 -22.5 92t-65.5 33q-49 0 -85 -49.5 t-52 -139.5q-12 -55 -13 -104z" />
<glyph unicode="&#x2081;" d="M74 211l6 242l295 125h242l-162 -834h-273l109 555z" />
<glyph unicode="&#x2082;" d="M-49 -256l37 201q115 72 180.5 116.5t106.5 79.5q66 55 94 95t28 77q0 33 -25.5 51.5t-68.5 18.5q-51 0 -111.5 -24.5t-105.5 -65.5l-29 211q51 43 135.5 69.5t168.5 26.5q137 0 222 -67.5t85 -176.5q0 -135 -117 -254q-72 -72 -174 -141h268l-43 -217h-651z" />
<glyph unicode="&#x2083;" d="M-51 -211l47 203q49 -29 111.5 -45.5t117.5 -16.5q63 0 99.5 25t36.5 68q0 70 -109 69q-39 0 -80 -12l-45 131l203 162h-281l39 205h606l-34 -187l-195 -153q76 -23 119 -80.5t43 -137.5q0 -135 -106.5 -215.5t-288.5 -80.5q-76 0 -158 18t-125 47z" />
<glyph unicode="&#x2084;" d="M-80 -102l39 213l438 467h283l-94 -484h104l-39 -196h-102l-29 -154h-235l28 154h-393zM182 94h170l43 228z" />
<glyph unicode="&#x2085;" d="M-47 -213l57 203q96 -59 230 -60q68 0 103.5 23.5t35.5 66.5q0 41 -36 60.5t-111 19.5q-113 0 -191 -18l117 496h530l-39 -205h-307l-20 -90h28q137 0 213 -64.5t76 -183.5q0 -147 -108.5 -229t-303.5 -82q-78 0 -155.5 18t-118.5 45z" />
<glyph unicode="&#x2086;" d="M-29 27q0 137 105.5 288.5t284.5 270.5l340 -6q-242 -150 -367 -297q35 18 82 18q117 0 188.5 -67.5t71.5 -178.5q0 -145 -103.5 -238t-267.5 -93q-158 0 -246 80.5t-88 222.5zM219 12q0 -39 23.5 -62.5t66.5 -23.5q49 0 81 32t32 79q0 39 -24.5 62.5t-65.5 23.5 q-47 0 -80 -32t-33 -79z" />
<glyph unicode="&#x2087;" d="M17 -254l393 596h-350l45 236h651l-41 -205l-395 -635z" />
<glyph unicode="&#x2088;" d="M-49 -33q0 80 47 142.5t125 85.5q-76 45 -76 151q0 117 94.5 185.5t251.5 68.5q150 0 237 -61.5t87 -163.5q0 -139 -137 -201q43 -25 66.5 -70t23.5 -100q0 -127 -103.5 -203.5t-273.5 -76.5q-160 0 -251 64.5t-91 178.5zM209 -8q0 -37 25.5 -59.5t68.5 -22.5 q49 0 80 28.5t31 73.5q0 37 -24.5 58.5t-67.5 21.5q-49 0 -81 -27.5t-32 -72.5zM287 328q0 -74 84 -74q43 0 70.5 25.5t27.5 66.5q0 74 -86 74q-43 0 -69.5 -25.5t-26.5 -66.5z" />
<glyph unicode="&#x2089;" d="M-10 -256q238 145 364 295q-33 -16 -79 -16q-117 0 -189 67.5t-72 177.5q0 147 102.5 239.5t266.5 92.5q158 0 246 -80t88 -223q0 -139 -104.5 -289.5t-282.5 -269.5zM266 287q0 -37 24.5 -61.5t65.5 -24.5q47 0 80 31.5t33 78.5q0 39 -23.5 62.5t-64.5 23.5 q-51 0 -83 -31.5t-32 -78.5z" />
<glyph unicode="&#x20ac;" horiz-adv-x="1323" d="M47 485l39 203h178q6 80 17 148h-166l39 202h178q88 246 276.5 382t442.5 136q111 0 209 -23.5t167 -66.5l-79 -284q-135 74 -293 73q-115 0 -205 -56t-143 -161h477l-39 -202h-506q-10 -55 -14 -148h489l-39 -203h-438q25 -115 98.5 -166t210.5 -51q68 0 145.5 16.5 t131.5 43.5l-6 -299q-142 -62 -343 -62q-174 0 -303 59.5t-205.5 175t-95.5 283.5h-223z" />
<glyph unicode="&#x20ba;" horiz-adv-x="1323" d="M35 446l41 220l188 75l29 140l-187 -76l41 217l187 76l84 426h360l-53 -273l293 117l-39 -217l-297 -119l-27 -137l293 115l-41 -217l-295 -117l-75 -395q172 20 276.5 126.5t130.5 286.5l336 -16q-45 -352 -264 -531.5t-606 -179.5q-174 0 -289 29l102 526z" />
<glyph unicode="&#x2122;" horiz-adv-x="1736" d="M176 1354l39 202h655l-39 -202h-196l-109 -555h-262l109 555h-197zM795 799l198 757h264l80 -362l226 362h268l-94 -757h-234l60 420l-183 -293h-178l-65 295l-105 -422h-237z" />
<glyph unicode="&#x2126;" horiz-adv-x="1902" d="M66 0l63 328h248q-182 170 -182 460q0 217 106.5 399.5t302 292t438.5 109.5q227 0 402.5 -82t275 -235.5t99.5 -358.5q0 -180 -80 -330.5t-232 -254.5h234l-66 -328h-731l62 317q180 82 282.5 232.5t102.5 331.5q0 158 -95.5 252t-255.5 94q-127 0 -224 -60.5 t-153.5 -173t-56.5 -264.5q0 -254 195 -412l-62 -317h-673z" />
<glyph unicode="&#x2150;" horiz-adv-x="2037" d="M205 0l1268 1524h313l-1268 -1524h-313zM256 1155l6 242l295 125h242l-162 -834h-273l109 555zM1278 2l393 596h-350l45 236h651l-41 -205l-395 -635z" />
<glyph unicode="&#x2151;" horiz-adv-x="2037" d="M231 0l1268 1524h313l-1268 -1524h-313zM256 1155l6 242l295 125h242l-162 -834h-273l109 555zM1249 0q238 145 364 295q-33 -16 -79 -16q-117 0 -189 67.5t-72 177.5q0 147 102.5 239.5t266.5 92.5q158 0 246 -80t88 -223q0 -139 -104.5 -289.5t-282.5 -269.5zM1525 543 q0 -37 24.5 -61.5t65.5 -24.5q47 0 80 31.5t33 78.5q0 39 -23.5 62.5t-64.5 23.5q-51 0 -83 -31.5t-32 -78.5z" />
<glyph unicode="&#x2153;" horiz-adv-x="2037" d="M217 0l1268 1524h313l-1268 -1524h-313zM256 1155l6 242l295 125h242l-162 -834h-273l109 555zM1208 45l47 203q49 -29 111.5 -45.5t117.5 -16.5q63 0 99.5 25t36.5 68q0 70 -109 69q-39 0 -80 -12l-45 131l203 162h-281l39 205h606l-34 -187l-195 -153q76 -23 119 -80.5 t43 -137.5q0 -135 -106.5 -215.5t-288.5 -80.5q-76 0 -158 18t-125 47z" />
<glyph unicode="&#x2154;" horiz-adv-x="2037" d="M131 688l37 201q115 72 180.5 116.5t106.5 79.5q66 55 94 95t28 77q0 33 -25.5 51.5t-68.5 18.5q-51 0 -111.5 -24.5t-105.5 -65.5l-29 211q51 43 135.5 69.5t168.5 26.5q137 0 222 -67.5t85 -176.5q0 -135 -117 -254q-72 -72 -174 -141h268l-43 -217h-651zM270 0 l1268 1524h313l-1268 -1524h-313zM1208 45l47 203q49 -29 111.5 -45.5t117.5 -16.5q63 0 99.5 25t36.5 68q0 70 -109 69q-39 0 -80 -12l-45 131l203 162h-281l39 205h606l-34 -187l-195 -153q76 -23 119 -80.5t43 -137.5q0 -135 -106.5 -215.5t-288.5 -80.5q-76 0 -158 18 t-125 47z" />
<glyph unicode="&#x2155;" horiz-adv-x="2037" d="M235 0l1268 1524h313l-1268 -1524h-313zM256 1155l6 242l295 125h242l-162 -834h-273l109 555zM1212 43l57 203q96 -59 230 -60q68 0 103.5 23.5t35.5 66.5q0 41 -36 60.5t-111 19.5q-113 0 -191 -18l117 496h530l-39 -205h-307l-20 -90h28q137 0 213 -64.5t76 -183.5 q0 -147 -108.5 -229t-303.5 -82q-78 0 -155.5 18t-118.5 45z" />
<glyph unicode="&#x2156;" horiz-adv-x="2037" d="M131 688l37 201q115 72 180.5 116.5t106.5 79.5q66 55 94 95t28 77q0 33 -25.5 51.5t-68.5 18.5q-51 0 -111.5 -24.5t-105.5 -65.5l-29 211q51 43 135.5 69.5t168.5 26.5q137 0 222 -67.5t85 -176.5q0 -135 -117 -254q-72 -72 -174 -141h268l-43 -217h-651zM301 0 l1268 1524h313l-1268 -1524h-313zM1212 43l57 203q96 -59 230 -60q68 0 103.5 23.5t35.5 66.5q0 41 -36 60.5t-111 19.5q-113 0 -191 -18l117 496h530l-39 -205h-307l-20 -90h28q137 0 213 -64.5t76 -183.5q0 -147 -108.5 -229t-303.5 -82q-78 0 -155.5 18t-118.5 45z" />
<glyph unicode="&#x2157;" horiz-adv-x="2037" d="M129 733l47 203q49 -29 111.5 -45.5t117.5 -16.5q63 0 99.5 25t36.5 68q0 70 -109 69q-39 0 -80 -12l-45 131l203 162h-281l39 205h606l-34 -187l-195 -153q76 -23 119 -80.5t43 -137.5q0 -135 -106.5 -215.5t-288.5 -80.5q-76 0 -158 18t-125 47zM256 0l1268 1524h313 l-1268 -1524h-313zM1212 43l57 203q96 -59 230 -60q68 0 103.5 23.5t35.5 66.5q0 41 -36 60.5t-111 19.5q-113 0 -191 -18l117 496h530l-39 -205h-307l-20 -90h28q137 0 213 -64.5t76 -183.5q0 -147 -108.5 -229t-303.5 -82q-78 0 -155.5 18t-118.5 45z" />
<glyph unicode="&#x2158;" horiz-adv-x="2037" d="M102 842l39 213l438 467h283l-94 -484h104l-39 -196h-102l-29 -154h-235l28 154h-393zM291 0l1268 1524h313l-1268 -1524h-313zM364 1038h170l43 228zM1212 43l57 203q96 -59 230 -60q68 0 103.5 23.5t35.5 66.5q0 41 -36 60.5t-111 19.5q-113 0 -191 -18l117 496h530 l-39 -205h-307l-20 -90h28q137 0 213 -64.5t76 -183.5q0 -147 -108.5 -229t-303.5 -82q-78 0 -155.5 18t-118.5 45z" />
<glyph unicode="&#x2159;" horiz-adv-x="2037" d="M256 1155l6 242l295 125h242l-162 -834h-273l109 555zM289 0l1268 1524h313l-1268 -1524h-313zM1230 283q0 137 105.5 288.5t284.5 270.5l340 -6q-242 -150 -367 -297q35 18 82 18q117 0 188.5 -67.5t71.5 -178.5q0 -145 -103.5 -238t-267.5 -93q-158 0 -246 80.5 t-88 222.5zM1478 268q0 -39 23.5 -62.5t66.5 -23.5q49 0 81 32t32 79q0 39 -24.5 62.5t-65.5 23.5q-47 0 -80 -32t-33 -79z" />
<glyph unicode="&#x215a;" horiz-adv-x="2037" d="M133 731l57 203q96 -59 230 -60q68 0 103.5 23.5t35.5 66.5q0 41 -36 60.5t-111 19.5q-113 0 -191 -18l117 496h530l-39 -205h-307l-20 -90h28q137 0 213 -64.5t76 -183.5q0 -147 -108.5 -229t-303.5 -82q-78 0 -155.5 18t-118.5 45zM295 0l1268 1524h313l-1268 -1524 h-313zM1230 283q0 137 105.5 288.5t284.5 270.5l340 -6q-242 -150 -367 -297q35 18 82 18q117 0 188.5 -67.5t71.5 -178.5q0 -145 -103.5 -238t-267.5 -93q-158 0 -246 80.5t-88 222.5zM1478 268q0 -39 23.5 -62.5t66.5 -23.5q49 0 81 32t32 79q0 39 -24.5 62.5t-65.5 23.5 q-47 0 -80 -32t-33 -79z" />
<glyph unicode="&#x215b;" horiz-adv-x="2037" d="M233 0l1268 1524h313l-1268 -1524h-313zM256 1155l6 242l295 125h242l-162 -834h-273l109 555zM1210 223q0 80 47 142.5t125 85.5q-76 45 -76 151q0 117 94.5 185.5t251.5 68.5q150 0 237 -61.5t87 -163.5q0 -139 -137 -201q43 -25 66.5 -70t23.5 -100 q0 -127 -103.5 -203.5t-273.5 -76.5q-160 0 -251 64.5t-91 178.5zM1468 248q0 -37 25.5 -59.5t68.5 -22.5q49 0 80 28.5t31 73.5q0 37 -24.5 58.5t-67.5 21.5q-49 0 -81 -27.5t-32 -72.5zM1546 584q0 -74 84 -74q43 0 70.5 25.5t27.5 66.5q0 74 -86 74q-43 0 -69.5 -25.5 t-26.5 -66.5z" />
<glyph unicode="&#x215c;" horiz-adv-x="2037" d="M129 733l47 203q49 -29 111.5 -45.5t117.5 -16.5q63 0 99.5 25t36.5 68q0 70 -109 69q-39 0 -80 -12l-45 131l203 162h-281l39 205h606l-34 -187l-195 -153q76 -23 119 -80.5t43 -137.5q0 -135 -106.5 -215.5t-288.5 -80.5q-76 0 -158 18t-125 47zM266 0l1268 1524h313 l-1268 -1524h-313zM1210 223q0 80 47 142.5t125 85.5q-76 45 -76 151q0 117 94.5 185.5t251.5 68.5q150 0 237 -61.5t87 -163.5q0 -139 -137 -201q43 -25 66.5 -70t23.5 -100q0 -127 -103.5 -203.5t-273.5 -76.5q-160 0 -251 64.5t-91 178.5zM1468 248q0 -37 25.5 -59.5 t68.5 -22.5q49 0 80 28.5t31 73.5q0 37 -24.5 58.5t-67.5 21.5q-49 0 -81 -27.5t-32 -72.5zM1546 584q0 -74 84 -74q43 0 70.5 25.5t27.5 66.5q0 74 -86 74q-43 0 -69.5 -25.5t-26.5 -66.5z" />
<glyph unicode="&#x215d;" horiz-adv-x="2037" d="M133 731l57 203q96 -59 230 -60q68 0 103.5 23.5t35.5 66.5q0 41 -36 60.5t-111 19.5q-113 0 -191 -18l117 496h530l-39 -205h-307l-20 -90h28q137 0 213 -64.5t76 -183.5q0 -147 -108.5 -229t-303.5 -82q-78 0 -155.5 18t-118.5 45zM256 0l1268 1524h313l-1268 -1524 h-313zM1210 223q0 80 47 142.5t125 85.5q-76 45 -76 151q0 117 94.5 185.5t251.5 68.5q150 0 237 -61.5t87 -163.5q0 -139 -137 -201q43 -25 66.5 -70t23.5 -100q0 -127 -103.5 -203.5t-273.5 -76.5q-160 0 -251 64.5t-91 178.5zM1468 248q0 -37 25.5 -59.5t68.5 -22.5 q49 0 80 28.5t31 73.5q0 37 -24.5 58.5t-67.5 21.5q-49 0 -81 -27.5t-32 -72.5zM1546 584q0 -74 84 -74q43 0 70.5 25.5t27.5 66.5q0 74 -86 74q-43 0 -69.5 -25.5t-26.5 -66.5z" />
<glyph unicode="&#x215e;" horiz-adv-x="2037" d="M192 0l1268 1524h313l-1268 -1524h-313zM199 690l393 596h-350l45 236h651l-41 -205l-395 -635zM1210 223q0 80 47 142.5t125 85.5q-76 45 -76 151q0 117 94.5 185.5t251.5 68.5q150 0 237 -61.5t87 -163.5q0 -139 -137 -201q43 -25 66.5 -70t23.5 -100 q0 -127 -103.5 -203.5t-273.5 -76.5q-160 0 -251 64.5t-91 178.5zM1468 248q0 -37 25.5 -59.5t68.5 -22.5q49 0 80 28.5t31 73.5q0 37 -24.5 58.5t-67.5 21.5q-49 0 -81 -27.5t-32 -72.5zM1546 584q0 -74 84 -74q43 0 70.5 25.5t27.5 66.5q0 74 -86 74q-43 0 -69.5 -25.5 t-26.5 -66.5z" />
<glyph unicode="&#x2202;" horiz-adv-x="1333" d="M53 412q0 152 72 278.5t200 203.5t287 77q98 0 178 -35t123 -96q10 51 11 108q0 293 -279 293q-158 0 -283 -88l-20 307q57 45 155.5 70.5t207.5 25.5q291 0 447.5 -159.5t156.5 -456.5q0 -283 -91.5 -503t-264.5 -345t-402 -125q-223 0 -360.5 123t-137.5 322zM422 444 q0 -74 48 -117.5t126 -43.5q100 0 170 71.5t70 175.5q0 74 -48.5 118t-125.5 44q-100 0 -170 -71.5t-70 -176.5z" />
<glyph unicode="&#x2206;" horiz-adv-x="1697" d="M-59 0l903 1556h407l301 -1556h-1611zM506 309h594l-125 889z" />
<glyph unicode="&#x220f;" horiz-adv-x="1589" d="M27 -164l335 1720h1264l-334 -1720h-407l268 1389h-453l-266 -1389h-407z" />
<glyph unicode="&#x2211;" horiz-adv-x="1325" d="M-61 -162l49 268l520 629l-279 553l52 268h1124l-66 -333h-659l254 -506l-451 -545h668l-64 -334h-1148z" />
<glyph unicode="&#x2212;" horiz-adv-x="1323" d="M195 535l59 305h938l-59 -305h-938z" />
<glyph unicode="&#x2215;" horiz-adv-x="387" d="M-553 0l1268 1524h313l-1268 -1524h-313z" />
<glyph unicode="&#x2219;" horiz-adv-x="626" d="M152 754q0 94 65.5 154.5t165.5 60.5q82 0 133.5 -47t51.5 -125q0 -96 -65 -156.5t-165 -60.5q-84 0 -135 48t-51 126z" />
<glyph unicode="&#x221a;" horiz-adv-x="1519" d="M96 688l56 297h489l86 -573l731 1290h381l-1005 -1702h-349l-153 688h-236z" />
<glyph unicode="&#x221e;" horiz-adv-x="1492" d="M90 664q0 125 52.5 227t148.5 162.5t221 60.5q92 0 167 -40t122 -116q51 72 136 114t181 42q166 0 260.5 -94t94.5 -258q0 -127 -52.5 -229.5t-148.5 -163t-221 -60.5q-96 0 -171 40t-120 116q-51 -72 -135.5 -114t-180.5 -42q-164 0 -259 95.5t-95 259.5zM377 692 q0 -55 28.5 -86t79.5 -31q100 0 177 136q-49 137 -148 137q-57 0 -97 -45t-40 -111zM901 713q46 -138 148 -138q57 0 97 45.5t40 110.5q0 55 -29 86t-80 31q-102 0 -176 -135z" />
<glyph unicode="&#x222b;" horiz-adv-x="944" d="M-238 -467l72 301q31 -16 72 -26.5t78 -10.5q94 0 141 64.5t68 216.5l135 1018q39 295 162.5 440t336.5 145q74 0 148 -18t121 -47l-68 -295q-82 43 -158 43q-82 0 -128 -65.5t-66 -215.5l-135 -1017q-41 -311 -165 -448.5t-362 -137.5q-66 0 -134 14t-118 39z" />
<glyph unicode="&#x2248;" horiz-adv-x="1323" d="M51 158q31 242 134.5 368.5t269.5 126.5q74 -2 124 -25.5t88 -56t71.5 -56.5t72.5 -26q51 0 82 38t49 124h289q-31 -242 -134.5 -367.5t-271.5 -125.5q-72 2 -122 25.5t-87.5 56t-71.5 56t-73 25.5q-51 0 -81.5 -38.5t-49.5 -124.5h-289zM157 727q31 242 134.5 368.5 t269.5 126.5q74 -2 124 -25.5t88 -56t71.5 -56.5t72.5 -26q51 0 82 38t49 124h289q-31 -242 -134.5 -367.5t-271.5 -125.5q-72 2 -122 25.5t-87.5 56t-71.5 56t-73 25.5q-51 0 -81.5 -38.5t-49.5 -124.5h-289z" />
<glyph unicode="&#x2260;" horiz-adv-x="1323" d="M164 291l55 287h299l125 202h-383l55 287h504l146 236h225l-146 -236h173l-56 -287h-293l-125 -202h377l-55 -287h-498l-145 -236h-225l145 236h-178z" />
<glyph unicode="&#x2264;" horiz-adv-x="1323" d="M88 0l59 305h938l-59 -305h-938zM240 707l65 344l979 335l-63 -327l-627 -191l555 -190l-62 -303z" />
<glyph unicode="&#x2265;" horiz-adv-x="1323" d="M88 0l59 305h938l-59 -305h-938zM172 375l64 327l626 191l-555 190l62 303l848 -331l-66 -344z" />
<glyph unicode="&#x25ca;" horiz-adv-x="1409" d="M143 831l627 830h311l301 -830l-626 -831h-312zM489 795l158 -443l389 514l-159 441z" />
<glyph unicode="&#x25fc;" horiz-adv-x="1054" d="M0 0v1055h1055v-1055h-1055z" />
<glyph unicode="&#xf507;" horiz-adv-x="2037" d="M131 688l37 201q115 72 180.5 116.5t106.5 79.5q66 55 94 95t28 77q0 33 -25.5 51.5t-68.5 18.5q-51 0 -111.5 -24.5t-105.5 -65.5l-29 211q51 43 135.5 69.5t168.5 26.5q137 0 222 -67.5t85 -176.5q0 -135 -117 -254q-72 -72 -174 -141h268l-43 -217h-651zM285 0 l1268 1524h313l-1268 -1524h-313zM1278 2l393 596h-350l45 236h651l-41 -205l-395 -635z" />
<glyph unicode="&#xf508;" horiz-adv-x="2037" d="M129 733l47 203q49 -29 111.5 -45.5t117.5 -16.5q63 0 99.5 25t36.5 68q0 70 -109 69q-39 0 -80 -12l-45 131l203 162h-281l39 205h606l-34 -187l-195 -153q76 -23 119 -80.5t43 -137.5q0 -135 -106.5 -215.5t-288.5 -80.5q-76 0 -158 18t-125 47zM238 0l1268 1524h313 l-1268 -1524h-313zM1278 2l393 596h-350l45 236h651l-41 -205l-395 -635z" />
<glyph unicode="&#xf509;" horiz-adv-x="2037" d="M102 842l39 213l438 467h283l-94 -484h104l-39 -196h-102l-29 -154h-235l28 154h-393zM270 0l1268 1524h313l-1268 -1524h-313zM364 1038h170l43 228zM1278 2l393 596h-350l45 236h651l-41 -205l-395 -635z" />
<glyph unicode="&#xf50a;" horiz-adv-x="2037" d="M133 731l57 203q96 -59 230 -60q68 0 103.5 23.5t35.5 66.5q0 41 -36 60.5t-111 19.5q-113 0 -191 -18l117 496h530l-39 -205h-307l-20 -90h28q137 0 213 -64.5t76 -183.5q0 -147 -108.5 -229t-303.5 -82q-78 0 -155.5 18t-118.5 45zM248 0l1268 1524h313l-1268 -1524 h-313zM1278 2l393 596h-350l45 236h651l-41 -205l-395 -635z" />
<glyph unicode="&#xf50b;" horiz-adv-x="2037" d="M151 971q0 137 105.5 288.5t284.5 270.5l340 -6q-242 -150 -367 -297q35 18 82 18q117 0 188.5 -67.5t71.5 -178.5q0 -145 -103.5 -238t-267.5 -93q-158 0 -246 80.5t-88 222.5zM250 0l1268 1524h313l-1268 -1524h-313zM399 956q0 -39 23.5 -62.5t66.5 -23.5q49 0 81 32 t32 79q0 39 -24.5 62.5t-65.5 23.5q-47 0 -80 -32t-33 -79zM1278 2l393 596h-350l45 236h651l-41 -205l-395 -635z" />
<glyph unicode="&#xf50d;" horiz-adv-x="2037" d="M131 688l37 201q115 72 180.5 116.5t106.5 79.5q66 55 94 95t28 77q0 33 -25.5 51.5t-68.5 18.5q-51 0 -111.5 -24.5t-105.5 -65.5l-29 211q51 43 135.5 69.5t168.5 26.5q137 0 222 -67.5t85 -176.5q0 -135 -117 -254q-72 -72 -174 -141h268l-43 -217h-651zM305 0 l1268 1524h313l-1268 -1524h-313zM1249 0q238 145 364 295q-33 -16 -79 -16q-117 0 -189 67.5t-72 177.5q0 147 102.5 239.5t266.5 92.5q158 0 246 -80t88 -223q0 -139 -104.5 -289.5t-282.5 -269.5zM1525 543q0 -37 24.5 -61.5t65.5 -24.5q47 0 80 31.5t33 78.5 q0 39 -23.5 62.5t-64.5 23.5q-51 0 -83 -31.5t-32 -78.5z" />
<glyph unicode="&#xf50e;" horiz-adv-x="2037" d="M102 842l39 213l438 467h283l-94 -484h104l-39 -196h-102l-29 -154h-235l28 154h-393zM295 0l1268 1524h313l-1268 -1524h-313zM364 1038h170l43 228zM1249 0q238 145 364 295q-33 -16 -79 -16q-117 0 -189 67.5t-72 177.5q0 147 102.5 239.5t266.5 92.5q158 0 246 -80 t88 -223q0 -139 -104.5 -289.5t-282.5 -269.5zM1525 543q0 -37 24.5 -61.5t65.5 -24.5q47 0 80 31.5t33 78.5q0 39 -23.5 62.5t-64.5 23.5q-51 0 -83 -31.5t-32 -78.5z" />
<glyph unicode="&#xf50f;" horiz-adv-x="2037" d="M133 731l57 203q96 -59 230 -60q68 0 103.5 23.5t35.5 66.5q0 41 -36 60.5t-111 19.5q-113 0 -191 -18l117 496h530l-39 -205h-307l-20 -90h28q137 0 213 -64.5t76 -183.5q0 -147 -108.5 -229t-303.5 -82q-78 0 -155.5 18t-118.5 45zM256 0l1268 1524h313l-1268 -1524 h-313zM1249 0q238 145 364 295q-33 -16 -79 -16q-117 0 -189 67.5t-72 177.5q0 147 102.5 239.5t266.5 92.5q158 0 246 -80t88 -223q0 -139 -104.5 -289.5t-282.5 -269.5zM1525 543q0 -37 24.5 -61.5t65.5 -24.5q47 0 80 31.5t33 78.5q0 39 -23.5 62.5t-64.5 23.5 q-51 0 -83 -31.5t-32 -78.5z" />
<glyph unicode="&#xf510;" horiz-adv-x="2037" d="M180 0l1268 1524h313l-1268 -1524h-313zM199 690l393 596h-350l45 236h651l-41 -205l-395 -635zM1249 0q238 145 364 295q-33 -16 -79 -16q-117 0 -189 67.5t-72 177.5q0 147 102.5 239.5t266.5 92.5q158 0 246 -80t88 -223q0 -139 -104.5 -289.5t-282.5 -269.5z M1525 543q0 -37 24.5 -61.5t65.5 -24.5q47 0 80 31.5t33 78.5q0 39 -23.5 62.5t-64.5 23.5q-51 0 -83 -31.5t-32 -78.5z" />
<glyph unicode="&#xf511;" horiz-adv-x="2037" d="M131 911q0 80 47 142.5t125 85.5q-76 45 -76 151q0 117 94.5 185.5t251.5 68.5q150 0 237 -61.5t87 -163.5q0 -139 -137 -201q43 -25 66.5 -70t23.5 -100q0 -127 -103.5 -203.5t-273.5 -76.5q-160 0 -251 64.5t-91 178.5zM283 0l1268 1524h313l-1268 -1524h-313zM389 936 q0 -37 25.5 -59.5t68.5 -22.5q49 0 80 28.5t31 73.5q0 37 -24.5 58.5t-67.5 21.5q-49 0 -81 -27.5t-32 -72.5zM467 1272q0 -74 84 -74q43 0 70.5 25.5t27.5 66.5q0 74 -86 74q-43 0 -69.5 -25.5t-26.5 -66.5zM1249 0q238 145 364 295q-33 -16 -79 -16q-117 0 -189 67.5 t-72 177.5q0 147 102.5 239.5t266.5 92.5q158 0 246 -80t88 -223q0 -139 -104.5 -289.5t-282.5 -269.5zM1525 543q0 -37 24.5 -61.5t65.5 -24.5q47 0 80 31.5t33 78.5q0 39 -23.5 62.5t-64.5 23.5q-51 0 -83 -31.5t-32 -78.5z" />
<glyph unicode="&#xfb01;" horiz-adv-x="1490" d="M109 760l57 297h168l22 110q51 256 181.5 379t351.5 123q61 0 121.5 -11t97.5 -32l-80 -297q-57 20 -108 21q-82 0 -131.5 -54.5t-73.5 -173.5l-15 -65h246l-57 -297h-244l-147 -760h-369l147 760h-167zM895 0l205 1057h368l-204 -1057h-369zM1147 1403q0 94 64.5 154.5 t160.5 60.5q84 0 136.5 -49t52.5 -129q0 -94 -64 -155.5t-160 -61.5q-86 0 -138 49t-52 131z" />
<glyph unicode="&#xfb02;" horiz-adv-x="1490" d="M109 760l57 297h168l22 110q51 256 181.5 379t351.5 123q61 0 121.5 -11t97.5 -32l-80 -297q-57 20 -108 21q-82 0 -131.5 -54.5t-73.5 -173.5l-15 -65h246l-57 -297h-244l-147 -760h-369l147 760h-167zM895 0l322 1659h368l-321 -1659h-369z" />
<glyph unicode="&#xfeff;" horiz-adv-x="0" />
<glyph horiz-adv-x="1372" d="M104 545q0 139 27 272q47 233 144.5 399t239.5 253t321 87q246 0 382 -151.5t136 -425.5q0 -117 -29 -272q-68 -352 -251 -546t-451 -194q-246 0 -382.5 151.5t-136.5 426.5zM500 551q-1 -246 155 -246q92 0 162 105.5t111 308.5q31 158 30 254q0 246 -157 246 q-92 0 -163 -107.5t-108 -306.5q-31 -156 -30 -254z" />
<glyph horiz-adv-x="1056" d="M201 967l16 346l527 211h311l-297 -1524h-375l221 1128z" />
<glyph horiz-adv-x="1378" d="M74 0l53 281q319 233 444 337q158 133 231 241t73 206q0 82 -52.5 126t-146.5 44q-88 0 -183.5 -39t-185.5 -113l-18 330q84 68 208 105.5t253 37.5q238 0 380 -119.5t142 -320.5q0 -258 -266 -524q-123 -123 -314 -264h498l-66 -328h-1050z" />
<glyph horiz-adv-x="1251" d="M8 72l66 305q82 -45 187.5 -71.5t199.5 -26.5q127 0 203.5 58t76.5 157q0 82 -57 127t-160 45q-35 0 -74.5 -6.5t-64.5 -14.5l-70 201l430 371h-534l61 307h996l-49 -267l-424 -366q156 -27 245.5 -134.5t89.5 -267.5q0 -156 -78.5 -273.5t-227 -183t-353.5 -65.5 q-131 0 -257 29t-206 76z" />
<glyph horiz-adv-x="1355" d="M20 311l56 291l800 922h414l-178 -916h172l-57 -297h-174l-60 -311h-350l61 311h-684zM444 608h316l92 471z" />
<glyph horiz-adv-x="1234" d="M-6 72l68 307q82 -47 185 -73.5t200 -26.5q135 0 214 59t79 160q0 92 -79 142t-225 50q-160 0 -286 -37l202 871h867l-64 -318h-536l-56 -235q16 2 29.5 3t22.5 1q238 0 375 -121t137 -328q0 -166 -80 -291.5t-231.5 -196.5t-358.5 -71q-131 0 -255 28t-208 77z" />
<glyph horiz-adv-x="1343" d="M94 485q0 160 82 341.5t237.5 364.5t368.5 339l482 -14q-205 -143 -375 -299t-269 -291q82 45 189 45q121 0 220 -54.5t159.5 -156t60.5 -228.5q0 -158 -74.5 -285.5t-214 -203.5t-319.5 -76q-252 0 -399.5 139.5t-147.5 378.5zM469 459q0 -86 49 -135.5t131 -49.5 q96 0 160.5 64.5t64.5 163.5q0 84 -49 133t-133 49q-96 0 -159.5 -64.5t-63.5 -160.5z" />
<glyph horiz-adv-x="1224" d="M137 4l707 1172h-639l69 348h1067l-59 -299l-719 -1231z" />
<glyph horiz-adv-x="1351" d="M67 387q0 150 92.5 269.5t239.5 158.5q-160 90 -160 277q0 131 70 236.5t202 166.5t306 61q238 0 382 -107.5t144 -285.5q0 -137 -75.5 -241.5t-208.5 -149.5q84 -39 135 -121t51 -180q0 -147 -75 -261t-215.5 -178.5t-326.5 -64.5q-262 0 -411.5 111.5t-149.5 308.5z M454 430q0 -76 51.5 -120t135.5 -44q100 0 162.5 59.5t62.5 153.5q0 76 -50 120t-136 44q-100 0 -163 -59.5t-63 -153.5zM596 1077q0 -72 48 -113.5t130 -41.5q88 0 146.5 56t58.5 140q0 70 -48.5 112t-130.5 42q-88 0 -146 -55.5t-58 -139.5z" />
<glyph horiz-adv-x="1343" d="M168 8q207 145 377 301t266 289q-78 -45 -188 -45q-119 0 -218 55.5t-159.5 155.5t-60.5 227q0 160 75.5 288t214 202.5t318.5 74.5q252 0 398.5 -139t146.5 -379q0 -160 -82 -341t-237.5 -364t-368.5 -339zM560 1022q0 -82 49 -132t131 -50q96 0 159.5 64.5t63.5 160.5 q0 84 -48 134t-130 50q-98 0 -161.5 -64.5t-63.5 -162.5z" />
<glyph d="M4 326q0 57 14 123q39 193 150 300t268 107q156 0 249 -94t93 -252q0 -49 -12 -123q-37 -190 -148.5 -298.5t-271.5 -108.5q-156 0 -249 94t-93 252zM272 334q0 -59 22.5 -92t65.5 -33q49 0 85 49t53 139q12 55 12 105q0 59 -22.5 92t-65.5 33q-49 0 -85 -49.5 t-52 -139.5q-12 -55 -13 -104z" />
<glyph d="M123 467l6 242l295 125h242l-162 -834h-273l109 555z" />
<glyph d="M-2 0l37 201q115 72 180.5 116.5t106.5 79.5q66 55 94 95t28 77q0 33 -25.5 51.5t-68.5 18.5q-51 0 -111.5 -24.5t-105.5 -65.5l-29 211q51 43 135.5 69.5t168.5 26.5q137 0 222 -67.5t85 -176.5q0 -135 -117 -254q-72 -72 -174 -141h268l-43 -217h-651z" />
<glyph d="M-4 45l47 203q49 -29 111.5 -45.5t117.5 -16.5q63 0 99.5 25t36.5 68q0 70 -109 69q-39 0 -80 -12l-45 131l203 162h-281l39 205h606l-34 -187l-195 -153q76 -23 119 -80.5t43 -137.5q0 -135 -106.5 -215.5t-288.5 -80.5q-76 0 -158 18t-125 47z" />
<glyph d="M-31 154l39 213l438 467h283l-94 -484h104l-39 -196h-102l-29 -154h-235l28 154h-393zM231 350h170l43 228z" />
<glyph d="M0 43l57 203q96 -59 230 -60q68 0 103.5 23.5t35.5 66.5q0 41 -36 60.5t-111 19.5q-113 0 -191 -18l117 496h530l-39 -205h-307l-20 -90h28q137 0 213 -64.5t76 -183.5q0 -147 -108.5 -229t-303.5 -82q-78 0 -155.5 18t-118.5 45z" />
<glyph d="M18 283q0 137 105.5 288.5t284.5 270.5l340 -6q-242 -150 -367 -297q35 18 82 18q117 0 188.5 -67.5t71.5 -178.5q0 -145 -103.5 -238t-267.5 -93q-158 0 -246 80.5t-88 222.5zM266 268q0 -39 23.5 -62.5t66.5 -23.5q49 0 81 32t32 79q0 39 -24.5 62.5t-65.5 23.5 q-47 0 -80 -32t-33 -79z" />
<glyph d="M66 2l393 596h-350l45 236h651l-41 -205l-395 -635z" />
<glyph d="M-2 223q0 80 47 142.5t125 85.5q-76 45 -76 151q0 117 94.5 185.5t251.5 68.5q150 0 237 -61.5t87 -163.5q0 -139 -137 -201q43 -25 66.5 -70t23.5 -100q0 -127 -103.5 -203.5t-273.5 -76.5q-160 0 -251 64.5t-91 178.5zM256 248q0 -37 25.5 -59.5t68.5 -22.5 q49 0 80 28.5t31 73.5q0 37 -24.5 58.5t-67.5 21.5q-49 0 -81 -27.5t-32 -72.5zM334 584q0 -74 84 -74q43 0 70.5 25.5t27.5 66.5q0 74 -86 74q-43 0 -69.5 -25.5t-26.5 -66.5z" />
<glyph d="M37 0q238 145 364 295q-33 -16 -79 -16q-117 0 -189 67.5t-72 177.5q0 147 102.5 239.5t266.5 92.5q158 0 246 -80t88 -223q0 -139 -104.5 -289.5t-282.5 -269.5zM313 543q0 -37 24.5 -61.5t65.5 -24.5q47 0 80 31.5t33 78.5q0 39 -23.5 62.5t-64.5 23.5q-51 0 -83 -31.5 t-32 -78.5z" />
<glyph d="M137 1014q0 57 14 123q39 193 150 300t268 107q156 0 249 -94t93 -252q0 -49 -12 -123q-37 -190 -148.5 -298.5t-271.5 -108.5q-156 0 -249 94t-93 252zM405 1022q0 -59 22.5 -92t65.5 -33q49 0 85 49t53 139q12 55 12 105q0 59 -22.5 92t-65.5 33q-49 0 -85 -49.5 t-52 -139.5q-12 -55 -13 -104z" />
<glyph d="M256 1155l6 242l295 125h242l-162 -834h-273l109 555z" />
<glyph d="M131 688l37 201q115 72 180.5 116.5t106.5 79.5q66 55 94 95t28 77q0 33 -25.5 51.5t-68.5 18.5q-51 0 -111.5 -24.5t-105.5 -65.5l-29 211q51 43 135.5 69.5t168.5 26.5q137 0 222 -67.5t85 -176.5q0 -135 -117 -254q-72 -72 -174 -141h268l-43 -217h-651z" />
<glyph d="M129 733l47 203q49 -29 111.5 -45.5t117.5 -16.5q63 0 99.5 25t36.5 68q0 70 -109 69q-39 0 -80 -12l-45 131l203 162h-281l39 205h606l-34 -187l-195 -153q76 -23 119 -80.5t43 -137.5q0 -135 -106.5 -215.5t-288.5 -80.5q-76 0 -158 18t-125 47z" />
<glyph d="M102 842l39 213l438 467h283l-94 -484h104l-39 -196h-102l-29 -154h-235l28 154h-393zM364 1038h170l43 228z" />
<glyph d="M133 731l57 203q96 -59 230 -60q68 0 103.5 23.5t35.5 66.5q0 41 -36 60.5t-111 19.5q-113 0 -191 -18l117 496h530l-39 -205h-307l-20 -90h28q137 0 213 -64.5t76 -183.5q0 -147 -108.5 -229t-303.5 -82q-78 0 -155.5 18t-118.5 45z" />
<glyph d="M151 971q0 137 105.5 288.5t284.5 270.5l340 -6q-242 -150 -367 -297q35 18 82 18q117 0 188.5 -67.5t71.5 -178.5q0 -145 -103.5 -238t-267.5 -93q-158 0 -246 80.5t-88 222.5zM399 956q0 -39 23.5 -62.5t66.5 -23.5q49 0 81 32t32 79q0 39 -24.5 62.5t-65.5 23.5 q-47 0 -80 -32t-33 -79z" />
<glyph d="M199 690l393 596h-350l45 236h651l-41 -205l-395 -635z" />
<glyph d="M131 911q0 80 47 142.5t125 85.5q-76 45 -76 151q0 117 94.5 185.5t251.5 68.5q150 0 237 -61.5t87 -163.5q0 -139 -137 -201q43 -25 66.5 -70t23.5 -100q0 -127 -103.5 -203.5t-273.5 -76.5q-160 0 -251 64.5t-91 178.5zM389 936q0 -37 25.5 -59.5t68.5 -22.5 q49 0 80 28.5t31 73.5q0 37 -24.5 58.5t-67.5 21.5q-49 0 -81 -27.5t-32 -72.5zM467 1272q0 -74 84 -74q43 0 70.5 25.5t27.5 66.5q0 74 -86 74q-43 0 -69.5 -25.5t-26.5 -66.5z" />
<glyph d="M170 688q238 145 364 295q-33 -16 -79 -16q-117 0 -189 67.5t-72 177.5q0 147 102.5 239.5t266.5 92.5q158 0 246 -80t88 -223q0 -139 -104.5 -289.5t-282.5 -269.5zM446 1231q0 -37 24.5 -61.5t65.5 -24.5q47 0 80 31.5t33 78.5q0 39 -23.5 62.5t-64.5 23.5 q-51 0 -83 -31.5t-32 -78.5z" />
<glyph horiz-adv-x="849" d="M121 626l59 301h646l-60 -301h-645z" />
<glyph horiz-adv-x="1024" d="M21 643l53 272h1024l-53 -272h-1024z" />
<glyph horiz-adv-x="2048" d="M17 643l53 272h2048l-53 -272h-2048z" />
<glyph horiz-adv-x="919" d="M203 603q0 354 142.5 668.5t412.5 557.5h414q-295 -223 -464 -546.5t-169 -669.5q0 -217 60.5 -397.5t185.5 -339.5h-365q-100 127 -158.5 322.5t-58.5 404.5z" />
<glyph horiz-adv-x="919" d="M-129 -124q295 223 464 546.5t169 669.5q0 217 -60.5 397.5t-185.5 339.5h365q100 -127 158.5 -322.5t58.5 -404.5q0 -354 -142.5 -668.5t-412.5 -557.5h-414z" />
<glyph horiz-adv-x="1173" d="M-127 -188l1183 1931h342l-1183 -1931h-342z" />
<glyph horiz-adv-x="1173" d="M256 1743h323l434 -1931h-323z" />
<glyph horiz-adv-x="921" d="M78 -125l379 1951h606l-55 -299h-274l-265 -1353h293l-57 -299h-627z" />
<glyph horiz-adv-x="921" d="M-18 -125l55 299h275l264 1353h-293l57 299h627l-379 -1951h-606z" />
<glyph horiz-adv-x="917" d="M110 714l58 295h45q68 0 103.5 18.5t54 62.5t26.5 124q31 260 84 388t144 178t247 50q125 0 189 -20l-58 -281q-33 14 -84 15q-70 0 -104.5 -30t-54 -99.5t-33.5 -206.5q-18 -170 -67.5 -249t-145.5 -97q55 -20 84.5 -68.5t29.5 -114.5q0 -51 -17 -104t-41 -106.5 t-41 -102.5t-17 -94q0 -66 42 -96.5t134 -30.5q35 0 63 4l-55 -287q-33 -8 -96 -8q-199 0 -312.5 84t-113.5 232q0 63 16.5 123.5t39 116.5t38.5 107.5t16 98.5q0 53 -32.5 75.5t-104.5 22.5h-37z" />
<glyph horiz-adv-x="917" d="M-34 -125l57 280q33 -14 84 -14q70 0 104.5 29.5t54 99.5t33.5 207q18 170 67.5 248.5t145.5 97.5q-55 20 -84.5 68.5t-29.5 113.5q0 51 17 104.5t41 106.5t41 102.5t17 94.5q0 66 -42 96.5t-134 30.5q-35 0 -63 -4l55 286q33 8 96 8q199 0 312.5 -83.5t113.5 -231.5 q0 -63 -16 -123.5t-39 -117t-39 -107.5t-16 -98q0 -53 32.5 -76t104.5 -23h37l-58 -295h-45q-68 0 -103.5 -18t-54 -62.5t-26.5 -123.5q-31 -260 -84 -388.5t-144 -178.5t-247 -50q-125 0 -188 21z" />
<glyph horiz-adv-x="751" d="M123 668q0 117 82 198t197 81q117 0 198.5 -81t81.5 -198t-81.5 -197.5t-198.5 -80.5q-115 0 -197 81.5t-82 196.5z" />
<glyph horiz-adv-x="811" d="M98 778l393 457h400l-432 -489l211 -424h-359z" />
<glyph horiz-adv-x="811" d="M18 322l432 489l-211 424h359l213 -457l-393 -456h-400z" />
<glyph horiz-adv-x="1376" d="M98 778l393 457h400l-432 -489l211 -424h-359zM663 778l393 457h400l-432 -489l211 -424h-359z" />
<glyph horiz-adv-x="1376" d="M18 322l432 489l-211 424h359l213 -457l-393 -456h-400zM583 322l432 489l-211 424h359l213 -457l-393 -456h-400z" />
<glyph horiz-adv-x="2146" d="M139 645q0 217 79 410.5t229.5 346t363.5 241.5t465 89q246 0 439 -87t305 -247.5t112 -371.5q0 -197 -76 -358.5t-215.5 -259t-319.5 -97.5q-106 0 -175.5 33t-98.5 98q-51 -61 -125 -94t-162 -33q-158 0 -249 99.5t-91 269.5q0 147 64.5 275t180.5 209t255 81 q84 0 151.5 -35t102.5 -98l41 104h286l-169 -499q-23 -66 -23 -101t19.5 -54t54.5 -19q66 0 129 61t106 171t43 232q0 223 -157.5 348.5t-442.5 125.5q-233 0 -425.5 -102.5t-308.5 -292t-116 -431.5q0 -281 167 -427t487 -146q102 0 218.5 23.5t215.5 64.5l-23 -260 q-78 -35 -195.5 -55.5t-240.5 -20.5q-274 0 -477 95t-313.5 277.5t-110.5 434.5zM938 731q0 -66 38 -103.5t99 -37.5q82 0 143.5 72.5t61.5 170.5q0 66 -37 103t-103 37q-82 0 -142 -72t-60 -170z" />
<glyph horiz-adv-x="626" d="M160 795q0 94 65.5 154.5t165.5 60.5q82 0 133.5 -47t51.5 -125q0 -96 -65 -156.5t-165 -60.5q-84 0 -135 48t-51 126z" />
<glyph horiz-adv-x="1185" d="M41 276q0 170 123 272.5t328 102.5q135 0 251 -49v12q0 98 -56 143.5t-175 45.5q-74 0 -151.5 -18.5t-135.5 -49.5l-2 279q61 35 159.5 55.5t195.5 20.5q244 0 379 -114t135 -321q0 -57 -15 -133l-100 -522h-332l10 94q-51 -61 -125.5 -94t-162.5 -33q-150 0 -238 83 t-88 226zM379 309q0 -45 31 -71.5t82 -26.5q76 0 136 53t79 135q-31 16 -75 26.5t-85 10.5q-78 0 -123 -33.5t-45 -93.5z" />
<glyph horiz-adv-x="1228" d="M-113 -223q0 92 65.5 162.5t178.5 99.5q-94 57 -94 164q0 76 50 138t144 108q-47 41 -72.5 100t-25.5 127q2 182 148.5 298t375.5 116q156 0 263 -50l376 33l-43 -248l-145 15q16 -53 16 -92q0 -117 -64.5 -210.5t-184 -147.5t-277.5 -54q-88 0 -160 14 q-31 -10 -48 -27.5t-17 -37.5q0 -29 32.5 -44.5t120.5 -23.5l95 -8q215 -23 316 -98.5t101 -219.5q0 -195 -163.5 -303t-458.5 -108q-256 0 -392.5 75.5t-136.5 221.5zM240 -160q-1 -88 204 -88q121 0 183.5 25.5t62.5 75.5q0 45 -53 65.5t-166 20.5q-231 0 -231 -99z M477 698q0 -51 39 -81.5t105 -30.5q70 0 117.5 40t47.5 99q0 53 -37.5 84t-103.5 31q-72 0 -120 -41t-48 -101z" />
<glyph horiz-adv-x="1271" d="M-139 -465l86 315q59 -37 131 -36q84 0 140 37.5t118 134.5l33 51l-242 1020h387l102 -692l326 692h401l-653 -1147q-133 -236 -266 -333t-315 -97q-76 0 -141.5 14t-106.5 41z" />
<glyph horiz-adv-x="626" d="M152 758q0 94 65.5 154.5t165.5 60.5q82 0 133 -47t51 -125q0 -96 -64.5 -156.5t-164.5 -60.5q-84 0 -135 48t-51 126z" />
<glyph horiz-adv-x="626" d="M164 817q0 94 65.5 154.5t165.5 60.5q82 0 133.5 -47t51.5 -125q0 -96 -65 -156.5t-165 -60.5q-84 0 -135 48t-51 126z" />
<glyph horiz-adv-x="1886" d="M41 272q0 172 122 275.5t326 103.5q137 0 254 -49v16q-2 96 -58 140.5t-173 44.5q-74 0 -151.5 -18.5t-135.5 -49.5l-2 279q57 33 155.5 54.5t190.5 21.5q281 0 398 -172q61 82 162.5 127t222.5 45q211 0 330.5 -115t119.5 -318q0 -121 -33 -227h-696q12 -100 83 -142 t224 -42q72 0 157 18.5t149 46.5l-7 -274q-63 -33 -161.5 -51.5t-206.5 -18.5q-365 0 -480 213q-53 -102 -161.5 -157.5t-255.5 -55.5q-172 0 -272.5 82t-100.5 223zM379 309q0 -45 31 -71.5t82 -26.5q76 0 136 53t79 135q-29 16 -74 26.5t-86 10.5q-78 0 -123 -33.5 t-45 -93.5zM1094 651h374q2 12 2 31q0 72 -39.5 110.5t-115.5 38.5q-82 0 -138.5 -46t-82.5 -134z" />
<glyph horiz-adv-x="0" d="M-516 -502l61 180q55 -33 136 -32q104 0 104 65q0 51 -94 51q-41 0 -68 -6l119 264h205l-60 -131q82 -12 128 -60t46 -124q0 -117 -95 -184.5t-259 -67.5q-72 0 -133 12.5t-90 32.5z" />
<glyph horiz-adv-x="0" d="M-424 -510q66 92 107 191.5t51 191.5h340q-16 -104 -73.5 -208.5t-135.5 -174.5h-289z" />
<glyph horiz-adv-x="0" d="M-504 -317q0 125 118 229t325 160l65 -72q-201 -131 -201 -223q0 -55 66 -56q39 0 80 17l-21 -246q-69 -33 -178 -33q-119 0 -186.5 59.5t-67.5 164.5z" />
<glyph horiz-adv-x="0" d="M-330 -336q0 129 113 232.5t315 160.5l113 -22q-117 -63 -183.5 -134t-66.5 -130q0 -29 20.5 -44.5t55.5 -15.5q41 0 80 15l-17 -234q-76 -33 -174 -33q-121 0 -188.5 54.5t-67.5 150.5z" />
<glyph horiz-adv-x="0" d="M-500 -317q0 121 119 235.5t332 196.5l110 -43q-117 -70 -185.5 -148t-68.5 -139q0 -66 84 -66q51 0 93 19l-21 -246q-75 -33 -184 -33q-133 0 -206 58.5t-73 165.5z" />
<glyph horiz-adv-x="1228" d="M-113 -223q0 92 65.5 162.5t178.5 99.5q-94 57 -94 164q0 76 50 138t144 108q-47 41 -72.5 100t-25.5 127q2 182 148.5 298t375.5 116q156 0 263 -50l376 33l-43 -248l-145 15q16 -53 16 -92q0 -117 -64.5 -210.5t-184 -147.5t-277.5 -54q-88 0 -160 14 q-31 -10 -48 -27.5t-17 -37.5q0 -29 32.5 -44.5t120.5 -23.5l95 -8q215 -23 316 -98.5t101 -219.5q0 -195 -163.5 -303t-458.5 -108q-256 0 -392.5 75.5t-136.5 221.5zM240 -160q-1 -88 204 -88q121 0 183.5 25.5t62.5 75.5q0 45 -53 65.5t-166 20.5q-231 0 -231 -99z M477 698q0 -51 39 -81.5t105 -30.5q70 0 117.5 40t47.5 99q0 53 -37.5 84t-103.5 31q-72 0 -120 -41t-48 -101zM570 1249q10 66 38.5 134.5t71.5 132t95 106.5h272q-61 -86 -102 -184.5t-52 -188.5h-323z" />
<glyph horiz-adv-x="1185" d="M41 276q0 170 123 272.5t328 102.5q135 0 251 -49v12q0 98 -56 143.5t-175 45.5q-74 0 -151.5 -18.5t-135.5 -49.5l-2 279q61 35 159.5 55.5t195.5 20.5q244 0 379 -114t135 -321q0 -57 -15 -133l-100 -522h-332l10 94q-51 -61 -125.5 -94t-162.5 -33q-150 0 -238 83 t-88 226zM379 309q0 -45 31 -71.5t82 -26.5q76 0 136 53t79 135q-31 16 -75 26.5t-85 10.5q-78 0 -123 -33.5t-45 -93.5zM477 -319q0 119 110.5 232.5t296.5 186.5l93 -100q-207 -133 -207 -231q0 -57 73 -58q37 0 80 17l-18 -236q-31 -14 -80 -23.5t-98 -9.5 q-117 0 -183.5 58.5t-66.5 163.5z" />
<glyph horiz-adv-x="0" d="M-76 1710l283 315h434l-383 -315h-334z" />
<glyph horiz-adv-x="0" d="M-274 1710l219 311h393l-281 -311h-331zM215 1710l217 311h393l-278 -311h-332z" />
<glyph horiz-adv-x="1185" d="M41 276q0 170 123 272.5t328 102.5q135 0 251 -49v12q0 98 -56 143.5t-175 45.5q-74 0 -151.5 -18.5t-135.5 -49.5l-2 279q61 35 159.5 55.5t195.5 20.5q244 0 379 -114t135 -321q0 -57 -15 -133l-100 -522h-332l10 94q-51 -61 -125.5 -94t-162.5 -33q-150 0 -238 83 t-88 226zM379 309q0 -45 31 -71.5t82 -26.5q76 0 136 53t79 135q-31 16 -75 26.5t-85 10.5q-78 0 -123 -33.5t-45 -93.5zM477 1249l273 348h395l-356 -348h-312z" />
<glyph horiz-adv-x="1271" d="M-139 -465l86 315q59 -37 131 -36q84 0 140 37.5t118 134.5l33 51l-242 1020h387l102 -692l326 692h401l-653 -1147q-133 -236 -266 -333t-315 -97q-76 0 -141.5 14t-106.5 41zM547 1249l273 348h395l-356 -348h-312z" />
<glyph horiz-adv-x="0" d="M-55 2025h415l172 -315h-323z" />
<glyph horiz-adv-x="1185" d="M41 276q0 170 123 272.5t328 102.5q135 0 251 -49v12q0 98 -56 143.5t-175 45.5q-74 0 -151.5 -18.5t-135.5 -49.5l-2 279q61 35 159.5 55.5t195.5 20.5q244 0 379 -114t135 -321q0 -57 -15 -133l-100 -522h-332l10 94q-51 -61 -125.5 -94t-162.5 -33q-150 0 -238 83 t-88 226zM336 1597h380l146 -348h-297zM379 309q0 -45 31 -71.5t82 -26.5q76 0 136 53t79 135q-31 16 -75 26.5t-85 10.5q-78 0 -123 -33.5t-45 -93.5z" />
<glyph horiz-adv-x="1271" d="M-139 -465l86 315q59 -37 131 -36q84 0 140 37.5t118 134.5l33 51l-242 1020h387l102 -692l326 692h401l-653 -1147q-133 -236 -266 -333t-315 -97q-76 0 -141.5 14t-106.5 41zM406 1597h380l146 -348h-297z" />
<glyph horiz-adv-x="0" d="M-238 1710l349 322h360l225 -322h-327l-95 141l-149 -141h-363z" />
<glyph horiz-adv-x="0" d="M-174 1706q45 352 299 352q55 0 92 -16.5t62.5 -39t49 -38.5t54.5 -16q35 0 53.5 23.5t28.5 82.5h233q-51 -352 -301 -352q-55 0 -92 16.5t-62.5 37t-49 36.5t-54.5 16q-35 0 -53 -22.5t-29 -79.5h-231z" />
<glyph horiz-adv-x="1185" d="M41 276q0 170 123 272.5t328 102.5q135 0 251 -49v12q0 98 -56 143.5t-175 45.5q-74 0 -151.5 -18.5t-135.5 -49.5l-2 279q61 35 159.5 55.5t195.5 20.5q244 0 379 -114t135 -321q0 -57 -15 -133l-100 -522h-332l10 94q-51 -61 -125.5 -94t-162.5 -33q-150 0 -238 83 t-88 226zM248 1249l342 348h314l206 -348h-290l-95 160l-157 -160h-320zM379 309q0 -45 31 -71.5t82 -26.5q76 0 136 53t79 135q-31 16 -75 26.5t-85 10.5q-78 0 -123 -33.5t-45 -93.5z" />
<glyph horiz-adv-x="1271" d="M-139 -465l86 315q59 -37 131 -36q84 0 140 37.5t118 134.5l33 51l-242 1020h387l102 -692l326 692h401l-653 -1147q-133 -236 -266 -333t-315 -97q-76 0 -141.5 14t-106.5 41zM317 1249l342 348h314l206 -348h-290l-95 160l-157 -160h-320z" />
<glyph horiz-adv-x="1185" d="M41 276q0 170 123 272.5t328 102.5q135 0 251 -49v12q0 98 -56 143.5t-175 45.5q-74 0 -151.5 -18.5t-135.5 -49.5l-2 279q61 35 159.5 55.5t195.5 20.5q244 0 379 -114t135 -321q0 -57 -15 -133l-100 -522h-332l10 94q-51 -61 -125.5 -94t-162.5 -33q-150 0 -238 83 t-88 226zM277 1247q45 344 299 344q55 0 92 -16t62.5 -39t49 -39t54.5 -16q35 0 53.5 24.5t28.5 81.5h233q-45 -344 -299 -344q-55 0 -92 16.5t-62.5 39t-49 39t-54.5 16.5q-35 0 -53 -23.5t-29 -83.5h-233zM379 309q0 -45 31 -71.5t82 -26.5q76 0 136 53t79 135 q-31 16 -75 26.5t-85 10.5q-78 0 -123 -33.5t-45 -93.5z" />
<glyph horiz-adv-x="0" d="M-176 2032h328l96 -142l149 142h361l-348 -322h-361z" />
<glyph horiz-adv-x="0" d="M-43 1202l106 457h326l-199 -457h-233z" />
<glyph horiz-adv-x="0" d="M-113 1720l50 250h688l-50 -250h-688z" />
<glyph horiz-adv-x="1185" d="M41 276q0 170 123 272.5t328 102.5q135 0 251 -49v12q0 98 -56 143.5t-175 45.5q-74 0 -151.5 -18.5t-135.5 -49.5l-2 279q61 35 159.5 55.5t195.5 20.5q244 0 379 -114t135 -321q0 -57 -15 -133l-100 -522h-332l10 94q-51 -61 -125.5 -94t-162.5 -33q-150 0 -238 83 t-88 226zM348 1270l46 246h675l-45 -246h-676zM379 309q0 -45 31 -71.5t82 -26.5q76 0 136 53t79 135q-31 16 -75 26.5t-85 10.5q-78 0 -123 -33.5t-45 -93.5z" />
<glyph horiz-adv-x="0" d="M-160 1855q0 80 55.5 133.5t137.5 53.5q72 0 117 -42t45 -112q0 -80 -54.5 -133t-136.5 -53q-74 0 -119 42t-45 111zM326 1855q0 80 55 133.5t139 53.5q72 0 116 -43t44 -111q0 -82 -53.5 -134t-137.5 -52q-74 0 -118.5 42t-44.5 111z" />
<glyph horiz-adv-x="0" d="M-111 1944q0 41 13 84h250q-2 -10 -2 -35q0 -51 30.5 -78t87.5 -27q129 0 158 140h252q-6 -172 -117.5 -264.5t-312.5 -92.5q-162 0 -260.5 75t-98.5 198z" />
<glyph horiz-adv-x="1185" d="M41 276q0 170 123 272.5t328 102.5q135 0 251 -49v12q0 98 -56 143.5t-175 45.5q-74 0 -151.5 -18.5t-135.5 -49.5l-2 279q61 35 159.5 55.5t195.5 20.5q244 0 379 -114t135 -321q0 -57 -15 -133l-100 -522h-332l10 94q-51 -61 -125.5 -94t-162.5 -33q-150 0 -238 83 t-88 226zM295 1372q0 78 53.5 129t133.5 51q70 0 113.5 -41t43.5 -108q0 -78 -52 -129t-132 -51q-72 0 -116 41t-44 108zM379 309q0 -45 31 -71.5t82 -26.5q76 0 136 53t79 135q-31 16 -75 26.5t-85 10.5q-78 0 -123 -33.5t-45 -93.5zM772 1372q0 78 53.5 129t133.5 51 q70 0 112.5 -42t42.5 -107q0 -78 -52 -129t-132 -51q-72 0 -115 41t-43 108z" />
<glyph horiz-adv-x="1271" d="M-139 -465l86 315q59 -37 131 -36q84 0 140 37.5t118 134.5l33 51l-242 1020h387l102 -692l326 692h401l-653 -1147q-133 -236 -266 -333t-315 -97q-76 0 -141.5 14t-106.5 41zM364 1372q0 78 53.5 129t133.5 51q70 0 113.5 -41t43.5 -108q0 -78 -52 -129t-132 -51 q-72 0 -116 41t-44 108zM841 1372q0 78 53.5 129t133.5 51q70 0 112.5 -42t42.5 -107q0 -78 -52 -129t-132 -51q-72 0 -115 41t-43 108z" />
<glyph horiz-adv-x="1185" d="M41 276q0 170 123 272.5t328 102.5q135 0 251 -49v12q0 98 -56 143.5t-175 45.5q-74 0 -151.5 -18.5t-135.5 -49.5l-2 279q61 35 159.5 55.5t195.5 20.5q244 0 379 -114t135 -321q0 -57 -15 -133l-100 -522h-332l10 94q-51 -61 -125.5 -94t-162.5 -33q-150 0 -238 83 t-88 226zM342 1473q0 53 15 94h235q-4 -20 -4 -39q0 -115 125 -115q70 0 110 37t54 117h237q-4 -176 -111 -270.5t-306 -94.5q-162 0 -258.5 74t-96.5 197zM379 309q0 -45 31 -71.5t82 -26.5q76 0 136 53t79 135q-31 16 -75 26.5t-85 10.5q-78 0 -123 -33.5t-45 -93.5z" />
<glyph horiz-adv-x="1228" d="M-113 -223q0 92 65.5 162.5t178.5 99.5q-94 57 -94 164q0 76 50 138t144 108q-47 41 -72.5 100t-25.5 127q2 182 148.5 298t375.5 116q156 0 263 -50l376 33l-43 -248l-145 15q16 -53 16 -92q0 -117 -64.5 -210.5t-184 -147.5t-277.5 -54q-88 0 -160 14 q-31 -10 -48 -27.5t-17 -37.5q0 -29 32.5 -44.5t120.5 -23.5l95 -8q215 -23 316 -98.5t101 -219.5q0 -195 -163.5 -303t-458.5 -108q-256 0 -392.5 75.5t-136.5 221.5zM240 -160q-1 -88 204 -88q121 0 183.5 25.5t62.5 75.5q0 45 -53 65.5t-166 20.5q-231 0 -231 -99z M409 1473q0 53 15 94h235q-4 -20 -4 -39q0 -115 125 -115q70 0 110 37t54 117h237q-4 -176 -111 -270.5t-306 -94.5q-162 0 -258.5 74t-96.5 197zM477 698q0 -51 39 -81.5t105 -30.5q70 0 117.5 40t47.5 99q0 53 -37.5 84t-103.5 31q-72 0 -120 -41t-48 -101z" />
<glyph horiz-adv-x="0" d="M63 1874q0 90 61.5 148.5t158.5 58.5q80 0 130 -47t50 -125q0 -92 -61.5 -150.5t-157.5 -58.5q-80 0 -130.5 48t-50.5 126z" />
<glyph horiz-adv-x="1228" d="M-113 -223q0 92 65.5 162.5t178.5 99.5q-94 57 -94 164q0 76 50 138t144 108q-47 41 -72.5 100t-25.5 127q2 182 148.5 298t375.5 116q156 0 263 -50l376 33l-43 -248l-145 15q16 -53 16 -92q0 -117 -64.5 -210.5t-184 -147.5t-277.5 -54q-88 0 -160 14 q-31 -10 -48 -27.5t-17 -37.5q0 -29 32.5 -44.5t120.5 -23.5l95 -8q215 -23 316 -98.5t101 -219.5q0 -195 -163.5 -303t-458.5 -108q-256 0 -392.5 75.5t-136.5 221.5zM240 -160q-1 -88 204 -88q121 0 183.5 25.5t62.5 75.5q0 45 -53 65.5t-166 20.5q-231 0 -231 -99z M477 698q0 -51 39 -81.5t105 -30.5q70 0 117.5 40t47.5 99q0 53 -37.5 84t-103.5 31q-72 0 -120 -41t-48 -101zM580 1386q0 86 58 142.5t148 56.5q78 0 125 -45t47 -119q0 -88 -59 -143t-149 -55q-76 0 -123 45t-47 118z" />
<glyph horiz-adv-x="0" d="M-31 1960q0 123 86 205t219 82t219.5 -82t86.5 -205q0 -125 -87.5 -207t-218.5 -82t-218 82t-87 207zM166 1960q0 -49 29.5 -79t78.5 -30t79 30t30 79t-29.5 78.5t-79.5 29.5q-49 0 -78.5 -29.5t-29.5 -78.5z" />
<glyph horiz-adv-x="1185" d="M41 276q0 170 123 272.5t328 102.5q135 0 251 -49v12q0 98 -56 143.5t-175 45.5q-74 0 -151.5 -18.5t-135.5 -49.5l-2 279q61 35 159.5 55.5t195.5 20.5q244 0 379 -114t135 -321q0 -57 -15 -133l-100 -522h-332l10 94q-51 -61 -125.5 -94t-162.5 -33q-150 0 -238 83 t-88 226zM379 309q0 -45 31 -71.5t82 -26.5q76 0 136 53t79 135q-31 16 -75 26.5t-85 10.5q-78 0 -123 -33.5t-45 -93.5zM389 1458q0 123 86 205t219 82t219 -82t86 -205t-86 -205t-219 -82t-219 82t-86 205zM586 1458q0 -49 29.5 -78.5t78.5 -29.5t79 29.5t30 78.5t-30 79 t-79 30t-78.5 -30t-29.5 -79z" />
</font>
</defs>
</svg>
