<?xml version="1.0" standalone="no"?>
<!DOCTYPE svg PUBLIC "-//W3C//DTD SVG 1.1//EN" "http://www.w3.org/Graphics/SVG/1.1/DTD/svg11.dtd" >
<svg xmlns="http://www.w3.org/2000/svg" xmlns:xlink="http://www.w3.org/1999/xlink" version="1.1">
<metadata></metadata>
<defs>
<font id="objektiv_mk1xbold" horiz-adv-x="825" >
<font-face units-per-em="2048" ascent="1638" descent="-410" />
<missing-glyph horiz-adv-x="440" />
<glyph unicode=" "  horiz-adv-x="440" />
<glyph unicode="&#x09;" horiz-adv-x="440" />
<glyph unicode="&#xa0;" horiz-adv-x="440" />
<glyph unicode="!" horiz-adv-x="780" d="M182 184q0 84 58.5 138.5t148.5 54.5q92 0 150.5 -54.5t58.5 -138.5q0 -88 -58.5 -142t-150.5 -54t-149.5 54t-57.5 142zM188 1618h402l-35 -1081h-330z" />
<glyph unicode="&#x22;" horiz-adv-x="987" d="M86 1556h350l-35 -647h-280zM551 1556h350l-35 -647h-280z" />
<glyph unicode="#" horiz-adv-x="1427" d="M68 309v226h221l67 317h-198v225h245l68 309h270l-65 -309h235l70 309h268l-65 -309h178v-225h-225l-70 -317h201v-226h-248l-66 -309h-284l69 309h-229l-66 -309h-270l68 309h-174zM557 535h234l71 317h-235z" />
<glyph unicode="$" horiz-adv-x="1323" d="M104 104l39 302q90 -63 203 -101.5t229 -44.5v369q-242 76 -353 190.5t-111 286.5q0 180 125.5 301t338.5 143v250h158v-250q102 -6 208 -35.5t189 -76.5l-55 -287q-164 90 -342 109v-338q250 -78 363.5 -196t113.5 -296q0 -184 -131 -309t-346 -148v-247h-158v245 q-141 8 -264 43t-207 90zM434 1124q0 -55 33 -91t108 -62v289q-68 -10 -104.5 -46t-36.5 -90zM733 268q68 14 104.5 52t36.5 96q0 57 -34.5 96t-106.5 68v-312z" />
<glyph unicode="%" horiz-adv-x="2045" d="M113 1161q0 109 51 199t146.5 143t215.5 53q84 0 158 -26.5t131 -78.5t91 -127t34 -163q0 -109 -51 -199t-145.5 -143t-217.5 -53q-84 0 -157.5 26.5t-131 79t-91 127t-33.5 162.5zM358 0l1039 1524h291l-1041 -1524h-289zM377 1161q0 -76 40.5 -120t108.5 -44t109 44 t41 120q0 74 -41 119t-109 45t-108.5 -45t-40.5 -119zM1106 367q0 109 51 198.5t146.5 143t216.5 53.5q84 0 157.5 -26.5t131 -79t91 -127t33.5 -162.5q0 -109 -51 -199t-145 -143.5t-217 -53.5q-84 0 -158 27t-131 79t-91 127t-34 163zM1370 367q0 -76 41 -120t109 -44 t108.5 44t40.5 120q0 74 -41 118.5t-108 44.5q-68 0 -109 -45t-41 -118z" />
<glyph unicode="&#x26;" horiz-adv-x="1583" d="M78 414q0 281 309 436q-80 100 -115.5 185t-35.5 179q0 109 56 195t161.5 136t244.5 50q131 0 234.5 -46t164 -131t60.5 -197q0 -268 -301 -422l219 -254q61 125 74 272l321 -35q-18 -293 -170 -495l250 -287h-426l-65 74q-189 -107 -420 -107q-258 0 -409.5 121 t-151.5 326zM453 440q0 -76 61.5 -124t155.5 -48q98 0 184 43l-281 322q-61 -41 -90.5 -87t-29.5 -106zM569 1210q0 -41 24 -87.5t81 -114.5q80 51 114.5 100t34.5 106q0 55 -34.5 90t-90.5 35q-57 0 -93 -34.5t-36 -94.5z" />
<glyph unicode="'" horiz-adv-x="522" d="M86 1556h350l-35 -647h-280z" />
<glyph unicode="(" horiz-adv-x="915" d="M158 702q0 283 100 545t274 432h386q-205 -199 -313.5 -448.5t-108.5 -528.5t108.5 -528.5t313.5 -447.5h-386q-174 170 -274 432t-100 544z" />
<glyph unicode=")" horiz-adv-x="915" d="M-2 -274q205 199 313.5 448.5t108.5 527.5q0 279 -108.5 529t-313.5 448h385q174 -170 274.5 -432t100.5 -545t-100.5 -544.5t-274.5 -431.5h-385z" />
<glyph unicode="*" horiz-adv-x="989" d="M49 1135l101 270l237 -123l-37 274h291l-39 -274l240 123l98 -270l-264 -60l192 -205l-237 -161l-135 243l-131 -245l-238 163l188 205z" />
<glyph unicode="+" horiz-adv-x="1323" d="M170 539v297h332v360h319v-360h334v-297h-334v-359h-319v359h-332z" />
<glyph unicode="," horiz-adv-x="626" d="M-23 -346q178 301 183 700h338q0 -201 -64.5 -389t-175.5 -311h-281z" />
<glyph unicode="-" horiz-adv-x="858" d="M102 438v301h654v-301h-654z" />
<glyph unicode="." horiz-adv-x="626" d="M104 184q0 84 58.5 138.5t150.5 54.5t149.5 -54.5t57.5 -138.5q0 -88 -57.5 -142t-149.5 -54t-150.5 54t-58.5 142z" />
<glyph unicode="/" horiz-adv-x="1185" d="M10 -272l824 1931h340l-824 -1931h-340z" />
<glyph unicode="0" horiz-adv-x="1323" d="M74 762q0 248 67.5 426t199.5 273t321 95q184 0 315 -92t201.5 -270t70.5 -432q0 -248 -67.5 -426t-199.5 -273.5t-320 -95.5q-184 0 -315.5 92.5t-202 270.5t-70.5 432zM479 762q0 -238 44.5 -347.5t138.5 -109.5q92 0 137 111.5t45 345.5q0 233 -45 345t-137 112 q-94 0 -138.5 -110t-44.5 -347z" />
<glyph unicode="1" horiz-adv-x="1323" d="M145 1300l514 224h304v-1524h-375v1147l-379 -164z" />
<glyph unicode="2" horiz-adv-x="1323" d="M119 0v281q266 227 407 391q117 135 163 219t46 164q0 82 -52 131t-138 49q-94 0 -185.5 -43t-169.5 -121l-63 311q92 82 220 128t267 46q236 0 375 -122.5t139 -331.5q0 -137 -69.5 -277.5t-214.5 -300.5q-94 -104 -201 -196h535v-328h-1059z" />
<glyph unicode="3" horiz-adv-x="1323" d="M115 70l30 309q182 -100 394 -100q121 0 187.5 51t66.5 143q0 90 -63.5 139.5t-178.5 49.5q-84 0 -139 -17l-88 203l352 366h-529v310h983v-267l-335 -344q182 -27 284.5 -143.5t102.5 -298.5q0 -231 -166 -367.5t-449 -136.5q-139 0 -256.5 26.5t-195.5 76.5z" />
<glyph unicode="4" horiz-adv-x="1323" d="M53 309v293l656 922h383v-914h170v-301h-170v-309h-355v309h-684zM397 610h340v473z" />
<glyph unicode="5" horiz-adv-x="1323" d="M109 57l32 316q84 -43 185.5 -67.5t199.5 -24.5q129 0 202 55t73 151q0 94 -81 146.5t-224 52.5q-70 0 -160 -11t-164 -28l35 877h885v-318h-557l-11 -237q70 10 113 10q250 0 400.5 -132t150.5 -351q0 -158 -74 -278t-213.5 -185.5t-329.5 -65.5q-131 0 -260 24.5 t-202 65.5z" />
<glyph unicode="6" horiz-adv-x="1323" d="M88 528q0 250 151.5 519.5t409.5 482.5l457 -14q-387 -313 -545 -605q78 57 209 58q131 0 238.5 -59.5t171 -170t63.5 -252.5q0 -147 -69.5 -265t-198.5 -186.5t-299 -68.5q-274 0 -431 150.5t-157 410.5zM465 479q0 -88 58.5 -145.5t146.5 -57.5t144 57.5t56 145.5 q0 90 -56 147.5t-144 57.5t-146.5 -57.5t-58.5 -147.5z" />
<glyph unicode="7" horiz-adv-x="1323" d="M117 1176v348h1081v-305l-541 -1225l-403 10l530 1172h-667z" />
<glyph unicode="8" horiz-adv-x="1323" d="M72 426q0 127 64.5 227.5t176.5 145.5q-98 47 -150 132t-52 197q0 125 66.5 221.5t191.5 151.5t293 55q160 0 284.5 -52t195 -149.5t70.5 -226.5q0 -113 -52 -197.5t-150 -131.5q113 -45 177 -145.5t64 -227.5q0 -139 -70.5 -242.5t-203.5 -160t-315 -56.5 q-272 0 -431 124t-159 335zM455 455q0 -86 57.5 -138.5t149.5 -52.5t149 52.5t57 138.5t-57 139t-149 53t-149.5 -54t-57.5 -138zM469 1098q0 -82 52.5 -130t140.5 -48t140 48t52 130q0 80 -53 129t-139 49t-139.5 -49t-53.5 -129z" />
<glyph unicode="9" horiz-adv-x="1323" d="M80 1036q0 109 39 203t112.5 166t180 111.5t237.5 39.5q274 0 431 -150.5t157 -410.5q0 -248 -151.5 -517t-411.5 -484l-455 14q387 315 543 602q-76 -55 -207 -55t-238.5 59.5t-172 170t-64.5 251.5zM453 1044q0 -90 56 -147t146 -57q88 0 145.5 58t57.5 146 t-57.5 145.5t-145.5 57.5t-145 -57t-57 -146z" />
<glyph unicode=":" horiz-adv-x="626" d="M104 184q0 84 58.5 138.5t150.5 54.5t149.5 -54.5t57.5 -138.5q0 -88 -57.5 -142t-149.5 -54t-150.5 54t-58.5 142zM104 874q0 84 58.5 138.5t150.5 54.5t149.5 -54.5t57.5 -138.5q0 -88 -57.5 -142t-149.5 -54t-150.5 54t-58.5 142z" />
<glyph unicode=";" horiz-adv-x="626" d="M-23 -346q178 301 183 700h338q0 -201 -64.5 -389t-175.5 -311h-281zM104 874q0 84 58.5 138.5t150.5 54.5t149.5 -54.5t57.5 -138.5q0 -88 -57.5 -142t-149.5 -54t-150.5 54t-58.5 142z" />
<glyph unicode="&#x3c;" horiz-adv-x="1323" d="M205 520v338l913 363v-330l-538 -199l538 -198v-334z" />
<glyph unicode="=" horiz-adv-x="1323" d="M207 291v287h911v-287h-911zM207 780v287h911v-287h-911z" />
<glyph unicode="&#x3e;" horiz-adv-x="1323" d="M205 160v329l538 199l-538 199v334l913 -361v-338z" />
<glyph unicode="?" horiz-adv-x="1112" d="M45 1442q80 90 217 142t297 52q141 0 254 -51t177.5 -146.5t64.5 -221.5q0 -90 -27 -156t-70 -116t-90 -94t-90 -88t-70.5 -99.5t-29.5 -126.5h-330q-6 25 -6 59q0 92 23.5 158.5t59.5 116t76 87t75.5 71.5t59 70t23.5 81q0 63 -47 99t-129 36q-90 0 -186 -47t-164 -123z M305 184q0 84 58.5 138.5t150.5 54.5q90 0 148.5 -53.5t58.5 -139.5q0 -88 -58.5 -142t-148.5 -54q-92 0 -150.5 54t-58.5 142z" />
<glyph unicode="@" horiz-adv-x="2138" d="M94 397q0 281 136.5 513.5t387 372.5t566.5 140q250 0 444.5 -95t306 -272t111.5 -415q0 -184 -65.5 -328.5t-188.5 -227.5t-285 -83q-106 0 -183 35t-112 100q-45 -63 -118.5 -97t-163.5 -34q-104 0 -184 50t-126.5 144.5t-46.5 221.5q0 137 55.5 255t157 190.5 t226.5 72.5q82 0 148.5 -34t105.5 -93l22 98h287l-84 -503q-6 -43 -6 -68q0 -102 80 -102q55 0 102 51t77 142t30 202q0 254 -162 398.5t-447 144.5q-223 0 -404 -95.5t-286.5 -272.5t-105.5 -405q0 -295 184 -460.5t512 -165.5q125 0 254 26.5t237 73.5l25 -246 q-119 -49 -257 -75.5t-275 -26.5q-283 0 -498 104.5t-336 301t-121 462.5zM885 449q0 -82 37.5 -125t107.5 -43q82 0 133 60t51 157q0 82 -36.5 124t-108.5 42q-82 0 -133 -60.5t-51 -154.5z" />
<glyph unicode="A" horiz-adv-x="1732" d="M43 0l610 1556h426l611 -1556h-433l-120 358h-568l-118 -358h-408zM674 672h356l-178 530z" />
<glyph unicode="B" horiz-adv-x="1486" d="M164 0v1556h610q266 0 404.5 -102t138.5 -299q0 -102 -45 -189t-125 -135q115 -39 182.5 -140t67.5 -236q0 -225 -144.5 -340t-429.5 -115h-659zM539 299h249q102 0 155.5 44t53.5 128q0 170 -217 170h-241v-342zM539 936h194q205 0 205 164q0 157 -200 157h-3h-196v-321 z" />
<glyph unicode="C" horiz-adv-x="1554" d="M92 774q0 168 57.5 313.5t169 256t271.5 173t354 62.5q135 0 268.5 -33t225.5 -88l-66 -340q-94 47 -198.5 73t-204.5 26q-209 0 -331 -119t-122 -322t122 -319.5t335 -116.5q96 0 214 33t220 86l43 -355q-96 -57 -236.5 -92t-279.5 -35q-254 0 -443.5 94.5t-294 274.5 t-104.5 428z" />
<glyph unicode="D" horiz-adv-x="1759" d="M164 0v1556h620q426 0 654.5 -200.5t228.5 -577.5q0 -369 -235.5 -573.5t-657.5 -204.5h-610zM569 334h191q483 0 483 444t-483 445h-191v-889z" />
<glyph unicode="E" horiz-adv-x="1390" d="M164 0v1556h1081v-327h-690v-279h606v-323h-606v-299h719v-328h-1110z" />
<glyph unicode="F" horiz-adv-x="1304" d="M164 0v1556h1059v-331h-660v-334h570v-328h-570v-563h-399z" />
<glyph unicode="G" horiz-adv-x="1695" d="M92 756q0 244 109.5 429t316.5 289.5t486 104.5q141 0 284.5 -31.5t253.5 -87.5l-72 -342q-231 104 -471 105q-223 0 -358 -123t-135 -328q0 -209 129 -326.5t356 -117.5q90 0 187 20v244h-246v309h637v-803q-270 -121 -608 -121q-260 0 -456 93.5t-304.5 269.5 t-108.5 416z" />
<glyph unicode="H" horiz-adv-x="1763" d="M164 0v1556h414v-591h608v591h413v-1556h-413v631h-608v-631h-414z" />
<glyph unicode="I" horiz-adv-x="741" d="M164 0v1556h414v-1556h-414z" />
<glyph unicode="J" horiz-adv-x="1191" d="M72 53l37 320q133 -70 276 -70q127 0 184.5 65.5t57.5 211.5v976h411v-1003q0 -586 -573 -586q-111 0 -218.5 23.5t-174.5 62.5z" />
<glyph unicode="K" horiz-adv-x="1671" d="M164 0v1556h407v-628l533 628h491l-667 -743l731 -813h-533l-555 657v-657h-407z" />
<glyph unicode="L" horiz-adv-x="1310" d="M164 0v1556h414v-1224h661v-332h-1075z" />
<glyph unicode="M" horiz-adv-x="2082" d="M123 0l90 1556h379l452 -897l443 897h381l92 -1556h-381l-37 938l-342 -682h-315l-346 672l-35 -928h-381z" />
<glyph unicode="N" horiz-adv-x="1765" d="M164 0v1556h352l711 -946v946h375v-1556h-355l-708 944v-944h-375z" />
<glyph unicode="O" horiz-adv-x="1867" d="M92 778q0 219 105.5 403.5t299 296t437.5 111.5q236 0 426 -100t303 -285.5t113 -425.5q0 -219 -105.5 -403.5t-299 -296t-437.5 -111.5q-236 0 -426.5 100.5t-303 286t-112.5 424.5zM516 780q0 -127 51 -229t146.5 -161.5t220.5 -59.5q119 0 213 55t149.5 156.5 t55.5 234.5q0 127 -51.5 229.5t-146.5 162t-220 59.5q-119 0 -213 -55.5t-149.5 -157t-55.5 -234.5z" />
<glyph unicode="P" horiz-adv-x="1394" d="M164 0v1556h561q281 0 444.5 -142t163.5 -388q0 -250 -161.5 -392t-448.5 -142h-166v-492h-393zM557 803h109q272 0 272 223q0 111 -67.5 165t-204.5 54h-109v-442z" />
<glyph unicode="Q" horiz-adv-x="1867" d="M92 778q0 219 105.5 403.5t299 296t437.5 111.5q236 0 426 -100t303 -285.5t113 -425.5q0 -231 -116 -420.5t-321 -294.5l381 -436h-489l-273 342q-6 0 -12 -1t-12 -1q-236 0 -426.5 100.5t-303 286t-112.5 424.5zM516 780q0 -127 51 -229t146.5 -161.5t220.5 -59.5 q119 0 213 55t149.5 156.5t55.5 234.5q0 127 -51.5 229.5t-146.5 162t-220 59.5q-119 0 -213 -55.5t-149.5 -157t-55.5 -234.5z" />
<glyph unicode="R" horiz-adv-x="1525" d="M164 0v1556h561q287 0 447.5 -140t160.5 -386q0 -129 -61.5 -238.5t-173.5 -175.5l387 -616h-451l-272 504h-31.5t-37 -1t-23.5 -1h-113v-502h-393zM557 813h113q270 0 270 219q0 109 -65.5 161t-200.5 52h-117v-432z" />
<glyph unicode="S" horiz-adv-x="1361" d="M92 100l37 334q96 -63 231.5 -101t262.5 -38q115 0 176 38t61 107q0 41 -25.5 70t-82 53.5t-158.5 52.5q-252 72 -363.5 190t-111.5 310q0 219 158.5 346t433.5 127q131 0 263 -32.5t222 -88.5l-53 -321q-84 51 -200 83t-216 32q-213 0 -213 -136q0 -55 48 -87.5 t188 -73.5q276 -80 396 -198t120 -310q0 -231 -165 -360.5t-460 -129.5q-100 0 -204.5 16.5t-195.5 47t-149 69.5z" />
<glyph unicode="T" horiz-adv-x="1511" d="M72 1225v331h1368v-331h-477v-1225h-414v1225h-477z" />
<glyph unicode="U" horiz-adv-x="1738" d="M154 674v882h413v-854q0 -188 75 -280t226 -92q303 0 303 372v854h414v-882q0 -340 -185.5 -523.5t-531.5 -183.5q-342 0 -528 183.5t-186 523.5z" />
<glyph unicode="V" horiz-adv-x="1632" d="M25 1556h454l342 -1103l342 1103h445l-582 -1556h-422z" />
<glyph unicode="W" horiz-adv-x="2330" d="M39 1556h432l234 -1024l288 1004h344l293 -985l230 1005h432l-461 -1556h-373l-297 1001l-291 -1001h-372z" />
<glyph unicode="X" horiz-adv-x="1632" d="M31 0l542 811l-505 745h481l280 -473l273 473h469l-510 -761l541 -795h-486l-315 520l-301 -520h-469z" />
<glyph unicode="Y" horiz-adv-x="1562" d="M16 1556h455l315 -604l318 604h442l-563 -923v-633h-405v633z" />
<glyph unicode="Z" horiz-adv-x="1548" d="M111 0v279l778 952h-729v325h1249v-278l-776 -952h790v-326h-1312z" />
<glyph unicode="[" horiz-adv-x="915" d="M205 -272v1951h620v-299h-284v-1353h284v-299h-620z" />
<glyph unicode="\" horiz-adv-x="1185" d="M10 1659h340l824 -1931h-340z" />
<glyph unicode="]" horiz-adv-x="915" d="M88 27h285v1353h-285v299h621v-1951h-621v299z" />
<glyph unicode="^" horiz-adv-x="1323" d="M88 616l416 840h313l418 -840h-350l-226 498l-223 -498h-348z" />
<glyph unicode="_" horiz-adv-x="1024" d="M0 -53h1024v-273h-1024v273z" />
<glyph unicode="`" horiz-adv-x="1024" d="M207 1597h393l217 -348h-307z" />
<glyph unicode="a" horiz-adv-x="1343" d="M76 524q0 156 61.5 284t174 205t255.5 77q94 0 174 -41t127 -115l4 123h347v-1057h-347l-4 121q-47 -74 -128 -114t-183 -40q-137 0 -245.5 68.5t-172 195.5t-63.5 293zM442 528q0 -102 60.5 -167.5t154.5 -65.5t153.5 65.5t59.5 167.5t-59 168t-154 66 q-94 0 -154.5 -65.5t-60.5 -168.5z" />
<glyph unicode="b" horiz-adv-x="1343" d="M125 0v1659h369v-698q49 61 125.5 95t166.5 34q137 0 246 -69t172.5 -196t63.5 -293q0 -156 -61.5 -283.5t-174.5 -204.5t-256 -77q-96 0 -175 40t-126 114l-4 -121h-346zM473 528q0 -102 59.5 -167.5t153.5 -65.5t154.5 65.5t60.5 167.5t-60.5 168t-154.5 66 t-153.5 -65.5t-59.5 -168.5z" />
<glyph unicode="c" horiz-adv-x="1112" d="M76 524q0 160 71.5 287t204.5 200.5t307 73.5q96 0 196.5 -22.5t166.5 -56.5l-43 -310q-131 61 -272 62q-123 0 -194 -61.5t-71 -168.5q0 -109 72 -169t199 -60q129 0 278 61l37 -301q-72 -41 -169 -64.5t-197 -23.5q-172 0 -304.5 66.5t-207 191.5t-74.5 295z" />
<glyph unicode="d" horiz-adv-x="1343" d="M76 524q0 156 61.5 284t174 205t255.5 77q86 0 160 -34t123 -95v698h369v-1659h-347l-4 121q-47 -74 -128 -114t-183 -40q-137 0 -245.5 68.5t-172 195.5t-63.5 293zM442 528q0 -102 60.5 -167.5t154.5 -65.5t153.5 65.5t59.5 167.5t-59 168t-154 66q-94 0 -154.5 -65.5 t-60.5 -168.5z" />
<glyph unicode="e" horiz-adv-x="1234" d="M76 528q0 160 67.5 287t193.5 201t292 74q238 0 378 -142.5t140 -386.5q0 -72 -12 -127h-697q29 -92 108 -136t216 -44q88 0 178 18.5t160 51.5l33 -277q-84 -39 -193.5 -59.5t-226.5 -20.5q-193 0 -336.5 66.5t-222 192.5t-78.5 302zM432 655h371q-8 82 -56.5 129 t-123.5 47q-156 0 -191 -176z" />
<glyph unicode="f" horiz-adv-x="915" d="M63 760v297h170v102q0 242 122 376t343 134q70 0 145 -14.5t115 -34.5l-36 -297q-31 12 -72 19.5t-74 7.5q-88 0 -131 -53.5t-43 -161.5v-78h252v-297h-252v-760h-369v760h-170z" />
<glyph unicode="g" horiz-adv-x="1343" d="M76 524q0 156 61.5 284t174 205t255.5 77q94 0 174 -41t127 -115l4 123h347v-971q0 -299 -155 -452.5t-456 -153.5q-111 0 -229.5 24.5t-183.5 59.5l36 321q63 -37 155.5 -60.5t170.5 -23.5q309 0 309 273v49q-49 -66 -129 -101.5t-180 -35.5q-135 0 -243.5 65.5 t-173 188t-64.5 284.5zM442 528q0 -94 60.5 -154.5t154.5 -60.5t153.5 60.5t59.5 154.5q0 102 -59 168t-154 66q-94 0 -154.5 -65.5t-60.5 -168.5z" />
<glyph unicode="h" horiz-adv-x="1280" d="M125 0v1659h369v-715q45 70 122.5 108t176.5 38q182 0 275 -114t93 -333v-643h-368v573q0 188 -142 189q-76 0 -116.5 -52.5t-40.5 -150.5v-559h-369z" />
<glyph unicode="i" horiz-adv-x="618" d="M102 1419q0 84 59.5 141.5t147.5 57.5t147.5 -57.5t59.5 -141.5t-59.5 -140t-147.5 -56t-147.5 56t-59.5 140zM125 0v1057h369v-1057h-369z" />
<glyph unicode="j" horiz-adv-x="618" d="M-231 -467l36 301q78 -33 158 -33q84 0 123 45t39 146v1065h369v-1094q0 -238 -115 -360.5t-334 -122.5q-88 0 -163 14t-113 39zM102 1419q0 84 59.5 141.5t147.5 57.5t147.5 -57.5t59.5 -141.5t-59.5 -140t-147.5 -56t-147.5 56t-59.5 140z" />
<glyph unicode="k" horiz-adv-x="1316" d="M125 0v1659h369v-981l321 379h430l-428 -479l500 -578h-457l-366 446v-446h-369z" />
<glyph unicode="l" horiz-adv-x="618" d="M125 0v1659h369v-1659h-369z" />
<glyph unicode="m" horiz-adv-x="1921" d="M125 0v1057h358l4 -129q41 78 120 120t186 42q104 0 182 -45.5t123 -129.5q45 82 131 128.5t198 46.5q184 0 279.5 -114t95.5 -333v-643h-366v573q0 96 -34 142.5t-106 46.5t-110.5 -52.5t-38.5 -150.5v-559h-367v573q0 96 -33.5 142.5t-103.5 46.5q-74 0 -112.5 -52.5 t-38.5 -150.5v-559h-367z" />
<glyph unicode="n" horiz-adv-x="1280" d="M125 0v1057h360l4 -131q39 78 119 121t185 43q182 0 275 -114t93 -333v-643h-368v573q0 188 -142 189q-76 0 -116.5 -52.5t-40.5 -150.5v-559h-369z" />
<glyph unicode="o" horiz-adv-x="1312" d="M76 528q0 154 72.5 282t205.5 204t303 76q160 0 292 -70t210 -199t78 -293q0 -154 -71.5 -280.5t-205 -203.5t-303.5 -77q-160 0 -292 69.5t-210.5 199t-78.5 292.5zM442 528q0 -102 60.5 -167.5t154.5 -65.5t153.5 65.5t59.5 167.5t-59 168t-154 66q-94 0 -154.5 -65.5 t-60.5 -168.5z" />
<glyph unicode="p" horiz-adv-x="1343" d="M125 -502v1559h346l4 -121q47 74 128 114t183 40q137 0 246 -69t172.5 -196t63.5 -293q0 -156 -61.5 -283.5t-174 -204.5t-256.5 -77q-86 0 -160.5 34t-121.5 93v-596h-369zM473 528q0 -102 59.5 -167.5t153.5 -65.5t154.5 65.5t60.5 167.5t-60.5 168t-154.5 66 t-153.5 -65.5t-59.5 -168.5z" />
<glyph unicode="q" horiz-adv-x="1343" d="M76 524q0 156 61.5 284t174 205t255.5 77q94 0 174 -41t127 -115l4 123h347v-1559h-369v598q-104 -129 -293 -129q-137 0 -245.5 68.5t-172 195.5t-63.5 293zM442 528q0 -102 60.5 -167.5t154.5 -65.5t153.5 65.5t59.5 167.5t-59 168t-154 66q-94 0 -154.5 -65.5 t-60.5 -168.5z" />
<glyph unicode="r" horiz-adv-x="917" d="M125 0v1057h358l4 -158q39 86 107 132t158 46q70 0 120 -22l-28 -348q-61 26 -130 26h-5q-106 0 -160.5 -70.5t-54.5 -209.5v-453h-369z" />
<glyph unicode="s" horiz-adv-x="1060" d="M80 72l41 268q76 -49 172 -76.5t188 -27.5q133 0 133 63q0 33 -30.5 51.5t-124.5 42.5q-195 51 -278 133t-83 226q0 158 121 248t332 90q106 0 209.5 -23t171.5 -61l-37 -265q-74 37 -160 58.5t-162 21.5q-112 0 -112 -60q0 -34 32.5 -53.5t124.5 -41.5 q190 -47 276.5 -133.5t86.5 -229.5q0 -160 -125 -248t-352 -88q-125 0 -241 29t-183 76z" />
<glyph unicode="t" horiz-adv-x="978" d="M29 760v297h180v272h366v-272h299v-297h-299v-293q0 -94 31 -133t107 -39q100 0 172 39l37 -305q-53 -29 -136.5 -45.5t-177.5 -16.5q-201 0 -300 102.5t-99 313.5v377h-180z" />
<glyph unicode="u" horiz-adv-x="1280" d="M119 414v643h368v-574q0 -188 142 -188q76 0 116.5 52t40.5 151v559h369v-1057h-360l-4 131q-39 -78 -119.5 -121t-184.5 -43q-182 0 -275 114t-93 333z" />
<glyph unicode="v" horiz-adv-x="1222" d="M27 1057h403l186 -701l201 701h379l-391 -1057h-387z" />
<glyph unicode="w" horiz-adv-x="1820" d="M39 1057h381l143 -649l195 649h299l200 -647l144 647h381l-340 -1057h-328l-213 618l-203 -618h-319z" />
<glyph unicode="x" horiz-adv-x="1280" d="M45 0l387 547l-366 510h413l170 -279l166 279h395l-362 -516l387 -541h-414l-192 313l-189 -313h-395z" />
<glyph unicode="y" horiz-adv-x="1267" d="M27 1057h403l215 -608l203 608h395l-676 -1559h-374l268 561z" />
<glyph unicode="z" horiz-adv-x="1136" d="M80 0v250l473 510h-451v297h940v-252l-477 -508h492v-297h-977z" />
<glyph unicode="{" horiz-adv-x="937" d="M88 545v297h49q88 0 123 33.5t35 119.5q0 59 -10.5 116.5t-20.5 112t-10 107.5q0 176 111.5 263t336.5 87q63 0 160 -6v-286q-8 2 -96 2q-92 0 -133 -35t-41 -113q0 -43 10 -95t20.5 -108.5t10.5 -113.5q0 -84 -43 -145.5t-119 -88.5q76 -25 119 -86t43 -145 q0 -57 -10.5 -113.5t-20.5 -109t-10 -95.5q0 -78 41 -112.5t133 -34.5q84 0 96 2v-287q-97 -6 -160 -6q-225 0 -336.5 87t-111.5 263q0 53 10 107.5t20.5 112t10.5 116.5q0 86 -35 120t-123 34h-49z" />
<glyph unicode="|" horiz-adv-x="696" d="M184 -467v2241h330v-2241h-330z" />
<glyph unicode="}" horiz-adv-x="937" d="M76 -2q8 -2 96 -2q92 0 133 35t41 112q0 43 -10 95.5t-20.5 108.5t-10.5 114q0 84 43 145.5t119 87.5q-76 25 -119 86.5t-43 145.5q0 57 10.5 113.5t20.5 108.5t10 95q0 78 -41 113t-133 35q-84 0 -96 -2v286q47 2 75.5 3t48 2t36.5 1q225 0 336.5 -87t111.5 -263 q0 -53 -10 -107.5t-20.5 -111.5t-10.5 -117q0 -86 35 -119.5t123 -33.5h49v-297h-49q-88 0 -123 -34t-35 -120q0 -59 10.5 -116.5t20.5 -111.5t10 -108q0 -176 -111.5 -263t-336.5 -87q-16 0 -36 1t-48.5 2t-75.5 3v287z" />
<glyph unicode="~" horiz-adv-x="1323" d="M98 453v36q0 223 86 341t250 118q133 0 244 -78q82 -57 111.5 -72.5t52.5 -15.5q94 0 94 164h289v-37q0 -223 -86 -340.5t-250 -117.5q-125 0 -232 71q-90 61 -121.5 77.5t-54.5 16.5q-94 0 -94 -163h-289z" />
<glyph unicode="&#xa1;" horiz-adv-x="780" d="M182 872q0 88 57.5 142.5t149.5 54.5t150.5 -54t58.5 -143q0 -84 -58.5 -138t-150.5 -54q-90 0 -148.5 54t-58.5 138zM188 -561l37 1081h330l35 -1081h-402z" />
<glyph unicode="&#xa2;" horiz-adv-x="1323" d="M174 522q0 225 135 378t359 179v254h157v-252q158 -12 283 -77l-45 -293q-127 55 -238 61v-487q117 2 250 61l37 -287q-117 -70 -287 -82v-251h-157v251q-227 25 -360.5 172.5t-133.5 372.5zM506 528q0 -86 42 -146t120 -83v459q-78 -23 -120 -83.5t-42 -146.5z" />
<glyph unicode="&#xa3;" horiz-adv-x="1323" d="M117 0v305h194v305h-184v285h184v57q0 289 152.5 446.5t431.5 157.5q94 0 185 -20t161 -57l-45 -297q-133 66 -262 65q-129 0 -195.5 -76.5t-66.5 -226.5v-49h387v-285h-387v-305h577v-305h-1132z" />
<glyph unicode="&#xa4;" horiz-adv-x="1323" d="M74 455l168 182q-49 96 -49 217t49 215l-168 184l217 195l155 -178q102 53 216 53q113 0 212 -53l158 178l219 -195l-170 -184q49 -92 49 -215q0 -115 -49 -217l170 -182l-219 -195l-158 178q-100 -53 -212 -53q-115 0 -216 53l-155 -178zM473 854q0 -90 52.5 -146.5 t136.5 -56.5t136 56.5t52 146.5t-52.5 146.5t-135.5 56.5q-84 0 -136.5 -56.5t-52.5 -146.5z" />
<glyph unicode="&#xa5;" horiz-adv-x="1323" d="M0 1524h418l252 -578l252 578h403l-375 -688h277v-205h-383v-150h383v-207h-383v-274h-361v274h-399v207h399v150h-399v205h289z" />
<glyph unicode="&#xa6;" horiz-adv-x="696" d="M184 444h330v-911h-330v911zM184 862v912h330v-912h-330z" />
<glyph unicode="&#xa7;" horiz-adv-x="1161" d="M94 580q0 113 54.5 196.5t156.5 124.5q-168 98 -168 289q0 162 123 254t342 92q106 0 209.5 -22.5t185.5 -61.5l-39 -264q-82 37 -171 58.5t-164 21.5q-63 0 -98.5 -18.5t-35.5 -51.5q0 -39 40 -63.5t149 -55.5q209 -57 301 -147t92 -236q0 -104 -47 -185t-135 -124 q152 -96 151 -268q0 -176 -129 -273.5t-358 -97.5q-131 0 -258 32t-199 83l39 274q193 -121 406 -121q66 0 103.5 21.5t37.5 60.5q0 41 -38 65.5t-134 49.5q-225 57 -320.5 141t-95.5 226zM438 643q0 -61 40 -98t106 -37q63 0 104 41t41 104q0 59 -41 97t-106 38 q-63 0 -103.5 -40.5t-40.5 -104.5z" />
<glyph unicode="&#xa8;" horiz-adv-x="1024" d="M94 1389q0 74 49.5 118.5t124.5 44.5q76 0 125 -46t49 -117q0 -74 -48 -119t-126 -45t-126 45t-48 119zM582 1389q0 72 49 117.5t125 45.5t125 -45t49 -118q0 -74 -48 -119t-126 -45t-126 45t-48 119z" />
<glyph unicode="&#xa9;" horiz-adv-x="1624" d="M61 778q0 203 93.5 369t265.5 264t393 98q209 0 379 -91t270.5 -258t100.5 -382q0 -203 -92.5 -368.5t-264.5 -264t-393 -98.5q-209 0 -379 91t-271.5 258t-101.5 382zM260 778q0 -154 68.5 -278.5t194.5 -197.5t290 -73q156 0 281 68t198.5 192.5t73.5 288.5 q0 154 -68.5 279t-194.5 197.5t-290 72.5q-156 0 -280.5 -67.5t-198.5 -192.5t-74 -289zM426 776q0 180 116.5 291t307.5 111q68 0 136.5 -15.5t111.5 -40.5l-35 -231q-102 41 -186 41q-78 0 -124 -40t-46 -110q0 -72 48 -109.5t138 -37.5q80 0 182 43l31 -229 q-106 -60 -268 -60q-188 0 -300 104.5t-112 282.5z" />
<glyph unicode="&#xaa;" horiz-adv-x="980" d="M80 1165q0 104 43 193.5t122 143.5t175 54q63 0 121.5 -26.5t89.5 -69.5l4 74h266v-746h-260l-6 84q-33 -51 -89 -79.5t-124 -28.5q-94 0 -172 49t-124 141.5t-46 210.5zM113 393v240h782v-240h-782zM360 1161q0 -68 37.5 -107.5t98.5 -39.5t99 41t38 106q0 68 -38 109 t-97 41q-63 0 -100.5 -41t-37.5 -109z" />
<glyph unicode="&#xab;" horiz-adv-x="1374" d="M49 526l309 457h392l-324 -457l324 -456h-392zM616 526l309 457h392l-324 -457l324 -456h-392z" />
<glyph unicode="&#xac;" horiz-adv-x="1323" d="M174 608v303h975v-598h-326v295h-649z" />
<glyph unicode="&#xad;" horiz-adv-x="858" d="M102 438v301h654v-301h-654z" />
<glyph unicode="&#xae;" horiz-adv-x="1046" d="M51 1241q0 127 59.5 231.5t167 166t244.5 61.5q131 0 237.5 -57.5t170 -162t63.5 -239.5q0 -127 -58 -230.5t-166 -166t-247 -62.5q-131 0 -237.5 57.5t-170 162t-63.5 239.5zM193 1241q0 -150 91 -242t238 -92q150 0 241 92.5t91 241.5q0 150 -91 242t-241 92 q-147 0 -238 -92t-91 -242zM336 1030v438h188q92 0 142.5 -39.5t50.5 -113.5q0 -82 -62 -123l86 -162h-159l-52 115h-51v-115h-143zM479 1260h31q61 0 61 47q0 49 -61 49h-31v-96z" />
<glyph unicode="&#xaf;" horiz-adv-x="1024" d="M168 1270v246h688v-246h-688z" />
<glyph unicode="&#xb0;" horiz-adv-x="993" d="M100 1206q0 164 114 273.5t284 109.5t282.5 -109.5t112.5 -273.5q0 -104 -49 -190t-140 -138.5t-206 -52.5q-109 0 -199 47.5t-144.5 135.5t-54.5 198zM356 1206q0 -66 40.5 -106.5t101.5 -40.5q63 0 102 41t39 106q0 68 -39 110t-102 42t-102.5 -43t-39.5 -109z" />
<glyph unicode="&#xb1;" horiz-adv-x="1323" d="M170 3v305h985v-305h-985zM170 764v297h332v360h319v-360h334v-297h-334v-359h-319v359h-332z" />
<glyph unicode="&#xb2;" d="M80 934v209q63 41 128.5 90t115.5 92q61 57 87.5 97t26.5 75t-27.5 56.5t-74.5 21.5q-51 0 -106.5 -24.5t-104.5 -71.5l-43 205q47 47 134 76.5t173 29.5q145 0 231.5 -69.5t86.5 -186.5q0 -156 -177 -313q-39 -37 -84 -68h287v-219h-653z" />
<glyph unicode="&#xb3;" d="M82 971l20 209q111 -55 238 -56q125 0 125 82q0 35 -31 55.5t-88 20.5q-45 0 -88 -12l-53 129l184 164h-285v205h594v-187l-170 -147q90 -14 146.5 -78t56.5 -156q0 -131 -101.5 -208.5t-269.5 -77.5q-180 0 -278 57z" />
<glyph unicode="&#xb4;" horiz-adv-x="1024" d="M244 1249l215 348h395l-303 -348h-307z" />
<glyph unicode="&#xb5;" horiz-adv-x="1280" d="M119 -502v1559h368v-574q0 -188 142 -188q76 0 116.5 52t40.5 151v559h369v-1057h-360l-4 111q-27 -61 -89.5 -102.5t-128.5 -41.5q-57 0 -86 27v-496h-368z" />
<glyph unicode="&#xb6;" horiz-adv-x="1343" d="M35 1090q0 217 144.5 341.5t398.5 124.5h628v-1822h-305v1532h-162v-1532h-305v905q-190 33 -294.5 150.5t-104.5 300.5z" />
<glyph unicode="&#xb7;" horiz-adv-x="626" d="M104 776q0 84 58.5 138.5t150.5 54.5t149.5 -54.5t57.5 -138.5q0 -88 -57.5 -142t-149.5 -54t-150.5 54t-58.5 142z" />
<glyph unicode="&#xb8;" horiz-adv-x="1024" d="M249 -508l35 170q51 -25 135 -24q51 0 79 17t28 50q0 61 -113 62q-41 0 -65 -5l73 258h193l-39 -129q98 -8 154.5 -62t56.5 -140q0 -109 -86 -172.5t-231 -63.5q-59 0 -126 11.5t-94 27.5z" />
<glyph unicode="&#xb9;" d="M94 1643l273 125h241v-834h-272v567l-203 -92z" />
<glyph unicode="&#xba;" horiz-adv-x="993" d="M80 1161q0 109 52 199t147.5 143t216.5 53q115 0 209 -49t151 -140t57 -206q0 -109 -52 -199t-148 -143t-217 -53q-115 0 -209 49t-150.5 140.5t-56.5 205.5zM104 393v240h783v-240h-783zM360 1161q0 -68 37.5 -107.5t98.5 -39.5t99 41t38 106q0 68 -38 109t-97 41 q-63 0 -100.5 -41t-37.5 -109z" />
<glyph unicode="&#xbb;" horiz-adv-x="1374" d="M57 70l324 456l-324 457h392l309 -457l-309 -456h-392zM624 70l324 456l-324 457h392l309 -457l-309 -456h-392z" />
<glyph unicode="&#xbc;" horiz-adv-x="2037" d="M94 1397l273 125h241v-834h-272v567l-203 -92zM399 0l1038 1524h291l-1040 -1524h-289zM1257 152v204l363 478h272v-482h90v-200h-90v-152h-238v152h-397zM1488 352h166v215z" />
<glyph unicode="&#xbd;" horiz-adv-x="2037" d="M94 1397l273 125h241v-834h-272v567l-203 -92zM320 0l1038 1524h291l-1040 -1524h-289zM1292 0v209q63 41 128.5 90t115.5 92q61 57 87.5 97t26.5 75t-27.5 56.5t-74.5 21.5q-51 0 -106.5 -24.5t-104.5 -71.5l-43 205q47 47 134 76.5t173 29.5q145 0 231.5 -69.5 t86.5 -186.5q0 -156 -177 -313q-39 -37 -84 -68h287v-219h-653z" />
<glyph unicode="&#xbe;" horiz-adv-x="2037" d="M82 725l20 209q111 -55 238 -56q125 0 125 82q0 35 -31 55.5t-88 20.5q-45 0 -88 -12l-53 129l184 164h-285v205h594v-187l-170 -147q90 -14 146.5 -78t56.5 -156q0 -131 -101.5 -208.5t-269.5 -77.5q-180 0 -278 57zM395 0l1038 1524h291l-1040 -1524h-289zM1257 152 v204l363 478h272v-482h90v-200h-90v-152h-238v152h-397zM1488 352h166v215z" />
<glyph unicode="&#xbf;" horiz-adv-x="1112" d="M78 -160q0 90 26.5 155.5t69.5 116t90 94.5t90 88t71 99.5t30 126.5h329q6 -25 7 -59q0 -92 -24 -158.5t-59.5 -116t-75.5 -87.5t-76 -71.5t-59.5 -69.5t-23.5 -81q0 -63 47 -99t129 -36q90 0 186.5 47t163.5 123l88 -297q-80 -90 -217 -142.5t-297 -52.5 q-141 0 -253.5 51.5t-177 146.5t-64.5 222zM412 872q0 88 58 142.5t148 54.5q92 0 150.5 -54t58.5 -143q0 -84 -58 -138t-151 -54q-90 0 -148 53t-58 139z" />
<glyph unicode="&#xc0;" horiz-adv-x="1732" d="M43 0l610 1556h426l611 -1556h-433l-120 358h-568l-118 -358h-408zM436 2025h428l242 -315h-334zM674 672h356l-178 530z" />
<glyph unicode="&#xc1;" horiz-adv-x="1732" d="M43 0l610 1556h426l611 -1556h-433l-120 358h-568l-118 -358h-408zM618 1710l240 315h428l-334 -315h-334zM674 672h356l-178 530z" />
<glyph unicode="&#xc2;" horiz-adv-x="1732" d="M43 0l610 1556h426l611 -1556h-433l-120 358h-568l-118 -358h-408zM389 1710l293 322h368l293 -322h-354l-123 139l-123 -139h-354zM674 672h356l-178 530z" />
<glyph unicode="&#xc3;" horiz-adv-x="1732" d="M43 0l610 1556h426l611 -1556h-433l-120 358h-568l-118 -358h-408zM454 1706v14q2 166 64.5 252t181.5 86q55 0 96 -16.5t73 -35.5t58.5 -35.5t55.5 -16.5t42 23.5t13 76.5h240v-14q-2 -166 -64.5 -252t-181.5 -86q-55 0 -96 16.5t-72 36t-58.5 35.5t-54.5 16 q-31 0 -44 -23.5t-13 -76.5h-240zM674 672h356l-178 530z" />
<glyph unicode="&#xc4;" horiz-adv-x="1732" d="M43 0l610 1556h426l611 -1556h-433l-120 358h-568l-118 -358h-408zM438 1874q0 74 50 121t130 47q82 0 132 -47t50 -121t-51 -122t-131 -48t-130 47t-50 123zM674 672h356l-178 530zM932 1874q0 74 50 121t130 47q82 0 132 -47t50 -121t-51 -122t-131 -48t-130 47 t-50 123z" />
<glyph unicode="&#xc5;" horiz-adv-x="1732" d="M43 0l610 1556h426l611 -1556h-433l-120 358h-568l-118 -358h-408zM561 1960q0 123 86 205t219 82t219 -82t86 -205t-86 -205t-219 -82t-219 82t-86 205zM674 672h356l-178 530zM760 1960q0 -47 28.5 -77t77.5 -30t77.5 30t28.5 77q0 49 -28.5 77.5t-77.5 28.5 t-77.5 -28.5t-28.5 -77.5z" />
<glyph unicode="&#xc6;" horiz-adv-x="2308" d="M23 0l911 1556h1229v-327h-690v-279h606v-323h-606v-299h718v-328h-1099v362h-441l-188 -362h-440zM813 672h279v530z" />
<glyph unicode="&#xc7;" horiz-adv-x="1554" d="M92 774q0 168 57.5 313.5t169 256t271.5 173t354 62.5q135 0 268.5 -33t225.5 -88l-66 -340q-94 47 -198.5 73t-204.5 26q-209 0 -331 -119t-122 -322t122 -319.5t335 -116.5q96 0 214 33t220 86l43 -355q-96 -57 -236.5 -92t-279.5 -35q-254 0 -443.5 94.5t-294 274.5 t-104.5 428zM580 -508l34 178q57 -25 129 -24q102 0 103 59q0 57 -107 57q-47 0 -65 -6l76 264h202l-37 -124q94 -8 153.5 -64.5t59.5 -136.5q0 -117 -89 -179.5t-259 -62.5q-51 0 -109.5 11.5t-90.5 27.5z" />
<glyph unicode="&#xc8;" horiz-adv-x="1390" d="M164 0v1556h1081v-327h-690v-279h606v-323h-606v-299h719v-328h-1110zM291 2025h428l242 -315h-334z" />
<glyph unicode="&#xc9;" horiz-adv-x="1390" d="M164 0v1556h1081v-327h-690v-279h606v-323h-606v-299h719v-328h-1110zM473 1710l240 315h428l-334 -315h-334z" />
<glyph unicode="&#xca;" horiz-adv-x="1390" d="M164 0v1556h1081v-327h-690v-279h606v-323h-606v-299h719v-328h-1110zM244 1710l293 322h368l293 -322h-354l-123 139l-123 -139h-354z" />
<glyph unicode="&#xcb;" horiz-adv-x="1390" d="M164 0v1556h1081v-327h-690v-279h606v-323h-606v-299h719v-328h-1110zM293 1874q0 74 50 121t130 47q82 0 132 -47t50 -121t-51 -122t-131 -48t-130 47t-50 123zM787 1874q0 74 50 121t130 47q82 0 132 -47t50 -121t-51 -122t-131 -48t-130 47t-50 123z" />
<glyph unicode="&#xcc;" horiz-adv-x="741" d="M-59 2025h428l242 -315h-334zM164 0v1556h414v-1556h-414z" />
<glyph unicode="&#xcd;" horiz-adv-x="741" d="M123 1710l240 315h428l-334 -315h-334zM164 0v1556h414v-1556h-414z" />
<glyph unicode="&#xce;" horiz-adv-x="741" d="M-106 1710l293 322h368l293 -322h-354l-123 139l-123 -139h-354zM164 0v1556h414v-1556h-414z" />
<glyph unicode="&#xcf;" horiz-adv-x="741" d="M-57 1874q0 74 50 121t130 47q82 0 132 -47t50 -121t-51 -122t-131 -48t-130 47t-50 123zM164 0v1556h414v-1556h-414zM437 1874q0 74 50 121t130 47q82 0 132 -47t50 -121t-51 -122t-131 -48t-130 47t-50 123z" />
<glyph unicode="&#xd0;" horiz-adv-x="1787" d="M27 653v260h166v643h620q426 0 654.5 -200.5t228.5 -577.5q0 -369 -235.5 -573.5t-657.5 -204.5h-610v653h-166zM598 334h190q483 0 484 444q0 444 -484 445h-190v-310h285v-260h-285v-319z" />
<glyph unicode="&#xd1;" horiz-adv-x="1765" d="M164 0v1556h352l711 -946v946h375v-1556h-355l-708 944v-944h-375zM450 1706v14q2 166 64.5 252t181.5 86q55 0 96 -16.5t73 -35.5t58.5 -35.5t55.5 -16.5t42 23.5t13 76.5h240v-14q-2 -166 -64.5 -252t-181.5 -86q-55 0 -96 16.5t-72 36t-58.5 35.5t-54.5 16 q-31 0 -44 -23.5t-13 -76.5h-240z" />
<glyph unicode="&#xd2;" horiz-adv-x="1867" d="M92 778q0 219 105.5 403.5t299 296t437.5 111.5q236 0 426 -100t303 -285.5t113 -425.5q0 -219 -105.5 -403.5t-299 -296t-437.5 -111.5q-236 0 -426.5 100.5t-303 286t-112.5 424.5zM504 2025h428l242 -315h-334zM516 780q0 -127 51 -229t146.5 -161.5t220.5 -59.5 q119 0 213 55t149.5 156.5t55.5 234.5q0 127 -51.5 229.5t-146.5 162t-220 59.5q-119 0 -213 -55.5t-149.5 -157t-55.5 -234.5z" />
<glyph unicode="&#xd3;" horiz-adv-x="1867" d="M92 778q0 219 105.5 403.5t299 296t437.5 111.5q236 0 426 -100t303 -285.5t113 -425.5q0 -219 -105.5 -403.5t-299 -296t-437.5 -111.5q-236 0 -426.5 100.5t-303 286t-112.5 424.5zM516 780q0 -127 51 -229t146.5 -161.5t220.5 -59.5q119 0 213 55t149.5 156.5 t55.5 234.5q0 127 -51.5 229.5t-146.5 162t-220 59.5q-119 0 -213 -55.5t-149.5 -157t-55.5 -234.5zM686 1710l240 315h428l-334 -315h-334z" />
<glyph unicode="&#xd4;" horiz-adv-x="1867" d="M92 778q0 219 105.5 403.5t299 296t437.5 111.5q236 0 426 -100t303 -285.5t113 -425.5q0 -219 -105.5 -403.5t-299 -296t-437.5 -111.5q-236 0 -426.5 100.5t-303 286t-112.5 424.5zM457 1710l293 322h368l293 -322h-354l-123 139l-123 -139h-354zM516 780 q0 -127 51 -229t146.5 -161.5t220.5 -59.5q119 0 213 55t149.5 156.5t55.5 234.5q0 127 -51.5 229.5t-146.5 162t-220 59.5q-119 0 -213 -55.5t-149.5 -157t-55.5 -234.5z" />
<glyph unicode="&#xd5;" horiz-adv-x="1867" d="M92 778q0 219 105.5 403.5t299 296t437.5 111.5q236 0 426 -100t303 -285.5t113 -425.5q0 -219 -105.5 -403.5t-299 -296t-437.5 -111.5q-236 0 -426.5 100.5t-303 286t-112.5 424.5zM516 780q0 -127 51 -229t146.5 -161.5t220.5 -59.5q119 0 213 55t149.5 156.5 t55.5 234.5q0 127 -51.5 229.5t-146.5 162t-220 59.5q-119 0 -213 -55.5t-149.5 -157t-55.5 -234.5zM522 1706v14q2 166 64.5 252t181.5 86q55 0 96 -16.5t73 -35.5t58.5 -35.5t55.5 -16.5t42 23.5t13 76.5h240v-14q-2 -166 -64.5 -252t-181.5 -86q-55 0 -96 16.5t-72 36 t-58.5 35.5t-54.5 16q-31 0 -44 -23.5t-13 -76.5h-240z" />
<glyph unicode="&#xd6;" horiz-adv-x="1867" d="M92 778q0 219 105.5 403.5t299 296t437.5 111.5q236 0 426 -100t303 -285.5t113 -425.5q0 -219 -105.5 -403.5t-299 -296t-437.5 -111.5q-236 0 -426.5 100.5t-303 286t-112.5 424.5zM506 1874q0 74 50 121t130 47q82 0 132 -47t50 -121t-51 -122t-131 -48t-130 47 t-50 123zM516 780q0 -127 51 -229t146.5 -161.5t220.5 -59.5q119 0 213 55t149.5 156.5t55.5 234.5q0 127 -51.5 229.5t-146.5 162t-220 59.5q-119 0 -213 -55.5t-149.5 -157t-55.5 -234.5zM1000 1874q0 74 50 121t130 47q82 0 132 -47t50 -121t-51 -122t-131 -48t-130 47 t-50 123z" />
<glyph unicode="&#xd7;" horiz-adv-x="1323" d="M182 426l271 270l-271 271l211 209l271 -271l270 271l205 -205l-271 -269l273 -272l-215 -209l-271 268l-268 -268z" />
<glyph unicode="&#xd8;" horiz-adv-x="1867" d="M78 119l172 166q-158 205 -158 493q0 219 105.5 403.5t299 296t437.5 111.5q139 0 268 -38t234 -109l174 170l178 -176l-170 -166q78 -104 118 -230.5t40 -261.5q0 -219 -105.5 -403.5t-299 -296t-437.5 -111.5q-291 0 -502 146l-176 -172zM506 780q0 -123 39 -207 l616 603q-104 63 -227 63q-121 0 -218.5 -57.5t-153.5 -162t-56 -239.5zM707 379q98 -62 227 -62q121 0 218 57.5t153.5 162t56.5 239.5q0 113 -39 205z" />
<glyph unicode="&#xd9;" horiz-adv-x="1738" d="M154 674v882h413v-854q0 -188 75 -280t226 -92q303 0 303 372v854h414v-882q0 -340 -185.5 -523.5t-531.5 -183.5q-342 0 -528 183.5t-186 523.5zM438 2025h428l242 -315h-334z" />
<glyph unicode="&#xda;" horiz-adv-x="1738" d="M154 674v882h413v-854q0 -188 75 -280t226 -92q303 0 303 372v854h414v-882q0 -340 -185.5 -523.5t-531.5 -183.5q-342 0 -528 183.5t-186 523.5zM620 1710l240 315h428l-334 -315h-334z" />
<glyph unicode="&#xdb;" horiz-adv-x="1738" d="M154 674v882h413v-854q0 -188 75 -280t226 -92q303 0 303 372v854h414v-882q0 -340 -185.5 -523.5t-531.5 -183.5q-342 0 -528 183.5t-186 523.5zM391 1710l293 322h368l293 -322h-354l-123 139l-123 -139h-354z" />
<glyph unicode="&#xdc;" horiz-adv-x="1738" d="M154 674v882h413v-854q0 -188 75 -280t226 -92q303 0 303 372v854h414v-882q0 -340 -185.5 -523.5t-531.5 -183.5q-342 0 -528 183.5t-186 523.5zM440 1874q0 74 50 121t130 47q82 0 132 -47t50 -121t-51 -122t-131 -48t-130 47t-50 123zM934 1874q0 74 50 121t130 47 q82 0 132 -47t50 -121t-51 -122t-131 -48t-130 47t-50 123z" />
<glyph unicode="&#xdd;" horiz-adv-x="1562" d="M16 1556h455l315 -604l318 604h442l-563 -923v-633h-405v633zM532 1710l240 315h428l-334 -315h-334z" />
<glyph unicode="&#xde;" horiz-adv-x="1394" d="M164 0v1556h379v-225h182q281 0 444.5 -142t163.5 -388q0 -250 -161.5 -392.5t-448.5 -142.5h-166v-266h-393zM557 578h109q272 0 272 223q0 111 -67.5 165t-204.5 54h-109v-442z" />
<glyph unicode="&#xdf;" horiz-adv-x="1415" d="M125 0v1075q0 283 151.5 438.5t425.5 155.5q248 0 395.5 -121t147.5 -325q0 -113 -55 -207t-143 -135q137 -39 216.5 -153t79.5 -271q0 -227 -134.5 -358.5t-370.5 -131.5q-164 0 -269 56l35 299q33 -18 84 -29.5t92 -11.5q96 0 152.5 54t56.5 144q0 94 -66.5 144.5 t-187.5 50.5h-92v307h41q100 0 155.5 50t55.5 143q0 88 -51 136t-144 48q-207 0 -206 -289v-1069h-369z" />
<glyph unicode="&#xe0;" horiz-adv-x="1343" d="M76 524q0 156 61.5 284t174 205t255.5 77q94 0 174 -41t127 -115l4 123h347v-1057h-347l-4 121q-47 -74 -128 -114t-183 -40q-137 0 -245.5 68.5t-172 195.5t-63.5 293zM307 1597h393l217 -348h-307zM442 528q0 -102 60.5 -167.5t154.5 -65.5t153.5 65.5t59.5 167.5 t-59 168t-154 66q-94 0 -154.5 -65.5t-60.5 -168.5z" />
<glyph unicode="&#xe1;" horiz-adv-x="1343" d="M76 524q0 156 61.5 284t174 205t255.5 77q94 0 174 -41t127 -115l4 123h347v-1057h-347l-4 121q-47 -74 -128 -114t-183 -40q-137 0 -245.5 68.5t-172 195.5t-63.5 293zM442 528q0 -102 60.5 -167.5t154.5 -65.5t153.5 65.5t59.5 167.5t-59 168t-154 66 q-94 0 -154.5 -65.5t-60.5 -168.5zM477 1249l215 348h395l-303 -348h-307z" />
<glyph unicode="&#xe2;" horiz-adv-x="1343" d="M76 524q0 156 61.5 284t174 205t255.5 77q94 0 174 -41t127 -115l4 123h347v-1057h-347l-4 121q-47 -74 -128 -114t-183 -40q-137 0 -245.5 68.5t-172 195.5t-63.5 293zM256 1249l280 348h320l280 -348h-313l-127 158l-127 -158h-313zM442 528q0 -102 60.5 -167.5 t154.5 -65.5t153.5 65.5t59.5 167.5t-59 168t-154 66q-94 0 -154.5 -65.5t-60.5 -168.5z" />
<glyph unicode="&#xe3;" horiz-adv-x="1343" d="M76 524q0 156 61.5 284t174 205t255.5 77q94 0 174 -41t127 -115l4 123h347v-1057h-347l-4 121q-47 -74 -128 -114t-183 -40q-137 0 -245.5 68.5t-172 195.5t-63.5 293zM288 1247v19q2 156 62.5 240.5t171.5 84.5q59 0 102 -16t75 -37.5t59.5 -38t56.5 -16.5 q31 0 44 23.5t13 80.5h232v-18q-2 -156 -62.5 -241t-169.5 -85q-59 0 -102 16.5t-75 38t-59.5 38t-56.5 16.5q-33 0 -46 -23.5t-13 -81.5h-232zM442 528q0 -102 60.5 -167.5t154.5 -65.5t153.5 65.5t59.5 167.5t-59 168t-154 66q-94 0 -154.5 -65.5t-60.5 -168.5z" />
<glyph unicode="&#xe4;" horiz-adv-x="1343" d="M76 524q0 156 61.5 284t174 205t255.5 77q94 0 174 -41t127 -115l4 123h347v-1057h-347l-4 121q-47 -74 -128 -114t-183 -40q-137 0 -245.5 68.5t-172 195.5t-63.5 293zM278 1389q0 74 49.5 118.5t124.5 44.5q76 0 125 -46t49 -117q0 -74 -48 -119t-126 -45t-126 45 t-48 119zM442 528q0 -102 60.5 -167.5t154.5 -65.5t153.5 65.5t59.5 167.5t-59 168t-154 66q-94 0 -154.5 -65.5t-60.5 -168.5zM766 1389q0 72 49 117.5t125 45.5t125 -45t49 -118q0 -74 -48 -119t-126 -45t-126 45t-48 119z" />
<glyph unicode="&#xe5;" horiz-adv-x="1343" d="M76 524q0 156 61.5 284t174 205t255.5 77q94 0 174 -41t127 -115l4 123h347v-1057h-347l-4 121q-47 -74 -128 -114t-183 -40q-137 0 -245.5 68.5t-172 195.5t-63.5 293zM391 1458q0 123 86 205t219 82t219 -82t86 -205t-86 -205t-219 -82t-219 82t-86 205zM442 528 q0 -102 60.5 -167.5t154.5 -65.5t153.5 65.5t59.5 167.5t-59 168t-154 66q-94 0 -154.5 -65.5t-60.5 -168.5zM590 1458q0 -47 28.5 -76.5t77.5 -29.5t77.5 29.5t28.5 76.5q0 49 -28.5 78t-77.5 29t-77.5 -29t-28.5 -78z" />
<glyph unicode="&#xe6;" horiz-adv-x="2041" d="M76 524q0 156 61.5 284t174 205t255.5 77q96 0 174 -41t127 -115l4 123h306v-90q117 123 303 123q215 0 344 -143.5t129 -383.5q0 -74 -12 -129h-697q53 -180 324 -180q88 0 178 18.5t160 51.5l32 -277q-80 -37 -180 -58.5t-198 -21.5q-127 0 -225.5 34t-155.5 97l-2 -98 h-306l-4 121q-49 -74 -130 -114t-181 -40q-137 0 -245.5 68.5t-172 195.5t-63.5 293zM442 528q0 -102 60.5 -167.5t154.5 -65.5t153.5 65.5t59.5 167.5t-59 168t-154 66q-94 0 -154.5 -65.5t-60.5 -168.5zM1239 655h369q-10 84 -57.5 130t-120.5 46q-156 0 -191 -176z" />
<glyph unicode="&#xe7;" horiz-adv-x="1112" d="M76 524q0 160 71.5 287t204.5 200.5t307 73.5q96 0 196.5 -22.5t166.5 -56.5l-43 -310q-131 61 -272 62q-123 0 -194 -61.5t-71 -168.5q0 -109 72 -169t199 -60q129 0 278 61l37 -301q-72 -41 -169 -64.5t-197 -23.5q-172 0 -304.5 66.5t-207 191.5t-74.5 295zM342 -508 l35 170q51 -25 135 -24q51 0 79 17t28 50q0 61 -113 62q-41 0 -65 -5l73 258h193l-39 -129q98 -8 154.5 -62t56.5 -140q0 -109 -86 -172.5t-231 -63.5q-59 0 -126 11.5t-94 27.5z" />
<glyph unicode="&#xe8;" horiz-adv-x="1234" d="M76 528q0 160 67.5 287t193.5 201t292 74q238 0 378 -142.5t140 -386.5q0 -72 -12 -127h-697q29 -92 108 -136t216 -44q88 0 178 18.5t160 51.5l33 -277q-84 -39 -193.5 -59.5t-226.5 -20.5q-193 0 -336.5 66.5t-222 192.5t-78.5 302zM232 1597h393l217 -348h-307z M432 655h371q-8 82 -56.5 129t-123.5 47q-156 0 -191 -176z" />
<glyph unicode="&#xe9;" horiz-adv-x="1234" d="M76 528q0 160 67.5 287t193.5 201t292 74q238 0 378 -142.5t140 -386.5q0 -72 -12 -127h-697q29 -92 108 -136t216 -44q88 0 178 18.5t160 51.5l33 -277q-84 -39 -193.5 -59.5t-226.5 -20.5q-193 0 -336.5 66.5t-222 192.5t-78.5 302zM402 1249l215 348h395l-303 -348 h-307zM432 655h371q-8 82 -56.5 129t-123.5 47q-156 0 -191 -176z" />
<glyph unicode="&#xea;" horiz-adv-x="1234" d="M76 528q0 160 67.5 287t193.5 201t292 74q238 0 378 -142.5t140 -386.5q0 -72 -12 -127h-697q29 -92 108 -136t216 -44q88 0 178 18.5t160 51.5l33 -277q-84 -39 -193.5 -59.5t-226.5 -20.5q-193 0 -336.5 66.5t-222 192.5t-78.5 302zM181 1249l280 348h320l280 -348 h-313l-127 158l-127 -158h-313zM432 655h371q-8 82 -56.5 129t-123.5 47q-156 0 -191 -176z" />
<glyph unicode="&#xeb;" horiz-adv-x="1234" d="M76 528q0 160 67.5 287t193.5 201t292 74q238 0 378 -142.5t140 -386.5q0 -72 -12 -127h-697q29 -92 108 -136t216 -44q88 0 178 18.5t160 51.5l33 -277q-84 -39 -193.5 -59.5t-226.5 -20.5q-193 0 -336.5 66.5t-222 192.5t-78.5 302zM203 1389q0 74 49.5 118.5 t124.5 44.5q76 0 125 -46t49 -117q0 -74 -48 -119t-126 -45t-126 45t-48 119zM432 655h371q-8 82 -56.5 129t-123.5 47q-156 0 -191 -176zM691 1389q0 72 49 117.5t125 45.5t125 -45t49 -118q0 -74 -48 -119t-126 -45t-126 45t-48 119z" />
<glyph unicode="&#xec;" horiz-adv-x="618" d="M-80 1597h393l217 -348h-307zM125 0v1057h369v-1057h-369z" />
<glyph unicode="&#xed;" horiz-adv-x="618" d="M90 1249l215 348h395l-303 -348h-307zM125 0v1057h369v-1057h-369z" />
<glyph unicode="&#xee;" horiz-adv-x="618" d="M-131 1249l280 348h320l280 -348h-313l-127 158l-127 -158h-313zM125 0v1057h369v-1057h-369z" />
<glyph unicode="&#xef;" horiz-adv-x="618" d="M-109 1389q0 74 49.5 118.5t124.5 44.5q76 0 125 -46t49 -117q0 -74 -48 -119t-126 -45t-126 45t-48 119zM125 0v1057h369v-1057h-369zM379 1389q0 72 49 117.5t125 45.5t125 -45t49 -118q0 -74 -48 -119t-126 -45t-126 45t-48 119z" />
<glyph unicode="&#xf0;" horiz-adv-x="1312" d="M76 516q0 145 63.5 269t178 200t257.5 76q129 0 216 -70q-51 113 -158 266l-330 -131l-72 181l267 108q-127 129 -244 219l434 29q63 -51 133 -125l244 98l70 -182l-183 -74q139 -186 211 -383.5t72 -392.5q0 -305 -154.5 -471t-437.5 -166q-162 0 -290 67.5 t-202.5 192.5t-74.5 289zM440 518q0 -100 60.5 -163.5t156.5 -63.5t156.5 63.5t60.5 163.5t-60 163.5t-157 63.5q-96 0 -156.5 -63.5t-60.5 -163.5z" />
<glyph unicode="&#xf1;" horiz-adv-x="1280" d="M125 0v1057h360l4 -131q39 78 119 121t185 43q182 0 275 -114t93 -333v-643h-368v573q0 188 -142 189q-76 0 -116.5 -52.5t-40.5 -150.5v-559h-369zM239 1247v19q2 156 62.5 240.5t171.5 84.5q59 0 102 -16t75 -37.5t59.5 -38t56.5 -16.5q31 0 44 23.5t13 80.5h232v-18 q-2 -156 -62.5 -241t-169.5 -85q-59 0 -102 16.5t-75 38t-59.5 38t-56.5 16.5q-33 0 -46 -23.5t-13 -81.5h-232z" />
<glyph unicode="&#xf2;" horiz-adv-x="1312" d="M76 528q0 154 72.5 282t205.5 204t303 76q160 0 292 -70t210 -199t78 -293q0 -154 -71.5 -280.5t-205 -203.5t-303.5 -77q-160 0 -292 69.5t-210.5 199t-78.5 292.5zM268 1597h393l217 -348h-307zM442 528q0 -102 60.5 -167.5t154.5 -65.5t153.5 65.5t59.5 167.5t-59 168 t-154 66q-94 0 -154.5 -65.5t-60.5 -168.5z" />
<glyph unicode="&#xf3;" horiz-adv-x="1312" d="M76 528q0 154 72.5 282t205.5 204t303 76q160 0 292 -70t210 -199t78 -293q0 -154 -71.5 -280.5t-205 -203.5t-303.5 -77q-160 0 -292 69.5t-210.5 199t-78.5 292.5zM438 1249l215 348h395l-303 -348h-307zM442 528q0 -102 60.5 -167.5t154.5 -65.5t153.5 65.5 t59.5 167.5t-59 168t-154 66q-94 0 -154.5 -65.5t-60.5 -168.5z" />
<glyph unicode="&#xf4;" horiz-adv-x="1312" d="M76 528q0 154 72.5 282t205.5 204t303 76q160 0 292 -70t210 -199t78 -293q0 -154 -71.5 -280.5t-205 -203.5t-303.5 -77q-160 0 -292 69.5t-210.5 199t-78.5 292.5zM217 1249l280 348h320l280 -348h-313l-127 158l-127 -158h-313zM442 528q0 -102 60.5 -167.5 t154.5 -65.5t153.5 65.5t59.5 167.5t-59 168t-154 66q-94 0 -154.5 -65.5t-60.5 -168.5z" />
<glyph unicode="&#xf5;" horiz-adv-x="1312" d="M76 528q0 154 72.5 282t205.5 204t303 76q160 0 292 -70t210 -199t78 -293q0 -154 -71.5 -280.5t-205 -203.5t-303.5 -77q-160 0 -292 69.5t-210.5 199t-78.5 292.5zM249 1247v19q2 156 62.5 240.5t171.5 84.5q59 0 102 -16t75 -37.5t59.5 -38t56.5 -16.5q31 0 44 23.5 t13 80.5h232v-18q-2 -156 -62.5 -241t-169.5 -85q-59 0 -102 16.5t-75 38t-59.5 38t-56.5 16.5q-33 0 -46 -23.5t-13 -81.5h-232zM442 528q0 -102 60.5 -167.5t154.5 -65.5t153.5 65.5t59.5 167.5t-59 168t-154 66q-94 0 -154.5 -65.5t-60.5 -168.5z" />
<glyph unicode="&#xf6;" horiz-adv-x="1312" d="M76 528q0 154 72.5 282t205.5 204t303 76q160 0 292 -70t210 -199t78 -293q0 -154 -71.5 -280.5t-205 -203.5t-303.5 -77q-160 0 -292 69.5t-210.5 199t-78.5 292.5zM239 1389q0 74 49.5 118.5t124.5 44.5q76 0 125 -46t49 -117q0 -74 -48 -119t-126 -45t-126 45t-48 119 zM442 528q0 -102 60.5 -167.5t154.5 -65.5t153.5 65.5t59.5 167.5t-59 168t-154 66q-94 0 -154.5 -65.5t-60.5 -168.5zM727 1389q0 72 49 117.5t125 45.5t125 -45t49 -118q0 -74 -48 -119t-126 -45t-126 45t-48 119z" />
<glyph unicode="&#xf7;" horiz-adv-x="1323" d="M170 535v305h985v-305h-985zM481 274q0 72 51.5 119t129.5 47t129 -47t51 -119q0 -74 -50 -119.5t-130 -45.5t-130.5 46t-50.5 119zM481 1102q0 72 51.5 119t129.5 47t129 -47t51 -119q0 -74 -50 -120t-130 -46t-130.5 46t-50.5 120z" />
<glyph unicode="&#xf8;" horiz-adv-x="1312" d="M70 78l114 112q-109 143 -108 338q0 154 72.5 282t205.5 204t303 76q190 0 342 -103l117 115l127 -123l-115 -113q109 -143 109 -338q0 -154 -71.5 -280.5t-205 -203.5t-303.5 -77q-197 0 -346 99l-114 -113zM401 528q0 -68 17 -108l362 354q-55 31 -123 31 q-115 0 -185.5 -77t-70.5 -200zM530 281q55 -31 127 -31q113 0 183.5 78t70.5 200q0 59 -18 109z" />
<glyph unicode="&#xf9;" horiz-adv-x="1280" d="M119 414v643h368v-574q0 -188 142 -188q76 0 116 52q41 52 41 151v559h369v-1057h-360l-4 131q-39 -78 -119 -121q-81 -43 -185 -43q-182 0 -275 114t-93 333zM242 1597h393l217 -348h-307z" />
<glyph unicode="&#xfa;" horiz-adv-x="1280" d="M119 414v643h368v-574q0 -188 142 -188q76 0 116 52q41 52 41 151v559h369v-1057h-360l-4 131q-39 -78 -119 -121q-81 -43 -185 -43q-182 0 -275 114t-93 333zM412 1249l215 348h395l-303 -348h-307z" />
<glyph unicode="&#xfb;" horiz-adv-x="1280" d="M119 414v643h368v-574q0 -188 142 -188q76 0 116 52q41 52 41 151v559h369v-1057h-360l-4 131q-39 -78 -119 -121q-81 -43 -185 -43q-182 0 -275 114t-93 333zM191 1249l280 348h320l280 -348h-313l-127 158l-127 -158h-313z" />
<glyph unicode="&#xfc;" horiz-adv-x="1280" d="M119 414v643h368v-574q0 -188 142 -188q76 0 116 52q41 52 41 151v559h369v-1057h-360l-4 131q-39 -78 -119 -121q-81 -43 -185 -43q-182 0 -275 114t-93 333zM213 1389q0 74 49.5 118.5t124.5 44.5q76 0 125 -46t49 -117q0 -74 -48 -119t-126 -45t-126 45t-48 119z M701 1389q0 72 49 117.5t125 45.5t125 -45t49 -118q0 -74 -48 -119t-126 -45t-126 45t-48 119z" />
<glyph unicode="&#xfd;" horiz-adv-x="1267" d="M27 1057h403l215 -608l203 608h395l-676 -1559h-374l268 561zM420 1249l215 348h395l-303 -348h-307z" />
<glyph unicode="&#xfe;" horiz-adv-x="1343" d="M125 -502v2161h369v-698q49 61 125.5 95t166.5 34q137 0 246 -69t172.5 -196t63.5 -293q0 -156 -61.5 -283.5t-174 -204.5t-256.5 -77q-86 0 -160.5 34t-121.5 93v-596h-369zM473 528q0 -102 59.5 -167.5t153.5 -65.5t154.5 65.5t60.5 167.5t-60.5 168t-154.5 66 t-153.5 -65.5t-59.5 -168.5z" />
<glyph unicode="&#xff;" horiz-adv-x="1267" d="M27 1057h403l215 -608l203 608h395l-676 -1559h-374l268 561zM221 1389q0 74 49.5 118.5t124.5 44.5q76 0 125 -46t49 -117q0 -74 -48 -119t-126 -45t-126 45t-48 119zM709 1389q0 72 49 117.5t125 45.5t125 -45t49 -118q0 -74 -48 -119t-126 -45t-126 45t-48 119z" />
<glyph unicode="&#x100;" horiz-adv-x="1732" d="M43 0l610 1556h426l611 -1556h-433l-120 358h-568l-118 -358h-408zM516 1720v250h702v-250h-702zM674 672h356l-178 530z" />
<glyph unicode="&#x101;" horiz-adv-x="1343" d="M76 524q0 156 61.5 284t174 205t255.5 77q94 0 174 -41t127 -115l4 123h347v-1057h-347l-4 121q-47 -74 -128 -114t-183 -40q-137 0 -245.5 68.5t-172 195.5t-63.5 293zM352 1270v246h688v-246h-688zM442 528q0 -102 60.5 -167.5t154.5 -65.5t153.5 65.5t59.5 167.5 t-59 168t-154 66q-94 0 -154.5 -65.5t-60.5 -168.5z" />
<glyph unicode="&#x102;" horiz-adv-x="1732" d="M43 0l610 1556h426l611 -1556h-433l-120 358h-568l-118 -358h-408zM469 2005q0 18 2 23h256q0 -66 35.5 -103t103.5 -37t103.5 37t35.5 103h256q2 -6 2 -23q0 -154 -107.5 -244t-289.5 -90t-289.5 90t-107.5 244zM674 672h356l-178 530z" />
<glyph unicode="&#x103;" horiz-adv-x="1343" d="M76 524q0 156 61.5 284t174 205t255.5 77q94 0 174 -41t127 -115l4 123h347v-1057h-347l-4 121q-47 -74 -128 -114t-183 -40q-137 0 -245.5 68.5t-172 195.5t-63.5 293zM307 1538q0 23 2 29h242q0 -154 145 -154t145 154h242q2 -6 2 -29q0 -156 -103.5 -246t-285.5 -90 t-285.5 90t-103.5 246zM442 528q0 -102 60.5 -167.5t154.5 -65.5t153.5 65.5t59.5 167.5t-59 168t-154 66q-94 0 -154.5 -65.5t-60.5 -168.5z" />
<glyph unicode="&#x104;" horiz-adv-x="1732" d="M43 0l610 1556h426l611 -1556h-433l-120 358h-568l-118 -358h-408zM674 672h356l-178 530zM1237 -307q0 111 88 214t250 183l115 -90q-164 -121 -164 -217q0 -63 78 -64q45 0 80 21l20 -240q-29 -18 -79 -29.5t-103 -11.5q-135 0 -210 61.5t-75 172.5z" />
<glyph unicode="&#x105;" horiz-adv-x="1343" d="M76 524q0 156 61.5 284t174 205t255.5 77q94 0 174 -41t127 -115l4 123h347v-1057h-347l-4 121q-47 -74 -128 -114t-183 -40q-137 0 -245.5 68.5t-172 195.5t-63.5 293zM442 528q0 -102 60.5 -167.5t154.5 -65.5t153.5 65.5t59.5 167.5t-59 168t-154 66 q-94 0 -154.5 -65.5t-60.5 -168.5zM766 -307q0 109 89 214t249 183l114 -90q-90 -63 -133 -115.5t-43 -101.5q0 -33 22.5 -52.5t61.5 -19.5q53 0 86 19l21 -230q-25 -18 -77.5 -29.5t-107.5 -11.5q-131 0 -206.5 62.5t-75.5 171.5z" />
<glyph unicode="&#x106;" horiz-adv-x="1554" d="M92 774q0 168 57.5 313.5t169 256t271.5 173t354 62.5q135 0 268.5 -33t225.5 -88l-66 -340q-94 47 -198.5 73t-204.5 26q-209 0 -331 -119t-122 -322t122 -319.5t335 -116.5q96 0 214 33t220 86l43 -355q-96 -57 -236.5 -92t-279.5 -35q-254 0 -443.5 94.5t-294 274.5 t-104.5 428zM608 1710l240 315h428l-334 -315h-334z" />
<glyph unicode="&#x107;" horiz-adv-x="1112" d="M76 524q0 160 71.5 287t204.5 200.5t307 73.5q96 0 196.5 -22.5t166.5 -56.5l-43 -310q-131 61 -272 62q-123 0 -194 -61.5t-71 -168.5q0 -109 72 -169t199 -60q129 0 278 61l37 -301q-72 -41 -169 -64.5t-197 -23.5q-172 0 -304.5 66.5t-207 191.5t-74.5 295zM387 1249 l215 348h395l-303 -348h-307z" />
<glyph unicode="&#x10a;" horiz-adv-x="1554" d="M92 774q0 168 57.5 313.5t169 256t271.5 173t354 62.5q135 0 268.5 -33t225.5 -88l-66 -340q-94 47 -198.5 73t-204.5 26q-209 0 -331 -119t-122 -322t122 -319.5t335 -116.5q96 0 214 33t220 86l43 -355q-96 -57 -236.5 -92t-279.5 -35q-254 0 -443.5 94.5t-294 274.5 t-104.5 428zM651 1890q0 84 57.5 137.5t147.5 53.5t147.5 -53.5t57.5 -137.5q0 -86 -57.5 -139t-147.5 -53t-147.5 53t-57.5 139z" />
<glyph unicode="&#x10b;" horiz-adv-x="1112" d="M76 524q0 160 71.5 287t204.5 200.5t307 73.5q96 0 196.5 -22.5t166.5 -56.5l-43 -310q-131 61 -272 62q-123 0 -194 -61.5t-71 -168.5q0 -109 72 -169t199 -60q129 0 278 61l37 -301q-72 -41 -169 -64.5t-197 -23.5q-172 0 -304.5 66.5t-207 191.5t-74.5 295zM413 1403 q0 82 53.5 132t139.5 50t139.5 -50t53.5 -132q0 -80 -53.5 -130t-139.5 -50t-139.5 50t-53.5 130z" />
<glyph unicode="&#x10c;" horiz-adv-x="1554" d="M92 774q0 168 57.5 313.5t169 256t271.5 173t354 62.5q135 0 268.5 -33t225.5 -88l-66 -340q-94 47 -198.5 73t-204.5 26q-209 0 -331 -119t-122 -322t122 -319.5t335 -116.5q96 0 214 33t220 86l43 -355q-96 -57 -236.5 -92t-279.5 -35q-254 0 -443.5 94.5t-294 274.5 t-104.5 428zM379 2032h354l123 -142l123 142h354l-293 -322h-368z" />
<glyph unicode="&#x10d;" horiz-adv-x="1112" d="M76 524q0 160 71.5 287t204.5 200.5t307 73.5q96 0 196.5 -22.5t166.5 -56.5l-43 -310q-131 61 -272 62q-123 0 -194 -61.5t-71 -168.5q0 -109 72 -169t199 -60q129 0 278 61l37 -301q-72 -41 -169 -64.5t-197 -23.5q-172 0 -304.5 66.5t-207 191.5t-74.5 295zM166 1597 h313l127 -159l127 159h313l-280 -348h-320z" />
<glyph unicode="&#x10e;" horiz-adv-x="1759" d="M164 0v1556h620q426 0 654.5 -200.5t228.5 -577.5q0 -369 -235.5 -573.5t-657.5 -204.5h-610zM328 2032h354l123 -142l123 142h354l-293 -322h-368zM569 334h191q483 0 483 444t-483 445h-191v-889z" />
<glyph unicode="&#x10f;" horiz-adv-x="1343" d="M76 524q0 156 61.5 284t174 205t255.5 77q86 0 160 -34t123 -95v698h369v-1659h-347l-4 121q-47 -74 -128 -114t-183 -40q-137 0 -245.5 68.5t-172 195.5t-63.5 293zM442 528q0 -102 60.5 -167.5t154.5 -65.5t153.5 65.5t59.5 167.5t-59 168t-154 66q-94 0 -154.5 -65.5 t-60.5 -168.5zM1347 1157l25 502h340l-127 -502h-238z" />
<glyph unicode="&#x110;" horiz-adv-x="1787" d="M27 653v260h166v643h620q426 0 654.5 -200.5t228.5 -577.5q0 -369 -235.5 -573.5t-657.5 -204.5h-610v653h-166zM598 334h190q483 0 484 444q0 444 -484 445h-190v-310h285v-260h-285v-319z" />
<glyph unicode="&#x111;" horiz-adv-x="1343" d="M76 524q0 156 61.5 284t174 205t255.5 77q86 0 160 -34t123 -95v280h-277v213h277v205h369v-205h153v-213h-153v-1241h-347l-4 121q-47 -74 -128 -114t-183 -40q-137 0 -245.5 68.5t-172 195.5t-63.5 293zM442 528q0 -102 60.5 -167.5t154.5 -65.5t153.5 65.5t59.5 167.5 t-59 168t-154 66q-94 0 -154.5 -65.5t-60.5 -168.5z" />
<glyph unicode="&#x112;" horiz-adv-x="1390" d="M164 0v1556h1081v-327h-690v-279h606v-323h-606v-299h719v-328h-1110zM371 1720v250h702v-250h-702z" />
<glyph unicode="&#x113;" horiz-adv-x="1234" d="M76 528q0 160 67.5 287t193.5 201t292 74q238 0 378 -142.5t140 -386.5q0 -72 -12 -127h-697q29 -92 108 -136t216 -44q88 0 178 18.5t160 51.5l33 -277q-84 -39 -193.5 -59.5t-226.5 -20.5q-193 0 -336.5 66.5t-222 192.5t-78.5 302zM277 1270v246h688v-246h-688z M432 655h371q-8 82 -56.5 129t-123.5 47q-156 0 -191 -176z" />
<glyph unicode="&#x116;" horiz-adv-x="1390" d="M164 0v1556h1081v-327h-690v-279h606v-323h-606v-299h719v-328h-1110zM516 1890q0 84 57.5 137.5t147.5 53.5t147.5 -53.5t57.5 -137.5q0 -86 -57.5 -139t-147.5 -53t-147.5 53t-57.5 139z" />
<glyph unicode="&#x117;" horiz-adv-x="1234" d="M76 528q0 160 67.5 287t193.5 201t292 74q238 0 378 -142.5t140 -386.5q0 -72 -12 -127h-697q29 -92 108 -136t216 -44q88 0 178 18.5t160 51.5l33 -277q-84 -39 -193.5 -59.5t-226.5 -20.5q-193 0 -336.5 66.5t-222 192.5t-78.5 302zM428 1403q0 82 53.5 132t139.5 50 t139.5 -50t53.5 -132q0 -80 -53.5 -130t-139.5 -50t-139.5 50t-53.5 130zM432 655h371q-8 82 -56.5 129t-123.5 47q-156 0 -191 -176z" />
<glyph unicode="&#x118;" horiz-adv-x="1390" d="M164 0v1556h1081v-327h-690v-279h606v-323h-606v-299h719v-328h-1110zM821 -307q0 111 88 214t250 183l115 -90q-164 -121 -164 -217q0 -63 78 -64q45 0 80 21l20 -240q-29 -18 -79 -29.5t-103 -11.5q-135 0 -210 61.5t-75 172.5z" />
<glyph unicode="&#x119;" horiz-adv-x="1234" d="M76 528q0 160 67.5 287t193.5 201t292 74q238 0 378 -142.5t140 -386.5q0 -72 -12 -127h-697q29 -92 108 -136t216 -44q88 0 178 18.5t160 51.5l33 -277q-84 -39 -193.5 -59.5t-226.5 -20.5q-193 0 -336.5 66.5t-222 192.5t-78.5 302zM432 655h371q-8 82 -56.5 129 t-123.5 47q-156 0 -191 -176zM649 -313q0 119 91.5 222t256.5 173l136 -35q-100 -68 -153.5 -135.5t-53.5 -124.5q0 -76 86 -76q53 0 88 21l20 -232q-29 -18 -80 -29.5t-104 -11.5q-137 0 -212 59.5t-75 168.5z" />
<glyph unicode="&#x11a;" horiz-adv-x="1390" d="M164 0v1556h1081v-327h-690v-279h606v-323h-606v-299h719v-328h-1110zM244 2032h354l123 -142l123 142h354l-293 -322h-368z" />
<glyph unicode="&#x11b;" horiz-adv-x="1234" d="M76 528q0 160 67.5 287t193.5 201t292 74q238 0 378 -142.5t140 -386.5q0 -72 -12 -127h-697q29 -92 108 -136t216 -44q88 0 178 18.5t160 51.5l33 -277q-84 -39 -193.5 -59.5t-226.5 -20.5q-193 0 -336.5 66.5t-222 192.5t-78.5 302zM181 1597h313l127 -159l127 159h313 l-280 -348h-320zM432 655h371q-8 82 -56.5 129t-123.5 47q-156 0 -191 -176z" />
<glyph unicode="&#x11e;" horiz-adv-x="1695" d="M92 756q0 244 109.5 429t316.5 289.5t486 104.5q141 0 284.5 -31.5t253.5 -87.5l-72 -342q-231 104 -471 105q-223 0 -358 -123t-135 -328q0 -209 129 -326.5t356 -117.5q90 0 187 20v244h-246v309h637v-803q-270 -121 -608 -121q-260 0 -456 93.5t-304.5 269.5 t-108.5 416zM498 2005q0 18 2 23h256q0 -66 35.5 -103t103.5 -37t103.5 37t35.5 103h256q2 -6 2 -23q0 -154 -107.5 -244t-289.5 -90t-289.5 90t-107.5 244z" />
<glyph unicode="&#x11f;" horiz-adv-x="1343" d="M76 524q0 156 61.5 284t174 205t255.5 77q94 0 174 -41t127 -115l4 123h347v-971q0 -299 -155 -452.5t-456 -153.5q-111 0 -229.5 24.5t-183.5 59.5l36 321q63 -37 155.5 -60.5t170.5 -23.5q309 0 309 273v49q-49 -66 -129 -101.5t-180 -35.5q-135 0 -243.5 65.5 t-173 188t-64.5 284.5zM305 1538q0 23 2 29h242q0 -154 145 -154t145 154h242q2 -6 2 -29q0 -156 -103.5 -246t-285.5 -90t-285.5 90t-103.5 246zM442 528q0 -94 60.5 -154.5t154.5 -60.5t153.5 60.5t59.5 154.5q0 102 -59 168t-154 66q-94 0 -154.5 -65.5t-60.5 -168.5z " />
<glyph unicode="&#x120;" horiz-adv-x="1695" d="M92 756q0 244 109.5 429t316.5 289.5t486 104.5q141 0 284.5 -31.5t253.5 -87.5l-72 -342q-231 104 -471 105q-223 0 -358 -123t-135 -328q0 -209 129 -326.5t356 -117.5q90 0 187 20v244h-246v309h637v-803q-270 -121 -608 -121q-260 0 -456 93.5t-304.5 269.5 t-108.5 416zM690 1890q0 84 57.5 137.5t147.5 53.5t147.5 -53.5t57.5 -137.5q0 -86 -57.5 -139t-147.5 -53t-147.5 53t-57.5 139z" />
<glyph unicode="&#x121;" horiz-adv-x="1343" d="M76 524q0 156 61.5 284t174 205t255.5 77q94 0 174 -41t127 -115l4 123h347v-971q0 -299 -155 -452.5t-456 -153.5q-111 0 -229.5 24.5t-183.5 59.5l36 321q63 -37 155.5 -60.5t170.5 -23.5q309 0 309 273v49q-49 -66 -129 -101.5t-180 -35.5q-135 0 -243.5 65.5 t-173 188t-64.5 284.5zM442 528q0 -94 60.5 -154.5t154.5 -60.5t153.5 60.5t59.5 154.5q0 102 -59 168t-154 66q-94 0 -154.5 -65.5t-60.5 -168.5zM501 1403q0 82 53.5 132t139.5 50t139.5 -50t53.5 -132q0 -80 -53.5 -130t-139.5 -50t-139.5 50t-53.5 130z" />
<glyph unicode="&#x122;" horiz-adv-x="1695" d="M92 756q0 244 109.5 429t316.5 289.5t486 104.5q141 0 284.5 -31.5t253.5 -87.5l-72 -342q-231 104 -471 105q-223 0 -358 -123t-135 -328q0 -209 129 -326.5t356 -117.5q90 0 187 20v244h-246v309h637v-803q-270 -121 -608 -121q-260 0 -456 93.5t-304.5 269.5 t-108.5 416zM655 -510q39 80 61.5 185.5t22.5 197.5h332q0 -94 -41 -205.5t-98 -177.5h-277z" />
<glyph unicode="&#x123;" horiz-adv-x="1343" d="M76 524q0 156 61.5 284t174 205t255.5 77q94 0 174 -41t127 -115l4 123h347v-971q0 -299 -155 -452.5t-456 -153.5q-111 0 -229.5 24.5t-183.5 59.5l36 321q63 -37 155.5 -60.5t170.5 -23.5q309 0 309 273v49q-49 -66 -129 -101.5t-180 -35.5q-135 0 -243.5 65.5 t-173 188t-64.5 284.5zM442 528q0 -94 60.5 -154.5t154.5 -60.5t153.5 60.5t59.5 154.5q0 102 -59 168t-154 66q-94 0 -154.5 -65.5t-60.5 -168.5zM501 1249q2 98 42 204t100 169h256q-39 -84 -60.5 -182.5t-21.5 -190.5h-316z" />
<glyph unicode="&#x126;" horiz-adv-x="1853" d="M43 1104v244h166v208h414v-208h608v208h414v-208h165v-244h-165v-1104h-414v569h-608v-569h-414v1104h-166zM623 903h608v201h-608v-201z" />
<glyph unicode="&#x127;" horiz-adv-x="1280" d="M-27 1241v213h152v205h369v-205h278v-213h-278v-297q45 70 122.5 108t176.5 38q182 0 275 -114t93 -333v-643h-368v573q0 188 -142 189q-76 0 -116.5 -52.5t-40.5 -150.5v-559h-369v1241h-152z" />
<glyph unicode="&#x128;" horiz-adv-x="741" d="M-41 1706v14q2 166 64.5 252t181.5 86q55 0 96 -16.5t73 -35.5t58.5 -35.5t55.5 -16.5t42 23.5t13 76.5h240v-14q-2 -166 -64.5 -252t-181.5 -86q-55 0 -96 16.5t-72 36t-58.5 35.5t-54.5 16q-31 0 -44 -23.5t-13 -76.5h-240zM164 0v1556h414v-1556h-414z" />
<glyph unicode="&#x129;" horiz-adv-x="618" d="M-99 1247v19q2 156 62.5 240.5t171.5 84.5q59 0 102 -16t75 -37.5t59.5 -38t56.5 -16.5q31 0 44 23.5t13 80.5h232v-18q-2 -156 -62.5 -241t-169.5 -85q-59 0 -102 16.5t-75 38t-59.5 38t-56.5 16.5q-33 0 -46 -23.5t-13 -81.5h-232zM125 0v1057h369v-1057h-369z" />
<glyph unicode="&#x12a;" horiz-adv-x="741" d="M21 1720v250h702v-250h-702zM164 0v1556h414v-1556h-414z" />
<glyph unicode="&#x12b;" horiz-adv-x="618" d="M-35 1270v246h688v-246h-688zM125 0v1057h369v-1057h-369z" />
<glyph unicode="&#x12e;" horiz-adv-x="741" d="M125 -307q0 111 88 214t250 183l115 -90q-164 -121 -164 -217q0 -63 78 -64q45 0 80 21l20 -240q-29 -18 -79 -29.5t-103 -11.5q-135 0 -210 61.5t-75 172.5zM164 0v1556h414v-1556h-414z" />
<glyph unicode="&#x12f;" horiz-adv-x="618" d="M41 -307q0 109 89 214t249 183l114 -90q-90 -63 -133 -115.5t-43 -101.5q0 -33 22.5 -52.5t61.5 -19.5q53 0 86 19l21 -230q-25 -18 -77.5 -29.5t-107.5 -11.5q-131 0 -206.5 62.5t-75.5 171.5zM102 1419q0 84 59.5 141.5t147.5 57.5t147.5 -57.5t59.5 -141.5t-59.5 -140 t-147.5 -56t-147.5 56t-59.5 140zM125 0v1057h369v-1057h-369z" />
<glyph unicode="&#x130;" horiz-adv-x="741" d="M164 0v1556h414v-1556h-414zM166 1890q0 84 57.5 137.5t147.5 53.5t147.5 -53.5t57.5 -137.5q0 -86 -57.5 -139t-147.5 -53t-147.5 53t-57.5 139z" />
<glyph unicode="&#x131;" horiz-adv-x="618" d="M125 0v1057h369v-1057h-369z" />
<glyph unicode="&#x132;" horiz-adv-x="1931" d="M164 0v1556h414v-1556h-414zM811 53l37 320q133 -70 276 -70q127 0 184.5 65.5t57.5 211.5v976h411v-1003q0 -586 -573 -586q-111 0 -218.5 23.5t-174.5 62.5z" />
<glyph unicode="&#x133;" horiz-adv-x="1236" d="M102 1419q0 84 59.5 141.5t147.5 57.5t147.5 -57.5t59.5 -141.5t-59.5 -140t-147.5 -56t-147.5 56t-59.5 140zM125 0v1057h369v-1057h-369zM387 -467l37 301q78 -33 158 -33q84 0 123 45t38 146v1065h369v-1094q0 -238 -115 -360q-114 -123 -333 -123q-88 0 -163 14 t-114 39zM721 1419q0 84 59 142q59 57 148 57q88 0 147 -57t60 -142q0 -84 -60 -140q-59 -56 -147 -56t-148 56q-59 56 -59 140z" />
<glyph unicode="&#x136;" horiz-adv-x="1671" d="M164 0v1556h407v-628l533 628h491l-667 -743l731 -813h-533l-555 657v-657h-407zM635 -510q39 80 61.5 185.5t22.5 197.5h332q0 -94 -41 -205.5t-98 -177.5h-277z" />
<glyph unicode="&#x137;" horiz-adv-x="1316" d="M125 0v1659h369v-981l321 379h430l-428 -479l500 -578h-457l-366 446v-446h-369zM392 -510q37 78 60.5 183.5t25.5 199.5h321q0 -94 -41 -205.5t-98 -177.5h-268z" />
<glyph unicode="&#x138;" horiz-adv-x="1318" d="M125 0v1057h369v-393l321 393h430l-438 -488l512 -569h-473l-352 416v-416h-369z" />
<glyph unicode="&#x139;" horiz-adv-x="1310" d="M125 1710l240 315h428l-334 -315h-334zM164 0v1556h414v-1224h661v-332h-1075z" />
<glyph unicode="&#x13a;" horiz-adv-x="618" d="M61 1741l240 315h428l-334 -315h-334zM125 0v1659h369v-1659h-369z" />
<glyph unicode="&#x13b;" horiz-adv-x="1310" d="M164 0v1556h414v-1224h661v-332h-1075zM463 -510q39 80 61.5 185.5t22.5 197.5h332q0 -94 -41 -205.5t-98 -177.5h-277z" />
<glyph unicode="&#x13c;" horiz-adv-x="618" d="M78 -510q37 78 60.5 183.5t25.5 199.5h321q0 -94 -41 -205.5t-98 -177.5h-268zM125 0v1659h369v-1659h-369z" />
<glyph unicode="&#x13d;" horiz-adv-x="1310" d="M164 0v1556h414v-1224h661v-332h-1075zM737 1157l25 502h340l-127 -502h-238z" />
<glyph unicode="&#x13e;" horiz-adv-x="618" d="M125 0v1659h369v-1659h-369zM622 1157l25 502h340l-127 -502h-238z" />
<glyph unicode="&#x141;" horiz-adv-x="1361" d="M31 666l184 104v786h414v-550l375 215l4 -320l-379 -217v-352h661v-332h-1075v449l-182 -103z" />
<glyph unicode="&#x142;" horiz-adv-x="778" d="M29 762l176 80v817h368v-653l172 77l5 -268l-177 -80v-735h-368v571l-172 -77z" />
<glyph unicode="&#x143;" horiz-adv-x="1765" d="M164 0v1556h352l711 -946v946h375v-1556h-355l-708 944v-944h-375zM614 1710l240 315h428l-334 -315h-334z" />
<glyph unicode="&#x144;" horiz-adv-x="1280" d="M125 0v1057h360l4 -131q39 78 119 121t185 43q182 0 275 -114t93 -333v-643h-368v573q0 188 -142 189q-76 0 -116.5 -52.5t-40.5 -150.5v-559h-369zM428 1249l215 348h395l-303 -348h-307z" />
<glyph unicode="&#x145;" horiz-adv-x="1765" d="M164 0v1556h352l711 -946v946h375v-1556h-355l-708 944v-944h-375zM651 -510q39 80 61.5 185.5t22.5 197.5h332q0 -94 -41 -205.5t-98 -177.5h-277z" />
<glyph unicode="&#x146;" horiz-adv-x="1280" d="M125 0v1057h360l4 -131q39 78 119 121t185 43q182 0 275 -114t93 -333v-643h-368v573q0 188 -142 189q-76 0 -116.5 -52.5t-40.5 -150.5v-559h-369zM385 -510q37 78 60.5 183.5t25.5 199.5h321q0 -94 -41 -205.5t-98 -177.5h-268z" />
<glyph unicode="&#x147;" horiz-adv-x="1765" d="M164 0v1556h352l711 -946v946h375v-1556h-355l-708 944v-944h-375zM385 2032h354l123 -142l123 142h354l-293 -322h-368z" />
<glyph unicode="&#x148;" horiz-adv-x="1280" d="M125 0v1057h360l4 -131q39 78 119 121t185 43q182 0 275 -114t93 -333v-643h-368v573q0 188 -142 189q-76 0 -116.5 -52.5t-40.5 -150.5v-559h-369zM207 1597h313l127 -159l127 159h313l-280 -348h-320z" />
<glyph unicode="&#x14c;" horiz-adv-x="1867" d="M92 778q0 219 105.5 403.5t299 296t437.5 111.5q236 0 426 -100t303 -285.5t113 -425.5q0 -219 -105.5 -403.5t-299 -296t-437.5 -111.5q-236 0 -426.5 100.5t-303 286t-112.5 424.5zM516 780q0 -127 51 -229t146.5 -161.5t220.5 -59.5q119 0 213 55t149.5 156.5 t55.5 234.5q0 127 -51.5 229.5t-146.5 162t-220 59.5q-119 0 -213 -55.5t-149.5 -157t-55.5 -234.5zM584 1720v250h702v-250h-702z" />
<glyph unicode="&#x14d;" horiz-adv-x="1312" d="M76 528q0 154 72.5 282t205.5 204t303 76q160 0 292 -70t210 -199t78 -293q0 -154 -71.5 -280.5t-205 -203.5t-303.5 -77q-160 0 -292 69.5t-210.5 199t-78.5 292.5zM313 1270v246h688v-246h-688zM442 528q0 -102 60.5 -167.5t154.5 -65.5t153.5 65.5t59.5 167.5t-59 168 t-154 66q-94 0 -154.5 -65.5t-60.5 -168.5z" />
<glyph unicode="&#x150;" horiz-adv-x="1867" d="M92 778q0 219 105.5 403.5t299 296t437.5 111.5q236 0 426 -100t303 -285.5t113 -425.5q0 -219 -105.5 -403.5t-299 -296t-437.5 -111.5q-236 0 -426.5 100.5t-303 286t-112.5 424.5zM492 1710l178 311h397l-242 -311h-333zM516 780q0 -127 51 -229t146.5 -161.5 t220.5 -59.5q119 0 213 55t149.5 156.5t55.5 234.5q0 127 -51.5 229.5t-146.5 162t-220 59.5q-119 0 -213 -55.5t-149.5 -157t-55.5 -234.5zM985 1710l178 311h398l-242 -311h-334z" />
<glyph unicode="&#x151;" horiz-adv-x="1312" d="M76 528q0 154 72.5 282t205.5 204t303 76q160 0 292 -70t210 -199t78 -293q0 -154 -71.5 -280.5t-205 -203.5t-303.5 -77q-160 0 -292 69.5t-210.5 199t-78.5 292.5zM272 1249l170 348h346l-231 -348h-285zM442 528q0 -102 60.5 -167.5t154.5 -65.5t153.5 65.5 t59.5 167.5t-59 168t-154 66q-94 0 -154.5 -65.5t-60.5 -168.5zM696 1249l172 348h344l-231 -348h-285z" />
<glyph unicode="&#x152;" horiz-adv-x="2545" d="M102 778q0 221 98.5 405.5t278.5 295t408 110.5q137 0 247.5 -40t184.5 -115v122h1081v-327h-690v-279h606v-323h-606v-299h719v-328h-1110v125q-160 -158 -434 -158q-217 0 -394.5 102.5t-283 288t-105.5 420.5zM526 780q0 -127 51.5 -229t146.5 -161.5t220 -59.5 q119 0 213 55t149.5 156.5t55.5 234.5q0 127 -51 229.5t-146.5 162t-220.5 59.5q-119 0 -213 -55.5t-149.5 -157t-55.5 -234.5z" />
<glyph unicode="&#x153;" horiz-adv-x="2027" d="M76 528q0 156 72.5 283t206.5 203t302 76q119 0 222.5 -51.5t169.5 -143.5q59 92 160.5 143.5t220.5 51.5q150 0 265 -62.5t179.5 -182.5t64.5 -284q0 -72 -12 -127h-696q53 -180 323 -180q88 0 178.5 18.5t159.5 51.5l33 -277q-170 -80 -403 -80q-147 0 -267 49.5 t-196 143.5q-72 -90 -178.5 -141.5t-223.5 -51.5q-160 0 -292 69.5t-210.5 197.5t-78.5 294zM442 528q0 -102 60.5 -167.5t154.5 -65.5q92 0 152.5 64.5t60.5 168.5t-60 169t-153 65q-92 0 -153.5 -64.5t-61.5 -169.5zM1225 655h368q-10 84 -57 130t-121 46 q-156 0 -190 -176z" />
<glyph unicode="&#x154;" horiz-adv-x="1525" d="M164 0v1556h561q287 0 447.5 -140t160.5 -386q0 -129 -61.5 -238.5t-173.5 -175.5l387 -616h-451l-272 504h-31.5t-37 -1t-23.5 -1h-113v-502h-393zM463 1710l240 315h428l-334 -315h-334zM557 813h113q270 0 270 219q0 109 -65.5 161t-200.5 52h-117v-432z" />
<glyph unicode="&#x155;" horiz-adv-x="917" d="M125 0v1057h358l4 -158q39 86 107 132t158 46q70 0 120 -22l-28 -348q-63 27 -135 26q-106 0 -160.5 -70.5t-54.5 -209.5v-453h-369zM268 1249l215 348h395l-303 -348h-307z" />
<glyph unicode="&#x158;" horiz-adv-x="1525" d="M164 0v1556h561q287 0 447.5 -140t160.5 -386q0 -129 -61.5 -238.5t-173.5 -175.5l387 -616h-451l-272 504h-31.5t-37 -1t-23.5 -1h-113v-502h-393zM234 2032h354l123 -142l123 142h354l-293 -322h-368zM557 813h113q270 0 270 219q0 109 -65.5 161t-200.5 52h-117v-432z " />
<glyph unicode="&#x159;" horiz-adv-x="917" d="M47 1597h313l127 -159l127 159h313l-280 -348h-320zM125 0v1057h358l4 -158q39 86 107 132t158 46q70 0 120 -22l-28 -348q-63 27 -135 26q-106 0 -160.5 -70.5t-54.5 -209.5v-453h-369z" />
<glyph unicode="&#x15a;" horiz-adv-x="1361" d="M92 100l37 334q96 -63 231.5 -101t262.5 -38q115 0 176 38t61 107q0 41 -25.5 70t-82 53.5t-158.5 52.5q-252 72 -363.5 190t-111.5 310q0 219 158.5 346t433.5 127q131 0 263 -32.5t222 -88.5l-53 -321q-84 51 -200 83t-216 32q-213 0 -213 -136q0 -55 48 -87.5 t188 -73.5q276 -80 396 -198t120 -310q0 -231 -165 -360.5t-460 -129.5q-100 0 -204.5 16.5t-195.5 47t-149 69.5zM432 1710l240 315h428l-334 -315h-334z" />
<glyph unicode="&#x15b;" horiz-adv-x="1060" d="M80 72l41 268q76 -49 172 -76.5t188 -27.5q133 0 133 63q0 33 -30.5 51.5t-124.5 42.5q-195 51 -278 133t-83 226q0 158 121 248t332 90q106 0 209.5 -23t171.5 -61l-37 -265q-74 37 -160 58.5t-162 21.5q-113 0 -112 -61q0 -33 32.5 -52.5t124.5 -41.5 q190 -47 276.5 -133.5t86.5 -229.5q0 -160 -125 -248t-352 -88q-125 0 -241 29t-183 76zM332 1249l215 348h395l-303 -348h-307z" />
<glyph unicode="&#x15e;" horiz-adv-x="1361" d="M92 100l37 334q96 -63 231.5 -101t262.5 -38q115 0 176 38t61 107q0 41 -25.5 70t-82 53.5t-158.5 52.5q-252 72 -363.5 190t-111.5 310q0 219 158.5 346t433.5 127q131 0 263 -32.5t222 -88.5l-53 -321q-84 51 -200 83t-216 32q-213 0 -213 -136q0 -55 48 -87.5 t188 -73.5q276 -80 396 -198t120 -310q0 -231 -165 -360.5t-460 -129.5q-100 0 -204.5 16.5t-195.5 47t-149 69.5zM402 -508l34 178q57 -25 129 -24q102 0 103 59q0 57 -107 57q-47 0 -65 -6l76 264h202l-37 -124q94 -8 153.5 -64.5t59.5 -136.5q0 -117 -89 -179.5 t-259 -62.5q-51 0 -109.5 11.5t-90.5 27.5z" />
<glyph unicode="&#x15f;" horiz-adv-x="1060" d="M80 72l41 268q76 -49 172 -76.5t188 -27.5q133 0 133 63q0 33 -30.5 51.5t-124.5 42.5q-195 51 -278 133t-83 226q0 158 121 248t332 90q106 0 209.5 -23t171.5 -61l-37 -265q-74 37 -160 58.5t-162 21.5q-113 0 -112 -61q0 -33 32.5 -52.5t124.5 -41.5 q190 -47 276.5 -133.5t86.5 -229.5q0 -160 -125 -248t-352 -88q-125 0 -241 29t-183 76zM252 -508l35 170q51 -25 135 -24q51 0 79 17t28 50q0 61 -113 62q-41 0 -65 -5l73 258h193l-39 -129q98 -8 154.5 -62t56.5 -140q0 -109 -86 -172.5t-231 -63.5q-59 0 -126 11.5 t-94 27.5z" />
<glyph unicode="&#x160;" horiz-adv-x="1361" d="M92 100l37 334q96 -63 231.5 -101t262.5 -38q115 0 176 38t61 107q0 41 -25.5 70t-82 53.5t-158.5 52.5q-252 72 -363.5 190t-111.5 310q0 219 158.5 346t433.5 127q131 0 263 -32.5t222 -88.5l-53 -321q-84 51 -200 83t-216 32q-213 0 -213 -136q0 -55 48 -87.5 t188 -73.5q276 -80 396 -198t120 -310q0 -231 -165 -360.5t-460 -129.5q-100 0 -204.5 16.5t-195.5 47t-149 69.5zM203 2032h354l123 -142l123 142h354l-293 -322h-368z" />
<glyph unicode="&#x161;" horiz-adv-x="1060" d="M80 72l41 268q76 -49 172 -76.5t188 -27.5q133 0 133 63q0 33 -30.5 51.5t-124.5 42.5q-195 51 -278 133t-83 226q0 158 121 248t332 90q106 0 209.5 -23t171.5 -61l-37 -265q-74 37 -160 58.5t-162 21.5q-113 0 -112 -61q0 -33 32.5 -52.5t124.5 -41.5 q190 -47 276.5 -133.5t86.5 -229.5q0 -160 -125 -248t-352 -88q-125 0 -241 29t-183 76zM111 1597h313l127 -159l127 159h313l-280 -348h-320z" />
<glyph unicode="&#x162;" horiz-adv-x="1511" d="M72 1225v331h1368v-331h-477v-1225h-414v1225h-477zM484 -508l34 178q57 -25 129 -24q102 0 103 59q0 57 -107 57q-47 0 -65 -6l76 264h202l-37 -124q94 -8 153.5 -64.5t59.5 -136.5q0 -117 -89 -179.5t-259 -62.5q-51 0 -109.5 11.5t-90.5 27.5z" />
<glyph unicode="&#x163;" horiz-adv-x="978" d="M29 760v297h180v272h366v-272h299v-297h-299v-293q0 -94 31 -133t107 -39q100 0 172 39l37 -305q-53 -29 -137 -45q-83 -17 -177 -17q-201 0 -300 103q-99 102 -99 313v377h-180zM258 -508l35 170q51 -25 135 -24q51 0 79 17t28 50q0 61 -113 62q-41 0 -65 -5l73 258h193 l-39 -129q98 -8 154.5 -62t56.5 -140q0 -109 -86 -172.5t-231 -63.5q-59 0 -126 11.5t-94 27.5z" />
<glyph unicode="&#x164;" horiz-adv-x="1511" d="M72 1225v331h1368v-331h-477v-1225h-414v1225h-477zM279 2032h354l123 -142l123 142h354l-293 -322h-368z" />
<glyph unicode="&#x165;" horiz-adv-x="978" d="M29 760v297h180v272h366v-272h299v-297h-299v-293q0 -94 31 -133t107 -39q100 0 172 39l37 -305q-53 -29 -137 -45q-83 -17 -177 -17q-201 0 -300 103q-99 102 -99 313v377h-180zM698 1202l25 457h320l-117 -457h-228z" />
<glyph unicode="&#x168;" horiz-adv-x="1738" d="M154 674v882h413v-854q0 -188 75 -280t226 -92q303 0 303 372v854h414v-882q0 -340 -185.5 -523.5t-531.5 -183.5q-342 0 -528 183.5t-186 523.5zM456 1706v14q2 166 64.5 252t181.5 86q55 0 96 -16.5t73 -35.5t58.5 -35.5t55.5 -16.5t42 23.5t13 76.5h240v-14 q-2 -166 -64.5 -252t-181.5 -86q-55 0 -96 16.5t-72 36t-58.5 35.5t-54.5 16q-31 0 -44 -23.5t-13 -76.5h-240z" />
<glyph unicode="&#x169;" horiz-adv-x="1280" d="M119 414v643h368v-574q0 -188 142 -188q76 0 116 52q41 52 41 151v559h369v-1057h-360l-4 131q-39 -78 -119 -121q-81 -43 -185 -43q-182 0 -275 114t-93 333zM223 1247v19q2 156 62.5 240.5t171.5 84.5q59 0 102 -16t75 -37.5t59.5 -38t56.5 -16.5q31 0 44 23.5t13 80.5 h232v-18q-2 -156 -62.5 -241t-169.5 -85q-59 0 -102 16.5t-75 38t-59.5 38t-56.5 16.5q-33 0 -46 -23.5t-13 -81.5h-232z" />
<glyph unicode="&#x16a;" horiz-adv-x="1738" d="M154 674v882h413v-854q0 -188 75 -280t226 -92q303 0 303 372v854h414v-882q0 -340 -185.5 -523.5t-531.5 -183.5q-342 0 -528 183.5t-186 523.5zM518 1720v250h702v-250h-702z" />
<glyph unicode="&#x16b;" horiz-adv-x="1280" d="M119 414v643h368v-574q0 -188 142 -188q76 0 116 52q41 52 41 151v559h369v-1057h-360l-4 131q-39 -78 -119 -121q-81 -43 -185 -43q-182 0 -275 114t-93 333zM287 1270v246h688v-246h-688z" />
<glyph unicode="&#x16e;" horiz-adv-x="1738" d="M154 674v882h413v-854q0 -188 75 -280t226 -92q303 0 303 372v854h414v-882q0 -340 -185.5 -523.5t-531.5 -183.5q-342 0 -528 183.5t-186 523.5zM563 1960q0 123 86 205t219 82t219 -82t86 -205t-86 -205t-219 -82t-219 82t-86 205zM762 1960q0 -47 28.5 -77t77.5 -30 t77.5 30t28.5 77q0 49 -28.5 77.5t-77.5 28.5t-77.5 -28.5t-28.5 -77.5z" />
<glyph unicode="&#x16f;" horiz-adv-x="1280" d="M119 414v643h368v-574q0 -188 142 -188q76 0 116 52q41 52 41 151v559h369v-1057h-360l-4 131q-39 -78 -119 -121q-81 -43 -185 -43q-182 0 -275 114t-93 333zM326 1458q0 123 86 205t219 82t219 -82t86 -205t-86 -205t-219 -82t-219 82t-86 205zM525 1458 q0 -47 28.5 -76.5t77.5 -29.5t77.5 29.5t28.5 76.5q0 49 -28.5 78t-77.5 29t-77.5 -29t-28.5 -78z" />
<glyph unicode="&#x170;" horiz-adv-x="1738" d="M154 674v882h413v-854q0 -188 75 -280t226 -92q303 0 303 372v854h414v-882q0 -340 -185.5 -523.5t-531.5 -183.5q-342 0 -528 183.5t-186 523.5zM426 1710l178 311h397l-242 -311h-333zM919 1710l178 311h398l-242 -311h-334z" />
<glyph unicode="&#x171;" horiz-adv-x="1280" d="M119 414v643h368v-574q0 -188 142 -188q76 0 116 52q41 52 41 151v559h369v-1057h-360l-4 131q-39 -78 -119 -121q-81 -43 -185 -43q-182 0 -275 114t-93 333zM246 1249l170 348h346l-231 -348h-285zM670 1249l172 348h344l-231 -348h-285z" />
<glyph unicode="&#x172;" horiz-adv-x="1738" d="M154 674v882h413v-854q0 -188 75 -280t226 -92q303 0 303 372v854h414v-882q0 -340 -185.5 -523.5t-531.5 -183.5q-342 0 -528 183.5t-186 523.5zM817 -315q0 125 99.5 242.5t263.5 189.5l127 -39q-92 -66 -146.5 -141.5t-54.5 -139.5q0 -37 23.5 -57.5t68.5 -20.5 q55 0 96 23l23 -240q-27 -16 -90.5 -29.5t-120.5 -13.5q-131 0 -210 61.5t-79 164.5z" />
<glyph unicode="&#x173;" horiz-adv-x="1280" d="M119 414v643h368v-574q0 -188 142 -188q76 0 116 52q41 52 41 151v559h369v-1057h-360l-4 131q-39 -78 -119 -121q-81 -43 -185 -43q-182 0 -275 114t-93 333zM703 -307q0 109 89 214t249 183l114 -90q-90 -63 -133 -115.5t-43 -101.5q0 -33 22.5 -52.5t61.5 -19.5 q53 0 86 19l21 -230q-25 -18 -77.5 -29.5t-107.5 -11.5q-131 0 -206.5 62.5t-75.5 171.5z" />
<glyph unicode="&#x174;" horiz-adv-x="2330" d="M39 1556h432l234 -1024l288 1004h344l293 -985l230 1005h432l-461 -1556h-373l-297 1001l-291 -1001h-372zM688 1710l293 322h368l293 -322h-354l-123 139l-123 -139h-354z" />
<glyph unicode="&#x175;" horiz-adv-x="1820" d="M39 1057h381l143 -649l195 649h299l200 -647l144 647h381l-340 -1057h-328l-213 618l-203 -618h-319zM469 1249l280 348h320l280 -348h-313l-127 158l-127 -158h-313z" />
<glyph unicode="&#x176;" horiz-adv-x="1562" d="M16 1556h455l315 -604l318 604h442l-563 -923v-633h-405v633zM303 1710l293 322h368l293 -322h-354l-123 139l-123 -139h-354z" />
<glyph unicode="&#x177;" horiz-adv-x="1267" d="M27 1057h403l215 -608l203 608h395l-676 -1559h-374l268 561zM199 1249l280 348h320l280 -348h-313l-127 158l-127 -158h-313z" />
<glyph unicode="&#x178;" horiz-adv-x="1562" d="M16 1556h455l315 -604l318 604h442l-563 -923v-633h-405v633zM352 1874q0 74 50 121t130 47q82 0 132 -47t50 -121t-51 -122t-131 -48t-130 47t-50 123zM846 1874q0 74 50 121t130 47q82 0 132 -47t50 -121t-51 -122t-131 -48t-130 47t-50 123z" />
<glyph unicode="&#x179;" horiz-adv-x="1548" d="M111 0v279l778 952h-729v325h1249v-278l-776 -952h790v-326h-1312zM518 1710l240 315h428l-334 -315h-334z" />
<glyph unicode="&#x17a;" horiz-adv-x="1136" d="M80 0v250l473 510h-451v297h940v-252l-477 -508h492v-297h-977zM346 1249l215 348h395l-303 -348h-307z" />
<glyph unicode="&#x17b;" horiz-adv-x="1548" d="M111 0v279l778 952h-729v325h1249v-278l-776 -952h790v-326h-1312zM561 1890q0 84 57.5 137.5t147.5 53.5t147.5 -53.5t57.5 -137.5q0 -86 -57.5 -139t-147.5 -53t-147.5 53t-57.5 139z" />
<glyph unicode="&#x17c;" horiz-adv-x="1136" d="M80 0v250l473 510h-451v297h940v-252l-477 -508h492v-297h-977zM372 1403q0 82 53.5 132t139.5 50t139.5 -50t53.5 -132q0 -80 -53.5 -130t-139.5 -50t-139.5 50t-53.5 130z" />
<glyph unicode="&#x17d;" horiz-adv-x="1548" d="M111 0v279l778 952h-729v325h1249v-278l-776 -952h790v-326h-1312zM289 2032h354l123 -142l123 142h354l-293 -322h-368z" />
<glyph unicode="&#x17e;" horiz-adv-x="1136" d="M80 0v250l473 510h-451v297h940v-252l-477 -508h492v-297h-977zM125 1597h313l127 -159l127 159h313l-280 -348h-320z" />
<glyph unicode="&#x192;" horiz-adv-x="915" d="M-123 -467l37 301q78 -33 158 -33q84 0 122.5 45t38.5 146v768h-170v297h170v102q0 242 122 376t343 134q70 0 145 -14.5t115 -34.5l-36 -297q-31 12 -72 19.5t-74 7.5q-88 0 -131 -53.5t-43 -161.5v-78h252v-297h-252v-797q0 -238 -114.5 -360.5t-333.5 -122.5 q-88 0 -163 14t-114 39z" />
<glyph unicode="&#x218;" horiz-adv-x="1366" d="M92 100l37 334q96 -63 231.5 -101t262.5 -38q115 0 176 38t61 107q0 41 -25.5 70t-82 53.5t-158.5 52.5q-252 72 -363.5 190t-111.5 310q0 219 158.5 346t433.5 127q131 0 263 -32.5t222 -88.5l-53 -321q-84 51 -200 83t-216 32q-213 0 -213 -136q0 -55 48 -87.5 t188 -73.5q276 -80 396 -198t120 -310q0 -231 -165 -360.5t-460 -129.5q-100 0 -204.5 16.5t-195.5 47t-149 69.5zM422 -510q39 80 61.5 185.5t22.5 197.5h332q0 -94 -41 -205.5t-98 -177.5h-277z" />
<glyph unicode="&#x219;" horiz-adv-x="1060" d="M80 72l41 268q76 -49 172 -76.5t188 -27.5q133 0 133 63q0 33 -30.5 51.5t-124.5 42.5q-195 51 -278 133t-83 226q0 158 121 248t332 90q106 0 209.5 -23t171.5 -61l-37 -265q-74 37 -160 58.5t-162 21.5q-113 0 -112 -61q0 -33 32.5 -52.5t124.5 -41.5 q190 -47 276.5 -133.5t86.5 -229.5q0 -160 -125 -248t-352 -88q-125 0 -241 29t-183 76zM297 -510q37 78 60.5 183.5t25.5 199.5h321q0 -94 -41 -205.5t-98 -177.5h-268z" />
<glyph unicode="&#x21a;" horiz-adv-x="1511" d="M72 1225v331h1368v-331h-477v-1225h-414v1225h-477zM508 -510q39 80 61.5 185.5t22.5 197.5h332q0 -94 -41 -205.5t-98 -177.5h-277z" />
<glyph unicode="&#x21b;" horiz-adv-x="978" d="M29 760v297h180v272h366v-272h299v-297h-299v-293q0 -94 31 -133t107 -39q100 0 172 39l37 -305q-53 -29 -137 -45q-83 -17 -177 -17q-201 0 -300 103q-99 102 -99 313v377h-180zM291 -510q37 78 60.5 183.5t25.5 199.5h321q0 -94 -41 -205.5t-98 -177.5h-268z" />
<glyph unicode="&#x237;" horiz-adv-x="618" d="M-231 -467l36 301q78 -33 158 -33q84 0 123 45t39 146v1065h369v-1094q0 -238 -115 -360.5t-334 -122.5q-88 0 -163 14t-113 39z" />
<glyph unicode="&#x2c6;" horiz-adv-x="1024" d="M72 1249l280 348h320l280 -348h-313l-127 158l-127 -158h-313z" />
<glyph unicode="&#x2c7;" horiz-adv-x="1024" d="M72 1597h313l127 -159l127 159h313l-280 -348h-320z" />
<glyph unicode="&#x2c9;" horiz-adv-x="1024" d="M168 1270v246h688v-246h-688z" />
<glyph unicode="&#x2cb;" horiz-adv-x="1024" d="M207 1597h393l217 -348h-307z" />
<glyph unicode="&#x2d8;" horiz-adv-x="1024" d="M123 1538q0 23 2 29h242q0 -154 145 -154t145 154h242q2 -6 2 -29q0 -156 -103.5 -246t-285.5 -90t-285.5 90t-103.5 246z" />
<glyph unicode="&#x2d9;" horiz-adv-x="1024" d="M319 1403q0 82 53.5 132t139.5 50t139.5 -50t53.5 -132q0 -80 -53.5 -130t-139.5 -50t-139.5 50t-53.5 130z" />
<glyph unicode="&#x2da;" horiz-adv-x="1024" d="M207 1458q0 123 86 205t219 82t219 -82t86 -205t-86 -205t-219 -82t-219 82t-86 205zM406 1458q0 -47 28.5 -76.5t77.5 -29.5t77.5 29.5t28.5 76.5q0 49 -28.5 78t-77.5 29t-77.5 -29t-28.5 -78z" />
<glyph unicode="&#x2db;" horiz-adv-x="1024" d="M342 -307q0 109 89 214t249 183l114 -90q-90 -63 -133 -115.5t-43 -101.5q0 -33 22.5 -52.5t61.5 -19.5q53 0 86 19l21 -230q-25 -18 -77.5 -29.5t-107.5 -11.5q-131 0 -206.5 62.5t-75.5 171.5z" />
<glyph unicode="&#x2dc;" horiz-adv-x="1024" d="M104 1247v19q2 156 62.5 240.5t171.5 84.5q59 0 102 -16t75 -37.5t59.5 -38t56.5 -16.5q31 0 44 23.5t13 80.5h232v-18q-2 -156 -62.5 -241t-169.5 -85q-59 0 -102 16.5t-75 38t-59.5 38t-56.5 16.5q-33 0 -46 -23.5t-13 -81.5h-232z" />
<glyph unicode="&#x2dd;" horiz-adv-x="1024" d="M68 1249l170 348h346l-231 -348h-285zM492 1249l172 348h344l-231 -348h-285z" />
<glyph unicode="&#x300;" horiz-adv-x="0" d="M-389 1597h393l217 -348h-307z" />
<glyph unicode="&#x301;" horiz-adv-x="0" d="M-219 1249l215 348h395l-303 -348h-307z" />
<glyph unicode="&#x302;" horiz-adv-x="0" d="M-440 1249l280 348h320l280 -348h-313l-127 158l-127 -158h-313z" />
<glyph unicode="&#x303;" horiz-adv-x="0" d="M-408 1247v19q2 156 62.5 240.5t171.5 84.5q59 0 102 -16t75 -37.5t59.5 -38t56.5 -16.5q31 0 44 23.5t13 80.5h232v-18q-2 -156 -62.5 -241t-169.5 -85q-59 0 -102 16.5t-75 38t-59.5 38t-56.5 16.5q-33 0 -46 -23.5t-13 -81.5h-232z" />
<glyph unicode="&#x304;" horiz-adv-x="0" d="M-344 1270v246h688v-246h-688z" />
<glyph unicode="&#x306;" horiz-adv-x="0" d="M-389 1538q0 23 2 29h242q0 -154 145 -154t145 154h242q2 -6 2 -29q0 -156 -103.5 -246t-285.5 -90t-285.5 90t-103.5 246z" />
<glyph unicode="&#x307;" horiz-adv-x="0" d="M-193 1403q0 82 53.5 132t139.5 50t139.5 -50t53.5 -132q0 -80 -53.5 -130t-139.5 -50t-139.5 50t-53.5 130z" />
<glyph unicode="&#x308;" horiz-adv-x="0" d="M-418 1389q0 74 49.5 118.5t124.5 44.5q76 0 125 -46t49 -117q0 -74 -48 -119t-126 -45t-126 45t-48 119zM70 1389q0 72 49 117.5t125 45.5t125 -45t49 -118q0 -74 -48 -119t-126 -45t-126 45t-48 119z" />
<glyph unicode="&#x30a;" horiz-adv-x="0" d="M-305 1458q0 123 86 205t219 82t219 -82t86 -205t-86 -205t-219 -82t-219 82t-86 205zM-106 1458q0 -47 28.5 -76.5t77.5 -29.5t77.5 29.5t28.5 76.5q0 49 -28.5 78t-77.5 29t-77.5 -29t-28.5 -78z" />
<glyph unicode="&#x30b;" horiz-adv-x="0" d="M-385 1249l170 348h346l-231 -348h-285zM39 1249l172 348h344l-231 -348h-285z" />
<glyph unicode="&#x30c;" horiz-adv-x="0" d="M-440 1597h313l127 -159l127 159h313l-280 -348h-320z" />
<glyph unicode="&#x312;" horiz-adv-x="0" d="M-193 1249q2 98 42 204t100 169h256q-39 -84 -60.5 -182.5t-21.5 -190.5h-316z" />
<glyph unicode="&#x315;" horiz-adv-x="0" d="M-160 1157l25 502h340l-127 -502h-238z" />
<glyph unicode="&#x326;" horiz-adv-x="0" d="M-231 -510q37 78 60.5 183.5t25.5 199.5h321q0 -94 -41 -205.5t-98 -177.5h-268z" />
<glyph unicode="&#x327;" horiz-adv-x="0" d="M-283 -508l35 170q51 -25 135 -24q51 0 79 17t28 50q0 61 -113 62q-41 0 -65 -5l73 258h193l-39 -129q98 -8 154.5 -62t56.5 -140q0 -109 -86 -172.5t-231 -63.5q-59 0 -126 11.5t-94 27.5z" />
<glyph unicode="&#x328;" horiz-adv-x="0" d="M-266 -307q0 109 89 214t249 183l114 -90q-90 -63 -133 -115.5t-43 -101.5q0 -33 22.5 -52.5t61.5 -19.5q53 0 86 19l21 -230q-25 -18 -77.5 -29.5t-107.5 -11.5q-131 0 -206.5 62.5t-75.5 171.5z" />
<glyph unicode="&#x3c0;" horiz-adv-x="1490" d="M74 760v297h1323v-297h-180v-375q0 -59 19 -80.5t69 -21.5q43 0 75 12l11 -293q-29 -12 -85.5 -20.5t-113.5 -8.5q-180 0 -254 76t-74 266v445h-266v-760h-354v760h-170z" />
<glyph unicode="&#x1e80;" horiz-adv-x="2330" d="M39 1556h432l234 -1024l288 1004h344l293 -985l230 1005h432l-461 -1556h-373l-297 1001l-291 -1001h-372zM735 2025h428l242 -315h-334z" />
<glyph unicode="&#x1e81;" horiz-adv-x="1820" d="M39 1057h381l143 -649l195 649h299l200 -647l144 647h381l-340 -1057h-328l-213 618l-203 -618h-319zM520 1597h393l217 -348h-307z" />
<glyph unicode="&#x1e82;" horiz-adv-x="2330" d="M39 1556h432l234 -1024l288 1004h344l293 -985l230 1005h432l-461 -1556h-373l-297 1001l-291 -1001h-372zM917 1710l240 315h428l-334 -315h-334z" />
<glyph unicode="&#x1e83;" horiz-adv-x="1820" d="M39 1057h381l143 -649l195 649h299l200 -647l144 647h381l-340 -1057h-328l-213 618l-203 -618h-319zM690 1249l215 348h395l-303 -348h-307z" />
<glyph unicode="&#x1e84;" horiz-adv-x="2330" d="M39 1556h432l234 -1024l288 1004h344l293 -985l230 1005h432l-461 -1556h-373l-297 1001l-291 -1001h-372zM737 1874q0 74 50 121t130 47q82 0 132 -47t50 -121t-51 -122t-131 -48t-130 47t-50 123zM1231 1874q0 74 50 121t130 47q82 0 132 -47t50 -121t-51 -122 t-131 -48t-130 47t-50 123z" />
<glyph unicode="&#x1e85;" horiz-adv-x="1820" d="M39 1057h381l143 -649l195 649h299l200 -647l144 647h381l-340 -1057h-328l-213 618l-203 -618h-319zM491 1389q0 74 49.5 118.5t124.5 44.5q76 0 125 -46t49 -117q0 -74 -48 -119t-126 -45t-126 45t-48 119zM979 1389q0 72 49 117.5t125 45.5t125 -45t49 -118 q0 -74 -48 -119t-126 -45t-126 45t-48 119z" />
<glyph unicode="&#x1e9e;" horiz-adv-x="1644" d="M154 0v889q0 213 82.5 370.5t240.5 243.5t377 86q160 0 316.5 -54t267.5 -149v-233l-209 -264q154 -41 243 -159t89 -279q0 -141 -65.5 -251t-188.5 -171.5t-289 -61.5q-193 0 -342 86l37 309q53 -35 120.5 -53t135.5 -18q98 0 153.5 49t55.5 139q0 86 -56.5 134.5 t-156.5 48.5q-53 0 -86 -9l-80 207l270 342q-94 53 -203 53q-152 0 -235.5 -104t-83.5 -293v-858h-393z" />
<glyph unicode="&#x1ef2;" horiz-adv-x="1562" d="M16 1556h455l315 -604l318 604h442l-563 -923v-633h-405v633zM350 2025h428l242 -315h-334z" />
<glyph unicode="&#x1ef3;" horiz-adv-x="1267" d="M27 1057h403l215 -608l203 608h395l-676 -1559h-374l268 561zM250 1597h393l217 -348h-307z" />
<glyph unicode="&#x2000;" horiz-adv-x="1024" />
<glyph unicode="&#x2001;" horiz-adv-x="2048" />
<glyph unicode="&#x2002;" horiz-adv-x="1024" />
<glyph unicode="&#x2003;" horiz-adv-x="2048" />
<glyph unicode="&#x2004;" horiz-adv-x="681" />
<glyph unicode="&#x2005;" horiz-adv-x="512" />
<glyph unicode="&#x2006;" horiz-adv-x="339" />
<glyph unicode="&#x2007;" horiz-adv-x="1323" />
<glyph unicode="&#x2008;" horiz-adv-x="626" />
<glyph unicode="&#x2009;" horiz-adv-x="409" />
<glyph unicode="&#x200a;" horiz-adv-x="112" />
<glyph unicode="&#x200b;" horiz-adv-x="0" />
<glyph unicode="&#x2010;" horiz-adv-x="858" d="M102 438v301h654v-301h-654z" />
<glyph unicode="&#x2011;" horiz-adv-x="858" d="M102 438v301h654v-301h-654z" />
<glyph unicode="&#x2012;" horiz-adv-x="1024" d="M0 455v272h1024v-272h-1024z" />
<glyph unicode="&#x2013;" horiz-adv-x="1024" d="M0 455v272h1024v-272h-1024z" />
<glyph unicode="&#x2014;" horiz-adv-x="2048" d="M0 455v272h2048v-272h-2048z" />
<glyph unicode="&#x2015;" horiz-adv-x="2048" d="M0 455v272h2048v-272h-2048z" />
<glyph unicode="&#x2018;" horiz-adv-x="522" d="M72 1022q2 147 40 291.5t101 242.5h268q-82 -238 -82 -534h-327z" />
<glyph unicode="&#x2019;" horiz-adv-x="522" d="M41 1022q82 238 82 534h328q0 -147 -38 -290.5t-102 -243.5h-270z" />
<glyph unicode="&#x201a;" horiz-adv-x="522" d="M41 -279q82 238 82 535h328q0 -147 -38 -290.5t-102 -244.5h-270z" />
<glyph unicode="&#x201c;" horiz-adv-x="978" d="M72 1022q2 147 40 291.5t101 242.5h268q-82 -238 -82 -534h-327zM529 1022q2 147 40 291.5t101 242.5h268q-82 -238 -82 -534h-327z" />
<glyph unicode="&#x201d;" horiz-adv-x="978" d="M41 1022q82 238 82 534h328q0 -147 -38 -290.5t-102 -243.5h-270zM498 1022q82 238 82 534h328q0 -147 -38 -290.5t-102 -243.5h-270z" />
<glyph unicode="&#x201e;" horiz-adv-x="978" d="M41 -279q82 238 82 535h328q0 -147 -38 -290.5t-102 -244.5h-270zM498 -279q82 238 82 535h328q0 -147 -38 -290.5t-102 -244.5h-270z" />
<glyph unicode="&#x2020;" horiz-adv-x="1091" d="M61 850v283h301v423h369v-423h299v-283h-299v-1116h-369v1116h-301z" />
<glyph unicode="&#x2021;" horiz-adv-x="1091" d="M61 131v283h301v460h-301v281h301v401h369v-401h299v-281h-299v-460h299v-283h-299v-397h-369v397h-301z" />
<glyph unicode="&#x2022;" horiz-adv-x="747" d="M94 557q0 117 82 198t197 81q117 0 198.5 -81t81.5 -198t-81.5 -197.5t-198.5 -80.5q-115 0 -197 81.5t-82 196.5z" />
<glyph unicode="&#x2026;" horiz-adv-x="2048" d="M131 184q0 84 58.5 138.5t150.5 54.5t149.5 -54.5t57.5 -138.5q0 -88 -57.5 -142t-149.5 -54t-150.5 54t-58.5 142zM813 184q0 84 58.5 138.5t150.5 54.5t149.5 -54.5t57.5 -138.5q0 -88 -57.5 -142t-149.5 -54t-150.5 54t-58.5 142zM1497 184q0 84 58.5 138.5 t150.5 54.5t149.5 -54.5t57.5 -138.5q0 -88 -57.5 -142t-149.5 -54t-150.5 54t-58.5 142z" />
<glyph unicode="&#x202f;" horiz-adv-x="449" />
<glyph unicode="&#x2030;" horiz-adv-x="2953" d="M113 1161q0 109 51 199t146.5 143t215.5 53q84 0 158 -26.5t131 -78.5t91 -127t34 -163q0 -109 -51 -199t-145.5 -143t-217.5 -53q-84 0 -157.5 26.5t-131 79t-91 127t-33.5 162.5zM358 0l1039 1524h291l-1041 -1524h-289zM377 1161q0 -76 40.5 -120t108.5 -44t109 44 t41 120q0 74 -41 119t-109 45t-108.5 -45t-40.5 -119zM1106 367q0 109 51 198.5t146.5 143t216.5 53.5q84 0 157.5 -26.5t131 -79t91 -127t33.5 -162.5q0 -109 -51 -199t-145 -143.5t-217 -53.5q-84 0 -158 27t-131 79t-91 127t-34 163zM1370 367q0 -76 41 -120t109 -44 t108.5 44t40.5 120q0 74 -41 118.5t-108 44.5q-68 0 -109 -45t-41 -118zM2015 367q0 109 51.5 198.5t146.5 143t216 53.5q84 0 157.5 -26.5t131 -79t91.5 -127t34 -162.5q0 -109 -51.5 -199t-145.5 -143.5t-217 -53.5q-84 0 -157.5 27t-131 79t-91.5 127t-34 163zM2279 367 q0 -76 41 -120t109 -44t108.5 44t40.5 120q0 74 -40.5 118.5t-108.5 44.5t-109 -45t-41 -118z" />
<glyph unicode="&#x2032;" horiz-adv-x="495" d="M41 961l76 595h348l-141 -595h-283z" />
<glyph unicode="&#x2033;" horiz-adv-x="952" d="M41 961l76 595h348l-141 -595h-283zM498 961l76 595h348l-141 -595h-283z" />
<glyph unicode="&#x2039;" horiz-adv-x="806" d="M49 526l309 457h392l-324 -457l324 -456h-392z" />
<glyph unicode="&#x203a;" horiz-adv-x="806" d="M57 70l324 456l-324 457h392l309 -457l-309 -456h-392z" />
<glyph unicode="&#x2044;" horiz-adv-x="387" d="M-471 0l1038 1524h291l-1040 -1524h-289z" />
<glyph unicode="&#x205f;" horiz-adv-x="561" />
<glyph unicode="&#x2070;" d="M33 1352q0 205 101.5 321.5t279.5 116.5t279.5 -116.5t101.5 -321.5t-101.5 -321.5t-279.5 -116.5t-279.5 116.5t-101.5 321.5zM307 1352q1 -209 107 -209q53 0 78.5 51t25.5 158q0 109 -25.5 159t-78.5 50q-106 0 -107 -209z" />
<glyph unicode="&#x2074;" d="M45 1086v204l363 478h272v-482h90v-200h-90v-152h-238v152h-397zM276 1286h166v215z" />
<glyph unicode="&#x2075;" d="M94 969l21 213q86 -57 217 -58q141 0 141 82q0 76 -135 76q-123 0 -213 -18l20 504h541v-205h-324l-4 -90q16 0 32 1t32 1q152 0 234.5 -71t82.5 -202q0 -135 -98 -211.5t-272 -76.5q-88 0 -164 15t-111 40z" />
<glyph unicode="&#x2076;" d="M59 1233q0 133 85 277.5t235 263.5l313 -6q-82 -55 -162.5 -136.5t-136.5 -160.5q35 20 96 20q119 0 199 -78t80 -194q0 -133 -98 -219t-254 -86q-160 0 -258.5 88t-98.5 231zM309 1213q0 -43 29 -70t76 -27q45 0 72.5 28t27.5 69q0 45 -27.5 72.5t-72.5 27.5t-75 -27.5 t-30 -72.5z" />
<glyph unicode="&#x2077;" d="M96 1532v236h652v-203l-316 -635l-289 6l312 596h-359z" />
<glyph unicode="&#x2078;" d="M55 1176q0 63 31 115.5t84 82.5q-92 55 -92 170q0 111 92 178.5t244 67.5t244 -67.5t92 -178.5q0 -115 -95 -170q55 -29 87 -82t32 -116q0 -123 -95 -192.5t-265 -69.5q-168 0 -263.5 69.5t-95.5 192.5zM315 1192q0 -39 27 -63.5t72 -24.5t72.5 24.5t27.5 63.5 t-28.5 63.5t-71.5 24.5t-71 -24.5t-28 -63.5zM326 1526q0 -37 24.5 -58.5t63.5 -21.5t63.5 21.5t24.5 58.5t-24.5 58.5t-63.5 21.5q-41 0 -64.5 -21.5t-23.5 -58.5z" />
<glyph unicode="&#x2079;" d="M59 1485q0 135 98.5 220t254.5 85q160 0 258 -88t98 -231q0 -133 -86 -277.5t-233 -263.5l-316 6q84 59 167 140t134 155q-39 -18 -98 -18q-119 0 -198 77.5t-79 194.5zM309 1491q0 -45 30 -72.5t75 -27.5t73.5 27.5t28.5 72.5q0 43 -28.5 69.5t-73.5 26.5t-75 -26.5 t-30 -69.5z" />
<glyph unicode="&#x2080;" d="M33 162q0 205 101.5 321.5t279.5 116.5t279.5 -116.5t101.5 -321.5t-101.5 -321.5t-279.5 -116.5t-279.5 116.5t-101.5 321.5zM307 162q1 -209 107 -209q53 0 78.5 51t25.5 158q0 109 -25.5 159t-78.5 50q-106 0 -107 -209z" />
<glyph unicode="&#x2081;" d="M94 453l273 125h241v-834h-272v567l-203 -92z" />
<glyph unicode="&#x2082;" d="M80 -47q63 41 128.5 90t115.5 92q61 57 87.5 97t26.5 75t-27.5 56.5t-74.5 21.5q-51 0 -106.5 -24.5t-104.5 -71.5l-43 205q47 47 134 76.5t173 29.5q145 0 231.5 -69.5t86.5 -186.5q0 -156 -177 -313q-39 -37 -84 -68h287v-219h-653v209z" />
<glyph unicode="&#x2083;" d="M82 -219l20 209q111 -55 238 -56q125 0 125 82q0 35 -31 55.5t-88 20.5q-45 0 -88 -12l-53 129l184 164h-285v205h594v-187l-170 -147q90 -14 146.5 -78t56.5 -156q0 -131 -101.5 -208.5t-269.5 -77.5q-180 0 -278 57z" />
<glyph unicode="&#x2084;" d="M45 100l363 478h272v-482h90v-200h-90v-152h-238v152h-397v204zM276 96h166v215z" />
<glyph unicode="&#x2085;" d="M94 -221l21 213q86 -57 217 -58q141 0 141 82q0 76 -135 76q-123 0 -213 -18l20 504h541v-205h-324l-4 -90q16 0 32 1t32 1q152 0 234.5 -71t82.5 -202q0 -135 -98 -211.5t-272 -76.5q-88 0 -164 15t-111 40z" />
<glyph unicode="&#x2086;" d="M59 43q0 133 85 277.5t235 263.5l313 -6q-82 -55 -162.5 -136.5t-136.5 -160.5q35 20 96 20q119 0 199 -78t80 -194q0 -133 -98 -219t-254 -86q-160 0 -258.5 88t-98.5 231zM309 23q0 -43 29 -70t76 -27q45 0 72.5 28t27.5 69q0 45 -27.5 72.5t-72.5 27.5t-75 -27.5 t-30 -72.5z" />
<glyph unicode="&#x2087;" d="M96 342v236h652v-203l-316 -635l-289 6l312 596h-359z" />
<glyph unicode="&#x2088;" d="M55 -14q0 63 31 115.5t84 82.5q-92 55 -92 170q0 111 92 178.5t244 67.5t244 -67.5t92 -178.5q0 -115 -95 -170q55 -29 87 -82t32 -116q0 -123 -95 -192.5t-265 -69.5q-168 0 -263.5 69.5t-95.5 192.5zM315 2q0 -39 27 -63.5t72 -24.5t72.5 24.5t27.5 63.5t-28.5 63.5 t-71.5 24.5t-71 -24.5t-28 -63.5zM326 336q0 -37 24.5 -58.5t63.5 -21.5t63.5 21.5t24.5 58.5t-24.5 58.5t-63.5 21.5q-41 0 -64.5 -21.5t-23.5 -58.5z" />
<glyph unicode="&#x2089;" d="M59 295q0 135 98.5 220t254.5 85q160 0 258 -88t98 -231q0 -133 -86 -277.5t-233 -263.5l-316 6q84 59 167 140t134 155q-39 -18 -98 -18q-119 0 -198 77.5t-79 194.5zM309 301q0 -45 30 -72.5t75 -27.5t73.5 27.5t28.5 72.5q0 43 -28.5 69.5t-73.5 26.5t-75 -26.5 t-30 -69.5z" />
<glyph unicode="&#x20ac;" horiz-adv-x="1323" d="M61 485v203h185v68q0 66 2 80h-187v202h218q61 244 235 381t422 137q209 0 360 -79l-43 -289q-137 68 -286 67q-233 0 -318 -217h465v-202h-504q-2 -14 -2 -76q0 -59 2 -72h504v-203h-461q84 -217 336 -217q133 0 283 72l43 -287q-160 -86 -377 -86q-266 0 -436 132 t-230 386h-211z" />
<glyph unicode="&#x20ba;" horiz-adv-x="1323" d="M45 426v209l178 82v147l-178 -80v209l178 82v449h359v-281l309 143v-210l-309 -142v-147l309 141v-209l-309 -143v-393l20 6q139 16 223 121.5t105 287.5l327 -14q-44 -717 -794 -717q-133 0 -240 21v518z" />
<glyph unicode="&#x2122;" horiz-adv-x="1771" d="M16 1354v202h668v-202h-203v-555h-262v555h-203zM764 799l49 757h270l158 -362l158 362h268l51 -757h-237l-23 422l-129 -295h-180l-129 288l-21 -415h-235z" />
<glyph unicode="&#x2126;" horiz-adv-x="1888" d="M129 864q0 201 100.5 366t286.5 262t428 97q233 0 417.5 -89t291 -254t106.5 -382q0 -170 -64.5 -306t-189.5 -230h244v-328h-700v317q137 80 209.5 206t72.5 288q0 119 -47 213t-135 148.5t-205 54.5q-111 0 -199 -51.5t-138 -145.5t-50 -219q0 -160 72.5 -286 t210.5 -208v-317h-701v328h244q-125 92 -189.5 229t-64.5 307z" />
<glyph unicode="&#x2150;" horiz-adv-x="2037" d="M94 1397l273 125h241v-834h-272v567l-203 -92zM297 0l1038 1524h291l-1040 -1524h-289zM1308 598v236h652v-203l-316 -635l-289 6l312 596h-359z" />
<glyph unicode="&#x2151;" horiz-adv-x="2037" d="M94 1397l273 125h241v-834h-272v567l-203 -92zM338 0l1038 1524h291l-1040 -1524h-289zM1271 551q0 135 98.5 220t254.5 85q160 0 258 -88t98 -231q0 -133 -86 -277.5t-233 -263.5l-316 6q84 59 167 140t134 155q-39 -18 -98 -18q-119 0 -198 77.5t-79 194.5zM1521 557 q0 -45 30 -72.5t75 -27.5t73.5 27.5t28.5 72.5q0 43 -28.5 69.5t-73.5 26.5t-75 -26.5t-30 -69.5z" />
<glyph unicode="&#x2153;" horiz-adv-x="2037" d="M94 1397l273 125h241v-834h-272v567l-203 -92zM313 0l1038 1524h291l-1040 -1524h-289zM1294 37l20 209q111 -55 238 -56q125 0 125 82q0 35 -31 55.5t-88 20.5q-45 0 -88 -12l-53 129l184 164h-285v205h594v-187l-170 -147q90 -14 146.5 -78t56.5 -156 q0 -131 -101.5 -208.5t-269.5 -77.5q-180 0 -278 57z" />
<glyph unicode="&#x2154;" horiz-adv-x="2037" d="M80 688v209q63 41 128.5 90t115.5 92q61 57 87.5 97t26.5 75t-27.5 56.5t-74.5 21.5q-51 0 -106.5 -24.5t-104.5 -71.5l-43 205q47 47 134 76.5t173 29.5q145 0 231.5 -69.5t86.5 -186.5q0 -156 -177 -313q-39 -37 -84 -68h287v-219h-653zM360 0l1038 1524h291 l-1040 -1524h-289zM1294 37l20 209q111 -55 238 -56q125 0 125 82q0 35 -31 55.5t-88 20.5q-45 0 -88 -12l-53 129l184 164h-285v205h594v-187l-170 -147q90 -14 146.5 -78t56.5 -156q0 -131 -101.5 -208.5t-269.5 -77.5q-180 0 -278 57z" />
<glyph unicode="&#x2155;" horiz-adv-x="2037" d="M94 1397l273 125h241v-834h-272v567l-203 -92zM315 0l1038 1524h291l-1040 -1524h-289zM1306 35l21 213q86 -57 217 -58q141 0 141 82q0 76 -135 76q-123 0 -213 -18l20 504h541v-205h-324l-4 -90q16 0 32 1t32 1q152 0 234.5 -71t82.5 -202q0 -135 -98 -211.5 t-272 -76.5q-88 0 -164 15t-111 40z" />
<glyph unicode="&#x2156;" horiz-adv-x="2037" d="M80 688v209q63 41 128.5 90t115.5 92q61 57 87.5 97t26.5 75t-27.5 56.5t-74.5 21.5q-51 0 -106.5 -24.5t-104.5 -71.5l-43 205q47 47 134 76.5t173 29.5q145 0 231.5 -69.5t86.5 -186.5q0 -156 -177 -313q-39 -37 -84 -68h287v-219h-653zM387 0l1038 1524h291 l-1040 -1524h-289zM1306 35l21 213q86 -57 217 -58q141 0 141 82q0 76 -135 76q-123 0 -213 -18l20 504h541v-205h-324l-4 -90q16 0 32 1t32 1q152 0 234.5 -71t82.5 -202q0 -135 -98 -211.5t-272 -76.5q-88 0 -164 15t-111 40z" />
<glyph unicode="&#x2157;" horiz-adv-x="2037" d="M82 725l20 209q111 -55 238 -56q125 0 125 82q0 35 -31 55.5t-88 20.5q-45 0 -88 -12l-53 129l184 164h-285v205h594v-187l-170 -147q90 -14 146.5 -78t56.5 -156q0 -131 -101.5 -208.5t-269.5 -77.5q-180 0 -278 57zM340 0l1038 1524h291l-1040 -1524h-289zM1306 35 l21 213q86 -57 217 -58q141 0 141 82q0 76 -135 76q-123 0 -213 -18l20 504h541v-205h-324l-4 -90q16 0 32 1t32 1q152 0 234.5 -71t82.5 -202q0 -135 -98 -211.5t-272 -76.5q-88 0 -164 15t-111 40z" />
<glyph unicode="&#x2158;" horiz-adv-x="2037" d="M45 840v204l363 478h272v-482h90v-200h-90v-152h-238v152h-397zM276 1040h166v215zM354 0l1038 1524h291l-1040 -1524h-289zM1306 35l21 213q86 -57 217 -58q141 0 141 82q0 76 -135 76q-123 0 -213 -18l20 504h541v-205h-324l-4 -90q16 0 32 1t32 1q152 0 234.5 -71 t82.5 -202q0 -135 -98 -211.5t-272 -76.5q-88 0 -164 15t-111 40z" />
<glyph unicode="&#x2159;" horiz-adv-x="2037" d="M94 1397l273 125h241v-834h-272v567l-203 -92zM389 0l1038 1524h291l-1040 -1524h-289zM1271 299q0 133 85 277.5t235 263.5l313 -6q-82 -55 -162.5 -136.5t-136.5 -160.5q35 20 96 20q119 0 199 -78t80 -194q0 -133 -98 -219t-254 -86q-160 0 -258.5 88t-98.5 231z M1521 279q0 -43 29 -70t76 -27q45 0 72.5 28t27.5 69q0 45 -27.5 72.5t-72.5 27.5t-75 -27.5t-30 -72.5z" />
<glyph unicode="&#x215a;" horiz-adv-x="2037" d="M94 723l21 213q86 -57 217 -58q141 0 141 82q0 76 -135 76q-123 0 -213 -18l20 504h541v-205h-324l-4 -90q16 0 32 1t32 1q152 0 234.5 -71t82.5 -202q0 -135 -98 -211.5t-272 -76.5q-88 0 -164 15t-111 40zM395 0l1038 1524h291l-1040 -1524h-289zM1271 299 q0 133 85 277.5t235 263.5l313 -6q-82 -55 -162.5 -136.5t-136.5 -160.5q35 20 96 20q119 0 199 -78t80 -194q0 -133 -98 -219t-254 -86q-160 0 -258.5 88t-98.5 231zM1521 279q0 -43 29 -70t76 -27q45 0 72.5 28t27.5 69q0 45 -27.5 72.5t-72.5 27.5t-75 -27.5t-30 -72.5z " />
<glyph unicode="&#x215b;" horiz-adv-x="2037" d="M94 1397l273 125h241v-834h-272v567l-203 -92zM330 0l1038 1524h291l-1040 -1524h-289zM1267 242q0 63 31 115.5t84 82.5q-92 55 -92 170q0 111 92 178.5t244 67.5t244 -67.5t92 -178.5q0 -115 -95 -170q55 -29 87 -82t32 -116q0 -123 -95 -192.5t-265 -69.5 q-168 0 -263.5 69.5t-95.5 192.5zM1527 258q0 -39 27 -63.5t72 -24.5t72.5 24.5t27.5 63.5t-28.5 63.5t-71.5 24.5t-71 -24.5t-28 -63.5zM1538 592q0 -37 24.5 -58.5t63.5 -21.5t63.5 21.5t24.5 58.5t-24.5 58.5t-63.5 21.5q-41 0 -64.5 -21.5t-23.5 -58.5z" />
<glyph unicode="&#x215c;" horiz-adv-x="2037" d="M82 725l20 209q111 -55 238 -56q125 0 125 82q0 35 -31 55.5t-88 20.5q-45 0 -88 -12l-53 129l184 164h-285v205h594v-187l-170 -147q90 -14 146.5 -78t56.5 -156q0 -131 -101.5 -208.5t-269.5 -77.5q-180 0 -278 57zM332 0l1038 1524h291l-1040 -1524h-289zM1267 242 q0 63 31 115.5t84 82.5q-92 55 -92 170q0 111 92 178.5t244 67.5t244 -67.5t92 -178.5q0 -115 -95 -170q55 -29 87 -82t32 -116q0 -123 -95 -192.5t-265 -69.5q-168 0 -263.5 69.5t-95.5 192.5zM1527 258q0 -39 27 -63.5t72 -24.5t72.5 24.5t27.5 63.5t-28.5 63.5 t-71.5 24.5t-71 -24.5t-28 -63.5zM1538 592q0 -37 24.5 -58.5t63.5 -21.5t63.5 21.5t24.5 58.5t-24.5 58.5t-63.5 21.5q-41 0 -64.5 -21.5t-23.5 -58.5z" />
<glyph unicode="&#x215d;" horiz-adv-x="2037" d="M94 723l21 213q86 -57 217 -58q141 0 141 82q0 76 -135 76q-123 0 -213 -18l20 504h541v-205h-324l-4 -90q16 0 32 1t32 1q152 0 234.5 -71t82.5 -202q0 -135 -98 -211.5t-272 -76.5q-88 0 -164 15t-111 40zM342 0l1038 1524h291l-1040 -1524h-289zM1267 242 q0 63 31 115.5t84 82.5q-92 55 -92 170q0 111 92 178.5t244 67.5t244 -67.5t92 -178.5q0 -115 -95 -170q55 -29 87 -82t32 -116q0 -123 -95 -192.5t-265 -69.5q-168 0 -263.5 69.5t-95.5 192.5zM1527 258q0 -39 27 -63.5t72 -24.5t72.5 24.5t27.5 63.5t-28.5 63.5 t-71.5 24.5t-71 -24.5t-28 -63.5zM1538 592q0 -37 24.5 -58.5t63.5 -21.5t63.5 21.5t24.5 58.5t-24.5 58.5t-63.5 21.5q-41 0 -64.5 -21.5t-23.5 -58.5z" />
<glyph unicode="&#x215e;" horiz-adv-x="2037" d="M96 1286v236h652v-203l-316 -635l-289 6l312 596h-359zM262 0l1038 1524h291l-1040 -1524h-289zM1267 242q0 63 31 115.5t84 82.5q-92 55 -92 170q0 111 92 178.5t244 67.5t244 -67.5t92 -178.5q0 -115 -95 -170q55 -29 87 -82t32 -116q0 -123 -95 -192.5t-265 -69.5 q-168 0 -263.5 69.5t-95.5 192.5zM1527 258q0 -39 27 -63.5t72 -24.5t72.5 24.5t27.5 63.5t-28.5 63.5t-71.5 24.5t-71 -24.5t-28 -63.5zM1538 592q0 -37 24.5 -58.5t63.5 -21.5t63.5 21.5t24.5 58.5t-24.5 58.5t-63.5 21.5q-41 0 -64.5 -21.5t-23.5 -58.5z" />
<glyph unicode="&#x2202;" horiz-adv-x="1310" d="M43 444q0 143 64.5 263t182.5 192t265 72q94 0 173 -31t128 -88q0 14 1 26.5t1 18.5q0 168 -75.5 256t-219.5 88q-82 0 -168 -30.5t-145 -80.5l-41 304q68 55 181.5 88.5t234.5 33.5q293 0 452.5 -184t159.5 -522q0 -262 -81 -462t-233.5 -310.5t-361.5 -110.5 q-152 0 -268.5 57.5t-183 166t-66.5 253.5zM403 467q0 -86 50.5 -135t140.5 -49q94 0 158.5 65.5t64.5 161.5q0 84 -51 133t-139 49q-96 0 -160 -64.5t-64 -160.5z" />
<glyph unicode="&#x2206;" horiz-adv-x="1732" d="M43 0l614 1556h416l617 -1556h-1647zM549 309h606l-303 889z" />
<glyph unicode="&#x220f;" horiz-adv-x="1611" d="M164 -162v1718h1284v-1718h-406v1387h-473v-1387h-405z" />
<glyph unicode="&#x2211;" horiz-adv-x="1341" d="M70 106l407 609l-397 573v268h1149v-333h-651l340 -496l-369 -555h688v-334h-1167v268z" />
<glyph unicode="&#x2212;" horiz-adv-x="1323" d="M170 535v305h985v-305h-985z" />
<glyph unicode="&#x2215;" horiz-adv-x="387" d="M-471 0l1038 1524h291l-1040 -1524h-289z" />
<glyph unicode="&#x2219;" horiz-adv-x="626" d="M104 776q0 84 58.5 138.5t150.5 54.5t149.5 -54.5t57.5 -138.5q0 -88 -57.5 -142t-149.5 -54t-150.5 54t-58.5 142z" />
<glyph unicode="&#x221a;" horiz-adv-x="1552" d="M63 688v297h525l200 -575l494 1292h360l-688 -1702h-356l-291 688h-244z" />
<glyph unicode="&#x221e;" horiz-adv-x="1497" d="M53 713q0 184 104.5 292.5t282.5 108.5q94 0 175 -42t133 -116q53 76 133 117t174 41q180 0 283.5 -107.5t103.5 -293.5t-104.5 -295t-282.5 -109q-94 0 -174 41t-133 117q-51 -74 -132.5 -116t-175.5 -42q-178 0 -282.5 108.5t-104.5 295.5zM338 713q0 -66 32 -102 t89 -36q49 0 90 36t67 102q-57 135 -157 135q-57 0 -89 -36t-32 -99zM881 713q27 -66 67.5 -102t89.5 -36q57 0 89 36t32 102q0 63 -31.5 99t-89.5 36q-51 0 -91 -35t-66 -100z" />
<glyph unicode="&#x222b;" horiz-adv-x="968" d="M-43 -471l35 297q20 -12 62 -20.5t77 -8.5q80 0 119 47t39 150q0 59 -2 84l-64 1007q-2 20 -2 103q0 238 115 365.5t326 127.5q68 0 138 -14t109 -35l-37 -297q-20 12 -61 20.5t-78 8.5q-80 0 -119 -47t-39 -150q0 -57 3 -84l63 -1007q2 -20 2 -103q0 -238 -113.5 -365.5 t-326.5 -127.5q-68 0 -138.5 14t-107.5 35z" />
<glyph unicode="&#x2248;" horiz-adv-x="1323" d="M98 158v36q0 223 86 341t250 118q133 0 244 -78q82 -57 111.5 -72.5t52.5 -15.5q94 0 94 164h289v-37q0 -223 -86 -340.5t-250 -117.5q-125 0 -232 71q-90 61 -121.5 77.5t-54.5 16.5q-94 0 -94 -163h-289zM98 727v36q0 223 86 341t250 118q133 0 244 -78 q82 -57 111.5 -72.5t52.5 -15.5q94 0 94 164h289v-37q0 -223 -86 -340.5t-250 -117.5q-125 0 -232 71q-90 61 -121.5 77.5t-54.5 16.5q-94 0 -94 -163h-289z" />
<glyph unicode="&#x2260;" horiz-adv-x="1323" d="M207 291v287h299l94 202h-393v287h522l109 236h217l-109 -236h172v-287h-301l-94 -202h395v-287h-524l-107 -236h-217l107 236h-170z" />
<glyph unicode="&#x2264;" horiz-adv-x="1323" d="M170 0v305h985v-305h-985zM178 709v342l967 335v-319l-619 -184l619 -187v-321z" />
<glyph unicode="&#x2265;" horiz-adv-x="1323" d="M170 0v305h985v-305h-985zM178 375v319l619 185l-619 186v321l967 -333v-342z" />
<glyph unicode="&#x25ca;" horiz-adv-x="1433" d="M84 829l473 832h320l471 -832l-471 -829h-320zM463 829l252 -473l254 473l-254 476z" />
<glyph unicode="&#x25fc;" horiz-adv-x="1054" d="M0 0v1055h1055v-1055h-1055z" />
<glyph unicode="&#xf507;" horiz-adv-x="2037" d="M80 688v209q63 41 128.5 90t115.5 92q61 57 87.5 97t26.5 75t-27.5 56.5t-74.5 21.5q-51 0 -106.5 -24.5t-104.5 -71.5l-43 205q47 47 134 76.5t173 29.5q145 0 231.5 -69.5t86.5 -186.5q0 -156 -177 -313q-39 -37 -84 -68h287v-219h-653zM352 0l1038 1524h291 l-1040 -1524h-289zM1308 598v236h652v-203l-316 -635l-289 6l312 596h-359z" />
<glyph unicode="&#xf508;" horiz-adv-x="2037" d="M82 725l20 209q111 -55 238 -56q125 0 125 82q0 35 -31 55.5t-88 20.5q-45 0 -88 -12l-53 129l184 164h-285v205h594v-187l-170 -147q90 -14 146.5 -78t56.5 -156q0 -131 -101.5 -208.5t-269.5 -77.5q-180 0 -278 57zM305 0l1038 1524h291l-1040 -1524h-289zM1308 598 v236h652v-203l-316 -635l-289 6l312 596h-359z" />
<glyph unicode="&#xf509;" horiz-adv-x="2037" d="M45 840v204l363 478h272v-482h90v-200h-90v-152h-238v152h-397zM276 1040h166v215zM334 0l1038 1524h291l-1040 -1524h-289zM1308 598v236h652v-203l-316 -635l-289 6l312 596h-359z" />
<glyph unicode="&#xf50a;" horiz-adv-x="2037" d="M94 723l21 213q86 -57 217 -58q141 0 141 82q0 76 -135 76q-123 0 -213 -18l20 504h541v-205h-324l-4 -90q16 0 32 1t32 1q152 0 234.5 -71t82.5 -202q0 -135 -98 -211.5t-272 -76.5q-88 0 -164 15t-111 40zM309 0l1038 1524h291l-1040 -1524h-289zM1308 598v236h652 v-203l-316 -635l-289 6l312 596h-359z" />
<glyph unicode="&#xf50b;" horiz-adv-x="2037" d="M59 987q0 133 85 277.5t235 263.5l313 -6q-82 -55 -162.5 -136.5t-136.5 -160.5q35 20 96 20q119 0 199 -78t80 -194q0 -133 -98 -219t-254 -86q-160 0 -258.5 88t-98.5 231zM309 967q0 -43 29 -70t76 -27q45 0 72.5 28t27.5 69q0 45 -27.5 72.5t-72.5 27.5t-75 -27.5 t-30 -72.5zM317 0l1038 1524h291l-1040 -1524h-289zM1308 598v236h652v-203l-316 -635l-289 6l312 596h-359z" />
<glyph unicode="&#xf50d;" horiz-adv-x="2037" d="M80 688v209q63 41 128.5 90t115.5 92q61 57 87.5 97t26.5 75t-27.5 56.5t-74.5 21.5q-51 0 -106.5 -24.5t-104.5 -71.5l-43 205q47 47 134 76.5t173 29.5q145 0 231.5 -69.5t86.5 -186.5q0 -156 -177 -313q-39 -37 -84 -68h287v-219h-653zM377 0l1038 1524h291 l-1040 -1524h-289zM1271 551q0 135 98.5 220t254.5 85q160 0 258 -88t98 -231q0 -133 -86 -277.5t-233 -263.5l-316 6q84 59 167 140t134 155q-39 -18 -98 -18q-119 0 -198 77.5t-79 194.5zM1521 557q0 -45 30 -72.5t75 -27.5t73.5 27.5t28.5 72.5q0 43 -28.5 69.5 t-73.5 26.5t-75 -26.5t-30 -69.5z" />
<glyph unicode="&#xf50e;" horiz-adv-x="2037" d="M45 840v204l363 478h272v-482h90v-200h-90v-152h-238v152h-397zM276 1040h166v215zM381 0l1038 1524h291l-1040 -1524h-289zM1271 551q0 135 98.5 220t254.5 85q160 0 258 -88t98 -231q0 -133 -86 -277.5t-233 -263.5l-316 6q84 59 167 140t134 155q-39 -18 -98 -18 q-119 0 -198 77.5t-79 194.5zM1521 557q0 -45 30 -72.5t75 -27.5t73.5 27.5t28.5 72.5q0 43 -28.5 69.5t-73.5 26.5t-75 -26.5t-30 -69.5z" />
<glyph unicode="&#xf50f;" horiz-adv-x="2037" d="M94 723l21 213q86 -57 217 -58q141 0 141 82q0 76 -135 76q-123 0 -213 -18l20 504h541v-205h-324l-4 -90q16 0 32 1t32 1q152 0 234.5 -71t82.5 -202q0 -135 -98 -211.5t-272 -76.5q-88 0 -164 15t-111 40zM340 0l1038 1524h291l-1040 -1524h-289zM1271 551 q0 135 98.5 220t254.5 85q160 0 258 -88t98 -231q0 -133 -86 -277.5t-233 -263.5l-316 6q84 59 167 140t134 155q-39 -18 -98 -18q-119 0 -198 77.5t-79 194.5zM1521 557q0 -45 30 -72.5t75 -27.5t73.5 27.5t28.5 72.5q0 43 -28.5 69.5t-73.5 26.5t-75 -26.5t-30 -69.5z" />
<glyph unicode="&#xf510;" horiz-adv-x="2037" d="M96 1286v236h652v-203l-316 -635l-289 6l312 596h-359zM268 0l1038 1524h291l-1040 -1524h-289zM1271 551q0 135 98.5 220t254.5 85q160 0 258 -88t98 -231q0 -133 -86 -277.5t-233 -263.5l-316 6q84 59 167 140t134 155q-39 -18 -98 -18q-119 0 -198 77.5t-79 194.5z M1521 557q0 -45 30 -72.5t75 -27.5t73.5 27.5t28.5 72.5q0 43 -28.5 69.5t-73.5 26.5t-75 -26.5t-30 -69.5z" />
<glyph unicode="&#xf511;" horiz-adv-x="2037" d="M55 930q0 63 31 115.5t84 82.5q-92 55 -92 170q0 111 92 178.5t244 67.5t244 -67.5t92 -178.5q0 -115 -95 -170q55 -29 87 -82t32 -116q0 -123 -95 -192.5t-265 -69.5q-168 0 -263.5 69.5t-95.5 192.5zM315 946q0 -39 27 -63.5t72 -24.5t72.5 24.5t27.5 63.5t-28.5 63.5 t-71.5 24.5t-71 -24.5t-28 -63.5zM326 1280q0 -37 24.5 -58.5t63.5 -21.5t63.5 21.5t24.5 58.5t-24.5 58.5t-63.5 21.5q-41 0 -64.5 -21.5t-23.5 -58.5zM367 0l1038 1524h291l-1040 -1524h-289zM1271 551q0 135 98.5 220t254.5 85q160 0 258 -88t98 -231q0 -133 -86 -277.5 t-233 -263.5l-316 6q84 59 167 140t134 155q-39 -18 -98 -18q-119 0 -198 77.5t-79 194.5zM1521 557q0 -45 30 -72.5t75 -27.5t73.5 27.5t28.5 72.5q0 43 -28.5 69.5t-73.5 26.5t-75 -26.5t-30 -69.5z" />
<glyph unicode="&#xfb01;" horiz-adv-x="1511" d="M63 760v297h170v102q0 240 121 375t338 135q129 0 215 -35l-18 -307q-41 23 -115 23q-172 0 -172 -213v-80h252v-297h-252v-760h-369v760h-170zM995 1419q0 84 59.5 141.5t147.5 57.5t147.5 -57.5t59.5 -141.5t-59.5 -140t-147.5 -56t-147.5 56t-59.5 140zM1018 0v1057 h368v-1057h-368z" />
<glyph unicode="&#xfb02;" horiz-adv-x="1511" d="M63 760v297h170v102q0 240 121 375t338 135q129 0 215 -35l-18 -307q-41 23 -115 23q-172 0 -172 -213v-80h252v-297h-252v-760h-369v760h-170zM1018 0v1659h368v-1659h-368z" />
<glyph unicode="&#xfeff;" horiz-adv-x="0" />
<glyph horiz-adv-x="1390" d="M80 762q0 377 161.5 585.5t452.5 208.5t453 -208.5t162 -585.5t-162 -586t-453 -209t-452.5 209t-161.5 586zM487 762q0 -233 50.5 -345t156.5 -112t157.5 112.5t51.5 344.5q0 231 -51 344t-158 113q-106 0 -156.5 -112t-50.5 -345z" />
<glyph horiz-adv-x="1079" d="M63 1300l514 224h304v-1524h-375v1147l-379 -164z" />
<glyph horiz-adv-x="1323" d="M119 0v281q266 227 407 391q117 135 163 219t46 164q0 82 -52 131t-138 49q-94 0 -185.5 -43t-169.5 -121l-63 311q92 82 220 128t267 46q236 0 375 -122.5t139 -331.5q0 -137 -69.5 -277.5t-214.5 -300.5q-94 -104 -201 -196h535v-328h-1059z" />
<glyph horiz-adv-x="1249" d="M72 70l30 309q182 -100 394 -100q121 0 187.5 51t66.5 143q0 90 -63.5 139.5t-178.5 49.5q-84 0 -139 -17l-88 203l352 366h-529v310h983v-267l-335 -344q182 -27 284.5 -143.5t102.5 -298.5q0 -231 -166 -367.5t-449 -136.5q-139 0 -256.5 26.5t-195.5 76.5z" />
<glyph horiz-adv-x="1355" d="M61 309v293l656 922h383v-914h170v-301h-170v-309h-355v309h-684zM405 610h340v473z" />
<glyph horiz-adv-x="1259" d="M84 57l32 316q84 -43 185.5 -67.5t199.5 -24.5q129 0 202 55t73 151q0 94 -81 146.5t-224 52.5q-70 0 -160 -11t-164 -28l35 877h885v-318h-557l-11 -237q70 10 113 10q250 0 400.5 -132t150.5 -351q0 -158 -74 -278t-213.5 -185.5t-329.5 -65.5q-131 0 -260 24.5 t-202 65.5z" />
<glyph horiz-adv-x="1333" d="M92 528q0 250 151.5 519.5t409.5 482.5l457 -14q-387 -313 -545 -605q78 57 209 58q131 0 238.5 -59.5t171 -170t63.5 -252.5q0 -147 -69.5 -265t-198.5 -186.5t-299 -68.5q-274 0 -431 150.5t-157 410.5zM469 479q0 -88 58.5 -145.5t146.5 -57.5t144 57.5t56 145.5 q0 90 -56 147.5t-144 57.5t-146.5 -57.5t-58.5 -147.5z" />
<glyph horiz-adv-x="1236" d="M80 1176v348h1081v-305l-541 -1225l-403 10l530 1172h-667z" />
<glyph horiz-adv-x="1355" d="M88 426q0 127 64.5 227.5t176.5 145.5q-98 47 -150 132t-52 197q0 125 66.5 221.5t191.5 151.5t293 55q160 0 284.5 -52t195 -149.5t70.5 -226.5q0 -113 -52 -197.5t-150 -131.5q113 -45 177 -145.5t64 -227.5q0 -139 -70.5 -242.5t-203.5 -160t-315 -56.5 q-272 0 -431 124t-159 335zM471 455q0 -86 57.5 -138.5t149.5 -52.5t149 52.5t57 138.5t-57 139t-149 53t-149.5 -54t-57.5 -138zM485 1098q0 -82 52.5 -130t140.5 -48t140 48t52 130q0 80 -53 129t-139 49t-139.5 -49t-53.5 -129z" />
<glyph horiz-adv-x="1333" d="M84 1036q0 109 39 203t112.5 166t180 111.5t237.5 39.5q274 0 431 -150.5t157 -410.5q0 -248 -151.5 -517t-411.5 -484l-455 14q387 315 543 602q-76 -55 -207 -55t-238.5 59.5t-172 170t-64.5 251.5zM457 1044q0 -90 56 -147t146 -57q88 0 145.5 58t57.5 146 t-57.5 145.5t-145.5 57.5t-145 -57t-57 -146z" />
<glyph d="M33 418q0 205 101.5 321.5t279.5 116.5t279.5 -116.5t101.5 -321.5t-101.5 -321.5t-279.5 -116.5t-279.5 116.5t-101.5 321.5zM307 418q1 -209 107 -209q53 0 78.5 51t25.5 158q0 109 -25.5 159t-78.5 50q-106 0 -107 -209z" />
<glyph d="M94 709l273 125h241v-834h-272v567l-203 -92z" />
<glyph d="M80 0v209q63 41 128.5 90t115.5 92q61 57 87.5 97t26.5 75t-27.5 56.5t-74.5 21.5q-51 0 -106.5 -24.5t-104.5 -71.5l-43 205q47 47 134 76.5t173 29.5q145 0 231.5 -69.5t86.5 -186.5q0 -156 -177 -313q-39 -37 -84 -68h287v-219h-653z" />
<glyph d="M82 37l20 209q111 -55 238 -56q125 0 125 82q0 35 -31 55.5t-88 20.5q-45 0 -88 -12l-53 129l184 164h-285v205h594v-187l-170 -147q90 -14 146.5 -78t56.5 -156q0 -131 -101.5 -208.5t-269.5 -77.5q-180 0 -278 57z" />
<glyph d="M45 152v204l363 478h272v-482h90v-200h-90v-152h-238v152h-397zM276 352h166v215z" />
<glyph d="M94 35l21 213q86 -57 217 -58q141 0 141 82q0 76 -135 76q-123 0 -213 -18l20 504h541v-205h-324l-4 -90q16 0 32 1t32 1q152 0 234.5 -71t82.5 -202q0 -135 -98 -211.5t-272 -76.5q-88 0 -164 15t-111 40z" />
<glyph d="M59 299q0 133 85 277.5t235 263.5l313 -6q-82 -55 -162.5 -136.5t-136.5 -160.5q35 20 96 20q119 0 199 -78t80 -194q0 -133 -98 -219t-254 -86q-160 0 -258.5 88t-98.5 231zM309 279q0 -43 29 -70t76 -27q45 0 72.5 28t27.5 69q0 45 -27.5 72.5t-72.5 27.5t-75 -27.5 t-30 -72.5z" />
<glyph d="M96 598v236h652v-203l-316 -635l-289 6l312 596h-359z" />
<glyph d="M55 242q0 63 31 115.5t84 82.5q-92 55 -92 170q0 111 92 178.5t244 67.5t244 -67.5t92 -178.5q0 -115 -95 -170q55 -29 87 -82t32 -116q0 -123 -95 -192.5t-265 -69.5q-168 0 -263.5 69.5t-95.5 192.5zM315 258q0 -39 27 -63.5t72 -24.5t72.5 24.5t27.5 63.5t-28.5 63.5 t-71.5 24.5t-71 -24.5t-28 -63.5zM326 592q0 -37 24.5 -58.5t63.5 -21.5t63.5 21.5t24.5 58.5t-24.5 58.5t-63.5 21.5q-41 0 -64.5 -21.5t-23.5 -58.5z" />
<glyph d="M59 551q0 135 98.5 220t254.5 85q160 0 258 -88t98 -231q0 -133 -86 -277.5t-233 -263.5l-316 6q84 59 167 140t134 155q-39 -18 -98 -18q-119 0 -198 77.5t-79 194.5zM309 557q0 -45 30 -72.5t75 -27.5t73.5 27.5t28.5 72.5q0 43 -28.5 69.5t-73.5 26.5t-75 -26.5 t-30 -69.5z" />
<glyph d="M33 1106q0 205 101.5 321.5t279.5 116.5t279.5 -116.5t101.5 -321.5t-101.5 -321.5t-279.5 -116.5t-279.5 116.5t-101.5 321.5zM307 1106q1 -209 107 -209q53 0 78.5 51t25.5 158q0 109 -25.5 159t-78.5 50q-106 0 -107 -209z" />
<glyph d="M94 1397l273 125h241v-834h-272v567l-203 -92z" />
<glyph d="M80 688v209q63 41 128.5 90t115.5 92q61 57 87.5 97t26.5 75t-27.5 56.5t-74.5 21.5q-51 0 -106.5 -24.5t-104.5 -71.5l-43 205q47 47 134 76.5t173 29.5q145 0 231.5 -69.5t86.5 -186.5q0 -156 -177 -313q-39 -37 -84 -68h287v-219h-653z" />
<glyph d="M82 725l20 209q111 -55 238 -56q125 0 125 82q0 35 -31 55.5t-88 20.5q-45 0 -88 -12l-53 129l184 164h-285v205h594v-187l-170 -147q90 -14 146.5 -78t56.5 -156q0 -131 -101.5 -208.5t-269.5 -77.5q-180 0 -278 57z" />
<glyph d="M45 840v204l363 478h272v-482h90v-200h-90v-152h-238v152h-397zM276 1040h166v215z" />
<glyph d="M94 723l21 213q86 -57 217 -58q141 0 141 82q0 76 -135 76q-123 0 -213 -18l20 504h541v-205h-324l-4 -90q16 0 32 1t32 1q152 0 234.5 -71t82.5 -202q0 -135 -98 -211.5t-272 -76.5q-88 0 -164 15t-111 40z" />
<glyph d="M59 987q0 133 85 277.5t235 263.5l313 -6q-82 -55 -162.5 -136.5t-136.5 -160.5q35 20 96 20q119 0 199 -78t80 -194q0 -133 -98 -219t-254 -86q-160 0 -258.5 88t-98.5 231zM309 967q0 -43 29 -70t76 -27q45 0 72.5 28t27.5 69q0 45 -27.5 72.5t-72.5 27.5t-75 -27.5 t-30 -72.5z" />
<glyph d="M96 1286v236h652v-203l-316 -635l-289 6l312 596h-359z" />
<glyph d="M55 930q0 63 31 115.5t84 82.5q-92 55 -92 170q0 111 92 178.5t244 67.5t244 -67.5t92 -178.5q0 -115 -95 -170q55 -29 87 -82t32 -116q0 -123 -95 -192.5t-265 -69.5q-168 0 -263.5 69.5t-95.5 192.5zM315 946q0 -39 27 -63.5t72 -24.5t72.5 24.5t27.5 63.5t-28.5 63.5 t-71.5 24.5t-71 -24.5t-28 -63.5zM326 1280q0 -37 24.5 -58.5t63.5 -21.5t63.5 21.5t24.5 58.5t-24.5 58.5t-63.5 21.5q-41 0 -64.5 -21.5t-23.5 -58.5z" />
<glyph d="M59 1239q0 135 98.5 220t254.5 85q160 0 258 -88t98 -231q0 -133 -86 -277.5t-233 -263.5l-316 6q84 59 167 140t134 155q-39 -18 -98 -18q-119 0 -198 77.5t-79 194.5zM309 1245q0 -45 30 -72.5t75 -27.5t73.5 27.5t28.5 72.5q0 43 -28.5 69.5t-73.5 26.5t-75 -26.5 t-30 -69.5z" />
<glyph horiz-adv-x="858" d="M102 626v301h654v-301h-654z" />
<glyph horiz-adv-x="1024" d="M0 643v272h1024v-272h-1024z" />
<glyph horiz-adv-x="2048" d="M0 643v272h2048v-272h-2048z" />
<glyph horiz-adv-x="915" d="M158 852q0 283 100 545t274 432h386q-205 -199 -313.5 -448.5t-108.5 -528.5t108.5 -528.5t313.5 -447.5h-386q-174 170 -274 432t-100 544z" />
<glyph horiz-adv-x="915" d="M-2 -124q205 199 313.5 448.5t108.5 527.5q0 279 -108.5 529t-313.5 448h385q174 -170 274.5 -432t100.5 -545t-100.5 -544.5t-274.5 -431.5h-385z" />
<glyph horiz-adv-x="1185" d="M10 -188l824 1931h340l-824 -1931h-340z" />
<glyph horiz-adv-x="1185" d="M10 1743h340l824 -1931h-340z" />
<glyph horiz-adv-x="915" d="M205 -125v1951h620v-299h-284v-1353h284v-299h-620z" />
<glyph horiz-adv-x="915" d="M88 -125v299h285v1353h-285v299h621v-1951h-621z" />
<glyph horiz-adv-x="937" d="M88 697v297h49q88 0 123 33.5t35 119.5q0 59 -10.5 116.5t-20.5 112t-10 107.5q0 176 111.5 263t336.5 87q63 0 160 -6v-286q-8 2 -96 2q-92 0 -133 -35t-41 -113q0 -43 10 -95t20.5 -108.5t10.5 -113.5q0 -84 -43 -145.5t-119 -88.5q76 -25 119 -86t43 -145 q0 -57 -10.5 -113.5t-20.5 -109t-10 -95.5q0 -78 41 -112.5t133 -34.5q84 0 96 2v-287q-97 -6 -160 -6q-225 0 -336.5 87t-111.5 263q0 53 10 107.5t20.5 112t10.5 116.5q0 86 -35 120t-123 34h-49z" />
<glyph horiz-adv-x="937" d="M76 -137v287q8 -2 96 -2q92 0 133 35t41 112q0 43 -10 95.5t-20.5 108.5t-10.5 114q0 84 43 145.5t119 87.5q-76 25 -119 86.5t-43 145.5q0 57 10.5 113.5t20.5 108.5t10 95q0 78 -41 113t-133 35q-84 0 -96 -2v286q47 2 75.5 3t48 2t36.5 1q225 0 336.5 -87t111.5 -263 q0 -53 -10 -107.5t-20.5 -111.5t-10.5 -117q0 -86 35 -119.5t123 -33.5h49v-297h-49q-88 0 -123 -34t-35 -120q0 -59 10.5 -116.5t20.5 -111.5t10 -108q0 -176 -111.5 -263t-336.5 -87q-16 0 -36 1t-48.5 2t-75.5 3z" />
<glyph horiz-adv-x="747" d="M94 668q0 117 82 198t197 81q117 0 198.5 -81t81.5 -198t-81.5 -197.5t-198.5 -80.5q-115 0 -197 81.5t-82 196.5z" />
<glyph horiz-adv-x="806" d="M49 778l309 457h392l-324 -457l324 -456h-392z" />
<glyph horiz-adv-x="806" d="M57 322l324 456l-324 457h392l309 -457l-309 -456h-392z" />
<glyph horiz-adv-x="1374" d="M49 778l309 457h392l-324 -457l324 -456h-392zM616 778l309 457h392l-324 -457l324 -456h-392z" />
<glyph horiz-adv-x="1374" d="M57 322l324 456l-324 457h392l309 -457l-309 -456h-392zM624 322l324 456l-324 457h392l309 -457l-309 -456h-392z" />
<glyph horiz-adv-x="2138" d="M94 706q0 281 136.5 513.5t387 372.5t566.5 140q250 0 444.5 -95t306 -272t111.5 -415q0 -184 -65.5 -328.5t-188.5 -227.5t-285 -83q-106 0 -183 35t-112 100q-45 -63 -118.5 -97t-163.5 -34q-104 0 -184 50t-126.5 144.5t-46.5 221.5q0 137 55.5 255t157 190.5 t226.5 72.5q82 0 148.5 -34t105.5 -93l22 98h287l-84 -503q-6 -43 -6 -68q0 -102 80 -102q55 0 102 51t77 142t30 202q0 254 -162 398.5t-447 144.5q-223 0 -404 -95.5t-286.5 -272.5t-105.5 -405q0 -295 184 -460.5t512 -165.5q125 0 254 26.5t237 73.5l25 -246 q-119 -49 -257 -75.5t-275 -26.5q-283 0 -498 104.5t-336 301t-121 462.5zM885 758q0 -82 37.5 -125t107.5 -43q82 0 133 60t51 157q0 82 -36.5 124t-108.5 42q-82 0 -133 -60.5t-51 -154.5z" />
<glyph horiz-adv-x="626" d="M104 817q0 84 58.5 138.5t150.5 54.5t149.5 -54.5t57.5 -138.5q0 -88 -57.5 -142t-149.5 -54t-150.5 54t-58.5 142z" />
<glyph horiz-adv-x="1187" d="M80 299q0 158 113.5 255t298.5 97q59 0 125.5 -13t119.5 -36q-6 102 -65.5 151.5t-175.5 49.5q-174 0 -324 -101l-25 285q72 45 183.5 74t220.5 29q260 0 395 -128t135 -372v-590h-333l-5 102q-104 -135 -309 -135q-164 0 -259 89t-95 243zM418 324q0 -51 36 -82t95 -31 q78 0 128 52t58 143q-76 31 -162 30q-72 0 -113.5 -30.5t-41.5 -81.5z" />
<glyph horiz-adv-x="1257" d="M47 -221q0 88 51.5 154.5t141.5 95.5q-63 27 -98.5 72.5t-35.5 105.5q0 131 158 219q-158 104 -158 289q0 111 58.5 194.5t169 132t258.5 48.5q139 0 254 -50l377 27v-240l-166 15q41 -76 41 -154q0 -100 -58.5 -179t-167 -125t-251.5 -46q-86 0 -136 8q-55 -29 -55 -70 q0 -29 32 -40t103 -11h97q514 0 514 -358q0 -188 -156 -287.5t-447 -99.5q-252 0 -389 77.5t-137 221.5zM379 -156q0 -94 229 -94q111 0 169.5 25.5t58.5 72.5t-48.5 69t-156.5 22h-47q-205 0 -205 -95zM457 713q0 -57 39.5 -92t105.5 -35q68 0 108 34.5t40 92.5 q0 57 -40 92t-108 35q-66 0 -105.5 -35t-39.5 -92z" />
<glyph horiz-adv-x="1265" d="M27 1057h407l217 -621l195 621h391l-442 -1100q-78 -193 -151 -294t-161 -142t-217 -41q-68 0 -132 13t-103 36l49 313q57 -29 141 -28q74 0 117 37.5t84 136.5l33 75z" />
<glyph horiz-adv-x="626" d="M104 776q0 86 58.5 140.5t150.5 54.5t149.5 -54.5t57.5 -140.5t-57.5 -140t-149.5 -54t-150.5 54t-58.5 140z" />
<glyph horiz-adv-x="626" d="M104 836q0 86 58.5 140t150.5 54t149.5 -54t57.5 -140t-57.5 -140.5t-149.5 -54.5t-150.5 54.5t-58.5 140.5z" />
<glyph horiz-adv-x="1888" d="M80 299q0 158 113.5 255t298.5 97q59 0 124.5 -13t120.5 -36q-6 102 -65.5 151.5t-175.5 49.5q-174 0 -324 -101l-25 285q72 45 183.5 74t220.5 29q256 0 369 -150q66 72 161 111t209 39q233 0 371.5 -143.5t138.5 -385.5q0 -78 -12 -127h-696q53 -180 323 -180 q88 0 178 18.5t160 51.5l33 -277q-168 -80 -404 -80q-188 0 -314 50.5t-200 154.5q-124 -205 -411 -205q-176 0 -276.5 88t-100.5 244zM418 324q0 -51 36 -82t95 -31q78 0 128 53t58 142q-74 31 -162 30q-72 0 -113.5 -30.5t-41.5 -81.5zM1085 655h369q-10 84 -57 130 t-121 46q-156 0 -191 -176z" />
<glyph horiz-adv-x="0" d="M-272 -508l34 178q57 -25 129 -24q102 0 103 59q0 57 -107 57q-47 0 -65 -6l76 264h202l-37 -124q94 -8 153.5 -64.5t59.5 -136.5q0 -117 -89 -179.5t-259 -62.5q-51 0 -109.5 11.5t-90.5 27.5z" />
<glyph horiz-adv-x="0" d="M-248 -510q39 80 61.5 185.5t22.5 197.5h332q0 -94 -41 -205.5t-98 -177.5h-277z" />
<glyph horiz-adv-x="0" d="M-246 -307q0 111 88 214t250 183l115 -90q-164 -121 -164 -217q0 -63 78 -64q45 0 80 21l20 -240q-29 -18 -79 -29.5t-103 -11.5q-135 0 -210 61.5t-75 172.5z" />
<glyph horiz-adv-x="0" d="M-246 -313q0 119 91.5 222t256.5 173l136 -35q-100 -68 -153.5 -135.5t-53.5 -124.5q0 -76 86 -76q53 0 88 21l20 -232q-29 -18 -80 -29.5t-104 -11.5q-137 0 -212 59.5t-75 168.5z" />
<glyph horiz-adv-x="0" d="M-248 -315q0 125 99.5 242.5t263.5 189.5l127 -39q-92 -66 -146.5 -141.5t-54.5 -139.5q0 -37 23.5 -57.5t68.5 -20.5q55 0 96 23l23 -240q-27 -16 -90.5 -29.5t-120.5 -13.5q-131 0 -210 61.5t-79 164.5z" />
<glyph horiz-adv-x="1257" d="M47 -221q0 88 51.5 154.5t141.5 95.5q-63 27 -98.5 72.5t-35.5 105.5q0 131 158 219q-158 104 -158 289q0 111 58.5 194.5t169 132t258.5 48.5q139 0 254 -50l377 27v-240l-166 15q41 -76 41 -154q0 -100 -58.5 -179t-167 -125t-251.5 -46q-86 0 -136 8q-55 -29 -55 -70 q0 -29 32 -40t103 -11h97q514 0 514 -358q0 -188 -156 -287.5t-447 -99.5q-252 0 -389 77.5t-137 221.5zM379 -156q0 -94 229 -94q111 0 169.5 25.5t58.5 72.5t-48.5 69t-156.5 22h-47q-205 0 -205 -95zM442 1249q2 98 42 204t100 169h256q-39 -84 -60.5 -182.5 t-21.5 -190.5h-316zM457 713q0 -57 39.5 -92t105.5 -35q68 0 108 34.5t40 92.5q0 57 -40 92t-108 35q-66 0 -105.5 -35t-39.5 -92z" />
<glyph horiz-adv-x="1187" d="M80 299q0 158 113.5 255t298.5 97q59 0 125.5 -13t119.5 -36q-6 102 -65.5 151.5t-175.5 49.5q-174 0 -324 -101l-25 285q72 45 183.5 74t220.5 29q260 0 395 -128t135 -372v-590h-333l-5 102q-104 -135 -309 -135q-164 0 -259 89t-95 243zM418 324q0 -51 36 -82t95 -31 q78 0 128 52t58 143q-76 31 -162 30q-72 0 -113.5 -30.5t-41.5 -81.5zM629 -307q0 109 89 214t249 183l114 -90q-90 -63 -133 -115.5t-43 -101.5q0 -33 22.5 -52.5t61.5 -19.5q53 0 86 19l21 -230q-25 -18 -77.5 -29.5t-107.5 -11.5q-131 0 -206.5 62.5t-75.5 171.5z" />
<glyph horiz-adv-x="0" d="M-248 1710l240 315h428l-334 -315h-334z" />
<glyph horiz-adv-x="0" d="M-442 1710l178 311h397l-242 -311h-333zM51 1710l178 311h398l-242 -311h-334z" />
<glyph horiz-adv-x="1187" d="M80 299q0 158 113.5 255t298.5 97q59 0 125.5 -13t119.5 -36q-6 102 -65.5 151.5t-175.5 49.5q-174 0 -324 -101l-25 285q72 45 183.5 74t220.5 29q260 0 395 -128t135 -372v-590h-333l-5 102q-104 -135 -309 -135q-164 0 -259 89t-95 243zM356 1249l215 348h395 l-303 -348h-307zM418 324q0 -51 36 -82t95 -31q78 0 128 52t58 143q-76 31 -162 30q-72 0 -113.5 -30.5t-41.5 -81.5z" />
<glyph horiz-adv-x="1265" d="M27 1057h407l217 -621l195 621h391l-442 -1100q-78 -193 -151 -294t-161 -142t-217 -41q-68 0 -132 13t-103 36l49 313q57 -29 141 -28q74 0 117 37.5t84 136.5l33 75zM416 1249l215 348h395l-303 -348h-307z" />
<glyph horiz-adv-x="0" d="M-430 2025h428l242 -315h-334z" />
<glyph horiz-adv-x="1187" d="M80 299q0 158 113.5 255t298.5 97q59 0 125.5 -13t119.5 -36q-6 102 -65.5 151.5t-175.5 49.5q-174 0 -324 -101l-25 285q72 45 183.5 74t220.5 29q260 0 395 -128t135 -372v-590h-333l-5 102q-104 -135 -309 -135q-164 0 -259 89t-95 243zM186 1597h393l217 -348h-307z M418 324q0 -51 36 -82t95 -31q78 0 128 52t58 143q-76 31 -162 30q-72 0 -113.5 -30.5t-41.5 -81.5z" />
<glyph horiz-adv-x="1265" d="M27 1057h407l217 -621l195 621h391l-442 -1100q-78 -193 -151 -294t-161 -142t-217 -41q-68 0 -132 13t-103 36l49 313q57 -29 141 -28q74 0 117 37.5t84 136.5l33 75zM246 1597h393l217 -348h-307z" />
<glyph horiz-adv-x="0" d="M-477 1710l293 322h368l293 -322h-354l-123 139l-123 -139h-354z" />
<glyph horiz-adv-x="0" d="M-412 1706v14q2 166 64.5 252t181.5 86q55 0 96 -16.5t73 -35.5t58.5 -35.5t55.5 -16.5t42 23.5t13 76.5h240v-14q-2 -166 -64.5 -252t-181.5 -86q-55 0 -96 16.5t-72 36t-58.5 35.5t-54.5 16q-31 0 -44 -23.5t-13 -76.5h-240z" />
<glyph horiz-adv-x="1187" d="M80 299q0 158 113.5 255t298.5 97q59 0 125.5 -13t119.5 -36q-6 102 -65.5 151.5t-175.5 49.5q-174 0 -324 -101l-25 285q72 45 183.5 74t220.5 29q260 0 395 -128t135 -372v-590h-333l-5 102q-104 -135 -309 -135q-164 0 -259 89t-95 243zM135 1249l280 348h320 l280 -348h-313l-127 158l-127 -158h-313zM418 324q0 -51 36 -82t95 -31q78 0 128 52t58 143q-76 31 -162 30q-72 0 -113.5 -30.5t-41.5 -81.5z" />
<glyph horiz-adv-x="1265" d="M27 1057h407l217 -621l195 621h391l-442 -1100q-78 -193 -151 -294t-161 -142t-217 -41q-68 0 -132 13t-103 36l49 313q57 -29 141 -28q74 0 117 37.5t84 136.5l33 75zM195 1249l280 348h320l280 -348h-313l-127 158l-127 -158h-313z" />
<glyph horiz-adv-x="1187" d="M80 299q0 158 113.5 255t298.5 97q59 0 125.5 -13t119.5 -36q-6 102 -65.5 151.5t-175.5 49.5q-174 0 -324 -101l-25 285q72 45 183.5 74t220.5 29q260 0 395 -128t135 -372v-590h-333l-5 102q-104 -135 -309 -135q-164 0 -259 89t-95 243zM167 1247v19q2 156 62.5 240.5 t171.5 84.5q59 0 102 -16t75 -37.5t59.5 -38t56.5 -16.5q31 0 44 23.5t13 80.5h232v-18q-2 -156 -62.5 -241t-169.5 -85q-59 0 -102 16.5t-75 38t-59.5 38t-56.5 16.5q-33 0 -46 -23.5t-13 -81.5h-232zM418 324q0 -51 36 -82t95 -31q78 0 128 52t58 143q-76 31 -162 30 q-72 0 -113.5 -30.5t-41.5 -81.5z" />
<glyph horiz-adv-x="0" d="M-477 2032h354l123 -142l123 142h354l-293 -322h-368z" />
<glyph horiz-adv-x="0" d="M-150 1202l25 457h320l-117 -457h-228z" />
<glyph horiz-adv-x="0" d="M-350 1720v250h702v-250h-702z" />
<glyph horiz-adv-x="1187" d="M80 299q0 158 113.5 255t298.5 97q59 0 125.5 -13t119.5 -36q-6 102 -65.5 151.5t-175.5 49.5q-174 0 -324 -101l-25 285q72 45 183.5 74t220.5 29q260 0 395 -128t135 -372v-590h-333l-5 102q-104 -135 -309 -135q-164 0 -259 89t-95 243zM231 1270v246h688v-246h-688z M418 324q0 -51 36 -82t95 -31q78 0 128 52t58 143q-76 31 -162 30q-72 0 -113.5 -30.5t-41.5 -81.5z" />
<glyph horiz-adv-x="0" d="M-428 1874q0 74 50 121t130 47q82 0 132 -47t50 -121t-51 -122t-131 -48t-130 47t-50 123zM66 1874q0 74 50 121t130 47q82 0 132 -47t50 -121t-51 -122t-131 -48t-130 47t-50 123z" />
<glyph horiz-adv-x="0" d="M-397 2005q0 18 2 23h256q0 -66 35.5 -103t103.5 -37t103.5 37t35.5 103h256q2 -6 2 -23q0 -154 -107.5 -244t-289.5 -90t-289.5 90t-107.5 244z" />
<glyph horiz-adv-x="1187" d="M80 299q0 158 113.5 255t298.5 97q59 0 125.5 -13t119.5 -36q-6 102 -65.5 151.5t-175.5 49.5q-174 0 -324 -101l-25 285q72 45 183.5 74t220.5 29q260 0 395 -128t135 -372v-590h-333l-5 102q-104 -135 -309 -135q-164 0 -259 89t-95 243zM157 1389q0 74 49.5 118.5 t124.5 44.5q76 0 125 -46t49 -117q0 -74 -48 -119t-126 -45t-126 45t-48 119zM418 324q0 -51 36 -82t95 -31q78 0 128 52t58 143q-76 31 -162 30q-72 0 -113.5 -30.5t-41.5 -81.5zM645 1389q0 72 49 117.5t125 45.5t125 -45t49 -118q0 -74 -48 -119t-126 -45t-126 45 t-48 119z" />
<glyph horiz-adv-x="1265" d="M27 1057h407l217 -621l195 621h391l-442 -1100q-78 -193 -151 -294t-161 -142t-217 -41q-68 0 -132 13t-103 36l49 313q57 -29 141 -28q74 0 117 37.5t84 136.5l33 75zM217 1389q0 74 49.5 118.5t124.5 44.5q76 0 125 -46t49 -117q0 -74 -48 -119t-126 -45t-126 45 t-48 119zM705 1389q0 72 49 117.5t125 45.5t125 -45t49 -118q0 -74 -48 -119t-126 -45t-126 45t-48 119z" />
<glyph horiz-adv-x="1187" d="M80 299q0 158 113.5 255t298.5 97q59 0 125.5 -13t119.5 -36q-6 102 -65.5 151.5t-175.5 49.5q-174 0 -324 -101l-25 285q72 45 183.5 74t220.5 29q260 0 395 -128t135 -372v-590h-333l-5 102q-104 -135 -309 -135q-164 0 -259 89t-95 243zM186 1538q0 23 2 29h242 q0 -154 145 -154t145 154h242q2 -6 2 -29q0 -156 -103.5 -246t-285.5 -90t-285.5 90t-103.5 246zM418 324q0 -51 36 -82t95 -31q78 0 128 52t58 143q-76 31 -162 30q-72 0 -113.5 -30.5t-41.5 -81.5z" />
<glyph horiz-adv-x="1257" d="M47 -221q0 88 51.5 154.5t141.5 95.5q-63 27 -98.5 72.5t-35.5 105.5q0 131 158 219q-158 104 -158 289q0 111 58.5 194.5t169 132t258.5 48.5q139 0 254 -50l377 27v-240l-166 15q41 -76 41 -154q0 -100 -58.5 -179t-167 -125t-251.5 -46q-86 0 -136 8q-55 -29 -55 -70 q0 -29 32 -40t103 -11h97q514 0 514 -358q0 -188 -156 -287.5t-447 -99.5q-252 0 -389 77.5t-137 221.5zM246 1538q0 23 2 29h242q0 -154 145 -154t145 154h242q2 -6 2 -29q0 -156 -103.5 -246t-285.5 -90t-285.5 90t-103.5 246zM379 -156q0 -94 229 -94q111 0 169.5 25.5 t58.5 72.5t-48.5 69t-156.5 22h-47q-205 0 -205 -95zM457 713q0 -57 39.5 -92t105.5 -35q68 0 108 34.5t40 92.5q0 57 -40 92t-108 35q-66 0 -105.5 -35t-39.5 -92z" />
<glyph horiz-adv-x="0" d="M-205 1890q0 84 57.5 137.5t147.5 53.5t147.5 -53.5t57.5 -137.5q0 -86 -57.5 -139t-147.5 -53t-147.5 53t-57.5 139z" />
<glyph horiz-adv-x="1257" d="M47 -221q0 88 51.5 154.5t141.5 95.5q-63 27 -98.5 72.5t-35.5 105.5q0 131 158 219q-158 104 -158 289q0 111 58.5 194.5t169 132t258.5 48.5q139 0 254 -50l377 27v-240l-166 15q41 -76 41 -154q0 -100 -58.5 -179t-167 -125t-251.5 -46q-86 0 -136 8q-55 -29 -55 -70 q0 -29 32 -40t103 -11h97q514 0 514 -358q0 -188 -156 -287.5t-447 -99.5q-252 0 -389 77.5t-137 221.5zM379 -156q0 -94 229 -94q111 0 169.5 25.5t58.5 72.5t-48.5 69t-156.5 22h-47q-205 0 -205 -95zM442 1403q0 82 53.5 132t139.5 50t139.5 -50t53.5 -132 q0 -80 -53.5 -130t-139.5 -50t-139.5 50t-53.5 130zM457 713q0 -57 39.5 -92t105.5 -35q68 0 108 34.5t40 92.5q0 57 -40 92t-108 35q-66 0 -105.5 -35t-39.5 -92z" />
<glyph horiz-adv-x="0" d="M-305 1960q0 123 86 205t219 82t219 -82t86 -205t-86 -205t-219 -82t-219 82t-86 205zM-106 1960q0 -47 28.5 -77t77.5 -30t77.5 30t28.5 77q0 49 -28.5 77.5t-77.5 28.5t-77.5 -28.5t-28.5 -77.5z" />
<glyph horiz-adv-x="1187" d="M80 299q0 158 113.5 255t298.5 97q59 0 125.5 -13t119.5 -36q-6 102 -65.5 151.5t-175.5 49.5q-174 0 -324 -101l-25 285q72 45 183.5 74t220.5 29q260 0 395 -128t135 -372v-590h-333l-5 102q-104 -135 -309 -135q-164 0 -259 89t-95 243zM270 1458q0 123 86 205t219 82 t219 -82t86 -205t-86 -205t-219 -82t-219 82t-86 205zM418 324q0 -51 36 -82t95 -31q78 0 128 52t58 143q-76 31 -162 30q-72 0 -113.5 -30.5t-41.5 -81.5zM469 1458q0 -47 28.5 -76.5t77.5 -29.5t77.5 29.5t28.5 76.5q0 49 -28.5 78t-77.5 29t-77.5 -29t-28.5 -78z" />
</font>
</defs>
</svg>
