<?xml version="1.0" standalone="no"?>
<!DOCTYPE svg PUBLIC "-//W3C//DTD SVG 1.1//EN" "http://www.w3.org/Graphics/SVG/1.1/DTD/svg11.dtd" >
<svg xmlns="http://www.w3.org/2000/svg" xmlns:xlink="http://www.w3.org/1999/xlink" version="1.1">
<metadata></metadata>
<defs>
<font id="objektiv_mk1thin_italic" horiz-adv-x="790" >
<font-face units-per-em="2048" ascent="1638" descent="-410" />
<missing-glyph horiz-adv-x="450" />
<glyph unicode=" "  horiz-adv-x="450" />
<glyph unicode="&#x09;" horiz-adv-x="450" />
<glyph unicode="&#xa0;" horiz-adv-x="450" />
<glyph unicode="!" horiz-adv-x="499" d="M98 43q0 31 21.5 52.5t52.5 21.5q27 0 44 -17.5t17 -44.5q0 -31 -20 -52t-53 -21q-27 0 -44.5 17t-17.5 44zM207 412l223 1204h80l-244 -1204h-59z" />
<glyph unicode="&#x22;" horiz-adv-x="630" d="M205 956l106 600h80l-127 -600h-59zM547 956l106 600h80l-127 -600h-59z" />
<glyph unicode="#" horiz-adv-x="1370" d="M115 397l12 58h223l197 477h-256l10 57h270l164 397h64l-164 -397h409l164 397h64l-164 -397h215l-10 -57h-230l-196 -477h260l-12 -58h-271l-164 -397h-63l164 397h-410l-164 -397h-63l164 397h-213zM414 455h409l197 477h-410z" />
<glyph unicode="$" horiz-adv-x="1269" d="M121 123l16 67q63 -57 161.5 -95t205.5 -44l139 711q-172 82 -249 174t-77 217q0 104 59.5 190.5t168 138.5t248.5 54l51 258h61l-51 -262q80 -10 161 -41t136 -74l-14 -69q-57 47 -136 78.5t-161 39.5l-127 -657q186 -92 261 -182t75 -221q0 -117 -61.5 -211.5 t-174.5 -150.5t-260 -58l-49 -252h-62l50 254q-113 8 -210.5 43t-160.5 92zM387 1151q0 -102 58.5 -171t209.5 -146l125 634q-109 -4 -197.5 -45t-142 -112.5t-53.5 -159.5zM565 51q182 6 297 105.5t115 251.5q0 109 -59.5 179t-219.5 150z" />
<glyph unicode="%" horiz-adv-x="1806" d="M188 0l1436 1524h92l-1437 -1524h-91zM242 1178q0 100 47 186t131 139t186 53q135 0 220 -83.5t85 -217.5q0 -100 -47 -186t-131 -139t-186 -53q-135 0 -220 83.5t-85 217.5zM311 1182q0 -106 66.5 -172t177.5 -66q74 0 139.5 39t106.5 109.5t41 158.5q0 106 -66.5 172 t-177.5 66q-74 0 -139.5 -39t-106.5 -109.5t-41 -158.5zM1001 281q0 100 47.5 186t131.5 139t186 53q135 0 220 -83.5t85 -217.5q0 -100 -47 -186t-131 -139t-186 -53q-135 0 -220.5 83.5t-85.5 217.5zM1071 285q0 -106 66.5 -172t177.5 -66q74 0 139.5 39t106.5 109.5 t41 158.5q0 106 -67 172t-177 66q-74 0 -139.5 -39t-106.5 -109.5t-41 -158.5z" />
<glyph unicode="&#x26;" horiz-adv-x="1519" d="M145 354q0 150 104.5 272t325.5 230q-86 125 -116.5 203t-30.5 170q0 96 47 179t131 134t187 51q143 0 230 -73.5t87 -196.5q0 -141 -101.5 -257t-326.5 -232l410 -551q143 190 184 483l65 -10q-47 -326 -206 -531l168 -225h-93l-127 168q-94 -98 -215 -149.5t-256 -51.5 q-129 0 -234.5 49.5t-169 137.5t-63.5 200zM225 362q0 -143 108.5 -234t278.5 -91q256 0 430 186l-428 580q-143 -76 -228 -144.5t-123 -140.5t-38 -156zM504 1237q0 -84 30.5 -160.5t108.5 -189.5q215 113 303 209t88 221q0 98 -64.5 155.5t-176.5 57.5q-72 0 -137.5 -39 t-108.5 -106.5t-43 -147.5z" />
<glyph unicode="'" horiz-adv-x="288" d="M205 956l106 600h80l-127 -600h-59z" />
<glyph unicode="(" horiz-adv-x="765" d="M219 459q0 350 146.5 668.5t414.5 551.5h86q-279 -244 -427 -560t-148 -664q0 -199 51 -382.5t147 -332.5h-73q-96 143 -146.5 328.5t-50.5 390.5z" />
<glyph unicode=")" horiz-adv-x="765" d="M-16 -260q279 244 427 560t148 665q0 199 -51 382t-148 332h74q96 -143 146.5 -328.5t50.5 -389.5q0 -350 -146.5 -669t-414.5 -552h-86z" />
<glyph unicode="*" horiz-adv-x="1024" d="M272 1262l27 59l317 -127l60 362h67l-67 -362l332 123l20 -64l-342 -116l199 -308l-60 -34l-192 323l-260 -315l-51 43l262 301z" />
<glyph unicode="+" horiz-adv-x="1269" d="M227 655l15 70h399l78 403h76l-78 -403h399l-14 -70h-400l-79 -403h-76l80 403h-400z" />
<glyph unicode="," horiz-adv-x="593" d="M-88 -371q188 223 254 484h82q-27 -119 -95.5 -245t-168.5 -239h-72z" />
<glyph unicode="-" horiz-adv-x="888" d="M174 543l14 73h562l-15 -73h-561z" />
<glyph unicode="." horiz-adv-x="593" d="M143 43q0 31 21.5 52.5t52.5 21.5q27 0 44.5 -17.5t17.5 -44.5q0 -31 -20.5 -52t-53.5 -21q-27 0 -44.5 17t-17.5 44z" />
<glyph unicode="/" horiz-adv-x="1015" d="M-117 -272l1245 1931h84l-1247 -1931h-82z" />
<glyph unicode="0" horiz-adv-x="1269" d="M182 545q0 145 21 268q35 219 120 387t209.5 262t274.5 94q186 0 285.5 -149.5t99.5 -427.5q0 -145 -21 -268q-35 -219 -119.5 -387t-209.5 -262.5t-275 -94.5q-186 0 -285.5 149.5t-99.5 428.5zM262 541q0 -244 78.5 -374t230.5 -130q119 0 225.5 84t185.5 241.5 t112 366.5q18 121 18 254q0 244 -79 374t-230 130q-119 0 -225.5 -84t-185.5 -241.5t-111 -366.5q-18 -119 -19 -254z" />
<glyph unicode="1" horiz-adv-x="1269" d="M371 1245l6 74l518 205h61l-294 -1524h-76l276 1436z" />
<glyph unicode="2" horiz-adv-x="1269" d="M111 0l8 61q279 254 442 412q207 197 307.5 314.5t139.5 206.5t39 186q0 139 -85 221t-229 82q-115 0 -212 -48.5t-185 -146.5l-12 78q76 90 184 140t229 50q170 0 278.5 -103t108.5 -265q0 -119 -46 -219.5t-152.5 -224t-309.5 -316.5q-209 -197 -397 -356h785l-9 -72 h-884z" />
<glyph unicode="3" horiz-adv-x="1269" d="M80 88l22 74q70 -59 169.5 -92t203.5 -33q129 0 236.5 52t172 149.5t64.5 222.5q0 156 -100 247t-273 91q-70 0 -110 -13l-23 52l615 616h-711l12 70h801l-14 -72l-586 -588q6 2 37 2q123 0 219 -50t152.5 -143t56.5 -214q0 -133 -68.5 -245t-192.5 -179.5t-282 -67.5 q-113 0 -222 33t-179 88z" />
<glyph unicode="4" horiz-adv-x="1269" d="M104 424l13 61l921 1039h72l-201 -1037h203l-12 -63h-203l-82 -424h-70l82 424h-723zM205 487h635l178 920z" />
<glyph unicode="5" horiz-adv-x="1269" d="M109 88l22 74q66 -59 161 -92t200 -33q137 0 246.5 55t174 158.5t64.5 238.5q0 172 -109.5 265.5t-310.5 93.5q-125 0 -238 -31l160 707h680l-14 -72h-617l-125 -553q82 16 162 16q229 0 358.5 -112.5t129.5 -313.5q0 -143 -69 -261.5t-196.5 -189.5t-289.5 -71 q-111 0 -217.5 33t-171.5 88z" />
<glyph unicode="6" horiz-adv-x="1269" d="M174 401q0 178 95.5 388t269.5 408t391 329l108 -10q-246 -147 -441.5 -361.5t-289.5 -439.5q59 82 153.5 130t196.5 48q123 0 222.5 -54.5t158 -153.5t58.5 -228q0 -133 -61.5 -244t-173.5 -178.5t-253 -67.5q-123 0 -221 53.5t-155.5 152.5t-57.5 228zM250 410 q0 -168 100 -270.5t266 -102.5q106 0 198.5 52t148 148.5t55.5 213.5q0 168 -100.5 270t-266.5 102q-104 0 -195 -53t-148.5 -148.5t-57.5 -211.5z" />
<glyph unicode="7" horiz-adv-x="1269" d="M272 4l877 1446h-780l14 74h870l-10 -58l-889 -1470z" />
<glyph unicode="8" horiz-adv-x="1269" d="M123 367q0 109 50 203t145.5 159.5t222.5 85.5q-106 43 -164 127t-58 193q0 113 60.5 208t171.5 154t246 59q117 0 211 -44t150 -125.5t56 -188.5q0 -150 -100 -262.5t-262 -144.5q123 -45 191.5 -139.5t68.5 -219.5q0 -127 -66.5 -232.5t-188 -169t-275.5 -63.5 q-133 0 -236.5 49.5t-163 140.5t-59.5 210zM197 369q0 -147 106.5 -238.5t278.5 -91.5q123 0 226 50t166.5 141.5t63.5 205.5q0 147 -106.5 238.5t-280.5 91.5q-123 0 -226 -50t-165.5 -141.5t-62.5 -205.5zM391 1133q0 -131 96 -212t250 -81q109 0 201 44t148.5 126 t56.5 184q0 131 -95.5 212t-250.5 81q-109 0 -201 -44t-148.5 -126t-56.5 -184z" />
<glyph unicode="9" horiz-adv-x="1269" d="M279 1067q0 133 61 243.5t173 178t253 67.5q123 0 221 -53t155.5 -152.5t57.5 -228.5q0 -178 -95 -388t-269 -407.5t-392 -328.5l-108 10q246 147 441.5 361.5t289.5 439.5q-59 -82 -153.5 -130t-196.5 -48q-123 0 -222.5 54t-157.5 153.5t-58 228.5zM356 1073 q0 -168 100.5 -270.5t266.5 -102.5q104 0 195.5 53.5t148.5 148.5t57 212q0 168 -100 270.5t-266 102.5q-106 0 -198.5 -52.5t-148 -148.5t-55.5 -213z" />
<glyph unicode=":" horiz-adv-x="593" d="M143 43q0 31 21.5 52.5t52.5 21.5q27 0 44.5 -17.5t17.5 -44.5q0 -31 -20.5 -52t-53.5 -21q-27 0 -44.5 17t-17.5 44zM313 924q0 31 21.5 52.5t52.5 21.5q27 0 44.5 -17.5t17.5 -44.5q0 -31 -20.5 -52t-53.5 -21q-27 0 -44.5 17t-17.5 44z" />
<glyph unicode=";" horiz-adv-x="593" d="M-88 -371q188 223 254 484h82q-27 -119 -95.5 -245t-168.5 -239h-72zM313 924q0 31 21.5 52.5t52.5 21.5q27 0 44.5 -17.5t17.5 -44.5q0 -31 -20.5 -52t-53.5 -21q-27 0 -44.5 17t-17.5 44z" />
<glyph unicode="&#x3c;" horiz-adv-x="1269" d="M266 655l13 68l878 407l-16 -81l-779 -363l639 -360l-16 -76z" />
<glyph unicode="=" horiz-adv-x="1269" d="M201 424l14 70h840l-15 -70h-839zM291 885l14 69h840l-15 -69h-839z" />
<glyph unicode="&#x3e;" horiz-adv-x="1269" d="M186 252l17 82l778 362l-639 361l16 76l719 -406l-12 -68z" />
<glyph unicode="?" horiz-adv-x="974" d="M246 1468q76 78 181 123t212 45q100 0 184 -40t134.5 -111.5t50.5 -161.5q0 -88 -31 -155.5t-81 -123t-110.5 -104.5t-120 -99t-109.5 -110.5t-81 -138.5t-33 -180h-67q2 111 31.5 193.5t79 146t108.5 115t117.5 98.5t107.5 97t80 110.5t31 138.5q0 117 -81 186.5 t-212 69.5q-106 0 -202.5 -44t-176.5 -128zM268 43q0 31 21.5 52.5t52.5 21.5q27 0 44 -17.5t17 -44.5q0 -31 -20 -52t-53 -21q-27 0 -44.5 17t-17.5 44z" />
<glyph unicode="@" horiz-adv-x="1972" d="M90 281q0 272 135 511.5t378 391t534 151.5q215 0 384 -82t267 -235.5t98 -355.5q0 -168 -61.5 -321t-171 -251t-236.5 -98q-92 0 -145 47t-55 131q-70 -82 -163 -128t-192 -46q-92 0 -168 44t-120 125t-44 183q0 133 62.5 252t174.5 193.5t247 74.5q121 0 209 -74.5 t110 -199.5l74 242h57l-164 -547q-23 -78 -22 -105q0 -66 36 -99.5t103 -33.5q94 0 185.5 80t153 221.5t61.5 300.5q0 180 -83 320.5t-238 219.5t-359 79q-180 0 -351.5 -69.5t-311.5 -201t-227 -315.5t-87 -391q0 -201 83 -354.5t239.5 -240.5t369.5 -87q227 0 434 94v-63 q-98 -45 -211.5 -70t-222.5 -25q-221 0 -393 88.5t-270.5 255t-98.5 388.5zM600 354q0 -133 73.5 -215t190.5 -82q109 0 205 59.5t156.5 166t60.5 237.5q0 127 -74.5 207t-195.5 80q-104 0 -198.5 -59.5t-156 -165t-61.5 -228.5z" />
<glyph unicode="A" horiz-adv-x="1484" d="M-29 0l930 1556h90l330 -1556h-86l-107 516h-763l-306 -516h-88zM408 590h704l-180 883z" />
<glyph unicode="B" horiz-adv-x="1458" d="M182 0l301 1556h412q205 0 314.5 -89t109.5 -255q0 -145 -85 -252.5t-233 -144.5q127 -25 200 -118t73 -230q0 -131 -65.5 -236.5t-188.5 -168t-283 -62.5h-555zM279 78h460q205 0 328 108.5t123 286.5q0 303 -369 303h-407zM428 854h397q188 0 299 95t111 259 q0 270 -340 271h-346z" />
<glyph unicode="C" horiz-adv-x="1611" d="M219 676q0 246 108.5 451.5t306 328.5t447.5 123q129 0 252 -37t219 -106l-22 -78q-199 141 -455 141q-207 0 -382 -102.5t-281.5 -288.5t-106.5 -420q0 -186 74 -328.5t214 -222.5t333 -80q109 0 225.5 27t216.5 72l2 -80q-94 -47 -211.5 -73t-234.5 -26q-207 0 -366 84 t-249 243t-90 372z" />
<glyph unicode="D" horiz-adv-x="1734" d="M182 0l301 1556h426q344 0 535.5 -171t191.5 -476q0 -268 -116.5 -474t-337.5 -320.5t-520 -114.5h-480zM279 78h393q258 0 455.5 99t309 286.5t111.5 439.5q0 279 -165.5 427.5t-479.5 148.5h-352z" />
<glyph unicode="E" horiz-adv-x="1323" d="M182 0l301 1556h842l-14 -75h-760l-125 -643h692l-14 -72h-692l-133 -690h811l-15 -76h-893z" />
<glyph unicode="F" horiz-adv-x="1220" d="M182 0l301 1556h822l-15 -75h-739l-133 -682h637l-13 -74h-636l-142 -725h-82z" />
<glyph unicode="G" horiz-adv-x="1728" d="M219 676q0 246 108.5 450.5t309.5 328.5t455 124q137 0 269 -41t236 -117l-20 -78q-217 156 -494 156q-211 0 -387 -102.5t-283.5 -288.5t-107.5 -420q0 -188 76 -330.5t218 -221.5t337 -79q231 0 428 86l109 557h-441l15 78h522l-131 -682q-219 -119 -504 -119 q-209 0 -371 85t-253 244t-91 370z" />
<glyph unicode="H" horiz-adv-x="1755" d="M182 0l301 1556h82l-135 -700h1038l136 700h82l-302 -1556h-81l149 778h-1038l-150 -778h-82z" />
<glyph unicode="I" horiz-adv-x="634" d="M182 0l301 1556h82l-301 -1556h-82z" />
<glyph unicode="J" horiz-adv-x="1075" d="M33 49l20 78q129 -74 281 -74q154 0 254 98.5t137 286.5l217 1118h82l-219 -1130q-43 -217 -165 -334t-308 -117q-168 0 -299 74z" />
<glyph unicode="K" horiz-adv-x="1540" d="M182 0l301 1556h82l-141 -725l1032 725h121l-1071 -753l854 -803h-115l-829 782l-152 -782h-82z" />
<glyph unicode="L" horiz-adv-x="1218" d="M182 0l301 1556h82l-286 -1480h747l-14 -76h-830z" />
<glyph unicode="M" horiz-adv-x="2148" d="M160 0l360 1556h86l441 -1202l905 1202h86l-242 -1556h-80l221 1417l-870 -1153h-66l-432 1163l-329 -1427h-80z" />
<glyph unicode="N" horiz-adv-x="1810" d="M182 0l301 1556h82l817 -1439l279 1439h80l-301 -1556h-80l-819 1440l-279 -1440h-80z" />
<glyph unicode="O" horiz-adv-x="1873" d="M217 676q0 240 106.5 447.5t298 336.5t427.5 129q203 0 365.5 -87t256.5 -249.5t94 -373.5q0 -240 -106.5 -448t-298 -336t-424.5 -128q-205 0 -367.5 87t-257 249t-94.5 373zM301 686q0 -184 78 -328.5t223 -227.5t338 -83q190 0 359 105.5t275.5 296t106.5 419.5 q0 184 -77.5 329.5t-223 228.5t-338.5 83q-141 0 -272 -58t-236.5 -167.5t-169 -264.5t-63.5 -333z" />
<glyph unicode="P" horiz-adv-x="1327" d="M182 0l301 1556h336q231 0 358.5 -105t127.5 -298q0 -150 -71 -265.5t-203 -180t-310 -64.5h-332l-125 -643h-82zM406 721h323q223 0 356.5 116.5t133.5 313.5q0 328 -406 328h-262z" />
<glyph unicode="Q" horiz-adv-x="1873" d="M217 676q0 240 106.5 447.5t298 336.5t427.5 129q203 0 365.5 -87t256.5 -249.5t94 -373.5q0 -201 -76.5 -383.5t-220 -315.5t-329.5 -184l280 -369h-106l-262 350q-70 -10 -115 -10q-205 0 -367.5 87t-257 249t-94.5 373zM301 686q0 -184 78 -328.5t223 -227.5t338 -83 q190 0 359 105.5t275.5 296t106.5 419.5q0 184 -77.5 329.5t-223 228.5t-338.5 83q-141 0 -272 -58t-236.5 -167.5t-169 -264.5t-63.5 -333z" />
<glyph unicode="R" horiz-adv-x="1396" d="M182 0l301 1556h320q223 0 350 -107.5t127 -295.5q0 -172 -103.5 -296t-283.5 -169l317 -688h-96l-301 674q-45 -6 -96 -6h-324l-129 -668h-82zM408 745h321q131 0 235.5 49.5t166 140.5t61.5 212q0 162 -101.5 247t-293.5 85h-248z" />
<glyph unicode="S" horiz-adv-x="1282" d="M90 117l21 82q90 -72 210.5 -113t245.5 -41q195 0 313.5 98.5t118.5 257.5q0 106 -71.5 186.5t-251.5 170.5q-154 78 -231.5 139t-109.5 124.5t-32 147.5q0 119 61.5 214.5t175 150.5t261.5 55q104 0 213.5 -33.5t185.5 -89.5l-22 -77q-82 59 -180.5 90.5t-196.5 31.5 q-186 0 -302 -95t-116 -247q0 -74 29.5 -125t98.5 -99t196 -111q147 -74 227 -138.5t114.5 -135.5t34.5 -161q0 -123 -63.5 -220t-182 -154.5t-274.5 -57.5q-129 0 -254 40t-219 110z" />
<glyph unicode="T" horiz-adv-x="1425" d="M301 1481l14 75h1209l-15 -75h-563l-287 -1481h-81l286 1481h-563z" />
<glyph unicode="U" horiz-adv-x="1683" d="M246 477q0 68 14 137l182 942h82l-178 -925q-14 -70 -14 -148q0 -207 123 -321.5t342 -114.5q240 0 390 145.5t206 430.5l180 933h82l-185 -950q-61 -317 -233.5 -478t-448.5 -161q-158 0 -280.5 61.5t-192 177.5t-69.5 271z" />
<glyph unicode="V" horiz-adv-x="1486" d="M283 1556h88l293 -1468l864 1468h90l-920 -1556h-98z" />
<glyph unicode="W" horiz-adv-x="2174" d="M293 1556h86l158 -1429l708 1409h80l170 -1405l711 1425h90l-780 -1556h-78l-176 1405l-709 -1405h-82z" />
<glyph unicode="X" horiz-adv-x="1464" d="M-2 0l752 823l-390 733h93l354 -677l620 677h97l-680 -743l434 -813h-94l-396 758l-692 -758h-98z" />
<glyph unicode="Y" horiz-adv-x="1415" d="M289 1556h86l381 -784l686 784h98l-752 -854l-135 -702h-82l136 705z" />
<glyph unicode="Z" horiz-adv-x="1441" d="M51 0l10 63l1280 1418h-956l14 75h1069l-10 -63l-1284 -1417h1024l-14 -76h-1133z" />
<glyph unicode="[" horiz-adv-x="729" d="M66 -260l376 1939h424l-12 -65h-354l-353 -1809h357l-12 -65h-426z" />
<glyph unicode="\" horiz-adv-x="1015" d="M260 1659h76l498 -1931h-76z" />
<glyph unicode="]" horiz-adv-x="729" d="M-51 -260l12 65h354l353 1809h-357l13 65h426l-377 -1939h-424z" />
<glyph unicode="^" horiz-adv-x="1269" d="M229 688l559 737h74l252 -737h-76l-223 666l-504 -666h-82z" />
<glyph unicode="_" horiz-adv-x="1024" d="M-135 -219l12 72h1024l-12 -72h-1024z" />
<glyph unicode="`" horiz-adv-x="1024" d="M544 1583h88l199 -375h-74z" />
<glyph unicode="a" horiz-adv-x="1310" d="M123 408q0 158 71.5 296t200.5 225t287 87q139 0 245.5 -74t151.5 -201l51 242h72l-190 -983h-72l33 186q-74 -104 -185.5 -161.5t-240.5 -57.5q-119 0 -215 54.5t-152.5 154.5t-56.5 232zM203 414q0 -170 98 -273.5t260 -103.5q125 0 234.5 68.5t179 192.5t69.5 271 q0 168 -98 272.5t-258 104.5q-127 0 -237.5 -68.5t-179 -192.5t-68.5 -271z" />
<glyph unicode="b" horiz-adv-x="1310" d="M109 0l323 1659h78l-168 -856q76 102 186.5 157.5t235.5 55.5q119 0 215 -54.5t152.5 -154.5t56.5 -232q0 -158 -72 -296t-200.5 -225t-286.5 -87q-137 0 -245 73t-155 200l-49 -240h-71zM266 414q0 -168 98.5 -272.5t258.5 -104.5q127 0 237.5 68.5t179 192.5t68.5 271 q0 170 -98.5 273.5t-259.5 103.5q-125 0 -234.5 -68.5t-179.5 -192.5t-70 -271z" />
<glyph unicode="c" horiz-adv-x="1069" d="M125 422q0 152 73.5 286t206 219t289.5 85q84 0 170 -25.5t146 -68.5l-17 -72q-66 47 -144.5 71.5t-156.5 24.5q-123 0 -234.5 -67.5t-182 -187.5t-70.5 -263q0 -176 102.5 -279.5t278.5 -103.5q168 0 299 92l2 -74q-57 -41 -137 -64.5t-168 -23.5q-209 0 -333 121 t-124 330z" />
<glyph unicode="d" horiz-adv-x="1312" d="M123 408q0 158 71.5 296t200.5 225t287 87q137 0 242.5 -72t152.5 -196l178 911h78l-321 -1659h-72l33 186q-74 -104 -185.5 -161.5t-240.5 -57.5q-119 0 -215 54.5t-152.5 154.5t-56.5 232zM203 414q0 -170 98 -273.5t260 -103.5q125 0 234.5 68.5t179 192.5t69.5 271 q0 168 -98 272.5t-258 104.5q-127 0 -237.5 -68.5t-179 -192.5t-68.5 -271z" />
<glyph unicode="e" horiz-adv-x="1157" d="M125 410q0 160 68.5 298t193.5 223t281 85q172 0 277.5 -101.5t105.5 -267.5q0 -82 -25 -166h-821q-2 -14 -2 -67q0 -178 105.5 -277.5t293.5 -99.5q70 0 153 23.5t158 62.5l5 -68q-63 -41 -152.5 -64.5t-173.5 -23.5q-213 0 -340 121t-127 322zM215 545h748q12 31 12 96 q0 143 -83 225t-228 82q-158 0 -284 -113.5t-165 -289.5z" />
<glyph unicode="f" horiz-adv-x="768" d="M160 915l14 68h207l41 211q88 475 436 475q57 0 109.5 -14.5t89.5 -40.5l-19 -70q-33 25 -84 40t-102 15q-141 0 -228 -102t-126 -313l-39 -201h346l-14 -68h-347l-176 -915h-78l177 915h-207z" />
<glyph unicode="g" horiz-adv-x="1310" d="M78 -401l20 69q66 -55 161 -88t190 -33q213 0 328.5 120t168.5 394l23 119q-74 -102 -184.5 -157.5t-237.5 -55.5q-119 0 -215 54.5t-152.5 154.5t-56.5 232q0 158 71.5 296t200.5 225t287 87q139 0 245.5 -74t151.5 -201l51 242h72l-178 -920q-59 -311 -194 -448 t-381 -137q-100 0 -206 34.5t-165 86.5zM203 414q0 -170 98 -273.5t260 -103.5q125 0 234.5 68.5t179 192.5t69.5 271q0 168 -98 272.5t-258 104.5q-127 0 -237.5 -68.5t-179 -192.5t-68.5 -271z" />
<glyph unicode="h" horiz-adv-x="1206" d="M109 0l321 1659h78l-168 -852q68 100 165 154.5t208 54.5q154 0 240.5 -83t86.5 -231q0 -47 -10 -108l-115 -594h-77l112 584q12 66 13 118q0 244 -254 244q-156 0 -269.5 -110.5t-148.5 -294.5l-105 -541h-77z" />
<glyph unicode="i" horiz-adv-x="487" d="M111 0l190 983h78l-191 -983h-77zM352 1374q0 31 20.5 51.5t51.5 20.5q27 0 43 -16.5t16 -43.5q0 -31 -20 -51t-49 -20q-27 0 -44.5 16.5t-17.5 42.5z" />
<glyph unicode="j" horiz-adv-x="485" d="M-385 -479l20 67q74 -39 162 -39q115 0 183.5 71t97.5 220l221 1143h78l-221 -1141q-35 -184 -124.5 -273t-234.5 -89q-109 0 -182 41zM348 1374q0 31 20.5 51.5t51.5 20.5q27 0 43 -16.5t16 -43.5q0 -31 -20 -51t-49 -20q-27 0 -44.5 16.5t-17.5 42.5z" />
<glyph unicode="k" horiz-adv-x="1085" d="M109 0l321 1659h78l-207 -1065l635 389h119l-682 -420l577 -563h-102l-557 545l-105 -545h-77z" />
<glyph unicode="l" horiz-adv-x="487" d="M109 0l321 1659h78l-322 -1659h-77z" />
<glyph unicode="m" horiz-adv-x="1880" d="M111 0l190 983h74l-33 -174q66 98 159 152.5t201 54.5q131 0 212 -66.5t98 -189.5q66 123 168 189.5t223 66.5q150 0 231.5 -81t81.5 -226q0 -53 -12 -115l-115 -594h-78l113 584q12 68 12 123q0 239 -235 239h-2q-150 0 -260.5 -109.5t-145.5 -295.5l-104 -541h-78 l113 584q12 68 12 125q0 237 -236 237h-2q-150 0 -259 -108.5t-146 -296.5l-105 -541h-77z" />
<glyph unicode="n" horiz-adv-x="1208" d="M111 0l190 983h74l-33 -178q70 102 166 156.5t207 54.5q156 0 241.5 -82t85.5 -229q0 -49 -10 -111l-114 -594h-78l112 584q12 66 13 116q0 246 -254 246q-156 0 -269.5 -110.5t-148.5 -294.5l-105 -541h-77z" />
<glyph unicode="o" horiz-adv-x="1247" d="M123 410q0 158 72.5 296t204.5 224t292 86q123 0 221.5 -54.5t154.5 -155.5t56 -233q0 -158 -72.5 -296t-204.5 -224t-292 -86q-123 0 -221 54.5t-154.5 156t-56.5 232.5zM203 414q0 -168 98 -272.5t258 -104.5q125 0 235.5 68.5t180 192.5t69.5 271q0 168 -98 272.5 t-258 104.5q-125 0 -235.5 -68.5t-180 -192.5t-69.5 -271z" />
<glyph unicode="p" horiz-adv-x="1312" d="M12 -502l289 1485h72l-35 -186q76 104 187.5 161.5t240.5 57.5q119 0 215 -54.5t152.5 -154.5t56.5 -232q0 -158 -71.5 -296t-201 -225t-286.5 -87q-137 0 -243.5 72t-154.5 194l-143 -735h-78zM268 414q0 -168 98.5 -272.5t258.5 -104.5q127 0 237.5 68.5t179 192.5 t68.5 271q0 170 -98.5 273.5t-259.5 103.5q-125 0 -234.5 -68.5t-179.5 -192.5t-70 -271z" />
<glyph unicode="q" horiz-adv-x="1310" d="M123 408q0 158 71.5 296t200.5 225t287 87q139 0 245.5 -74t151.5 -201l51 242h72l-289 -1485h-77l133 680q-74 -100 -184.5 -155.5t-237.5 -55.5q-119 0 -215 54.5t-152.5 154.5t-56.5 232zM203 414q0 -170 98 -273.5t260 -103.5q125 0 234.5 68.5t179 192.5t69.5 271 q0 168 -98 272.5t-258 104.5q-127 0 -237.5 -68.5t-179 -192.5t-68.5 -271z" />
<glyph unicode="r" d="M111 0l190 983h74l-41 -213q66 111 160 169t202 58q33 0 67 -6t50 -14l-20 -72q-47 20 -107 21q-150 0 -258.5 -121t-148.5 -336l-91 -469h-77z" />
<glyph unicode="s" horiz-adv-x="931" d="M35 88l20 74q68 -57 159 -91t181 -34q129 0 207 56.5t78 150.5q0 76 -50 127t-184 110q-143 66 -203.5 129.5t-60.5 151.5q0 113 89 183.5t233 70.5q76 0 164 -26.5t153 -71.5l-18 -70q-139 98 -305 98q-106 0 -173 -50t-67 -128q0 -68 47 -115t170 -104 q156 -72 219.5 -138.5t63.5 -160.5q0 -129 -101.5 -206t-271.5 -77q-90 0 -189.5 34t-160.5 87z" />
<glyph unicode="t" horiz-adv-x="845" d="M123 915l14 68h230l65 336h78l-66 -336h351l-15 -68h-350l-108 -563q-12 -70 -13 -123q0 -98 47 -145t146 -47q86 0 180 41l6 -70q-102 -41 -190 -41q-131 0 -200 67.5t-69 194.5q0 53 13 115l110 571h-229z" />
<glyph unicode="u" horiz-adv-x="1198" d="M166 281q0 47 10 108l115 594h78l-113 -584q-12 -63 -12 -114q0 -121 63.5 -184.5t184.5 -63.5q158 0 269 109.5t146 295.5l105 541h78l-191 -983h-74l33 178q-68 -102 -164 -156.5t-209 -54.5q-150 0 -234.5 83t-84.5 231z" />
<glyph unicode="v" horiz-adv-x="1032" d="M158 983h80l200 -895l545 895h84l-604 -983h-76z" />
<glyph unicode="w" horiz-adv-x="1587" d="M166 983h78l141 -885l453 865h65l135 -867l492 887h80l-547 -983h-76l-137 854l-444 -854h-78z" />
<glyph unicode="x" horiz-adv-x="1077" d="M-4 0l510 518l-275 465h86l240 -416l399 416h91l-457 -475l303 -508h-86l-268 459l-449 -459h-94z" />
<glyph unicode="y" horiz-adv-x="1046" d="M57 -502l336 518l-235 967h80l208 -879l551 879h84l-940 -1485h-84z" />
<glyph unicode="z" horiz-adv-x="1028" d="M25 0l10 61l803 854h-613l15 68h710l-12 -61l-803 -854h680l-12 -68h-778z" />
<glyph unicode="{" horiz-adv-x="872" d="M170 686l14 74h33q137 0 197.5 51t74.5 178q6 61 11.5 136t12.5 153t25.5 149.5t54.5 129t95.5 91t149.5 33.5q61 0 120 -16l-12 -57q-53 14 -108 14q-90 -2 -142.5 -47t-78 -118t-36 -159t-14.5 -168.5t-14 -148.5q-20 -133 -70.5 -191.5t-152.5 -72.5q143 -33 143 -189 q-2 -66 -27.5 -141.5t-58.5 -154t-58.5 -152.5t-27.5 -137q0 -180 197 -181q68 0 88 2l-11 -59q-20 -2 -77 -2q-129 0 -197 62.5t-68 179.5q2 61 27 136t58.5 154.5t58 154.5t26.5 136q0 160 -200 160h-33z" />
<glyph unicode="|" horiz-adv-x="487" d="M18 -465l437 2239h77l-436 -2239h-78z" />
<glyph unicode="}" horiz-adv-x="872" d="M-8 -281l12 58q53 -14 109 -15q90 2 142 47.5t77.5 118t36 158.5t14.5 169t14 148q20 133 70.5 191.5t153.5 73.5q-143 33 -144 188q2 66 27.5 141.5t58.5 154.5t58.5 152.5t27.5 137.5q0 180 -196 180q-57 0 -88 -6l10 59q31 6 78 6q129 0 196.5 -62.5t67.5 -178.5 q-2 -61 -26.5 -136t-58.5 -155t-58.5 -154.5t-26.5 -136.5q0 -160 201 -160h32l-14 -73h-33q-137 0 -197.5 -51.5t-74.5 -178.5q-6 -61 -11.5 -136t-12.5 -152.5t-25.5 -149.5t-54 -129t-95 -91t-149.5 -34q-61 0 -121 16z" />
<glyph unicode="~" horiz-adv-x="1269" d="M180 532q72 324 279 324q51 0 97 -25.5t87 -62.5t81 -75t81 -63.5t84 -25.5q74 0 122 60.5t81 191.5h67q-72 -324 -278 -324q-51 0 -96.5 26t-87.5 62.5t-83 74.5t-81.5 63.5t-81.5 25.5q-74 0 -122 -60t-81 -192h-68z" />
<glyph unicode="&#xa1;" horiz-adv-x="499" d="M0 -602l244 1204h59l-223 -1204h-80zM276 958q0 31 20.5 52.5t53.5 21.5q27 0 44.5 -17.5t17.5 -43.5q0 -31 -21.5 -52.5t-52.5 -21.5q-27 0 -44.5 17.5t-17.5 43.5z" />
<glyph unicode="&#xa2;" horiz-adv-x="1269" d="M221 442q0 141 64.5 268.5t182.5 213.5t265 100l53 266h62l-51 -264q80 -4 159.5 -28.5t130.5 -61.5l-16 -72q-63 43 -142 68.5t-147 25.5l-172 -892q20 -4 66 -5q72 0 147.5 25t139.5 70l2 -74q-55 -41 -134 -64.5t-157 -23.5q-20 0 -40 1t-38 3l-51 -266h-62l54 276 q-150 37 -233 152.5t-83 281.5zM299 444q0 -135 66.5 -233t185.5 -133l170 876q-113 -16 -208 -86.5t-154.5 -184.5t-59.5 -239z" />
<glyph unicode="&#xa3;" horiz-adv-x="1269" d="M98 0l13 70h198l125 645h-201l15 67h201l36 197q53 283 188.5 430t340.5 147q68 0 137.5 -21.5t120.5 -57.5l-19 -68q-106 78 -237 78q-356 0 -455 -518l-35 -187h435l-15 -67h-434l-125 -645h645l-12 -70h-922z" />
<glyph unicode="&#xa4;" horiz-adv-x="1269" d="M256 475l133 127q-80 104 -80 252q0 139 80 254l-133 127l47 43l127 -123q115 111 272 111q78 0 150 -28t125 -81l127 121l47 -43l-133 -127q80 -113 80 -254q0 -139 -80 -252l133 -127l-47 -43l-127 121q-53 -53 -125 -81t-150 -28t-149.5 28t-124.5 81l-125 -121z M377 854q0 -152 92 -251t233 -99q143 0 236.5 99t93.5 251q0 154 -93 253t-237 99q-141 0 -233 -100t-92 -252z" />
<glyph unicode="&#xa5;" horiz-adv-x="1269" d="M158 360l12 66h416l51 270h-414l13 66h372l-323 762h82l315 -766l616 766h88l-616 -762h369l-13 -66h-411l-51 -270h409l-12 -66h-410l-69 -360h-78l69 360h-415z" />
<glyph unicode="&#xa6;" horiz-adv-x="487" d="M18 -465l179 911h77l-178 -911h-78zM276 862l179 912h77l-178 -912h-78z" />
<glyph unicode="&#xa7;" horiz-adv-x="968" d="M20 -141l21 75q55 -51 141 -81.5t172 -30.5q137 0 226.5 72.5t89.5 181.5q0 92 -56.5 151.5t-191.5 110.5q-256 96 -256 285q0 143 95 240.5t249 113.5q-102 45 -149.5 108.5t-47.5 157.5q0 125 97.5 208t244.5 83q82 0 169 -26.5t147 -69.5l-21 -72q-61 45 -139 71.5 t-156 26.5q-115 0 -192.5 -62.5t-77.5 -156.5q0 -88 52 -140t200 -108q119 -45 181.5 -119.5t62.5 -170.5q0 -137 -94.5 -233.5t-241.5 -111.5q109 -55 156 -119.5t47 -162.5q0 -88 -50.5 -163t-140.5 -120t-203 -45q-94 0 -185 30t-149 77zM240 629q0 -92 72.5 -154.5 t181.5 -62.5q129 0 220 85t91 203q0 104 -68.5 165t-187.5 61q-82 0 -152.5 -38t-113.5 -106.5t-43 -152.5z" />
<glyph unicode="&#xa8;" horiz-adv-x="1024" d="M447 1374q0 29 20.5 49.5t48.5 20.5q23 0 40.5 -17.5t17.5 -40.5q0 -29 -19.5 -49t-50.5 -20q-25 0 -41 17.5t-16 39.5zM795 1374q0 29 20.5 49.5t49.5 20.5q23 0 40 -17.5t17 -40.5q0 -29 -19.5 -49t-50.5 -20q-23 0 -40 17.5t-17 39.5z" />
<glyph unicode="&#xa9;" horiz-adv-x="1660" d="M184 778q0 195 87 353.5t248 253t368 94.5q197 0 355.5 -86t251.5 -246t93 -369q0 -197 -86 -355.5t-246.5 -251.5t-367.5 -93q-197 0 -355.5 87t-253 246.5t-94.5 366.5zM256 778q0 -178 78 -321.5t222.5 -227.5t330.5 -84q178 0 320.5 78t225.5 222.5t83 332.5 q0 178 -78 321.5t-221.5 227.5t-329.5 84q-178 0 -320.5 -78t-226.5 -222t-84 -333zM532 786q0 104 46.5 190.5t132.5 138.5t194 52q119 0 219 -51l-6 -72q-88 51 -213 52q-131 0 -212 -85t-81 -225q0 -139 82 -224t217 -85q131 0 226 64l6 -72q-41 -29 -102.5 -45 t-129.5 -16q-109 0 -193.5 46t-135 132t-50.5 200z" />
<glyph unicode="&#xaa;" horiz-adv-x="966" d="M203 604l10 60h643l-10 -60h-643zM250 1137q0 111 50 206t141 154t202 59q90 0 159.5 -45t102.5 -125l31 150h63l-131 -680h-63l16 109q-118 -129 -278 -129q-125 0 -209 86t-84 215zM319 1147q0 -113 64 -181.5t170 -68.5q84 0 156.5 45t120 125t47.5 176 q0 115 -64.5 183.5t-175.5 68.5q-80 0 -152.5 -45t-119 -126t-46.5 -177z" />
<glyph unicode="&#xab;" horiz-adv-x="860" d="M80 526l360 418h86l-360 -422l194 -413h-82zM410 526l360 418h86l-360 -422l194 -413h-82z" />
<glyph unicode="&#xac;" horiz-adv-x="1269" d="M272 705l15 69h815l-78 -403h-76l64 334h-740z" />
<glyph unicode="&#xad;" horiz-adv-x="888" d="M174 543l14 73h562l-15 -73h-561z" />
<glyph unicode="&#xae;" horiz-adv-x="1056" d="M246 1241q0 115 54 212t152.5 155.5t221.5 58.5q115 0 212 -54t156.5 -152.5t59.5 -219.5q0 -115 -54.5 -212t-152.5 -155.5t-221 -58.5q-115 0 -212 54.5t-156.5 152.5t-59.5 219zM309 1241q0 -98 46 -182t130.5 -135.5t188.5 -51.5q98 0 181 47.5t133 132.5t50 189 q0 98 -46 182t-130 135.5t-188 51.5q-98 0 -181 -47t-133.5 -132t-50.5 -190zM535 1044v414h137q72 0 111.5 -33.5t39.5 -91.5q0 -41 -20.5 -70.5t-57.5 -43.5l111 -175h-74l-100 164h-88v-164h-59zM594 1260h63q57 0 80 16t23 57q0 39 -23.5 56.5t-74.5 17.5h-68v-147z" />
<glyph unicode="&#xaf;" horiz-adv-x="1024" d="M393 1348l13 69h571l-12 -69h-572z" />
<glyph unicode="&#xb0;" horiz-adv-x="1026" d="M328 1239q0 147 95 247.5t234 100.5q90 0 165 -44t119 -124t44 -180q0 -147 -95.5 -248.5t-232.5 -101.5q-141 0 -235 100.5t-94 249.5zM395 1239q0 -125 74.5 -207t187.5 -82q111 0 186 83t75 206t-75 205t-186 82q-113 0 -187.5 -83t-74.5 -204z" />
<glyph unicode="&#xb1;" horiz-adv-x="1269" d="M96 2l14 70h891l-14 -70h-891zM250 759l15 70h399l78 403h76l-78 -403h399l-14 -70h-400l-79 -403h-76l80 403h-400z" />
<glyph unicode="&#xb2;" d="M243 934l9 61q102 82 268 234q143 131 191.5 199.5t48.5 138.5q0 76 -43 119t-119 43q-61 0 -120.5 -29t-109.5 -82l-12 64q45 51 110.5 79.5t131.5 28.5q102 0 166.5 -61.5t64.5 -159.5q0 -82 -58.5 -166t-205.5 -215q-123 -109 -219 -188h418l-13 -66h-508z" />
<glyph unicode="&#xb3;" d="M233 983l15 64q94 -74 206 -74q104 0 174 64.5t70 158.5q0 78 -47 123t-127 45q-37 0 -84 -10l-18 47l327 311h-379l15 58h452l-14 -60l-307 -289h16q100 0 165 -62.5t65 -160.5q0 -78 -39 -142.5t-109 -103t-160 -38.5q-133 0 -221 69z" />
<glyph unicode="&#xb4;" horiz-adv-x="1024" d="M489 1208l350 375h94l-352 -375h-92z" />
<glyph unicode="&#xb5;" horiz-adv-x="1208" d="M12 -502l289 1485h76l-115 -584q-14 -78 -14 -135q0 -117 59.5 -172t186.5 -55q156 0 272.5 114.5t153.5 301.5l104 530h76l-191 -983h-71l34 193q-70 -106 -174 -166t-221 -60q-217 0 -266 154l-121 -623h-78z" />
<glyph unicode="&#xb6;" horiz-adv-x="1183" d="M227 1087q0 213 144.5 341t386.5 128h428l-355 -1822h-77l338 1741h-301l-338 -1741h-78l196 1011q-162 8 -253 99.5t-91 242.5z" />
<glyph unicode="&#xb7;" horiz-adv-x="593" d="M284 770q0 31 21.5 52.5t52.5 21.5q27 0 44.5 -17.5t17.5 -44.5q0 -31 -20.5 -52t-53.5 -21q-27 0 -44.5 17t-17.5 44z" />
<glyph unicode="&#xb8;" horiz-adv-x="1024" d="M141 -479l15 63q63 -45 165 -45q74 0 124.5 38t50.5 95q0 113 -136 113q-51 0 -79 -8l104 243h53l-76 -176h11q84 0 136 -47t52 -123q0 -84 -69 -140t-173 -56q-117 0 -178 43z" />
<glyph unicode="&#xb9;" d="M381 1575l2 61l305 134h61l-161 -836h-68l145 762z" />
<glyph unicode="&#xba;" horiz-adv-x="915" d="M170 604l12 60h641l-12 -60h-641zM246 1137q0 111 50 206t141 154t204 59q131 0 216 -86t85 -217q0 -113 -51 -207t-143 -152t-207 -58q-127 0 -211 86t-84 215zM315 1147q0 -113 64 -181.5t170 -68.5q84 0 156.5 45t119.5 125t47 176q0 115 -64.5 183.5t-174.5 68.5 q-80 0 -152.5 -45t-119 -126t-46.5 -177z" />
<glyph unicode="&#xbb;" horiz-adv-x="860" d="M18 109l361 421l-195 414h82l199 -418l-361 -417h-86zM348 109l361 421l-195 414h82l199 -418l-361 -417h-86z" />
<glyph unicode="&#xbc;" horiz-adv-x="1906" d="M285 0l1436 1524h92l-1438 -1524h-90zM332 1329l2 61l305 134h61l-161 -836h-68l145 762zM1171 227l13 62l503 547h68l-107 -551h115l-12 -58h-115l-43 -227h-61l43 227h-404zM1249 285h338l90 460z" />
<glyph unicode="&#xbd;" horiz-adv-x="1906" d="M227 0l1436 1524h92l-1438 -1524h-90zM332 1329l2 61l305 134h61l-161 -836h-68l145 762zM1177 0l9 61q102 82 268 234q143 131 191.5 199.5t48.5 138.5q0 76 -43 119t-119 43q-61 0 -120.5 -29t-109.5 -82l-12 64q45 51 110.5 79.5t131.5 28.5q102 0 166.5 -61.5 t64.5 -159.5q0 -82 -58.5 -166t-205.5 -215q-123 -109 -219 -188h418l-13 -66h-508z" />
<glyph unicode="&#xbe;" horiz-adv-x="1906" d="M184 737l15 64q94 -74 206 -74q104 0 174 64.5t70 158.5q0 78 -47 123t-127 45q-37 0 -84 -10l-18 47l327 311h-379l15 58h452l-14 -60l-307 -289h16q100 0 165 -62.5t65 -160.5q0 -78 -39 -142.5t-109 -103t-160 -38.5q-133 0 -221 69zM325 0l1436 1524h92l-1438 -1524 h-90zM1171 227l13 62l503 547h68l-107 -551h115l-12 -58h-115l-43 -227h-61l43 227h-404zM1249 285h338l90 460z" />
<glyph unicode="&#xbf;" horiz-adv-x="974" d="M-29 -309q0 88 31 155.5t81 123t110.5 104.5t120 99t109.5 110.5t81 138.5t33 180h67q-2 -111 -31.5 -193.5t-79 -146t-108.5 -115t-117.5 -98.5t-107.5 -97t-80 -110.5t-31 -138.5q0 -117 81 -186.5t212 -69.5q106 0 202.5 44t176.5 128l12 -74q-76 -78 -181.5 -123 t-211.5 -45q-100 0 -184 40t-134.5 112t-50.5 162zM575 958q0 31 20.5 52.5t53.5 21.5q27 0 44.5 -17.5t17.5 -43.5q0 -31 -21.5 -52.5t-52.5 -21.5q-27 0 -44.5 17.5t-17.5 43.5z" />
<glyph unicode="&#xc0;" horiz-adv-x="1484" d="M-29 0l930 1556h90l330 -1556h-86l-107 516h-763l-306 -516h-88zM408 590h704l-180 883zM727 1974h99l264 -264h-88z" />
<glyph unicode="&#xc1;" horiz-adv-x="1484" d="M-29 0l930 1556h90l330 -1556h-86l-107 516h-763l-306 -516h-88zM408 590h704l-180 883zM834 1710l362 264h115l-379 -264h-98z" />
<glyph unicode="&#xc2;" horiz-adv-x="1484" d="M-29 0l930 1556h90l330 -1556h-86l-107 516h-763l-306 -516h-88zM408 590h704l-180 883zM641 1710l348 291h70l235 -291h-86l-190 234l-277 -234h-100z" />
<glyph unicode="&#xc3;" horiz-adv-x="1484" d="M-29 0l930 1556h90l330 -1556h-86l-107 516h-763l-306 -516h-88zM408 590h704l-180 883zM666 1708q14 115 65 176.5t133 61.5q47 -2 83 -28t66 -59.5t59.5 -59t64.5 -27.5q111 0 131 172h63q-14 -115 -65 -176.5t-133 -61.5q-47 2 -83 27.5t-65.5 59.5t-59.5 59.5 t-65 27.5q-111 0 -131 -172h-63z" />
<glyph unicode="&#xc4;" horiz-adv-x="1484" d="M-29 0l930 1556h90l330 -1556h-86l-107 516h-763l-306 -516h-88zM408 590h704l-180 883zM762 1815q0 29 20.5 49t49.5 20q23 0 40 -17.5t17 -39.5q0 -29 -19.5 -49.5t-50.5 -20.5q-23 0 -40 17.5t-17 40.5zM1112 1815q0 29 20.5 49t49.5 20q23 0 40 -17.5t17 -39.5 q0 -29 -19 -49.5t-50 -20.5q-23 0 -40.5 17.5t-17.5 40.5z" />
<glyph unicode="&#xc5;" horiz-adv-x="1484" d="M-29 0l930 1556h90l330 -1556h-86l-107 516h-763l-306 -516h-88zM408 590h704l-180 883zM740 1919q0 106 70.5 175t180.5 69q111 0 182.5 -69t71.5 -175t-71.5 -175t-182.5 -69q-109 0 -180 68.5t-71 175.5zM803 1919q0 -82 52 -134t136 -52t137.5 52t53.5 134t-53.5 134 t-137.5 52t-136 -51t-52 -135z" />
<glyph unicode="&#xc6;" horiz-adv-x="2177" d="M-39 0l1344 1556h878l-14 -75h-760l-125 -643h692l-14 -72h-692l-133 -690h811l-15 -76h-891l99 516h-641l-445 -516h-94zM563 590h592l172 885z" />
<glyph unicode="&#xc7;" horiz-adv-x="1611" d="M219 676q0 246 108.5 451.5t306 328.5t447.5 123q129 0 252 -37t219 -106l-22 -78q-199 141 -455 141q-207 0 -382 -102.5t-281.5 -288.5t-106.5 -420q0 -186 74 -328.5t214 -222.5t333 -80q109 0 225.5 27t216.5 72l2 -80q-94 -47 -211.5 -73t-234.5 -26q-207 0 -366 84 t-249 243t-90 372zM594 -479l14 63q63 -45 166 -45q76 0 124 38t48 97q0 111 -133 111q-51 0 -80 -8l104 243h56l-76 -176h16q82 0 131.5 -47t49.5 -123q0 -84 -70 -140t-172 -56q-104 0 -178 43z" />
<glyph unicode="&#xc8;" horiz-adv-x="1323" d="M182 0l301 1556h842l-14 -75h-760l-125 -643h692l-14 -72h-692l-133 -690h811l-15 -76h-893zM694 1974h99l264 -264h-88z" />
<glyph unicode="&#xc9;" horiz-adv-x="1323" d="M182 0l301 1556h842l-14 -75h-760l-125 -643h692l-14 -72h-692l-133 -690h811l-15 -76h-893zM801 1710l362 264h115l-379 -264h-98z" />
<glyph unicode="&#xca;" horiz-adv-x="1323" d="M182 0l301 1556h842l-14 -75h-760l-125 -643h692l-14 -72h-692l-133 -690h811l-15 -76h-893zM608 1710l348 291h70l235 -291h-86l-190 234l-277 -234h-100z" />
<glyph unicode="&#xcb;" horiz-adv-x="1323" d="M182 0l301 1556h842l-14 -75h-760l-125 -643h692l-14 -72h-692l-133 -690h811l-15 -76h-893zM729 1815q0 29 20.5 49t49.5 20q23 0 40 -17.5t17 -39.5q0 -29 -19.5 -49.5t-50.5 -20.5q-23 0 -40 17.5t-17 40.5zM1079 1815q0 29 20.5 49t49.5 20q23 0 40 -17.5t17 -39.5 q0 -29 -19 -49.5t-50 -20.5q-23 0 -40.5 17.5t-17.5 40.5z" />
<glyph unicode="&#xcc;" horiz-adv-x="634" d="M182 0l301 1556h82l-301 -1556h-82zM301 1974h99l264 -264h-88z" />
<glyph unicode="&#xcd;" horiz-adv-x="634" d="M182 0l301 1556h82l-301 -1556h-82zM408 1710l362 264h115l-379 -264h-98z" />
<glyph unicode="&#xce;" horiz-adv-x="634" d="M182 0l301 1556h82l-301 -1556h-82zM215 1710l348 291h70l235 -291h-86l-190 234l-277 -234h-100z" />
<glyph unicode="&#xcf;" horiz-adv-x="634" d="M182 0l301 1556h82l-301 -1556h-82zM336 1815q0 29 20.5 49t49.5 20q23 0 40 -17.5t17 -39.5q0 -29 -19.5 -49.5t-50.5 -20.5q-23 0 -40 17.5t-17 40.5zM686 1815q0 29 20.5 49t49.5 20q23 0 40 -17.5t17 -39.5q0 -29 -19 -49.5t-50 -20.5q-23 0 -40.5 17.5t-17.5 40.5z " />
<glyph unicode="&#xd0;" horiz-adv-x="1753" d="M133 750l12 71h215l142 735h426q344 0 535.5 -171t191.5 -476q0 -268 -117 -474t-338 -320.5t-520 -114.5h-479l145 750h-213zM297 78h393q258 0 455.5 99t309.5 286.5t112 439.5q0 279 -166 427.5t-479 148.5h-353l-129 -658h389l-12 -71h-391z" />
<glyph unicode="&#xd1;" horiz-adv-x="1810" d="M182 0l301 1556h82l817 -1439l279 1439h80l-301 -1556h-80l-819 1440l-279 -1440h-80zM830 1708q14 115 65 176.5t133 61.5q47 -2 83 -28t66 -59.5t59.5 -59t64.5 -27.5q111 0 131 172h63q-14 -115 -65 -176.5t-133 -61.5q-47 2 -83 27.5t-65.5 59.5t-59.5 59.5t-65 27.5 q-111 0 -131 -172h-63z" />
<glyph unicode="&#xd2;" horiz-adv-x="1873" d="M217 676q0 240 106.5 447.5t298 336.5t427.5 129q203 0 365.5 -87t256.5 -249.5t94 -373.5q0 -240 -106.5 -448t-298 -336t-424.5 -128q-205 0 -367.5 87t-257 249t-94.5 373zM301 686q0 -184 78 -328.5t223 -227.5t338 -83q190 0 359 105.5t275.5 296t106.5 419.5 q0 184 -77.5 329.5t-223 228.5t-338.5 83q-141 0 -272 -58t-236.5 -167.5t-169 -264.5t-63.5 -333zM844 1974h99l264 -264h-88z" />
<glyph unicode="&#xd3;" horiz-adv-x="1873" d="M217 676q0 240 106.5 447.5t298 336.5t427.5 129q203 0 365.5 -87t256.5 -249.5t94 -373.5q0 -240 -106.5 -448t-298 -336t-424.5 -128q-205 0 -367.5 87t-257 249t-94.5 373zM301 686q0 -184 78 -328.5t223 -227.5t338 -83q190 0 359 105.5t275.5 296t106.5 419.5 q0 184 -77.5 329.5t-223 228.5t-338.5 83q-141 0 -272 -58t-236.5 -167.5t-169 -264.5t-63.5 -333zM951 1710l362 264h115l-379 -264h-98z" />
<glyph unicode="&#xd4;" horiz-adv-x="1873" d="M217 676q0 240 106.5 447.5t298 336.5t427.5 129q203 0 365.5 -87t256.5 -249.5t94 -373.5q0 -240 -106.5 -448t-298 -336t-424.5 -128q-205 0 -367.5 87t-257 249t-94.5 373zM301 686q0 -184 78 -328.5t223 -227.5t338 -83q190 0 359 105.5t275.5 296t106.5 419.5 q0 184 -77.5 329.5t-223 228.5t-338.5 83q-141 0 -272 -58t-236.5 -167.5t-169 -264.5t-63.5 -333zM758 1710l348 291h70l235 -291h-86l-190 234l-277 -234h-100z" />
<glyph unicode="&#xd5;" horiz-adv-x="1873" d="M217 676q0 240 106.5 447.5t298 336.5t427.5 129q203 0 365.5 -87t256.5 -249.5t94 -373.5q0 -240 -106.5 -448t-298 -336t-424.5 -128q-205 0 -367.5 87t-257 249t-94.5 373zM301 686q0 -184 78 -328.5t223 -227.5t338 -83q190 0 359 105.5t275.5 296t106.5 419.5 q0 184 -77.5 329.5t-223 228.5t-338.5 83q-141 0 -272 -58t-236.5 -167.5t-169 -264.5t-63.5 -333zM783 1708q14 115 65 176.5t133 61.5q47 -2 83 -28t66 -59.5t59.5 -59t64.5 -27.5q111 0 131 172h63q-14 -115 -65 -176.5t-133 -61.5q-47 2 -83 27.5t-65.5 59.5t-59.5 59.5 t-65 27.5q-111 0 -131 -172h-63z" />
<glyph unicode="&#xd6;" horiz-adv-x="1873" d="M217 676q0 240 106.5 447.5t298 336.5t427.5 129q203 0 365.5 -87t256.5 -249.5t94 -373.5q0 -240 -106.5 -448t-298 -336t-424.5 -128q-205 0 -367.5 87t-257 249t-94.5 373zM301 686q0 -184 78 -328.5t223 -227.5t338 -83q190 0 359 105.5t275.5 296t106.5 419.5 q0 184 -77.5 329.5t-223 228.5t-338.5 83q-141 0 -272 -58t-236.5 -167.5t-169 -264.5t-63.5 -333zM879 1815q0 29 20.5 49t49.5 20q23 0 40 -17.5t17 -39.5q0 -29 -19.5 -49.5t-50.5 -20.5q-23 0 -40 17.5t-17 40.5zM1229 1815q0 29 20.5 49t49.5 20q23 0 40 -17.5 t17 -39.5q0 -29 -19 -49.5t-50 -20.5q-23 0 -40.5 17.5t-17.5 40.5z" />
<glyph unicode="&#xd7;" horiz-adv-x="1269" d="M264 373l363 319l-240 318l53 45l240 -316l358 316l45 -47l-364 -322l239 -315l-55 -45l-237 313l-357 -313z" />
<glyph unicode="&#xd8;" horiz-adv-x="1873" d="M172 49l188 178q-143 184 -143 449q0 240 106.5 447.5t298 336.5t427.5 129q160 0 296 -55t234 -158l188 178l43 -51l-188 -178q143 -184 143 -446q0 -240 -106.5 -448t-298 -336t-424.5 -128q-158 0 -294 53.5t-236 155.5l-189 -178zM301 686q0 -240 123 -399l1094 1032 q-86 92 -208 141t-268 49q-141 0 -272 -58t-236.5 -167.5t-169 -264.5t-63.5 -333zM467 233q86 -90 207 -138t266 -48q190 0 359 105.5t275.5 296t106.5 419.5q0 233 -120 400z" />
<glyph unicode="&#xd9;" horiz-adv-x="1683" d="M246 477q0 68 14 137l182 942h82l-178 -925q-14 -70 -14 -148q0 -207 123 -321.5t342 -114.5q240 0 390 145.5t206 430.5l180 933h82l-185 -950q-61 -317 -233.5 -478t-448.5 -161q-158 0 -280.5 61.5t-192 177.5t-69.5 271zM829 1974h99l264 -264h-88z" />
<glyph unicode="&#xda;" horiz-adv-x="1683" d="M246 477q0 68 14 137l182 942h82l-178 -925q-14 -70 -14 -148q0 -207 123 -321.5t342 -114.5q240 0 390 145.5t206 430.5l180 933h82l-185 -950q-61 -317 -233.5 -478t-448.5 -161q-158 0 -280.5 61.5t-192 177.5t-69.5 271zM936 1710l362 264h115l-379 -264h-98z" />
<glyph unicode="&#xdb;" horiz-adv-x="1683" d="M246 477q0 68 14 137l182 942h82l-178 -925q-14 -70 -14 -148q0 -207 123 -321.5t342 -114.5q240 0 390 145.5t206 430.5l180 933h82l-185 -950q-61 -317 -233.5 -478t-448.5 -161q-158 0 -280.5 61.5t-192 177.5t-69.5 271zM744 1710l348 291h70l235 -291h-86l-190 234 l-277 -234h-100z" />
<glyph unicode="&#xdc;" horiz-adv-x="1683" d="M246 477q0 68 14 137l182 942h82l-178 -925q-14 -70 -14 -148q0 -207 123 -321.5t342 -114.5q240 0 390 145.5t206 430.5l180 933h82l-185 -950q-61 -317 -233.5 -478t-448.5 -161q-158 0 -280.5 61.5t-192 177.5t-69.5 271zM864 1815q0 29 20.5 49t49.5 20 q23 0 40 -17.5t17 -39.5q0 -29 -19.5 -49.5t-50.5 -20.5q-23 0 -40 17.5t-17 40.5zM1214 1815q0 29 20.5 49t49.5 20q23 0 40 -17.5t17 -39.5q0 -29 -19 -49.5t-50 -20.5q-23 0 -40.5 17.5t-17.5 40.5z" />
<glyph unicode="&#xdd;" horiz-adv-x="1415" d="M289 1556h86l381 -784l686 784h98l-752 -854l-135 -702h-82l136 705zM787 1710l362 264h115l-379 -264h-98z" />
<glyph unicode="&#xde;" horiz-adv-x="1327" d="M182 0l301 1556h82l-59 -303h254q231 0 358 -105.5t127 -297.5q0 -150 -70.5 -265.5t-202.5 -180t-310 -64.5h-332l-66 -340h-82zM344 418h326q223 0 356 116.5t133 313.5q0 328 -405 328h-262z" />
<glyph unicode="&#xdf;" horiz-adv-x="1300" d="M109 0l231 1192q43 225 170 351t311 126q170 0 277.5 -99.5t107.5 -256.5q0 -145 -92 -268t-235 -173q127 -37 199.5 -139t72.5 -248q0 -139 -62.5 -256.5t-176.5 -189.5t-255 -72q-176 0 -286 88l24 68q45 -39 115 -61.5t143 -22.5q115 0 210 55.5t153.5 157.5t58.5 231 q0 158 -97 255.5t-257 97.5h-78l14 71h72q102 0 192.5 51.5t147.5 142.5t57 199q0 139 -81.5 218t-229.5 79q-156 0 -260 -111.5t-145 -322.5l-226 -1163h-75z" />
<glyph unicode="&#xe0;" horiz-adv-x="1310" d="M123 408q0 158 71.5 296t200.5 225t287 87q139 0 245.5 -74t151.5 -201l51 242h72l-190 -983h-72l33 186q-74 -104 -185.5 -161.5t-240.5 -57.5q-119 0 -215 54.5t-152.5 154.5t-56.5 232zM203 414q0 -170 98 -273.5t260 -103.5q125 0 234.5 68.5t179 192.5t69.5 271 q0 168 -98 272.5t-258 104.5q-127 0 -237.5 -68.5t-179 -192.5t-68.5 -271zM628 1583h88l199 -375h-74z" />
<glyph unicode="&#xe1;" horiz-adv-x="1310" d="M123 408q0 158 71.5 296t200.5 225t287 87q139 0 245.5 -74t151.5 -201l51 242h72l-190 -983h-72l33 186q-74 -104 -185.5 -161.5t-240.5 -57.5q-119 0 -215 54.5t-152.5 154.5t-56.5 232zM203 414q0 -170 98 -273.5t260 -103.5q125 0 234.5 68.5t179 192.5t69.5 271 q0 168 -98 272.5t-258 104.5q-127 0 -237.5 -68.5t-179 -192.5t-68.5 -271zM618 1208l350 375h94l-352 -375h-92z" />
<glyph unicode="&#xe2;" horiz-adv-x="1310" d="M123 408q0 158 71.5 296t200.5 225t287 87q139 0 245.5 -74t151.5 -201l51 242h72l-190 -983h-72l33 186q-74 -104 -185.5 -161.5t-240.5 -57.5q-119 0 -215 54.5t-152.5 154.5t-56.5 232zM203 414q0 -170 98 -273.5t260 -103.5q125 0 234.5 68.5t179 192.5t69.5 271 q0 168 -98 272.5t-258 104.5q-127 0 -237.5 -68.5t-179 -192.5t-68.5 -271zM428 1208l362 375h60l229 -375h-82l-182 314l-299 -314h-88z" />
<glyph unicode="&#xe3;" horiz-adv-x="1310" d="M123 408q0 158 71.5 296t200.5 225t287 87q139 0 245.5 -74t151.5 -201l51 242h72l-190 -983h-72l33 186q-74 -104 -185.5 -161.5t-240.5 -57.5q-119 0 -215 54.5t-152.5 154.5t-56.5 232zM203 414q0 -170 98 -273.5t260 -103.5q125 0 234.5 68.5t179 192.5t69.5 271 q0 168 -98 272.5t-258 104.5q-127 0 -237.5 -68.5t-179 -192.5t-68.5 -271zM469 1274q31 238 198 237q47 -2 82 -27.5t61.5 -59t53 -59.5t59.5 -28q106 0 131 172h64q-14 -117 -64.5 -177t-134.5 -60q-47 2 -82 27.5t-61.5 59.5t-53 59.5t-59.5 27.5q-104 0 -129 -172h-65z " />
<glyph unicode="&#xe4;" horiz-adv-x="1310" d="M123 408q0 158 71.5 296t200.5 225t287 87q139 0 245.5 -74t151.5 -201l51 242h72l-190 -983h-72l33 186q-74 -104 -185.5 -161.5t-240.5 -57.5q-119 0 -215 54.5t-152.5 154.5t-56.5 232zM203 414q0 -170 98 -273.5t260 -103.5q125 0 234.5 68.5t179 192.5t69.5 271 q0 168 -98 272.5t-258 104.5q-127 0 -237.5 -68.5t-179 -192.5t-68.5 -271zM563 1374q0 29 20.5 49.5t48.5 20.5q23 0 40.5 -17.5t17.5 -40.5q0 -29 -19.5 -49t-50.5 -20q-25 0 -41 17.5t-16 39.5zM911 1374q0 29 20.5 49.5t49.5 20.5q23 0 40 -17.5t17 -40.5 q0 -29 -19.5 -49t-50.5 -20q-23 0 -40 17.5t-17 39.5z" />
<glyph unicode="&#xe5;" horiz-adv-x="1310" d="M123 408q0 158 71.5 296t200.5 225t287 87q139 0 245.5 -74t151.5 -201l51 242h72l-190 -983h-72l33 186q-74 -104 -185.5 -161.5t-240.5 -57.5q-119 0 -215 54.5t-152.5 154.5t-56.5 232zM203 414q0 -170 98 -273.5t260 -103.5q125 0 234.5 68.5t179 192.5t69.5 271 q0 168 -98 272.5t-258 104.5q-127 0 -237.5 -68.5t-179 -192.5t-68.5 -271zM538 1448q0 106 71 175t181 69q111 0 182.5 -69t71.5 -175t-71.5 -175t-182.5 -69q-109 0 -180.5 68.5t-71.5 175.5zM600 1448q0 -82 53 -134t137 -52t138.5 52t54.5 134t-54.5 134t-138.5 52 t-137 -52t-53 -134z" />
<glyph unicode="&#xe6;" horiz-adv-x="2050" d="M123 408q0 158 71.5 296t200.5 225t287 87q139 0 243.5 -71t151.5 -197l45 235h66l-31 -178q74 100 179.5 155.5t224.5 55.5q172 0 277.5 -101.5t105.5 -267.5q0 -82 -25 -166h-821q-2 -14 -2 -67q0 -178 105.5 -277.5t293.5 -99.5q70 0 153 23.5t158 62.5l4 -68 q-63 -41 -152 -64.5t-173 -23.5q-158 0 -270.5 71t-157.5 195l-43 -233h-66l33 201q-72 -111 -186.5 -172.5t-247.5 -61.5q-119 0 -215 54.5t-152.5 154.5t-56.5 232zM203 414q0 -170 98 -273.5t260 -103.5q125 0 234.5 68.5t179 192.5t69.5 271q0 168 -98 272.5t-258 104.5 q-127 0 -237.5 -68.5t-179 -192.5t-68.5 -271zM1108 545h747q12 31 13 96q0 143 -83 225t-229 82q-158 0 -283.5 -113.5t-164.5 -289.5z" />
<glyph unicode="&#xe7;" horiz-adv-x="1069" d="M125 422q0 152 73.5 286t206 219t289.5 85q84 0 170 -25.5t146 -68.5l-17 -72q-66 47 -144.5 71.5t-156.5 24.5q-123 0 -234.5 -67.5t-182 -187.5t-70.5 -263q0 -176 102.5 -279.5t278.5 -103.5q168 0 299 92l2 -74q-57 -41 -137 -64.5t-168 -23.5q-209 0 -333 121 t-124 330zM305 -479l15 63q63 -45 165 -45q74 0 124.5 38t50.5 95q0 113 -136 113q-51 0 -79 -8l104 243h53l-76 -176h11q84 0 136 -47t52 -123q0 -84 -69 -140t-173 -56q-117 0 -178 43z" />
<glyph unicode="&#xe8;" horiz-adv-x="1157" d="M125 410q0 160 68.5 298t193.5 223t281 85q172 0 277.5 -101.5t105.5 -267.5q0 -82 -25 -166h-821q-2 -14 -2 -67q0 -178 105.5 -277.5t293.5 -99.5q70 0 153 23.5t158 62.5l5 -68q-63 -41 -152.5 -64.5t-173.5 -23.5q-213 0 -340 121t-127 322zM215 545h748q12 31 12 96 q0 143 -83 225t-228 82q-158 0 -284 -113.5t-165 -289.5zM530 1583h88l199 -375h-74z" />
<glyph unicode="&#xe9;" horiz-adv-x="1157" d="M125 410q0 160 68.5 298t193.5 223t281 85q172 0 277.5 -101.5t105.5 -267.5q0 -82 -25 -166h-821q-2 -14 -2 -67q0 -178 105.5 -277.5t293.5 -99.5q70 0 153 23.5t158 62.5l5 -68q-63 -41 -152.5 -64.5t-173.5 -23.5q-213 0 -340 121t-127 322zM215 545h748q12 31 12 96 q0 143 -83 225t-228 82q-158 0 -284 -113.5t-165 -289.5zM520 1208l350 375h94l-352 -375h-92z" />
<glyph unicode="&#xea;" horiz-adv-x="1157" d="M125 410q0 160 68.5 298t193.5 223t281 85q172 0 277.5 -101.5t105.5 -267.5q0 -82 -25 -166h-821q-2 -14 -2 -67q0 -178 105.5 -277.5t293.5 -99.5q70 0 153 23.5t158 62.5l5 -68q-63 -41 -152.5 -64.5t-173.5 -23.5q-213 0 -340 121t-127 322zM215 545h748q12 31 12 96 q0 143 -83 225t-228 82q-158 0 -284 -113.5t-165 -289.5zM330 1208l362 375h60l229 -375h-82l-182 314l-299 -314h-88z" />
<glyph unicode="&#xeb;" horiz-adv-x="1157" d="M125 410q0 160 68.5 298t193.5 223t281 85q172 0 277.5 -101.5t105.5 -267.5q0 -82 -25 -166h-821q-2 -14 -2 -67q0 -178 105.5 -277.5t293.5 -99.5q70 0 153 23.5t158 62.5l5 -68q-63 -41 -152.5 -64.5t-173.5 -23.5q-213 0 -340 121t-127 322zM215 545h748q12 31 12 96 q0 143 -83 225t-228 82q-158 0 -284 -113.5t-165 -289.5zM465 1374q0 29 20.5 49.5t48.5 20.5q23 0 40.5 -17.5t17.5 -40.5q0 -29 -19.5 -49t-50.5 -20q-25 0 -41 17.5t-16 39.5zM813 1374q0 29 20.5 49.5t49.5 20.5q23 0 40 -17.5t17 -40.5q0 -29 -19.5 -49t-50.5 -20 q-23 0 -40 17.5t-17 39.5z" />
<glyph unicode="&#xec;" horiz-adv-x="487" d="M111 0l190 983h78l-191 -983h-77zM252 1583h88l199 -375h-74z" />
<glyph unicode="&#xed;" horiz-adv-x="487" d="M111 0l190 983h78l-191 -983h-77zM242 1208l350 375h94l-352 -375h-92z" />
<glyph unicode="&#xee;" horiz-adv-x="487" d="M52 1208l362 375h60l229 -375h-82l-182 314l-299 -314h-88zM111 0l190 983h78l-191 -983h-77z" />
<glyph unicode="&#xef;" horiz-adv-x="487" d="M111 0l190 983h78l-191 -983h-77zM187 1374q0 29 20.5 49.5t48.5 20.5q23 0 40.5 -17.5t17.5 -40.5q0 -29 -19.5 -49t-50.5 -20q-25 0 -41 17.5t-16 39.5zM535 1374q0 29 20.5 49.5t49.5 20.5q23 0 40 -17.5t17 -40.5q0 -29 -19.5 -49t-50.5 -20q-23 0 -40 17.5t-17 39.5 z" />
<glyph unicode="&#xf0;" horiz-adv-x="1245" d="M125 436q0 150 72.5 281t203.5 215t287 84q123 0 218 -55.5t145 -155.5q-25 139 -84.5 279.5t-145.5 265.5l-313 -164l-25 59l301 158q-106 139 -225 235l100 11q104 -92 193 -209l246 129l22 -62l-229 -121q117 -170 177 -362.5t60 -386.5q0 -184 -68.5 -335.5 t-195.5 -243t-289 -91.5q-127 0 -229 57.5t-161.5 165t-59.5 246.5zM203 444q0 -184 102.5 -295.5t272.5 -111.5q121 0 227 69.5t174 192.5t68 270q0 168 -99.5 272.5t-259.5 104.5q-123 0 -233.5 -65.5t-181 -182t-70.5 -254.5z" />
<glyph unicode="&#xf1;" horiz-adv-x="1208" d="M111 0l190 983h74l-33 -178q70 102 166 156.5t207 54.5q156 0 241.5 -82t85.5 -229q0 -49 -10 -111l-114 -594h-78l112 584q12 66 13 116q0 246 -254 246q-156 0 -269.5 -110.5t-148.5 -294.5l-105 -541h-77zM453 1274q31 238 198 237q47 -2 82 -27.5t61.5 -59t53 -59.5 t59.5 -28q106 0 131 172h64q-14 -117 -64.5 -177t-134.5 -60q-47 2 -82 27.5t-61.5 59.5t-53 59.5t-59.5 27.5q-104 0 -129 -172h-65z" />
<glyph unicode="&#xf2;" horiz-adv-x="1247" d="M123 410q0 158 72.5 296t204.5 224t292 86q123 0 221.5 -54.5t154.5 -155.5t56 -233q0 -158 -72.5 -296t-204.5 -224t-292 -86q-123 0 -221 54.5t-154.5 156t-56.5 232.5zM203 414q0 -168 98 -272.5t258 -104.5q125 0 235.5 68.5t180 192.5t69.5 271q0 168 -98 272.5 t-258 104.5q-125 0 -235.5 -68.5t-180 -192.5t-69.5 -271zM606 1583h88l199 -375h-74z" />
<glyph unicode="&#xf3;" horiz-adv-x="1247" d="M123 410q0 158 72.5 296t204.5 224t292 86q123 0 221.5 -54.5t154.5 -155.5t56 -233q0 -158 -72.5 -296t-204.5 -224t-292 -86q-123 0 -221 54.5t-154.5 156t-56.5 232.5zM203 414q0 -168 98 -272.5t258 -104.5q125 0 235.5 68.5t180 192.5t69.5 271q0 168 -98 272.5 t-258 104.5q-125 0 -235.5 -68.5t-180 -192.5t-69.5 -271zM596 1208l350 375h94l-352 -375h-92z" />
<glyph unicode="&#xf4;" horiz-adv-x="1247" d="M123 410q0 158 72.5 296t204.5 224t292 86q123 0 221.5 -54.5t154.5 -155.5t56 -233q0 -158 -72.5 -296t-204.5 -224t-292 -86q-123 0 -221 54.5t-154.5 156t-56.5 232.5zM203 414q0 -168 98 -272.5t258 -104.5q125 0 235.5 68.5t180 192.5t69.5 271q0 168 -98 272.5 t-258 104.5q-125 0 -235.5 -68.5t-180 -192.5t-69.5 -271zM406 1208l362 375h60l229 -375h-82l-182 314l-299 -314h-88z" />
<glyph unicode="&#xf5;" horiz-adv-x="1247" d="M123 410q0 158 72.5 296t204.5 224t292 86q123 0 221.5 -54.5t154.5 -155.5t56 -233q0 -158 -72.5 -296t-204.5 -224t-292 -86q-123 0 -221 54.5t-154.5 156t-56.5 232.5zM203 414q0 -168 98 -272.5t258 -104.5q125 0 235.5 68.5t180 192.5t69.5 271q0 168 -98 272.5 t-258 104.5q-125 0 -235.5 -68.5t-180 -192.5t-69.5 -271zM447 1274q31 238 198 237q47 -2 82 -27.5t61.5 -59t53 -59.5t59.5 -28q106 0 131 172h64q-14 -117 -64.5 -177t-134.5 -60q-47 2 -82 27.5t-61.5 59.5t-53 59.5t-59.5 27.5q-104 0 -129 -172h-65z" />
<glyph unicode="&#xf6;" horiz-adv-x="1247" d="M123 410q0 158 72.5 296t204.5 224t292 86q123 0 221.5 -54.5t154.5 -155.5t56 -233q0 -158 -72.5 -296t-204.5 -224t-292 -86q-123 0 -221 54.5t-154.5 156t-56.5 232.5zM203 414q0 -168 98 -272.5t258 -104.5q125 0 235.5 68.5t180 192.5t69.5 271q0 168 -98 272.5 t-258 104.5q-125 0 -235.5 -68.5t-180 -192.5t-69.5 -271zM541 1374q0 29 20.5 49.5t48.5 20.5q23 0 40.5 -17.5t17.5 -40.5q0 -29 -19.5 -49t-50.5 -20q-25 0 -41 17.5t-16 39.5zM889 1374q0 29 20.5 49.5t49.5 20.5q23 0 40 -17.5t17 -40.5q0 -29 -19.5 -49t-50.5 -20 q-23 0 -40 17.5t-17 39.5z" />
<glyph unicode="&#xf7;" horiz-adv-x="1269" d="M219 655l14 70h891l-14 -70h-891zM530 324q0 33 22.5 55t55.5 22q27 0 46.5 -19.5t19.5 -45.5q0 -33 -22.5 -55.5t-55.5 -22.5q-27 0 -46.5 19.5t-19.5 46.5zM668 1030q0 33 22.5 55.5t54.5 22.5q27 0 46.5 -19.5t19.5 -46.5q0 -33 -22.5 -55t-55.5 -22q-27 0 -46 19.5 t-19 45.5z" />
<glyph unicode="&#xf8;" horiz-adv-x="1247" d="M80 23l121 118q-78 119 -78 269q0 158 72.5 296t204.5 224t292 86q84 0 158 -26.5t131 -78.5l135 133l41 -43l-133 -133q100 -119 100 -295q0 -158 -72.5 -296t-204.5 -224t-292 -86q-96 0 -177 33t-140 96l-117 -116zM203 414q0 -125 55 -215l670 659q-94 88 -240 88 q-125 0 -235.5 -68.5t-180 -192.5t-69.5 -271zM293 150q96 -113 266 -113q125 0 235.5 68.5t180 192.5t69.5 271q0 139 -75 246z" />
<glyph unicode="&#xf9;" horiz-adv-x="1198" d="M166 281q0 47 10 108l115 594h78l-113 -584q-12 -63 -12 -114q0 -121 63 -185q63 -63 185 -63q158 0 269 109q112 110 146 296l105 541h78l-191 -983h-74l33 178q-68 -102 -164 -156q-96 -55 -209 -55q-150 0 -234 83q-85 83 -85 231zM596 1583h88l199 -375h-74z" />
<glyph unicode="&#xfa;" horiz-adv-x="1198" d="M166 281q0 47 10 108l115 594h78l-113 -584q-12 -63 -12 -114q0 -121 63 -185q63 -63 185 -63q158 0 269 109q112 110 146 296l105 541h78l-191 -983h-74l33 178q-68 -102 -164 -156q-96 -55 -209 -55q-150 0 -234 83q-85 83 -85 231zM586 1208l350 375h94l-352 -375h-92 z" />
<glyph unicode="&#xfb;" horiz-adv-x="1198" d="M166 281q0 47 10 108l115 594h78l-113 -584q-12 -63 -12 -114q0 -121 63 -185q63 -63 185 -63q158 0 269 109q112 110 146 296l105 541h78l-191 -983h-74l33 178q-68 -102 -164 -156q-96 -55 -209 -55q-150 0 -234 83q-85 83 -85 231zM396 1208l362 375h60l229 -375h-82 l-182 314l-299 -314h-88z" />
<glyph unicode="&#xfc;" horiz-adv-x="1198" d="M166 281q0 47 10 108l115 594h78l-113 -584q-12 -63 -12 -114q0 -121 63 -185q63 -63 185 -63q158 0 269 109q112 110 146 296l105 541h78l-191 -983h-74l33 178q-68 -102 -164 -156q-96 -55 -209 -55q-150 0 -234 83q-85 83 -85 231zM531 1374q0 29 20.5 49.5t48.5 20.5 q23 0 40.5 -17.5t17.5 -40.5q0 -29 -19.5 -49t-50.5 -20q-25 0 -41 17.5t-16 39.5zM879 1374q0 29 20.5 49.5t49.5 20.5q23 0 40 -17.5t17 -40.5q0 -29 -19.5 -49t-50.5 -20q-23 0 -40 17.5t-17 39.5z" />
<glyph unicode="&#xfd;" horiz-adv-x="1046" d="M57 -502l336 518l-235 967h80l208 -879l551 879h84l-940 -1485h-84zM508 1208l350 375h94l-352 -375h-92z" />
<glyph unicode="&#xfe;" horiz-adv-x="1312" d="M12 -502l420 2161h78l-168 -856q76 100 186.5 156.5t237.5 56.5q119 0 215 -54.5t152.5 -154.5t56.5 -232q0 -158 -71.5 -296t-201 -225t-286.5 -87q-137 0 -241.5 71t-156.5 195l-143 -735h-78zM268 414q0 -168 98.5 -272.5t258.5 -104.5q127 0 237.5 68.5t179 192.5 t68.5 271q0 170 -98.5 273.5t-259.5 103.5q-125 0 -234.5 -68.5t-179.5 -192.5t-70 -271z" />
<glyph unicode="&#xff;" horiz-adv-x="1046" d="M57 -502l336 518l-235 967h80l208 -879l551 879h84l-940 -1485h-84zM453 1374q0 29 20.5 49.5t48.5 20.5q23 0 40.5 -17.5t17.5 -40.5q0 -29 -19.5 -49t-50.5 -20q-25 0 -41 17.5t-16 39.5zM801 1374q0 29 20.5 49.5t49.5 20.5q23 0 40 -17.5t17 -40.5q0 -29 -19.5 -49 t-50.5 -20q-23 0 -40 17.5t-17 39.5z" />
<glyph unicode="&#x100;" horiz-adv-x="1484" d="M-29 0l930 1556h90l330 -1556h-86l-107 516h-763l-306 -516h-88zM408 590h704l-180 883zM705 1790l12 70h573l-12 -70h-573z" />
<glyph unicode="&#x101;" horiz-adv-x="1310" d="M123 408q0 158 71.5 296t200.5 225t287 87q139 0 245.5 -74t151.5 -201l51 242h72l-190 -983h-72l33 186q-74 -104 -185.5 -161.5t-240.5 -57.5q-119 0 -215 54.5t-152.5 154.5t-56.5 232zM203 414q0 -170 98 -273.5t260 -103.5q125 0 234.5 68.5t179 192.5t69.5 271 q0 168 -98 272.5t-258 104.5q-127 0 -237.5 -68.5t-179 -192.5t-68.5 -271zM501 1348l13 69h571l-12 -69h-572z" />
<glyph unicode="&#x102;" horiz-adv-x="1484" d="M-29 0l930 1556h90l330 -1556h-86l-107 516h-763l-306 -516h-88zM408 590h704l-180 883zM731 1903q0 33 6 69h60q-4 -29 -4 -51q0 -170 188 -170q215 0 246 221h59q-8 -129 -92 -205.5t-217 -76.5q-113 0 -179.5 57t-66.5 156z" />
<glyph unicode="&#x103;" horiz-adv-x="1310" d="M123 408q0 158 71.5 296t200.5 225t287 87q139 0 245.5 -74t151.5 -201l51 242h72l-190 -983h-72l33 186q-74 -104 -185.5 -161.5t-240.5 -57.5q-119 0 -215 54.5t-152.5 154.5t-56.5 232zM203 414q0 -170 98 -273.5t260 -103.5q125 0 234.5 68.5t179 192.5t69.5 271 q0 168 -98 272.5t-258 104.5q-127 0 -237.5 -68.5t-179 -192.5t-68.5 -271zM550 1452q0 43 11 78h59q-4 -18 -4 -62q0 -94 45 -138t139 -44q111 0 170.5 59.5t73.5 184.5h64q-8 -143 -89.5 -223t-218.5 -80q-115 0 -182.5 60.5t-67.5 164.5z" />
<glyph unicode="&#x104;" horiz-adv-x="1484" d="M-29 0l930 1556h90l330 -1556h-86l-107 516h-763l-306 -516h-88zM408 590h704l-180 883zM942 -367q0 184 319 392l60 -25q-307 -188 -307 -358q0 -96 104 -97q76 0 139 41l2 -61q-29 -18 -69.5 -29.5t-77.5 -11.5q-72 0 -121 43t-49 106z" />
<glyph unicode="&#x105;" horiz-adv-x="1310" d="M123 408q0 158 71.5 296t200.5 225t287 87q139 0 245.5 -74t151.5 -201l51 242h72l-190 -983h-72l33 186q-74 -104 -185.5 -161.5t-240.5 -57.5q-119 0 -215 54.5t-152.5 154.5t-56.5 232zM203 414q0 -170 98 -273.5t260 -103.5q125 0 234.5 68.5t179 192.5t69.5 271 q0 168 -98 272.5t-258 104.5q-127 0 -237.5 -68.5t-179 -192.5t-68.5 -271zM633 -367q0 184 319 392l60 -25q-307 -188 -307 -358q0 -96 104 -97q76 0 139 41l2 -61q-29 -18 -69.5 -29.5t-77.5 -11.5q-72 0 -121 43t-49 106z" />
<glyph unicode="&#x106;" horiz-adv-x="1611" d="M219 676q0 246 108.5 451.5t306 328.5t447.5 123q129 0 252 -37t219 -106l-22 -78q-199 141 -455 141q-207 0 -382 -102.5t-281.5 -288.5t-106.5 -420q0 -186 74 -328.5t214 -222.5t333 -80q109 0 225.5 27t216.5 72l2 -80q-94 -47 -211.5 -73t-234.5 -26q-207 0 -366 84 t-249 243t-90 372zM963 1710l362 264h115l-379 -264h-98z" />
<glyph unicode="&#x107;" horiz-adv-x="1069" d="M125 422q0 152 73.5 286t206 219t289.5 85q84 0 170 -25.5t146 -68.5l-17 -72q-66 47 -144.5 71.5t-156.5 24.5q-123 0 -234.5 -67.5t-182 -187.5t-70.5 -263q0 -176 102.5 -279.5t278.5 -103.5q168 0 299 92l2 -74q-57 -41 -137 -64.5t-168 -23.5q-209 0 -333 121 t-124 330zM598 1208l350 375h94l-352 -375h-92z" />
<glyph unicode="&#x10a;" horiz-adv-x="1611" d="M219 676q0 246 108.5 451.5t306 328.5t447.5 123q129 0 252 -37t219 -106l-22 -78q-199 141 -455 141q-207 0 -382 -102.5t-281.5 -288.5t-106.5 -420q0 -186 74 -328.5t214 -222.5t333 -80q109 0 225.5 27t216.5 72l2 -80q-94 -47 -211.5 -73t-234.5 -26q-207 0 -366 84 t-249 243t-90 372zM1063 1817q0 31 21.5 51t50.5 20q25 0 42 -17.5t17 -41.5q0 -31 -20.5 -51.5t-51.5 -20.5q-25 0 -42 17.5t-17 42.5z" />
<glyph unicode="&#x10b;" horiz-adv-x="1069" d="M125 422q0 152 73.5 286t206 219t289.5 85q84 0 170 -25.5t146 -68.5l-17 -72q-66 47 -144.5 71.5t-156.5 24.5q-123 0 -234.5 -67.5t-182 -187.5t-70.5 -263q0 -176 102.5 -279.5t278.5 -103.5q168 0 299 92l2 -74q-57 -41 -137 -64.5t-168 -23.5q-209 0 -333 121 t-124 330zM703 1374q0 31 21.5 51.5t49.5 20.5q25 0 42.5 -17.5t17.5 -42.5q0 -31 -20.5 -51t-51.5 -20q-25 0 -42 17.5t-17 41.5z" />
<glyph unicode="&#x10c;" horiz-adv-x="1611" d="M219 676q0 246 108.5 451.5t306 328.5t447.5 123q129 0 252 -37t219 -106l-22 -78q-199 141 -455 141q-207 0 -382 -102.5t-281.5 -288.5t-106.5 -420q0 -186 74 -328.5t214 -222.5t333 -80q109 0 225.5 27t216.5 72l2 -80q-94 -47 -211.5 -73t-234.5 -26q-207 0 -366 84 t-249 243t-90 372zM836 2001h86l188 -236l279 236h100l-348 -291h-70z" />
<glyph unicode="&#x10d;" horiz-adv-x="1069" d="M125 422q0 152 73.5 286t206 219t289.5 85q84 0 170 -25.5t146 -68.5l-17 -72q-66 47 -144.5 71.5t-156.5 24.5q-123 0 -234.5 -67.5t-182 -187.5t-70.5 -263q0 -176 102.5 -279.5t278.5 -103.5q168 0 299 92l2 -74q-57 -41 -137 -64.5t-168 -23.5q-209 0 -333 121 t-124 330zM477 1583h82l183 -313l299 313h88l-363 -375h-59z" />
<glyph unicode="&#x10e;" horiz-adv-x="1734" d="M182 0l301 1556h426q344 0 535.5 -171t191.5 -476q0 -268 -116.5 -474t-337.5 -320.5t-520 -114.5h-480zM279 78h393q258 0 455.5 99t309 286.5t111.5 439.5q0 279 -165.5 427.5t-479.5 148.5h-352zM750 2001h86l188 -236l279 236h100l-348 -291h-70z" />
<glyph unicode="&#x10f;" horiz-adv-x="1312" d="M123 408q0 158 71.5 296t200.5 225t287 87q137 0 242.5 -72t152.5 -196l178 911h78l-321 -1659h-72l33 186q-74 -104 -185.5 -161.5t-240.5 -57.5q-119 0 -215 54.5t-152.5 154.5t-56.5 232zM203 414q0 -170 98 -273.5t260 -103.5q125 0 234.5 68.5t179 192.5t69.5 271 q0 168 -98 272.5t-258 104.5q-127 0 -237.5 -68.5t-179 -192.5t-68.5 -271zM1401 1188l120 471h72l-135 -471h-57z" />
<glyph unicode="&#x110;" horiz-adv-x="1753" d="M133 750l12 71h215l142 735h426q344 0 535.5 -171t191.5 -476q0 -268 -117 -474t-338 -320.5t-520 -114.5h-479l145 750h-213zM297 78h393q258 0 455.5 99t309.5 286.5t112 439.5q0 279 -166 427.5t-479 148.5h-353l-129 -658h389l-12 -71h-391z" />
<glyph unicode="&#x111;" horiz-adv-x="1312" d="M123 408q0 158 71.5 296t200.5 225t287 87q137 0 242.5 -72t152.5 -196l107 546h-357l13 62h356l59 303h78l-59 -303h149l-12 -62h-149l-250 -1294h-72l33 186q-74 -104 -185.5 -161.5t-240.5 -57.5q-119 0 -215 54.5t-152.5 154.5t-56.5 232zM203 414q0 -170 98 -273.5 t260 -103.5q125 0 234.5 68.5t179 192.5t69.5 271q0 168 -98 272.5t-258 104.5q-127 0 -237.5 -68.5t-179 -192.5t-68.5 -271z" />
<glyph unicode="&#x112;" horiz-adv-x="1323" d="M182 0l301 1556h842l-14 -75h-760l-125 -643h692l-14 -72h-692l-133 -690h811l-15 -76h-893zM672 1790l12 70h573l-12 -70h-573z" />
<glyph unicode="&#x113;" horiz-adv-x="1157" d="M125 410q0 160 68.5 298t193.5 223t281 85q172 0 277.5 -101.5t105.5 -267.5q0 -82 -25 -166h-821q-2 -14 -2 -67q0 -178 105.5 -277.5t293.5 -99.5q70 0 153 23.5t158 62.5l5 -68q-63 -41 -152.5 -64.5t-173.5 -23.5q-213 0 -340 121t-127 322zM215 545h748q12 31 12 96 q0 143 -83 225t-228 82q-158 0 -284 -113.5t-165 -289.5zM403 1348l13 69h571l-12 -69h-572z" />
<glyph unicode="&#x116;" horiz-adv-x="1323" d="M182 0l301 1556h842l-14 -75h-760l-125 -643h692l-14 -72h-692l-133 -690h811l-15 -76h-893zM901 1817q0 31 21.5 51t50.5 20q25 0 42 -17.5t17 -41.5q0 -31 -20.5 -51.5t-51.5 -20.5q-25 0 -42 17.5t-17 42.5z" />
<glyph unicode="&#x117;" horiz-adv-x="1157" d="M125 410q0 160 68.5 298t193.5 223t281 85q172 0 277.5 -101.5t105.5 -267.5q0 -82 -25 -166h-821q-2 -14 -2 -67q0 -178 105.5 -277.5t293.5 -99.5q70 0 153 23.5t158 62.5l5 -68q-63 -41 -152.5 -64.5t-173.5 -23.5q-213 0 -340 121t-127 322zM215 545h748q12 31 12 96 q0 143 -83 225t-228 82q-158 0 -284 -113.5t-165 -289.5zM625 1374q0 31 21.5 51.5t49.5 20.5q25 0 42.5 -17.5t17.5 -42.5q0 -31 -20.5 -51t-51.5 -20q-25 0 -42 17.5t-17 41.5z" />
<glyph unicode="&#x118;" horiz-adv-x="1323" d="M182 0l301 1556h842l-14 -75h-760l-125 -643h692l-14 -72h-692l-133 -690h811l-15 -76h-893zM696 -367q0 184 319 392l60 -25q-307 -188 -307 -358q0 -96 104 -97q76 0 139 41l2 -61q-29 -18 -69.5 -29.5t-77.5 -11.5q-72 0 -121 43t-49 106z" />
<glyph unicode="&#x119;" horiz-adv-x="1157" d="M125 410q0 160 68.5 298t193.5 223t281 85q172 0 277.5 -101.5t105.5 -267.5q0 -82 -25 -166h-821q-2 -14 -2 -67q0 -178 105.5 -277.5t293.5 -99.5q70 0 153 23.5t158 62.5l5 -68q-63 -41 -152.5 -64.5t-173.5 -23.5q-213 0 -340 121t-127 322zM215 545h748q12 31 12 96 q0 143 -83 225t-228 82q-158 0 -284 -113.5t-165 -289.5zM444 -367q0 86 94.5 191.5t268.5 216.5l71 -6q-193 -133 -277.5 -225.5t-84.5 -167.5q0 -96 104 -97q76 0 140 41l2 -61q-29 -18 -70 -29.5t-78 -11.5q-72 0 -121 43t-49 106z" />
<glyph unicode="&#x11a;" horiz-adv-x="1323" d="M182 0l301 1556h842l-14 -75h-760l-125 -643h692l-14 -72h-692l-133 -690h811l-15 -76h-893zM674 2001h86l188 -236l279 236h100l-348 -291h-70z" />
<glyph unicode="&#x11b;" horiz-adv-x="1157" d="M125 410q0 160 68.5 298t193.5 223t281 85q172 0 277.5 -101.5t105.5 -267.5q0 -82 -25 -166h-821q-2 -14 -2 -67q0 -178 105.5 -277.5t293.5 -99.5q70 0 153 23.5t158 62.5l5 -68q-63 -41 -152.5 -64.5t-173.5 -23.5q-213 0 -340 121t-127 322zM215 545h748q12 31 12 96 q0 143 -83 225t-228 82q-158 0 -284 -113.5t-165 -289.5zM399 1583h82l183 -313l299 313h88l-363 -375h-59z" />
<glyph unicode="&#x11e;" horiz-adv-x="1728" d="M219 676q0 246 108.5 450.5t309.5 328.5t455 124q137 0 269 -41t236 -117l-20 -78q-217 156 -494 156q-211 0 -387 -102.5t-283.5 -288.5t-107.5 -420q0 -188 76 -330.5t218 -221.5t337 -79q231 0 428 86l109 557h-441l15 78h522l-131 -682q-219 -119 -504 -119 q-209 0 -371 85t-253 244t-91 370zM872 1903q0 33 6 69h60q-4 -29 -4 -51q0 -170 188 -170q215 0 246 221h59q-8 -129 -92 -205.5t-217 -76.5q-113 0 -179.5 57t-66.5 156z" />
<glyph unicode="&#x11f;" horiz-adv-x="1310" d="M78 -401l20 69q66 -55 161 -88t190 -33q213 0 328.5 120t168.5 394l23 119q-74 -102 -184.5 -157.5t-237.5 -55.5q-119 0 -215 54.5t-152.5 154.5t-56.5 232q0 158 71.5 296t200.5 225t287 87q139 0 245.5 -74t151.5 -201l51 242h72l-178 -920q-59 -311 -194 -448 t-381 -137q-100 0 -206 34.5t-165 86.5zM203 414q0 -170 98 -273.5t260 -103.5q125 0 234.5 68.5t179 192.5t69.5 271q0 168 -98 272.5t-258 104.5q-127 0 -237.5 -68.5t-179 -192.5t-68.5 -271zM550 1452q0 43 11 78h59q-4 -18 -4 -62q0 -94 45 -138t139 -44 q111 0 170.5 59.5t73.5 184.5h64q-8 -143 -89.5 -223t-218.5 -80q-115 0 -182.5 60.5t-67.5 164.5z" />
<glyph unicode="&#x120;" horiz-adv-x="1728" d="M219 676q0 246 108.5 450.5t309.5 328.5t455 124q137 0 269 -41t236 -117l-20 -78q-217 156 -494 156q-211 0 -387 -102.5t-283.5 -288.5t-107.5 -420q0 -188 76 -330.5t218 -221.5t337 -79q231 0 428 86l109 557h-441l15 78h522l-131 -682q-219 -119 -504 -119 q-209 0 -371 85t-253 244t-91 370zM1075 1817q0 31 21.5 51t50.5 20q25 0 42 -17.5t17 -41.5q0 -31 -20.5 -51.5t-51.5 -20.5q-25 0 -42 17.5t-17 42.5z" />
<glyph unicode="&#x121;" horiz-adv-x="1310" d="M78 -401l20 69q66 -55 161 -88t190 -33q213 0 328.5 120t168.5 394l23 119q-74 -102 -184.5 -157.5t-237.5 -55.5q-119 0 -215 54.5t-152.5 154.5t-56.5 232q0 158 71.5 296t200.5 225t287 87q139 0 245.5 -74t151.5 -201l51 242h72l-178 -920q-59 -311 -194 -448 t-381 -137q-100 0 -206 34.5t-165 86.5zM203 414q0 -170 98 -273.5t260 -103.5q125 0 234.5 68.5t179 192.5t69.5 271q0 168 -98 272.5t-258 104.5q-127 0 -237.5 -68.5t-179 -192.5t-68.5 -271zM723 1374q0 31 21.5 51.5t49.5 20.5q25 0 42.5 -17.5t17.5 -42.5 q0 -31 -20.5 -51t-51.5 -20q-25 0 -42 17.5t-17 41.5z" />
<glyph unicode="&#x122;" horiz-adv-x="1728" d="M219 676q0 246 108.5 450.5t309.5 328.5t455 124q137 0 269 -41t236 -117l-20 -78q-217 156 -494 156q-211 0 -387 -102.5t-283.5 -288.5t-107.5 -420q0 -188 76 -330.5t218 -221.5t337 -79q231 0 428 86l109 557h-441l15 78h522l-131 -682q-219 -119 -504 -119 q-209 0 -371 85t-253 244t-91 370zM725 -502q113 160 170 369h68q-27 -96 -75 -195.5t-103 -173.5h-60z" />
<glyph unicode="&#x123;" horiz-adv-x="1310" d="M78 -401l20 69q66 -55 161 -88t190 -33q213 0 328.5 120t168.5 394l23 119q-74 -102 -184.5 -157.5t-237.5 -55.5q-119 0 -215 54.5t-152.5 154.5t-56.5 232q0 158 71.5 296t200.5 225t287 87q139 0 245.5 -74t151.5 -201l51 242h72l-178 -920q-59 -311 -194 -448 t-381 -137q-100 0 -206 34.5t-165 86.5zM203 414q0 -170 98 -273.5t260 -103.5q125 0 234.5 68.5t179 192.5t69.5 271q0 168 -98 272.5t-258 104.5q-127 0 -237.5 -68.5t-179 -192.5t-68.5 -271zM753 1249q27 92 72 182.5t94 151.5h62q-109 -143 -158 -334h-70z" />
<glyph unicode="&#x126;" horiz-adv-x="1796" d="M203 0l227 1182h-209l12 71h211l60 303h82l-60 -303h1039l59 303h82l-59 -303h211l-13 -71h-213l-227 -1182h-82l150 778h-1039l-149 -778h-82zM451 856h1038l61 326h-1038z" />
<glyph unicode="&#x127;" horiz-adv-x="1206" d="M109 0l249 1294h-182l12 62h183l59 303h78l-59 -303h315l-12 -62h-316l-96 -487q68 100 165 154.5t208 54.5q154 0 240.5 -83t86.5 -231q0 -47 -10 -108l-115 -594h-77l112 584q12 66 13 118q0 244 -254 244q-156 0 -269.5 -110.5t-148.5 -294.5l-105 -541h-77z" />
<glyph unicode="&#x128;" horiz-adv-x="634" d="M182 0l301 1556h82l-301 -1556h-82zM240 1708q14 115 65 176.5t133 61.5q47 -2 83 -28t66 -59.5t59.5 -59t64.5 -27.5q111 0 131 172h63q-14 -115 -65 -176.5t-133 -61.5q-47 2 -83 27.5t-65.5 59.5t-59.5 59.5t-65 27.5q-111 0 -131 -172h-63z" />
<glyph unicode="&#x129;" horiz-adv-x="487" d="M93 1274q31 238 198 237q47 -2 82 -27.5t61.5 -59t53 -59.5t59.5 -28q106 0 131 172h64q-14 -117 -64.5 -177t-134.5 -60q-47 2 -82 27.5t-61.5 59.5t-53 59.5t-59.5 27.5q-104 0 -129 -172h-65zM111 0l190 983h78l-191 -983h-77z" />
<glyph unicode="&#x12a;" horiz-adv-x="634" d="M182 0l301 1556h82l-301 -1556h-82zM279 1790l12 70h573l-12 -70h-573z" />
<glyph unicode="&#x12b;" horiz-adv-x="487" d="M111 0l190 983h78l-191 -983h-77zM125 1348l13 69h571l-12 -69h-572z" />
<glyph unicode="&#x12e;" horiz-adv-x="634" d="M-115 -367q0 184 319 392l60 -25q-307 -188 -307 -358q0 -96 104 -97q76 0 139 41l2 -61q-29 -18 -69.5 -29.5t-77.5 -11.5q-72 0 -121 43t-49 106zM182 0l301 1556h82l-301 -1556h-82z" />
<glyph unicode="&#x12f;" horiz-adv-x="487" d="M-190 -367q0 184 319 392l60 -25q-307 -188 -307 -358q0 -96 104 -97q76 0 139 41l2 -61q-29 -18 -69.5 -29.5t-77.5 -11.5q-72 0 -121 43t-49 106zM111 0l190 983h78l-191 -983h-77zM352 1374q0 31 20.5 51.5t51.5 20.5q27 0 43 -16.5t16 -43.5q0 -31 -20 -51t-49 -20 q-27 0 -44.5 16.5t-17.5 42.5z" />
<glyph unicode="&#x130;" horiz-adv-x="634" d="M182 0l301 1556h82l-301 -1556h-82zM508 1817q0 31 21.5 51t50.5 20q25 0 42 -17.5t17 -41.5q0 -31 -20.5 -51.5t-51.5 -20.5q-25 0 -42 17.5t-17 42.5z" />
<glyph unicode="&#x131;" horiz-adv-x="487" d="M111 0l190 983h78l-191 -983h-77z" />
<glyph unicode="&#x132;" horiz-adv-x="1710" d="M182 0l301 1556h82l-301 -1556h-82zM668 49l20 78q129 -74 281 -74q154 0 254 98.5t137 286.5l217 1118h82l-219 -1130q-43 -217 -165 -334t-308 -117q-168 0 -299 74z" />
<glyph unicode="&#x133;" horiz-adv-x="972" d="M102 -479l21 67q74 -39 162 -39q115 0 183 71q69 71 97 220l221 1143h78l-221 -1141q-35 -184 -124 -273t-234 -89q-109 0 -183 41zM111 0l190 983h78l-191 -983h-77zM352 1374q0 31 20.5 51.5t51.5 20.5q27 0 43 -16.5t16 -43.5q0 -31 -20 -51t-49 -20q-27 0 -44.5 16.5 t-17.5 42.5zM836 1374q0 31 20 51t51 21q27 0 43 -16t17 -44q0 -31 -21 -51q-20 -20 -49 -20q-27 0 -44 16t-17 43z" />
<glyph unicode="&#x136;" horiz-adv-x="1540" d="M182 0l301 1556h82l-141 -725l1032 725h121l-1071 -753l854 -803h-115l-829 782l-152 -782h-82zM540 -502q113 160 170 369h68q-27 -96 -75 -195.5t-103 -173.5h-60z" />
<glyph unicode="&#x137;" horiz-adv-x="1085" d="M109 0l321 1659h78l-207 -1065l635 389h119l-682 -420l577 -563h-102l-557 545l-105 -545h-77zM272 -502q113 160 170 369h70q-27 -96 -74 -194.5t-104 -174.5h-62z" />
<glyph unicode="&#x138;" horiz-adv-x="1085" d="M109 0l190 983h78l-82 -422l641 422h119l-682 -446l577 -537h-106l-557 522l-101 -522h-77z" />
<glyph unicode="&#x139;" horiz-adv-x="1218" d="M182 0l301 1556h82l-286 -1480h747l-14 -76h-830zM406 1710l362 264h115l-379 -264h-98z" />
<glyph unicode="&#x13a;" horiz-adv-x="487" d="M109 0l321 1659h78l-322 -1659h-77zM340 1741l362 264h115l-379 -264h-98z" />
<glyph unicode="&#x13b;" horiz-adv-x="1218" d="M182 0l301 1556h82l-286 -1480h747l-14 -76h-830zM442 -502q113 160 170 369h68q-27 -96 -75 -195.5t-103 -173.5h-60z" />
<glyph unicode="&#x13c;" horiz-adv-x="487" d="M-70 -502q113 160 170 369h70q-27 -96 -74 -194.5t-104 -174.5h-62zM109 0l321 1659h78l-322 -1659h-77z" />
<glyph unicode="&#x13d;" horiz-adv-x="1218" d="M182 0l301 1556h82l-286 -1480h747l-14 -76h-830zM654 1188l120 471h72l-135 -471h-57z" />
<glyph unicode="&#x13e;" horiz-adv-x="487" d="M109 0l321 1659h78l-322 -1659h-77zM576 1188l120 471h72l-135 -471h-57z" />
<glyph unicode="&#x141;" horiz-adv-x="1239" d="M92 473l4 80l244 154l164 849h82l-156 -800l440 280l-4 -80l-452 -288l-115 -592h748l-15 -76h-829l119 618z" />
<glyph unicode="&#x142;" horiz-adv-x="526" d="M59 629l2 76l228 120l162 834h77l-155 -795l215 115l-2 -76l-228 -121l-151 -782h-78l145 743z" />
<glyph unicode="&#x143;" horiz-adv-x="1810" d="M182 0l301 1556h82l817 -1439l279 1439h80l-301 -1556h-80l-819 1440l-279 -1440h-80zM998 1710l362 264h115l-379 -264h-98z" />
<glyph unicode="&#x144;" horiz-adv-x="1208" d="M111 0l190 983h74l-33 -178q70 102 166 156.5t207 54.5q156 0 241.5 -82t85.5 -229q0 -49 -10 -111l-114 -594h-78l112 584q12 66 13 116q0 246 -254 246q-156 0 -269.5 -110.5t-148.5 -294.5l-105 -541h-77zM602 1208l350 375h94l-352 -375h-92z" />
<glyph unicode="&#x145;" horiz-adv-x="1810" d="M182 0l301 1556h82l817 -1439l279 1439h80l-301 -1556h-80l-819 1440l-279 -1440h-80zM616 -502q113 160 170 369h68q-27 -96 -75 -195.5t-103 -173.5h-60z" />
<glyph unicode="&#x146;" horiz-adv-x="1208" d="M111 0l190 983h74l-33 -178q70 102 166 156.5t207 54.5q156 0 241.5 -82t85.5 -229q0 -49 -10 -111l-114 -594h-78l112 584q12 66 13 116q0 246 -254 246q-156 0 -269.5 -110.5t-148.5 -294.5l-105 -541h-77zM295 -502q113 160 170 369h70q-27 -96 -74 -194.5 t-104 -174.5h-62z" />
<glyph unicode="&#x147;" horiz-adv-x="1810" d="M182 0l301 1556h82l817 -1439l279 1439h80l-301 -1556h-80l-819 1440l-279 -1440h-80zM871 2001h86l188 -236l279 236h100l-348 -291h-70z" />
<glyph unicode="&#x148;" horiz-adv-x="1208" d="M111 0l190 983h74l-33 -178q70 102 166 156.5t207 54.5q156 0 241.5 -82t85.5 -229q0 -49 -10 -111l-114 -594h-78l112 584q12 66 13 116q0 246 -254 246q-156 0 -269.5 -110.5t-148.5 -294.5l-105 -541h-77zM481 1583h82l183 -313l299 313h88l-363 -375h-59z" />
<glyph unicode="&#x14c;" horiz-adv-x="1873" d="M217 676q0 240 106.5 447.5t298 336.5t427.5 129q203 0 365.5 -87t256.5 -249.5t94 -373.5q0 -240 -106.5 -448t-298 -336t-424.5 -128q-205 0 -367.5 87t-257 249t-94.5 373zM301 686q0 -184 78 -328.5t223 -227.5t338 -83q190 0 359 105.5t275.5 296t106.5 419.5 q0 184 -77.5 329.5t-223 228.5t-338.5 83q-141 0 -272 -58t-236.5 -167.5t-169 -264.5t-63.5 -333zM822 1790l12 70h573l-12 -70h-573z" />
<glyph unicode="&#x14d;" horiz-adv-x="1247" d="M123 410q0 158 72.5 296t204.5 224t292 86q123 0 221.5 -54.5t154.5 -155.5t56 -233q0 -158 -72.5 -296t-204.5 -224t-292 -86q-123 0 -221 54.5t-154.5 156t-56.5 232.5zM203 414q0 -168 98 -272.5t258 -104.5q125 0 235.5 68.5t180 192.5t69.5 271q0 168 -98 272.5 t-258 104.5q-125 0 -235.5 -68.5t-180 -192.5t-69.5 -271zM479 1348l13 69h571l-12 -69h-572z" />
<glyph unicode="&#x150;" horiz-adv-x="1873" d="M217 676q0 240 106.5 447.5t298 336.5t427.5 129q203 0 365.5 -87t256.5 -249.5t94 -373.5q0 -240 -106.5 -448t-298 -336t-424.5 -128q-205 0 -367.5 87t-257 249t-94.5 373zM301 686q0 -184 78 -328.5t223 -227.5t338 -83q190 0 359 105.5t275.5 296t106.5 419.5 q0 184 -77.5 329.5t-223 228.5t-338.5 83q-141 0 -272 -58t-236.5 -167.5t-169 -264.5t-63.5 -333zM844 1710l301 264h90l-313 -264h-78zM1108 1710l299 264h93l-312 -264h-80z" />
<glyph unicode="&#x151;" horiz-adv-x="1247" d="M123 410q0 158 72.5 296t204.5 224t292 86q123 0 221.5 -54.5t154.5 -155.5t56 -233q0 -158 -72.5 -296t-204.5 -224t-292 -86q-123 0 -221 54.5t-154.5 156t-56.5 232.5zM203 414q0 -168 98 -272.5t258 -104.5q125 0 235.5 68.5t180 192.5t69.5 271q0 168 -98 272.5 t-258 104.5q-125 0 -235.5 -68.5t-180 -192.5t-69.5 -271zM490 1202l350 381h88l-361 -381h-77zM772 1202l352 381h86l-360 -381h-78z" />
<glyph unicode="&#x152;" horiz-adv-x="2666" d="M219 676q0 240 106.5 447.5t298 336.5t427.5 129q256 0 439 -140t243 -380l94 487h842l-15 -75h-760l-125 -643h693l-15 -72h-692l-133 -690h811l-14 -76h-893l65 336q-117 -174 -287.5 -271.5t-365.5 -97.5q-205 0 -367.5 87t-257 249t-94.5 373zM303 686 q0 -184 78 -328.5t223 -227.5t338 -83q190 0 359 105.5t275.5 296t106.5 419.5q0 184 -77.5 329.5t-223 228.5t-338.5 83q-141 0 -272 -58t-236.5 -167.5t-169 -264.5t-63.5 -333z" />
<glyph unicode="&#x153;" horiz-adv-x="2056" d="M123 410q0 158 72.5 296t204.5 224t292 86q98 0 181 -39t140.5 -111.5t80.5 -171.5q68 147 194.5 234.5t278.5 87.5q172 0 277.5 -101.5t105.5 -267.5q0 -82 -25 -166h-821q-2 -14 -2 -67q0 -178 105.5 -277.5t293.5 -99.5q70 0 153 23.5t158 62.5l5 -68 q-63 -41 -152.5 -64.5t-173.5 -23.5q-176 0 -294 87t-153 243q-72 -154 -202.5 -242t-286.5 -88q-123 0 -221 54.5t-154.5 156t-56.5 232.5zM203 414q0 -168 98 -272.5t258 -104.5q125 0 235.5 68.5t180 192.5t69.5 271q0 168 -98 272.5t-258 104.5q-125 0 -235.5 -68.5 t-180 -192.5t-69.5 -271zM1114 545h748q12 31 12 96q0 143 -83 225t-228 82q-158 0 -284 -113.5t-165 -289.5z" />
<glyph unicode="&#x154;" horiz-adv-x="1396" d="M182 0l301 1556h320q223 0 350 -107.5t127 -295.5q0 -172 -103.5 -296t-283.5 -169l317 -688h-96l-301 674q-45 -6 -96 -6h-324l-129 -668h-82zM408 745h321q131 0 235.5 49.5t166 140.5t61.5 212q0 162 -101.5 247t-293.5 85h-248zM756 1710l362 264h115l-379 -264h-98z " />
<glyph unicode="&#x155;" d="M111 0l190 983h74l-41 -213q66 111 160 169t202 58q33 0 67 -6t50 -14l-20 -72q-47 20 -107 21q-150 0 -258.5 -121t-148.5 -336l-91 -469h-77zM430 1208l350 375h94l-352 -375h-92z" />
<glyph unicode="&#x158;" horiz-adv-x="1396" d="M182 0l301 1556h320q223 0 350 -107.5t127 -295.5q0 -172 -103.5 -296t-283.5 -169l317 -688h-96l-301 674q-45 -6 -96 -6h-324l-129 -668h-82zM408 745h321q131 0 235.5 49.5t166 140.5t61.5 212q0 162 -101.5 247t-293.5 85h-248zM629 2001h86l188 -236l279 236h100 l-348 -291h-70z" />
<glyph unicode="&#x159;" d="M111 0l190 983h74l-41 -213q66 111 160 169t202 58q33 0 67 -6t50 -14l-20 -72q-47 20 -107 21q-150 0 -258.5 -121t-148.5 -336l-91 -469h-77zM309 1583h82l183 -313l299 313h88l-363 -375h-59z" />
<glyph unicode="&#x15a;" horiz-adv-x="1282" d="M90 117l21 82q90 -72 210.5 -113t245.5 -41q195 0 313.5 98.5t118.5 257.5q0 106 -71.5 186.5t-251.5 170.5q-154 78 -231.5 139t-109.5 124.5t-32 147.5q0 119 61.5 214.5t175 150.5t261.5 55q104 0 213.5 -33.5t185.5 -89.5l-22 -77q-82 59 -180.5 90.5t-196.5 31.5 q-186 0 -302 -95t-116 -247q0 -74 29.5 -125t98.5 -99t196 -111q147 -74 227 -138.5t114.5 -135.5t34.5 -161q0 -123 -63.5 -220t-182 -154.5t-274.5 -57.5q-129 0 -254 40t-219 110zM690 1710l362 264h115l-379 -264h-98z" />
<glyph unicode="&#x15b;" horiz-adv-x="931" d="M35 88l20 74q68 -57 159 -91t181 -34q129 0 207 56.5t78 150.5q0 76 -50 127t-184 110q-143 66 -203.5 129.5t-60.5 151.5q0 113 89 183.5t233 70.5q76 0 164 -26.5t153 -71.5l-18 -70q-139 98 -305 98q-106 0 -173 -50t-67 -128q0 -68 47 -115t170 -104 q156 -72 219.5 -138.5t63.5 -160.5q0 -129 -101.5 -206t-271.5 -77q-90 0 -189.5 34t-160.5 87zM399 1208l350 375h94l-352 -375h-92z" />
<glyph unicode="&#x15e;" horiz-adv-x="1282" d="M90 117l21 82q90 -72 210.5 -113t245.5 -41q195 0 313.5 98.5t118.5 257.5q0 106 -71.5 186.5t-251.5 170.5q-154 78 -231.5 139t-109.5 124.5t-32 147.5q0 119 61.5 214.5t175 150.5t261.5 55q104 0 213.5 -33.5t185.5 -89.5l-22 -77q-82 59 -180.5 90.5t-196.5 31.5 q-186 0 -302 -95t-116 -247q0 -74 29.5 -125t98.5 -99t196 -111q147 -74 227 -138.5t114.5 -135.5t34.5 -161q0 -123 -63.5 -220t-182 -154.5t-274.5 -57.5q-129 0 -254 40t-219 110zM301 -479l14 63q63 -45 166 -45q76 0 124 38t48 97q0 111 -133 111q-51 0 -80 -8l104 243 h56l-76 -176h16q82 0 131.5 -47t49.5 -123q0 -84 -70 -140t-172 -56q-104 0 -178 43z" />
<glyph unicode="&#x15f;" horiz-adv-x="931" d="M35 88l20 74q68 -57 159 -91t181 -34q129 0 207 56.5t78 150.5q0 76 -50 127t-184 110q-143 66 -203.5 129.5t-60.5 151.5q0 113 89 183.5t233 70.5q76 0 164 -26.5t153 -71.5l-18 -70q-139 98 -305 98q-106 0 -173 -50t-67 -128q0 -68 47 -115t170 -104 q156 -72 219.5 -138.5t63.5 -160.5q0 -129 -101.5 -206t-271.5 -77q-90 0 -189.5 34t-160.5 87zM129 -479l15 63q63 -45 165 -45q74 0 124.5 38t50.5 95q0 113 -136 113q-51 0 -79 -8l104 243h53l-76 -176h11q84 0 136 -47t52 -123q0 -84 -69 -140t-173 -56q-117 0 -178 43z " />
<glyph unicode="&#x160;" horiz-adv-x="1282" d="M90 117l21 82q90 -72 210.5 -113t245.5 -41q195 0 313.5 98.5t118.5 257.5q0 106 -71.5 186.5t-251.5 170.5q-154 78 -231.5 139t-109.5 124.5t-32 147.5q0 119 61.5 214.5t175 150.5t261.5 55q104 0 213.5 -33.5t185.5 -89.5l-22 -77q-82 59 -180.5 90.5t-196.5 31.5 q-186 0 -302 -95t-116 -247q0 -74 29.5 -125t98.5 -99t196 -111q147 -74 227 -138.5t114.5 -135.5t34.5 -161q0 -123 -63.5 -220t-182 -154.5t-274.5 -57.5q-129 0 -254 40t-219 110zM563 2001h86l188 -236l279 236h100l-348 -291h-70z" />
<glyph unicode="&#x161;" horiz-adv-x="931" d="M35 88l20 74q68 -57 159 -91t181 -34q129 0 207 56.5t78 150.5q0 76 -50 127t-184 110q-143 66 -203.5 129.5t-60.5 151.5q0 113 89 183.5t233 70.5q76 0 164 -26.5t153 -71.5l-18 -70q-139 98 -305 98q-106 0 -173 -50t-67 -128q0 -68 47 -115t170 -104 q156 -72 219.5 -138.5t63.5 -160.5q0 -129 -101.5 -206t-271.5 -77q-90 0 -189.5 34t-160.5 87zM278 1583h82l183 -313l299 313h88l-363 -375h-59z" />
<glyph unicode="&#x162;" horiz-adv-x="1425" d="M301 1481l14 75h1209l-15 -75h-563l-287 -1481h-81l286 1481h-563zM357 -479l14 63q63 -45 166 -45q76 0 124 38t48 97q0 111 -133 111q-51 0 -80 -8l104 243h56l-76 -176h16q82 0 131.5 -47t49.5 -123q0 -84 -70 -140t-172 -56q-104 0 -178 43z" />
<glyph unicode="&#x163;" horiz-adv-x="845" d="M123 915l14 68h230l65 336h78l-66 -336h351l-15 -68h-350l-108 -563q-12 -70 -13 -123q0 -98 47 -145t146 -47q86 0 180 41l6 -70q-102 -41 -190 -41q-131 0 -200 68t-69 194q0 53 13 115l110 571h-229zM205 -479l15 63q63 -45 165 -45q74 0 124.5 38t50.5 95 q0 113 -136 113q-51 0 -79 -8l104 243h53l-76 -176h11q84 0 136 -47t52 -123q0 -84 -69 -140t-173 -56q-117 0 -178 43z" />
<glyph unicode="&#x164;" horiz-adv-x="1425" d="M301 1481l14 75h1209l-15 -75h-563l-287 -1481h-81l286 1481h-563zM678 2001h86l188 -236l279 236h100l-348 -291h-70z" />
<glyph unicode="&#x165;" horiz-adv-x="845" d="M123 915l14 68h230l65 336h78l-66 -336h351l-15 -68h-350l-108 -563q-12 -70 -13 -123q0 -98 47 -145t146 -47q86 0 180 41l6 -70q-102 -41 -190 -41q-131 0 -200 68t-69 194q0 53 13 115l110 571h-229zM651 1239l108 420h72l-121 -420h-59z" />
<glyph unicode="&#x168;" horiz-adv-x="1683" d="M246 477q0 68 14 137l182 942h82l-178 -925q-14 -70 -14 -148q0 -207 123 -321.5t342 -114.5q240 0 390 145.5t206 430.5l180 933h82l-185 -950q-61 -317 -233.5 -478t-448.5 -161q-158 0 -280.5 61.5t-192 177.5t-69.5 271zM768 1708q14 115 65 176.5t133 61.5 q47 -2 83 -28t66 -59.5t59.5 -59t64.5 -27.5q111 0 131 172h63q-14 -115 -65 -176.5t-133 -61.5q-47 2 -83 27.5t-65.5 59.5t-59.5 59.5t-65 27.5q-111 0 -131 -172h-63z" />
<glyph unicode="&#x169;" horiz-adv-x="1198" d="M166 281q0 47 10 108l115 594h78l-113 -584q-12 -63 -12 -114q0 -121 63 -185q63 -63 185 -63q158 0 269 109q112 110 146 296l105 541h78l-191 -983h-74l33 178q-68 -102 -164 -156q-96 -55 -209 -55q-150 0 -234 83q-85 83 -85 231zM437 1274q31 238 198 237 q47 -2 82 -27.5t61.5 -59t53 -59.5t59.5 -28q106 0 131 172h64q-14 -117 -64.5 -177t-134.5 -60q-47 2 -82 27.5t-61.5 59.5t-53 59.5t-59.5 27.5q-104 0 -129 -172h-65z" />
<glyph unicode="&#x16a;" horiz-adv-x="1683" d="M246 477q0 68 14 137l182 942h82l-178 -925q-14 -70 -14 -148q0 -207 123 -321.5t342 -114.5q240 0 390 145.5t206 430.5l180 933h82l-185 -950q-61 -317 -233.5 -478t-448.5 -161q-158 0 -280.5 61.5t-192 177.5t-69.5 271zM807 1790l12 70h573l-12 -70h-573z" />
<glyph unicode="&#x16b;" horiz-adv-x="1198" d="M166 281q0 47 10 108l115 594h78l-113 -584q-12 -63 -12 -114q0 -121 63 -185q63 -63 185 -63q158 0 269 109q112 110 146 296l105 541h78l-191 -983h-74l33 178q-68 -102 -164 -156q-96 -55 -209 -55q-150 0 -234 83q-85 83 -85 231zM469 1348l13 69h571l-12 -69h-572z " />
<glyph unicode="&#x16e;" horiz-adv-x="1683" d="M246 477q0 68 14 137l182 942h82l-178 -925q-14 -70 -14 -148q0 -207 123 -321.5t342 -114.5q240 0 390 145.5t206 430.5l180 933h82l-185 -950q-61 -317 -233.5 -478t-448.5 -161q-158 0 -280.5 61.5t-192 177.5t-69.5 271zM842 1919q0 106 70.5 175t180.5 69 q111 0 182.5 -69t71.5 -175t-71.5 -175t-182.5 -69q-109 0 -180 68.5t-71 175.5zM905 1919q0 -82 52 -134t136 -52t137.5 52t53.5 134t-53.5 134t-137.5 52t-136 -51t-52 -135z" />
<glyph unicode="&#x16f;" horiz-adv-x="1198" d="M166 281q0 47 10 108l115 594h78l-113 -584q-12 -63 -12 -114q0 -121 63 -185q63 -63 185 -63q158 0 269 109q112 110 146 296l105 541h78l-191 -983h-74l33 178q-68 -102 -164 -156q-96 -55 -209 -55q-150 0 -234 83q-85 83 -85 231zM505 1448q0 106 71 175t181 69 q111 0 182.5 -69t71.5 -175t-71.5 -175t-182.5 -69q-109 0 -180.5 68.5t-71.5 175.5zM567 1448q0 -82 53 -134t137 -52t138.5 52t54.5 134t-54.5 134t-138.5 52t-137 -52t-53 -134z" />
<glyph unicode="&#x170;" horiz-adv-x="1683" d="M246 477q0 68 14 137l182 942h82l-178 -925q-14 -70 -14 -148q0 -207 123 -321.5t342 -114.5q240 0 390 145.5t206 430.5l180 933h82l-185 -950q-61 -317 -233.5 -478t-448.5 -161q-158 0 -280.5 61.5t-192 177.5t-69.5 271zM829 1710l301 264h90l-313 -264h-78z M1093 1710l299 264h93l-312 -264h-80z" />
<glyph unicode="&#x171;" horiz-adv-x="1198" d="M166 281q0 47 10 108l115 594h78l-113 -584q-12 -63 -12 -114q0 -121 63 -185q63 -63 185 -63q158 0 269 109q112 110 146 296l105 541h78l-191 -983h-74l33 178q-68 -102 -164 -156q-96 -55 -209 -55q-150 0 -234 83q-85 83 -85 231zM480 1202l350 381h88l-361 -381h-77 zM762 1202l352 381h86l-360 -381h-78z" />
<glyph unicode="&#x172;" horiz-adv-x="1683" d="M246 477q0 68 14 137l182 942h82l-178 -925q-14 -70 -14 -148q0 -207 123 -321.5t342 -114.5q240 0 390 145.5t206 430.5l180 933h82l-185 -950q-61 -317 -233.5 -478t-448.5 -161q-158 0 -280.5 61.5t-192 177.5t-69.5 271zM667 -367q0 86 94.5 191.5t268.5 216.5l71 -6 q-193 -133 -277.5 -225.5t-84.5 -167.5q0 -96 104 -97q76 0 140 41l2 -61q-29 -18 -70 -29.5t-78 -11.5q-72 0 -121 43t-49 106z" />
<glyph unicode="&#x173;" horiz-adv-x="1198" d="M166 281q0 47 10 108l115 594h78l-113 -584q-12 -63 -12 -114q0 -121 63 -185q63 -63 185 -63q158 0 269 109q112 110 146 296l105 541h78l-191 -983h-74l33 178q-68 -102 -164 -156q-96 -55 -209 -55q-150 0 -234 83q-85 83 -85 231zM520 -367q0 184 319 392l60 -25 q-307 -188 -307 -358q0 -96 104 -97q76 0 139 41l2 -61q-29 -18 -69.5 -29.5t-77.5 -11.5q-72 0 -121 43t-49 106z" />
<glyph unicode="&#x174;" horiz-adv-x="2174" d="M293 1556h86l158 -1429l708 1409h80l170 -1405l711 1425h90l-780 -1556h-78l-176 1405l-709 -1405h-82zM977 1710l348 291h70l235 -291h-86l-190 234l-277 -234h-100z" />
<glyph unicode="&#x175;" horiz-adv-x="1587" d="M166 983h78l141 -885l453 865h65l135 -867l492 887h80l-547 -983h-76l-137 854l-444 -854h-78zM557 1208l362 375h60l229 -375h-82l-182 314l-299 -314h-88z" />
<glyph unicode="&#x176;" horiz-adv-x="1415" d="M289 1556h86l381 -784l686 784h98l-752 -854l-135 -702h-82l136 705zM594 1710l348 291h70l235 -291h-86l-190 234l-277 -234h-100z" />
<glyph unicode="&#x177;" horiz-adv-x="1046" d="M57 -502l336 518l-235 967h80l208 -879l551 879h84l-940 -1485h-84zM318 1208l362 375h60l229 -375h-82l-182 314l-299 -314h-88z" />
<glyph unicode="&#x178;" horiz-adv-x="1415" d="M289 1556h86l381 -784l686 784h98l-752 -854l-135 -702h-82l136 705zM715 1815q0 29 20.5 49t49.5 20q23 0 40 -17.5t17 -39.5q0 -29 -19.5 -49.5t-50.5 -20.5q-23 0 -40 17.5t-17 40.5zM1065 1815q0 29 20.5 49t49.5 20q23 0 40 -17.5t17 -39.5q0 -29 -19 -49.5 t-50 -20.5q-23 0 -40.5 17.5t-17.5 40.5z" />
<glyph unicode="&#x179;" horiz-adv-x="1441" d="M51 0l10 63l1280 1418h-956l14 75h1069l-10 -63l-1284 -1417h1024l-14 -76h-1133zM768 1710l362 264h115l-379 -264h-98z" />
<glyph unicode="&#x17a;" horiz-adv-x="1028" d="M25 0l10 61l803 854h-613l15 68h710l-12 -61l-803 -854h680l-12 -68h-778zM467 1208l350 375h94l-352 -375h-92z" />
<glyph unicode="&#x17b;" horiz-adv-x="1441" d="M51 0l10 63l1280 1418h-956l14 75h1069l-10 -63l-1284 -1417h1024l-14 -76h-1133zM868 1817q0 31 21.5 51t50.5 20q25 0 42 -17.5t17 -41.5q0 -31 -20.5 -51.5t-51.5 -20.5q-25 0 -42 17.5t-17 42.5z" />
<glyph unicode="&#x17c;" horiz-adv-x="1028" d="M25 0l10 61l803 854h-613l15 68h710l-12 -61l-803 -854h680l-12 -68h-778zM572 1374q0 31 21.5 51.5t49.5 20.5q25 0 42.5 -17.5t17.5 -42.5q0 -31 -20.5 -51t-51.5 -20q-25 0 -42 17.5t-17 41.5z" />
<glyph unicode="&#x17d;" horiz-adv-x="1441" d="M51 0l10 63l1280 1418h-956l14 75h1069l-10 -63l-1284 -1417h1024l-14 -76h-1133zM641 2001h86l188 -236l279 236h100l-348 -291h-70z" />
<glyph unicode="&#x17e;" horiz-adv-x="1028" d="M25 0l10 61l803 854h-613l15 68h710l-12 -61l-803 -854h680l-12 -68h-778zM346 1583h82l183 -313l299 313h88l-363 -375h-59z" />
<glyph unicode="&#x192;" horiz-adv-x="768" d="M-303 -479l20 67q74 -39 162 -39q115 0 183.5 71t97.5 220l207 1075h-205l14 68h207l41 211q92 475 436 475q57 0 109.5 -14.5t89.5 -40.5l-19 -70q-33 25 -84 40t-102 15q-141 0 -228 -102t-126 -313l-39 -201h346l-14 -68h-349l-206 -1073q-35 -184 -124.5 -273 t-234.5 -89q-109 0 -182 41z" />
<glyph unicode="&#x218;" horiz-adv-x="1282" d="M90 117l21 82q90 -72 210.5 -113t245.5 -41q195 0 313.5 98.5t118.5 257.5q0 106 -71.5 186.5t-251.5 170.5q-154 78 -231.5 139t-109.5 124.5t-32 147.5q0 119 61.5 214.5t175 150.5t261.5 55q104 0 213.5 -33.5t185.5 -89.5l-22 -77q-82 59 -180.5 90.5t-196.5 31.5 q-186 0 -302 -95t-116 -247q0 -74 29.5 -125t98.5 -99t196 -111q147 -74 227 -138.5t114.5 -135.5t34.5 -161q0 -123 -63.5 -220t-182 -154.5t-274.5 -57.5q-129 0 -254 40t-219 110zM362 -502q113 160 170 369h68q-27 -96 -75 -195.5t-103 -173.5h-60z" />
<glyph unicode="&#x219;" horiz-adv-x="931" d="M35 88l20 74q68 -57 159 -91t181 -34q129 0 207 56.5t78 150.5q0 76 -50 127t-184 110q-143 66 -203.5 129.5t-60.5 151.5q0 113 89 183.5t233 70.5q76 0 164 -26.5t153 -71.5l-18 -70q-139 98 -305 98q-106 0 -173 -50t-67 -128q0 -68 47 -115t170 -104 q156 -72 219.5 -138.5t63.5 -160.5q0 -129 -101.5 -206t-271.5 -77q-90 0 -189.5 34t-160.5 87zM157 -502q113 160 170 369h70q-27 -96 -74 -194.5t-104 -174.5h-62z" />
<glyph unicode="&#x21a;" horiz-adv-x="1425" d="M301 1481l14 75h1209l-15 -75h-563l-287 -1481h-81l286 1481h-563zM395 -502q113 160 170 369h68q-27 -96 -75 -195.5t-103 -173.5h-60z" />
<glyph unicode="&#x21b;" horiz-adv-x="845" d="M123 915l14 68h230l65 336h78l-66 -336h351l-15 -68h-350l-108 -563q-12 -70 -13 -123q0 -98 47 -145t146 -47q86 0 180 41l6 -70q-102 -41 -190 -41q-131 0 -200 68t-69 194q0 53 13 115l110 571h-229zM241 -502q113 160 170 369h70q-27 -96 -74 -194.5t-104 -174.5h-62 z" />
<glyph unicode="&#x237;" horiz-adv-x="485" d="M-385 -479l20 67q74 -39 162 -39q115 0 183.5 71t97.5 220l221 1143h78l-221 -1141q-35 -184 -124.5 -273t-234.5 -89q-109 0 -182 41z" />
<glyph unicode="&#x2c6;" horiz-adv-x="1024" d="M326 1208l362 375h60l229 -375h-82l-182 314l-299 -314h-88z" />
<glyph unicode="&#x2c7;" horiz-adv-x="1024" d="M397 1583h82l183 -313l299 313h88l-363 -375h-59z" />
<glyph unicode="&#x2c9;" horiz-adv-x="1024" d="M393 1348l13 69h571l-12 -69h-572z" />
<glyph unicode="&#x2cb;" horiz-adv-x="1024" d="M544 1583h88l199 -375h-74z" />
<glyph unicode="&#x2d8;" horiz-adv-x="1024" d="M428 1452q0 43 11 78h59q-4 -18 -4 -62q0 -94 45 -138t139 -44q111 0 170.5 59.5t73.5 184.5h64q-8 -143 -89.5 -223t-218.5 -80q-115 0 -182.5 60.5t-67.5 164.5z" />
<glyph unicode="&#x2d9;" horiz-adv-x="1024" d="M619 1374q0 31 21.5 51.5t49.5 20.5q25 0 42.5 -17.5t17.5 -42.5q0 -31 -20.5 -51t-51.5 -20q-25 0 -42 17.5t-17 41.5z" />
<glyph unicode="&#x2da;" horiz-adv-x="1024" d="M446 1448q0 106 71 175t181 69q111 0 182.5 -69t71.5 -175t-71.5 -175t-182.5 -69q-109 0 -180.5 68.5t-71.5 175.5zM508 1448q0 -82 53 -134t137 -52t138.5 52t54.5 134t-54.5 134t-138.5 52t-137 -52t-53 -134z" />
<glyph unicode="&#x2db;" horiz-adv-x="1024" d="M209 -367q0 184 319 392l60 -25q-307 -188 -307 -358q0 -96 104 -97q76 0 139 41l2 -61q-29 -18 -69.5 -29.5t-77.5 -11.5q-72 0 -121 43t-49 106z" />
<glyph unicode="&#x2dc;" horiz-adv-x="1024" d="M363 1274q31 238 198 237q47 -2 82 -27.5t61.5 -59t53 -59.5t59.5 -28q106 0 131 172h64q-14 -117 -64.5 -177t-134.5 -60q-47 2 -82 27.5t-61.5 59.5t-53 59.5t-59.5 27.5q-104 0 -129 -172h-65z" />
<glyph unicode="&#x2dd;" horiz-adv-x="1024" d="M355 1202l350 381h88l-361 -381h-77zM637 1202l352 381h86l-360 -381h-78z" />
<glyph unicode="&#x300;" horiz-adv-x="0" d="M-115 1583h88l199 -375h-74z" />
<glyph unicode="&#x301;" horiz-adv-x="0" d="M-125 1208l350 375h94l-352 -375h-92z" />
<glyph unicode="&#x302;" horiz-adv-x="0" d="M-186 1208l362 375h60l229 -375h-82l-182 314l-299 -314h-88z" />
<glyph unicode="&#x303;" horiz-adv-x="0" d="M-274 1274q31 238 198 237q47 -2 82 -27.5t61.5 -59t53 -59.5t59.5 -28q106 0 131 172h64q-14 -117 -64.5 -177t-134.5 -60q-47 2 -82 27.5t-61.5 59.5t-53 59.5t-59.5 27.5q-104 0 -129 -172h-65z" />
<glyph unicode="&#x304;" horiz-adv-x="0" d="M-242 1348l13 69h571l-12 -69h-572z" />
<glyph unicode="&#x306;" horiz-adv-x="0" d="M-193 1452q0 43 11 78h59q-4 -18 -4 -62q0 -94 45 -138t139 -44q111 0 170.5 59.5t73.5 184.5h64q-8 -143 -89.5 -223t-218.5 -80q-115 0 -182.5 60.5t-67.5 164.5z" />
<glyph unicode="&#x307;" horiz-adv-x="0" d="M-20 1374q0 31 21.5 51.5t49.5 20.5q25 0 42.5 -17.5t17.5 -42.5q0 -31 -20.5 -51t-51.5 -20q-25 0 -42 17.5t-17 41.5z" />
<glyph unicode="&#x308;" horiz-adv-x="0" d="M-180 1374q0 29 20.5 49.5t48.5 20.5q23 0 40.5 -17.5t17.5 -40.5q0 -29 -19.5 -49t-50.5 -20q-25 0 -41 17.5t-16 39.5zM168 1374q0 29 20.5 49.5t49.5 20.5q23 0 40 -17.5t17 -40.5q0 -29 -19.5 -49t-50.5 -20q-23 0 -40 17.5t-17 39.5z" />
<glyph unicode="&#x30a;" horiz-adv-x="0" d="M-66 1448q0 106 71 175t181 69q111 0 182.5 -69t71.5 -175t-71.5 -175t-182.5 -69q-109 0 -180.5 68.5t-71.5 175.5zM-4 1448q0 -82 53 -134t137 -52t138.5 52t54.5 134t-54.5 134t-138.5 52t-137 -52t-53 -134z" />
<glyph unicode="&#x30b;" horiz-adv-x="0" d="M-231 1202l350 381h88l-361 -381h-77zM51 1202l352 381h86l-360 -381h-78z" />
<glyph unicode="&#x30c;" horiz-adv-x="0" d="M-113 1583h82l183 -313l299 313h88l-363 -375h-59z" />
<glyph unicode="&#x312;" horiz-adv-x="0" d="M104 1249q27 92 72 182.5t94 151.5h62q-109 -143 -158 -334h-70z" />
<glyph unicode="&#x315;" horiz-adv-x="0" d="M-14 1188l120 471h72l-135 -471h-57z" />
<glyph unicode="&#x326;" horiz-adv-x="0" d="M-201 -502q113 160 170 369h70q-27 -96 -74 -194.5t-104 -174.5h-62z" />
<glyph unicode="&#x327;" horiz-adv-x="0" d="M-246 -479l15 63q63 -45 165 -45q74 0 124.5 38t50.5 95q0 113 -136 113q-51 0 -79 -8l104 243h53l-76 -176h11q84 0 136 -47t52 -123q0 -84 -69 -140t-173 -56q-117 0 -178 43z" />
<glyph unicode="&#x328;" horiz-adv-x="0" d="M-303 -367q0 184 319 392l60 -25q-307 -188 -307 -358q0 -96 104 -97q76 0 139 41l2 -61q-29 -18 -69.5 -29.5t-77.5 -11.5q-72 0 -121 43t-49 106z" />
<glyph unicode="&#x3c0;" horiz-adv-x="1286" d="M195 0l176 915h-166l14 68h1038l-14 -68h-162l-135 -708q-8 -47 -8 -64q0 -84 74 -84q39 0 90 23l-10 -70q-36 -22 -95 -22q-66 0 -101.5 39t-35.5 108q0 29 6 62l140 716h-560l-176 -915h-75z" />
<glyph unicode="&#x1e80;" horiz-adv-x="2174" d="M293 1556h86l158 -1429l708 1409h80l170 -1405l711 1425h90l-780 -1556h-78l-176 1405l-709 -1405h-82zM1063 1974h99l264 -264h-88z" />
<glyph unicode="&#x1e81;" horiz-adv-x="1587" d="M166 983h78l141 -885l453 865h65l135 -867l492 887h80l-547 -983h-76l-137 854l-444 -854h-78zM757 1583h88l199 -375h-74z" />
<glyph unicode="&#x1e82;" horiz-adv-x="2174" d="M293 1556h86l158 -1429l708 1409h80l170 -1405l711 1425h90l-780 -1556h-78l-176 1405l-709 -1405h-82zM1170 1710l362 264h115l-379 -264h-98z" />
<glyph unicode="&#x1e83;" horiz-adv-x="1587" d="M166 983h78l141 -885l453 865h65l135 -867l492 887h80l-547 -983h-76l-137 854l-444 -854h-78zM747 1208l350 375h94l-352 -375h-92z" />
<glyph unicode="&#x1e84;" horiz-adv-x="2174" d="M293 1556h86l158 -1429l708 1409h80l170 -1405l711 1425h90l-780 -1556h-78l-176 1405l-709 -1405h-82zM1098 1815q0 29 20.5 49t49.5 20q23 0 40 -17.5t17 -39.5q0 -29 -19.5 -49.5t-50.5 -20.5q-23 0 -40 17.5t-17 40.5zM1448 1815q0 29 20.5 49t49.5 20q23 0 40 -17.5 t17 -39.5q0 -29 -19 -49.5t-50 -20.5q-23 0 -40.5 17.5t-17.5 40.5z" />
<glyph unicode="&#x1e85;" horiz-adv-x="1587" d="M166 983h78l141 -885l453 865h65l135 -867l492 887h80l-547 -983h-76l-137 854l-444 -854h-78zM692 1374q0 29 20.5 49.5t48.5 20.5q23 0 40.5 -17.5t17.5 -40.5q0 -29 -19.5 -49t-50.5 -20q-25 0 -41 17.5t-16 39.5zM1040 1374q0 29 20.5 49.5t49.5 20.5q23 0 40 -17.5 t17 -40.5q0 -29 -19.5 -49t-50.5 -20q-23 0 -40 17.5t-17 39.5z" />
<glyph unicode="&#x1e9e;" horiz-adv-x="1611" d="M166 0l170 879q66 348 239 529t437 181q137 0 267 -57t216 -154l-8 -59l-453 -453q113 0 205 -50t147.5 -141t55.5 -206q0 -141 -64.5 -255t-183 -180.5t-272.5 -66.5q-102 0 -212 39t-182 100l17 78q74 -70 172 -108.5t207 -38.5q123 0 223 52t159.5 150.5t59.5 227.5 q0 145 -95 238.5t-245 93.5q-59 0 -94 -13l-21 52l510 510q-80 80 -187.5 122.5t-221.5 42.5q-236 0 -385.5 -161.5t-210.5 -483.5l-168 -868h-82z" />
<glyph unicode="&#x1ef2;" horiz-adv-x="1415" d="M289 1556h86l381 -784l686 784h98l-752 -854l-135 -702h-82l136 705zM680 1974h99l264 -264h-88z" />
<glyph unicode="&#x1ef3;" horiz-adv-x="1046" d="M57 -502l336 518l-235 967h80l208 -879l551 879h84l-940 -1485h-84zM518 1583h88l199 -375h-74z" />
<glyph unicode="&#x2000;" horiz-adv-x="1024" />
<glyph unicode="&#x2001;" horiz-adv-x="2048" />
<glyph unicode="&#x2002;" horiz-adv-x="1024" />
<glyph unicode="&#x2003;" horiz-adv-x="2048" />
<glyph unicode="&#x2004;" horiz-adv-x="681" />
<glyph unicode="&#x2005;" horiz-adv-x="512" />
<glyph unicode="&#x2006;" horiz-adv-x="339" />
<glyph unicode="&#x2007;" horiz-adv-x="1269" />
<glyph unicode="&#x2008;" horiz-adv-x="593" />
<glyph unicode="&#x2009;" horiz-adv-x="409" />
<glyph unicode="&#x200a;" horiz-adv-x="112" />
<glyph unicode="&#x200b;" horiz-adv-x="0" />
<glyph unicode="&#x2010;" horiz-adv-x="888" d="M174 543l14 73h562l-15 -73h-561z" />
<glyph unicode="&#x2011;" horiz-adv-x="888" d="M174 543l14 73h562l-15 -73h-561z" />
<glyph unicode="&#x2012;" horiz-adv-x="1024" d="M12 557l15 76h1024l-15 -76h-1024z" />
<glyph unicode="&#x2013;" horiz-adv-x="1024" d="M12 557l15 76h1024l-15 -76h-1024z" />
<glyph unicode="&#x2014;" horiz-adv-x="2048" d="M12 557l15 76h2048l-15 -76h-2048z" />
<glyph unicode="&#x2015;" horiz-adv-x="2048" d="M12 557l15 76h2048l-15 -76h-2048z" />
<glyph unicode="&#x2018;" horiz-adv-x="368" d="M227 1085q35 131 90.5 257t118.5 214h58q-129 -207 -195 -471h-72z" />
<glyph unicode="&#x2019;" horiz-adv-x="368" d="M197 1085q129 207 194 471h72q-31 -125 -87.5 -251.5t-119.5 -219.5h-59z" />
<glyph unicode="&#x201a;" horiz-adv-x="368" d="M-59 -229q59 92 110 212.5t86 258.5h72q-33 -127 -89.5 -254t-119.5 -217h-59z" />
<glyph unicode="&#x201c;" horiz-adv-x="622" d="M227 1085q35 131 90.5 257t118.5 214h58q-129 -207 -195 -471h-72zM481 1085q35 131 90.5 257t118.5 214h58q-129 -207 -195 -471h-72z" />
<glyph unicode="&#x201d;" horiz-adv-x="622" d="M197 1085q129 207 194 471h72q-31 -125 -87.5 -251.5t-119.5 -219.5h-59zM451 1085q129 207 194 471h72q-31 -125 -87.5 -251.5t-119.5 -219.5h-59z" />
<glyph unicode="&#x201e;" horiz-adv-x="622" d="M-59 -229q59 92 110 212.5t86 258.5h72q-33 -127 -89.5 -254t-119.5 -217h-59zM195 -229q59 92 110 212.5t86 258.5h72q-33 -127 -89.5 -254t-119.5 -217h-59z" />
<glyph unicode="&#x2020;" horiz-adv-x="985" d="M190 948l15 72h352l105 536h73l-104 -536h354l-14 -72h-355l-235 -1214h-74l236 1214h-353z" />
<glyph unicode="&#x2021;" horiz-adv-x="985" d="M55 252l15 72h352l125 645h-352l14 71h352l101 516h73l-100 -516h354l-14 -71h-354l-125 -645h354l-14 -72h-355l-100 -518h-74l101 518h-353z" />
<glyph unicode="&#x2022;" horiz-adv-x="690" d="M152 561q0 88 60 149.5t148 61.5q86 0 146.5 -61.5t60.5 -149.5t-60.5 -149.5t-146.5 -61.5q-88 0 -148 61.5t-60 149.5z" />
<glyph unicode="&#x2026;" horiz-adv-x="2048" d="M188 43q0 31 21.5 52.5t52.5 21.5q27 0 44.5 -17.5t17.5 -44.5q0 -31 -20.5 -52t-53.5 -21q-27 0 -44.5 17t-17.5 44zM870 43q0 31 21.5 52.5t52.5 21.5q27 0 44.5 -17.5t17.5 -44.5q0 -31 -20.5 -52t-53.5 -21q-27 0 -44.5 17t-17.5 44zM1552 43q0 31 21.5 52.5 t52.5 21.5q27 0 44.5 -17.5t17.5 -44.5q0 -31 -20.5 -52t-53.5 -21q-27 0 -44.5 17t-17.5 44z" />
<glyph unicode="&#x202f;" horiz-adv-x="432" />
<glyph unicode="&#x2030;" horiz-adv-x="2646" d="M188 0l1436 1524h92l-1437 -1524h-91zM242 1178q0 100 47 186t131 139t186 53q135 0 220 -83.5t85 -217.5q0 -100 -47 -186t-131 -139t-186 -53q-135 0 -220 83.5t-85 217.5zM311 1182q0 -106 66.5 -172t177.5 -66q74 0 139.5 39t106.5 109.5t41 158.5q0 106 -66.5 172 t-177.5 66q-74 0 -139.5 -39t-106.5 -109.5t-41 -158.5zM1001 281q0 100 47.5 186t131.5 139t186 53q135 0 220 -83.5t85 -217.5q0 -100 -47 -186t-131 -139t-186 -53q-135 0 -220.5 83.5t-85.5 217.5zM1071 285q0 -106 66.5 -172t177.5 -66q74 0 139.5 39t106.5 109.5 t41 158.5q0 106 -67 172t-177 66q-74 0 -139.5 -39t-106.5 -109.5t-41 -158.5zM1839 281q0 100 47 186t131 139t187 53q135 0 220 -83.5t85 -217.5q0 -100 -47 -186t-131.5 -139t-186.5 -53q-135 0 -220 83.5t-85 217.5zM1909 285q0 -106 66 -172t177 -66q74 0 139.5 39 t106.5 109.5t41 158.5q0 106 -66.5 172t-177.5 66q-74 0 -139 -39t-106 -109.5t-41 -158.5z" />
<glyph unicode="&#x2032;" horiz-adv-x="497" d="M246 961l223 595h82l-242 -595h-63z" />
<glyph unicode="&#x2033;" horiz-adv-x="761" d="M246 961l223 595h82l-242 -595h-63zM510 961l223 595h82l-242 -595h-63z" />
<glyph unicode="&#x2039;" horiz-adv-x="530" d="M78 526l360 418h86l-360 -422l194 -413h-82z" />
<glyph unicode="&#x203a;" horiz-adv-x="530" d="M18 109l361 421l-195 414h82l199 -418l-361 -417h-86z" />
<glyph unicode="&#x2044;" horiz-adv-x="325" d="M-549 0l1436 1524h92l-1438 -1524h-90z" />
<glyph unicode="&#x205f;" horiz-adv-x="540" />
<glyph unicode="&#x2070;" d="M233 1237q0 96 15 160q35 180 133 286.5t229 106.5q127 0 199.5 -86t72.5 -238q0 -78 -18 -170q-33 -174 -132.5 -278t-230.5 -104q-125 0 -196.5 87t-71.5 236zM303 1243q0 -131 53.5 -199.5t153.5 -68.5q98 0 176 88t112 242q14 55 15 153q0 133 -53.5 202t-153.5 69 q-98 0 -177 -89.5t-112 -238.5q-14 -57 -14 -158z" />
<glyph unicode="&#x2074;" d="M237 1161l13 62l503 547h68l-107 -551h115l-12 -58h-115l-43 -227h-61l43 227h-404zM315 1219h338l90 460z" />
<glyph unicode="&#x2075;" d="M239 987l15 60q86 -72 231 -72q102 0 176 64.5t74 154.5q0 92 -55.5 141.5t-159.5 49.5q-94 0 -164 -17l88 402h406l-15 -68h-348l-57 -264q41 8 92 8q129 0 202.5 -66.5t73.5 -183.5q0 -76 -39.5 -139.5t-112.5 -103t-161 -39.5q-78 0 -142.5 19t-103.5 54z" />
<glyph unicode="&#x2076;" d="M262 1165q0 166 121 332t321 279l90 -8q-311 -174 -424 -398q78 74 195 74q109 0 179.5 -67.5t70.5 -172.5q0 -121 -85 -205.5t-208 -84.5q-113 0 -186.5 70.5t-73.5 180.5zM325 1170q0 -88 54.5 -142.5t142.5 -54.5q94 0 160.5 65.5t66.5 159.5q0 86 -51 136.5 t-137 50.5q-102 0 -169 -61.5t-67 -153.5z" />
<glyph unicode="&#x2077;" d="M325 934l482 766h-432l14 70h512l-12 -62l-492 -778z" />
<glyph unicode="&#x2078;" d="M248 1133q0 92 61 159.5t162 83.5q-57 31 -87 78t-30 105q0 98 77 164.5t189 66.5q102 0 170 -60.5t68 -152.5q0 -78 -52.5 -138.5t-136.5 -80.5q61 -25 96 -72t35 -110q0 -109 -83.5 -185.5t-202.5 -76.5q-117 0 -191.5 61t-74.5 158zM315 1137q0 -74 54.5 -119 t142.5 -45q94 0 157.5 60.5t63.5 152.5q0 70 -54.5 112t-142.5 42q-94 0 -157.5 -58.5t-63.5 -144.5zM420 1561q0 -72 48 -120t124 -48q84 0 142 53t58 131q0 68 -48 112t-124 44q-84 0 -142 -50.5t-58 -121.5z" />
<glyph unicode="&#x2079;" d="M317 1499q0 121 85 206t208 85q113 0 186.5 -70.5t73.5 -181.5q0 -166 -121 -332t-321 -278l-90 8q150 84 258 185.5t164 209.5q-78 -72 -193 -71q-109 0 -179.5 67.5t-70.5 171.5zM383 1505q0 -86 51 -136t137 -50q102 0 169 61.5t67 153.5q0 90 -53.5 143.5 t-143.5 53.5q-94 0 -160.5 -65.5t-66.5 -160.5z" />
<glyph unicode="&#x2080;" d="M2 47q0 96 15 160q35 180 133 286.5t229 106.5q127 0 199.5 -86t72.5 -238q0 -78 -18 -170q-33 -174 -132.5 -278t-230.5 -104q-125 0 -196.5 87t-71.5 236zM72 53q0 -131 53.5 -199.5t153.5 -68.5q98 0 176 88t112 242q14 55 15 153q0 133 -53.5 202t-153.5 69 q-98 0 -177 -89.5t-112 -238.5q-14 -57 -14 -158z" />
<glyph unicode="&#x2081;" d="M150 385l2 61l305 134h61l-161 -836h-68l145 762z" />
<glyph unicode="&#x2082;" d="M14 -256l9 61q102 82 268 234q143 131 191.5 199.5t48.5 138.5q0 76 -43 119t-119 43q-61 0 -120.5 -29t-109.5 -82l-12 64q45 51 110.5 79.5t131.5 28.5q102 0 166.5 -61.5t64.5 -159.5q0 -82 -58.5 -166t-205.5 -215q-123 -109 -219 -188h418l-13 -66h-508z" />
<glyph unicode="&#x2083;" d="M4 -207l15 64q94 -74 206 -74q104 0 174 64.5t70 158.5q0 78 -47 123t-127 45q-37 0 -84 -10l-18 47l327 311h-379l15 58h452l-14 -60l-307 -289h16q100 0 165 -62.5t65 -160.5q0 -78 -39 -142.5t-109 -103t-160 -38.5q-133 0 -221 69z" />
<glyph unicode="&#x2084;" d="M6 -29l13 62l503 547h68l-107 -551h115l-12 -58h-115l-43 -227h-61l43 227h-404zM84 29h338l90 460z" />
<glyph unicode="&#x2085;" d="M12 -203l15 60q86 -72 231 -72q102 0 176 64.5t74 154.5q0 92 -55.5 141.5t-159.5 49.5q-94 0 -164 -17l88 402h406l-15 -68h-348l-57 -264q41 8 92 8q129 0 202.5 -66.5t73.5 -183.5q0 -76 -39.5 -139.5t-112.5 -103t-161 -39.5q-78 0 -142.5 19t-103.5 54z" />
<glyph unicode="&#x2086;" d="M33 -25q0 166 121 332t321 279l90 -8q-311 -174 -424 -398q78 74 195 74q109 0 179.5 -67.5t70.5 -172.5q0 -121 -85 -205.5t-208 -84.5q-113 0 -186.5 70.5t-73.5 180.5zM96 -20q0 -88 54.5 -142.5t142.5 -54.5q94 0 160.5 65.5t66.5 159.5q0 86 -51 136.5t-137 50.5 q-102 0 -169 -61.5t-67 -153.5z" />
<glyph unicode="&#x2087;" d="M96 -256l482 766h-432l14 70h512l-12 -62l-492 -778z" />
<glyph unicode="&#x2088;" d="M19 -57q0 92 61 159.5t162 83.5q-57 31 -87 78t-30 105q0 98 77 164.5t189 66.5q102 0 170 -60.5t68 -152.5q0 -78 -52.5 -138.5t-136.5 -80.5q61 -25 96 -72t35 -110q0 -109 -83.5 -185.5t-202.5 -76.5q-117 0 -191.5 61t-74.5 158zM86 -53q0 -74 54.5 -119t142.5 -45 q94 0 157.5 60.5t63.5 152.5q0 70 -54.5 112t-142.5 42q-94 0 -157.5 -58.5t-63.5 -144.5zM191 371q0 -72 48 -120t124 -48q84 0 142 53t58 131q0 68 -48 112t-124 44q-84 0 -142 -50.5t-58 -121.5z" />
<glyph unicode="&#x2089;" d="M86 309q0 121 85 206t208 85q113 0 186.5 -70.5t73.5 -181.5q0 -166 -121 -332t-321 -278l-90 8q150 84 258 185.5t164 209.5q-78 -72 -193 -71q-109 0 -179.5 67.5t-70.5 171.5zM152 315q0 -86 51 -136t137 -50q102 0 169 61.5t67 153.5q0 90 -53.5 143.5t-143.5 53.5 q-94 0 -160.5 -65.5t-66.5 -160.5z" />
<glyph unicode="&#x20ac;" horiz-adv-x="1269" d="M106 551l13 65h219q0 141 35 291h-197l12 66h203q82 270 258 426.5t395 156.5q160 0 281 -73l-18 -72q-100 74 -267 74q-184 0 -338.5 -139.5t-230.5 -372.5h580l-13 -66h-585q-37 -135 -37 -291h565l-12 -65h-553q12 -246 123.5 -374t316.5 -128q127 0 262 74l2 -74 q-57 -33 -128.5 -52.5t-139.5 -19.5q-236 0 -370 149.5t-144 424.5h-232z" />
<glyph unicode="&#x20ba;" horiz-adv-x="1269" d="M143 600l15 72l223 65l53 269l-225 -68l14 72l223 65l89 449h77l-84 -430l430 127l-12 -70l-432 -127l-51 -268l430 127l-12 -70l-432 -127l-121 -625q35 -6 92 -6q256 0 424 151.5t215 422.5l74 -6q-31 -199 -125.5 -343.5t-243.5 -222t-344 -77.5q-98 0 -180 20 l129 666z" />
<glyph unicode="&#x2122;" horiz-adv-x="1701" d="M266 1493l13 63h559l-13 -63h-243l-136 -694h-69l135 694h-246zM840 799l184 757h82l158 -563l368 563h82l-110 -757h-70l100 659l-344 -528h-73l-148 530l-160 -661h-69z" />
<glyph unicode="&#x2126;" horiz-adv-x="1935" d="M178 0l12 72h445q-170 104 -264.5 276t-94.5 377q0 164 55.5 316.5t160 275.5t252 197.5t317.5 74.5q193 0 346.5 -79.5t242.5 -228t89 -341.5q0 -281 -141.5 -510t-393.5 -358h432l-12 -72h-582l7 57q287 125 447.5 355.5t160.5 515.5q0 170 -73 302t-209 206.5 t-316 74.5q-182 0 -342 -101t-259.5 -282.5t-99.5 -400.5q0 -217 108.5 -392t303.5 -278l-6 -57h-586z" />
<glyph unicode="&#x2150;" horiz-adv-x="1906" d="M168 0l1436 1524h92l-1438 -1524h-90zM332 1329l2 61l305 134h61l-161 -836h-68l145 762zM1259 0l482 766h-432l14 70h512l-12 -62l-492 -778z" />
<glyph unicode="&#x2151;" horiz-adv-x="1906" d="M223 0l1436 1524h92l-1438 -1524h-90zM332 1329l2 61l305 134h61l-161 -836h-68l145 762zM1251 565q0 121 85 206t208 85q113 0 186.5 -70.5t73.5 -181.5q0 -166 -121 -332t-321 -278l-90 8q150 84 258 185.5t164 209.5q-78 -72 -193 -71q-109 0 -179.5 67.5t-70.5 171.5 zM1317 571q0 -86 51 -136t137 -50q102 0 169 61.5t67 153.5q0 90 -53.5 143.5t-143.5 53.5q-94 0 -160.5 -65.5t-66.5 -160.5z" />
<glyph unicode="&#x2153;" horiz-adv-x="1906" d="M192 0l1436 1524h92l-1438 -1524h-90zM332 1329l2 61l305 134h61l-161 -836h-68l145 762zM1167 49l15 64q94 -74 206 -74q104 0 174 64.5t70 158.5q0 78 -47 123t-127 45q-37 0 -84 -10l-18 47l327 311h-379l15 58h452l-14 -60l-307 -289h16q100 0 165 -62.5t65 -160.5 q0 -78 -39 -142.5t-109 -103t-160 -38.5q-133 0 -221 69z" />
<glyph unicode="&#x2154;" horiz-adv-x="1906" d="M194 688l9 61q102 82 268 234q143 131 191.5 199.5t48.5 138.5q0 76 -43 119t-119 43q-61 0 -120.5 -29t-109.5 -82l-12 64q45 51 110.5 79.5t131.5 28.5q102 0 166.5 -61.5t64.5 -159.5q0 -82 -58.5 -166t-205.5 -215q-123 -109 -219 -188h418l-13 -66h-508zM280 0 l1436 1524h92l-1438 -1524h-90zM1167 49l15 64q94 -74 206 -74q104 0 174 64.5t70 158.5q0 78 -47 123t-127 45q-37 0 -84 -10l-18 47l327 311h-379l15 58h452l-14 -60l-307 -289h16q100 0 165 -62.5t65 -160.5q0 -78 -39 -142.5t-109 -103t-160 -38.5q-133 0 -221 69z" />
<glyph unicode="&#x2155;" horiz-adv-x="1906" d="M213 0l1436 1524h92l-1438 -1524h-90zM332 1329l2 61l305 134h61l-161 -836h-68l145 762zM1173 53l15 60q86 -72 231 -72q102 0 176 64.5t74 154.5q0 92 -55.5 141.5t-159.5 49.5q-94 0 -164 -17l88 402h406l-15 -68h-348l-57 -264q41 8 92 8q129 0 202.5 -66.5 t73.5 -183.5q0 -76 -39.5 -139.5t-112.5 -103t-161 -39.5q-78 0 -142.5 19t-103.5 54z" />
<glyph unicode="&#x2156;" horiz-adv-x="1906" d="M194 688l9 61q102 82 268 234q143 131 191.5 199.5t48.5 138.5q0 76 -43 119t-119 43q-61 0 -120.5 -29t-109.5 -82l-12 64q45 51 110.5 79.5t131.5 28.5q102 0 166.5 -61.5t64.5 -159.5q0 -82 -58.5 -166t-205.5 -215q-123 -109 -219 -188h418l-13 -66h-508zM280 0 l1436 1524h92l-1438 -1524h-90zM1173 53l15 60q86 -72 231 -72q102 0 176 64.5t74 154.5q0 92 -55.5 141.5t-159.5 49.5q-94 0 -164 -17l88 402h406l-15 -68h-348l-57 -264q41 8 92 8q129 0 202.5 -66.5t73.5 -183.5q0 -76 -39.5 -139.5t-112.5 -103t-161 -39.5 q-78 0 -142.5 19t-103.5 54z" />
<glyph unicode="&#x2157;" horiz-adv-x="1906" d="M184 737l15 64q94 -74 206 -74q104 0 174 64.5t70 158.5q0 78 -47 123t-127 45q-37 0 -84 -10l-18 47l327 311h-379l15 58h452l-14 -60l-307 -289h16q100 0 165 -62.5t65 -160.5q0 -78 -39 -142.5t-109 -103t-160 -38.5q-133 0 -221 69zM242 0l1436 1524h92l-1438 -1524 h-90zM1173 53l15 60q86 -72 231 -72q102 0 176 64.5t74 154.5q0 92 -55.5 141.5t-159.5 49.5q-94 0 -164 -17l88 402h406l-15 -68h-348l-57 -264q41 8 92 8q129 0 202.5 -66.5t73.5 -183.5q0 -76 -39.5 -139.5t-112.5 -103t-161 -39.5q-78 0 -142.5 19t-103.5 54z" />
<glyph unicode="&#x2158;" horiz-adv-x="1906" d="M188 915l13 62l503 547h68l-107 -551h115l-12 -58h-115l-43 -227h-61l43 227h-404zM266 973h338l90 460zM280 0l1436 1524h92l-1438 -1524h-90zM1173 53l15 60q86 -72 231 -72q102 0 176 64.5t74 154.5q0 92 -55.5 141.5t-159.5 49.5q-94 0 -164 -17l88 402h406l-15 -68 h-348l-57 -264q41 8 92 8q129 0 202.5 -66.5t73.5 -183.5q0 -76 -39.5 -139.5t-112.5 -103t-161 -39.5q-78 0 -142.5 19t-103.5 54z" />
<glyph unicode="&#x2159;" horiz-adv-x="1906" d="M252 -4l1436 1524h92l-1438 -1524h-90zM332 1329l2 61l305 134h61l-161 -836h-68l145 762zM1196 231q0 166 121 332t321 279l90 -8q-311 -174 -424 -398q78 74 195 74q109 0 179.5 -67.5t70.5 -172.5q0 -121 -85 -205.5t-208 -84.5q-113 0 -186.5 70.5t-73.5 180.5z M1259 236q0 -88 54.5 -142.5t142.5 -54.5q94 0 160.5 65.5t66.5 159.5q0 86 -51 136.5t-137 50.5q-102 0 -169 -61.5t-67 -153.5z" />
<glyph unicode="&#x215a;" horiz-adv-x="1906" d="M190 741l15 60q86 -72 231 -72q102 0 176 64.5t74 154.5q0 92 -55.5 141.5t-159.5 49.5q-94 0 -164 -17l88 402h406l-15 -68h-348l-57 -264q41 8 92 8q129 0 202.5 -66.5t73.5 -183.5q0 -76 -39.5 -139.5t-112.5 -103t-161 -39.5q-78 0 -142.5 19t-103.5 54zM305 0 l1436 1524h92l-1438 -1524h-90zM1196 231q0 166 121 332t321 279l90 -8q-311 -174 -424 -398q78 74 195 74q109 0 179.5 -67.5t70.5 -172.5q0 -121 -85 -205.5t-208 -84.5q-113 0 -186.5 70.5t-73.5 180.5zM1259 236q0 -88 54.5 -142.5t142.5 -54.5q94 0 160.5 65.5 t66.5 159.5q0 86 -51 136.5t-137 50.5q-102 0 -169 -61.5t-67 -153.5z" />
<glyph unicode="&#x215b;" horiz-adv-x="1906" d="M213 0l1436 1524h92l-1438 -1524h-90zM332 1329l2 61l305 134h61l-161 -836h-68l145 762zM1182 199q0 92 61 159.5t162 83.5q-57 31 -87 78t-30 105q0 98 77 164.5t189 66.5q102 0 170 -60.5t68 -152.5q0 -78 -52.5 -138.5t-136.5 -80.5q61 -25 96 -72t35 -110 q0 -109 -83.5 -185.5t-202.5 -76.5q-117 0 -191.5 61t-74.5 158zM1249 203q0 -74 54.5 -119t142.5 -45q94 0 157.5 60.5t63.5 152.5q0 70 -54.5 112t-142.5 42q-94 0 -157.5 -58.5t-63.5 -144.5zM1354 627q0 -72 48 -120t124 -48q84 0 142 53t58 131q0 68 -48 112t-124 44 q-84 0 -142 -50.5t-58 -121.5z" />
<glyph unicode="&#x215c;" horiz-adv-x="1906" d="M184 737l15 64q94 -74 206 -74q104 0 174 64.5t70 158.5q0 78 -47 123t-127 45q-37 0 -84 -10l-18 47l327 311h-379l15 58h452l-14 -60l-307 -289h16q100 0 165 -62.5t65 -160.5q0 -78 -39 -142.5t-109 -103t-160 -38.5q-133 0 -221 69zM239 0l1436 1524h92l-1438 -1524 h-90zM1182 199q0 92 61 159.5t162 83.5q-57 31 -87 78t-30 105q0 98 77 164.5t189 66.5q102 0 170 -60.5t68 -152.5q0 -78 -52.5 -138.5t-136.5 -80.5q61 -25 96 -72t35 -110q0 -109 -83.5 -185.5t-202.5 -76.5q-117 0 -191.5 61t-74.5 158zM1249 203q0 -74 54.5 -119 t142.5 -45q94 0 157.5 60.5t63.5 152.5q0 70 -54.5 112t-142.5 42q-94 0 -157.5 -58.5t-63.5 -144.5zM1354 627q0 -72 48 -120t124 -48q84 0 142 53t58 131q0 68 -48 112t-124 44q-84 0 -142 -50.5t-58 -121.5z" />
<glyph unicode="&#x215d;" horiz-adv-x="1906" d="M190 741l15 60q86 -72 231 -72q102 0 176 64.5t74 154.5q0 92 -55.5 141.5t-159.5 49.5q-94 0 -164 -17l88 402h406l-15 -68h-348l-57 -264q41 8 92 8q129 0 202.5 -66.5t73.5 -183.5q0 -76 -39.5 -139.5t-112.5 -103t-161 -39.5q-78 0 -142.5 19t-103.5 54zM278 0 l1436 1524h92l-1438 -1524h-90zM1182 199q0 92 61 159.5t162 83.5q-57 31 -87 78t-30 105q0 98 77 164.5t189 66.5q102 0 170 -60.5t68 -152.5q0 -78 -52.5 -138.5t-136.5 -80.5q61 -25 96 -72t35 -110q0 -109 -83.5 -185.5t-202.5 -76.5q-117 0 -191.5 61t-74.5 158z M1249 203q0 -74 54.5 -119t142.5 -45q94 0 157.5 60.5t63.5 152.5q0 70 -54.5 112t-142.5 42q-94 0 -157.5 -58.5t-63.5 -144.5zM1354 627q0 -72 48 -120t124 -48q84 0 142 53t58 131q0 68 -48 112t-124 44q-84 0 -142 -50.5t-58 -121.5z" />
<glyph unicode="&#x215e;" horiz-adv-x="1906" d="M178 0l1436 1524h92l-1438 -1524h-90zM274 688l482 766h-432l14 70h512l-12 -62l-492 -778zM1182 199q0 92 61 159.5t162 83.5q-57 31 -87 78t-30 105q0 98 77 164.5t189 66.5q102 0 170 -60.5t68 -152.5q0 -78 -52.5 -138.5t-136.5 -80.5q61 -25 96 -72t35 -110 q0 -109 -83.5 -185.5t-202.5 -76.5q-117 0 -191.5 61t-74.5 158zM1249 203q0 -74 54.5 -119t142.5 -45q94 0 157.5 60.5t63.5 152.5q0 70 -54.5 112t-142.5 42q-94 0 -157.5 -58.5t-63.5 -144.5zM1354 627q0 -72 48 -120t124 -48q84 0 142 53t58 131q0 68 -48 112t-124 44 q-84 0 -142 -50.5t-58 -121.5z" />
<glyph unicode="&#x2202;" horiz-adv-x="1210" d="M70 356q0 147 66.5 276.5t186 209.5t265.5 80q172 0 281.5 -95.5t123.5 -259.5q37 178 37 391q0 256 -97 392.5t-282 136.5q-84 0 -164.5 -31t-146.5 -88l-8 70q59 53 147 85.5t176 32.5q215 0 335 -155.5t120 -435.5q0 -281 -76 -507.5t-215 -358.5t-321 -132 q-190 0 -309 108.5t-119 280.5zM150 367q0 -152 93 -241t255 -89q109 0 208 62.5t162.5 176t63.5 246.5q0 152 -94.5 241t-255.5 89q-109 0 -207.5 -63.5t-161.5 -176t-63 -245.5z" />
<glyph unicode="&#x2206;" horiz-adv-x="1484" d="M-29 0l930 1556h90l330 -1556h-1350zM94 70h1123l-285 1403z" />
<glyph unicode="&#x220f;" horiz-adv-x="1503" d="M150 -164l333 1720h951l-334 -1720h-82l317 1643h-786l-318 -1643h-81z" />
<glyph unicode="&#x2211;" horiz-adv-x="1130" d="M-35 -162l15 72l712 809l-373 764l15 73h878l-14 -73h-790l376 -772l-706 -799h827l-14 -74h-926z" />
<glyph unicode="&#x2212;" horiz-adv-x="1269" d="M219 655l14 70h891l-14 -70h-891z" />
<glyph unicode="&#x2215;" horiz-adv-x="325" d="M-549 0l1436 1524h92l-1438 -1524h-90z" />
<glyph unicode="&#x2219;" horiz-adv-x="593" d="M284 774q0 31 21.5 52.5t52.5 21.5q27 0 44.5 -17.5t17.5 -44.5q0 -31 -20.5 -52t-53.5 -21q-27 0 -44.5 17t-17.5 44z" />
<glyph unicode="&#x221a;" horiz-adv-x="1302" d="M150 838l14 75h244l172 -837l911 1583h80l-957 -1659h-88l-180 838h-196z" />
<glyph unicode="&#x221e;" horiz-adv-x="1464" d="M145 670q0 98 45.5 182t126 135t181.5 51q106 0 179 -61.5t107 -175.5q63 115 152.5 176t196.5 61q125 0 198.5 -77.5t73.5 -208.5q0 -98 -45 -182.5t-126 -135.5t-181 -51q-104 0 -179 61.5t-108 173.5q-61 -113 -151.5 -174t-196.5 -61q-125 0 -199 78t-74 209z M219 668q0 -98 55.5 -157.5t149.5 -59.5q98 0 182 68.5t137 193.5q-27 125 -91 191.5t-158 66.5q-113 0 -194 -89t-81 -214zM805 707q27 -123 92.5 -189.5t159.5 -66.5q113 0 193.5 89t80.5 214q0 98 -55 157.5t-150 59.5q-100 0 -185 -70t-136 -194z" />
<glyph unicode="&#x222b;" horiz-adv-x="710" d="M-260 -479l18 73q61 -39 138 -38q121 0 191.5 89t94.5 271l174 1335q27 211 120 320.5t247 109.5q86 0 156 -32l-15 -74q-31 14 -69.5 22.5t-71.5 8.5q-121 0 -190.5 -89.5t-94.5 -271.5l-176 -1335q-55 -430 -368 -430q-90 0 -154 41z" />
<glyph unicode="&#x2248;" horiz-adv-x="1269" d="M139 288q72 324 279 324q51 0 97 -25.5t87 -62.5t81 -75t81 -63.5t84 -25.5q74 0 122 60.5t81 191.5h67q-72 -324 -278 -324q-51 0 -96.5 26t-87.5 62.5t-83 74.5t-81.5 63.5t-81.5 25.5q-74 0 -122 -60t-81 -192h-68zM239 811q72 324 279 324q51 0 97 -25.5t87 -62.5 t81 -75t81 -63.5t84 -25.5q74 0 122 60.5t81 191.5h67q-72 -324 -278 -324q-51 0 -96.5 26t-87.5 62.5t-83 74.5t-81.5 63.5t-81.5 25.5q-74 0 -122 -60t-81 -192h-68z" />
<glyph unicode="&#x2260;" horiz-adv-x="1269" d="M201 424l14 70h287l221 391h-432l14 69h457l160 283h77l-159 -283h305l-15 -69h-329l-221 -391h475l-15 -70h-499l-164 -293h-78l164 293h-262z" />
<glyph unicode="&#x2264;" horiz-adv-x="1269" d="M94 2l14 70h891l-14 -70h-891zM268 655l13 68l878 407l-16 -81l-779 -363l639 -360l-16 -76z" />
<glyph unicode="&#x2265;" horiz-adv-x="1269" d="M94 2l14 70h891l-14 -70h-891zM188 252l17 82l778 362l-639 361l16 76l719 -406l-12 -68z" />
<glyph unicode="&#x25ca;" horiz-adv-x="1189" d="M156 829l624 832h86l297 -832l-618 -829h-86zM238 821l268 -749l577 764l-272 755z" />
<glyph unicode="&#x25fc;" horiz-adv-x="983" d="M0 0v983h983v-983h-983z" />
<glyph unicode="&#xf507;" horiz-adv-x="1906" d="M194 688l9 61q102 82 268 234q143 131 191.5 199.5t48.5 138.5q0 76 -43 119t-119 43q-61 0 -120.5 -29t-109.5 -82l-12 64q45 51 110.5 79.5t131.5 28.5q102 0 166.5 -61.5t64.5 -159.5q0 -82 -58.5 -166t-205.5 -215q-123 -109 -219 -188h418l-13 -66h-508zM264 0 l1436 1524h92l-1438 -1524h-90zM1259 0l482 766h-432l14 70h512l-12 -62l-492 -778z" />
<glyph unicode="&#xf508;" horiz-adv-x="1906" d="M184 737l15 64q94 -74 206 -74q104 0 174 64.5t70 158.5q0 78 -47 123t-127 45q-37 0 -84 -10l-18 47l327 311h-379l15 58h452l-14 -60l-307 -289h16q100 0 165 -62.5t65 -160.5q0 -78 -39 -142.5t-109 -103t-160 -38.5q-133 0 -221 69zM239 0l1436 1524h92l-1438 -1524 h-90zM1259 0l482 766h-432l14 70h512l-12 -62l-492 -778z" />
<glyph unicode="&#xf509;" horiz-adv-x="1906" d="M188 915l13 62l503 547h68l-107 -551h115l-12 -58h-115l-43 -227h-61l43 227h-404zM239 0l1436 1524h92l-1438 -1524h-90zM266 973h338l90 460zM1259 0l482 766h-432l14 70h512l-12 -62l-492 -778z" />
<glyph unicode="&#xf50a;" horiz-adv-x="1906" d="M190 741l15 60q86 -72 231 -72q102 0 176 64.5t74 154.5q0 92 -55.5 141.5t-159.5 49.5q-94 0 -164 -17l88 402h406l-15 -68h-348l-57 -264q41 8 92 8q129 0 202.5 -66.5t73.5 -183.5q0 -76 -39.5 -139.5t-112.5 -103t-161 -39.5q-78 0 -142.5 19t-103.5 54zM235 0 l1436 1524h92l-1438 -1524h-90zM1259 0l482 766h-432l14 70h512l-12 -62l-492 -778z" />
<glyph unicode="&#xf50b;" horiz-adv-x="1906" d="M213 919q0 166 121 332t321 279l90 -8q-311 -174 -424 -398q78 74 195 74q109 0 179.5 -67.5t70.5 -172.5q0 -121 -85 -205.5t-208 -84.5q-113 0 -186.5 70.5t-73.5 180.5zM246 0l1436 1524h92l-1438 -1524h-90zM276 924q0 -88 54.5 -142.5t142.5 -54.5q94 0 160.5 65.5 t66.5 159.5q0 86 -51 136.5t-137 50.5q-102 0 -169 -61.5t-67 -153.5zM1259 0l482 766h-432l14 70h512l-12 -62l-492 -778z" />
<glyph unicode="&#xf50d;" horiz-adv-x="1906" d="M194 688l9 61q102 82 268 234q143 131 191.5 199.5t48.5 138.5q0 76 -43 119t-119 43q-61 0 -120.5 -29t-109.5 -82l-12 64q45 51 110.5 79.5t131.5 28.5q102 0 166.5 -61.5t64.5 -159.5q0 -82 -58.5 -166t-205.5 -215q-123 -109 -219 -188h418l-13 -66h-508zM295 0 l1436 1524h92l-1438 -1524h-90zM1251 565q0 121 85 206t208 85q113 0 186.5 -70.5t73.5 -181.5q0 -166 -121 -332t-321 -278l-90 8q150 84 258 185.5t164 209.5q-78 -72 -193 -71q-109 0 -179.5 67.5t-70.5 171.5zM1317 571q0 -86 51 -136t137 -50q102 0 169 61.5t67 153.5 q0 90 -53.5 143.5t-143.5 53.5q-94 0 -160.5 -65.5t-66.5 -160.5z" />
<glyph unicode="&#xf50e;" horiz-adv-x="1906" d="M188 915l13 62l503 547h68l-107 -551h115l-12 -58h-115l-43 -227h-61l43 227h-404zM264 0l1436 1524h92l-1438 -1524h-90zM266 973h338l90 460zM1251 565q0 121 85 206t208 85q113 0 186.5 -70.5t73.5 -181.5q0 -166 -121 -332t-321 -278l-90 8q150 84 258 185.5 t164 209.5q-78 -72 -193 -71q-109 0 -179.5 67.5t-70.5 171.5zM1317 571q0 -86 51 -136t137 -50q102 0 169 61.5t67 153.5q0 90 -53.5 143.5t-143.5 53.5q-94 0 -160.5 -65.5t-66.5 -160.5z" />
<glyph unicode="&#xf50f;" horiz-adv-x="1906" d="M190 741l15 60q86 -72 231 -72q102 0 176 64.5t74 154.5q0 92 -55.5 141.5t-159.5 49.5q-94 0 -164 -17l88 402h406l-15 -68h-348l-57 -264q41 8 92 8q129 0 202.5 -66.5t73.5 -183.5q0 -76 -39.5 -139.5t-112.5 -103t-161 -39.5q-78 0 -142.5 19t-103.5 54zM276 0 l1436 1524h92l-1438 -1524h-90zM1251 565q0 121 85 206t208 85q113 0 186.5 -70.5t73.5 -181.5q0 -166 -121 -332t-321 -278l-90 8q150 84 258 185.5t164 209.5q-78 -72 -193 -71q-109 0 -179.5 67.5t-70.5 171.5zM1317 571q0 -86 51 -136t137 -50q102 0 169 61.5t67 153.5 q0 90 -53.5 143.5t-143.5 53.5q-94 0 -160.5 -65.5t-66.5 -160.5z" />
<glyph unicode="&#xf510;" horiz-adv-x="1906" d="M186 0l1436 1524h92l-1438 -1524h-90zM274 688l482 766h-432l14 70h512l-12 -62l-492 -778zM1251 565q0 121 85 206t208 85q113 0 186.5 -70.5t73.5 -181.5q0 -166 -121 -332t-321 -278l-90 8q150 84 258 185.5t164 209.5q-78 -72 -193 -71q-109 0 -179.5 67.5 t-70.5 171.5zM1317 571q0 -86 51 -136t137 -50q102 0 169 61.5t67 153.5q0 90 -53.5 143.5t-143.5 53.5q-94 0 -160.5 -65.5t-66.5 -160.5z" />
<glyph unicode="&#xf511;" horiz-adv-x="1906" d="M199 887q0 92 61 159.5t162 83.5q-57 31 -87 78t-30 105q0 98 77 164.5t189 66.5q102 0 170 -60.5t68 -152.5q0 -78 -52.5 -138.5t-136.5 -80.5q61 -25 96 -72t35 -110q0 -109 -83.5 -185.5t-202.5 -76.5q-117 0 -191.5 61t-74.5 158zM266 891q0 -74 54.5 -119t142.5 -45 q94 0 157.5 60.5t63.5 152.5q0 70 -54.5 112t-142.5 42q-94 0 -157.5 -58.5t-63.5 -144.5zM276 0l1436 1524h92l-1438 -1524h-90zM371 1315q0 -72 48 -120t124 -48q84 0 142 53t58 131q0 68 -48 112t-124 44q-84 0 -142 -50.5t-58 -121.5zM1251 565q0 121 85 206t208 85 q113 0 186.5 -70.5t73.5 -181.5q0 -166 -121 -332t-321 -278l-90 8q150 84 258 185.5t164 209.5q-78 -72 -193 -71q-109 0 -179.5 67.5t-70.5 171.5zM1317 571q0 -86 51 -136t137 -50q102 0 169 61.5t67 153.5q0 90 -53.5 143.5t-143.5 53.5q-94 0 -160.5 -65.5 t-66.5 -160.5z" />
<glyph unicode="&#xfb01;" horiz-adv-x="1255" d="M160 915l14 68h207l41 211q45 238 150.5 356.5t273.5 118.5q98 0 168 -35l-23 -67q-72 33 -147 32q-135 0 -220 -101t-126 -314l-39 -201h313l-14 -68h-314l-176 -915h-78l177 915h-207zM879 0l190 983h78l-191 -983h-77zM1120 1374q0 31 20.5 51.5t51.5 20.5 q27 0 43 -16.5t16 -43.5q0 -31 -20 -51t-49 -20q-27 0 -44.5 16.5t-17.5 42.5z" />
<glyph unicode="&#xfb02;" horiz-adv-x="1255" d="M160 915l14 68h207l41 211q45 238 150.5 356.5t273.5 118.5q98 0 168 -35l-23 -67q-72 33 -147 32q-135 0 -220 -101t-126 -314l-39 -201h313l-14 -68h-314l-176 -915h-78l177 915h-207zM877 0l321 1659h78l-322 -1659h-77z" />
<glyph unicode="&#xfeff;" horiz-adv-x="0" />
<glyph horiz-adv-x="1196" d="M137 545q0 145 21 268q35 221 121 388t212.5 261t278.5 94q190 0 291.5 -148t101.5 -429q0 -156 -24 -295q-39 -213 -125 -375t-211.5 -252t-272.5 -90q-190 0 -291.5 148.5t-101.5 429.5zM217 541q0 -246 81 -375t237 -129q180 0 323 176t199 469q27 135 26 301 q0 246 -80.5 375t-236.5 129q-121 0 -229.5 -84t-188.5 -240.5t-112 -367.5q-18 -119 -19 -254z" />
<glyph horiz-adv-x="950" d="M265 1245l6 74l518 205h61l-294 -1524h-76l276 1436z" />
<glyph horiz-adv-x="1247" d="M105 0l8 61q279 254 442 412q207 197 307.5 314.5t139.5 206.5t39 186q0 139 -85 221t-229 82q-115 0 -212 -48.5t-185 -146.5l-12 78q76 90 184 140t229 50q170 0 278.5 -103t108.5 -265q0 -119 -46 -219.5t-152.5 -224t-309.5 -316.5q-209 -197 -397 -356h785l-9 -72 h-884z" />
<glyph horiz-adv-x="1189" d="M53 88l22 74q70 -59 169.5 -92t203.5 -33q129 0 236.5 52t172 149.5t64.5 222.5q0 156 -100 247t-273 91q-70 0 -110 -13l-23 52l615 616h-711l12 70h801l-14 -72l-586 -588q6 2 37 2q123 0 219 -50t152.5 -143t56.5 -214q0 -133 -68.5 -245t-192.5 -179.5t-282 -67.5 q-113 0 -222 33t-179 88z" />
<glyph horiz-adv-x="1222" d="M100 424l13 61l921 1039h72l-201 -1037h203l-12 -63h-203l-82 -424h-70l82 424h-723zM201 487h635l178 920z" />
<glyph horiz-adv-x="1185" d="M74 88l22 74q66 -59 161 -92t200 -33q137 0 246.5 55t174 158.5t64.5 238.5q0 172 -109.5 265.5t-310.5 93.5q-125 0 -238 -31l160 707h680l-14 -72h-617l-125 -553q82 16 162 16q229 0 358.5 -112.5t129.5 -313.5q0 -143 -69 -261.5t-196.5 -189.5t-289.5 -71 q-111 0 -217.5 33t-171.5 88z" />
<glyph horiz-adv-x="1181" d="M127 401q0 178 95.5 388t269.5 408t391 329l108 -10q-246 -147 -441.5 -361.5t-289.5 -439.5q59 82 153.5 130t196.5 48q123 0 222.5 -54.5t158 -153.5t58.5 -228q0 -133 -61.5 -244t-173.5 -178.5t-253 -67.5q-123 0 -221 53.5t-155.5 152.5t-57.5 228zM203 410 q0 -168 100 -270.5t266 -102.5q106 0 198.5 52t148 148.5t55.5 213.5q0 168 -100.5 270t-266.5 102q-104 0 -195 -53t-148.5 -148.5t-57.5 -211.5z" />
<glyph horiz-adv-x="1120" d="M180 4l877 1446h-780l14 74h870l-10 -58l-889 -1470z" />
<glyph horiz-adv-x="1234" d="M107 367q0 109 50 203t145.5 159.5t222.5 85.5q-106 43 -164 127t-58 193q0 113 60.5 208t171.5 154t246 59q117 0 211 -44t150 -125.5t56 -188.5q0 -150 -100 -262.5t-262 -144.5q123 -45 191.5 -139.5t68.5 -219.5q0 -127 -66.5 -232.5t-188 -169t-275.5 -63.5 q-133 0 -236.5 49.5t-163 140.5t-59.5 210zM181 369q0 -147 106.5 -238.5t278.5 -91.5q123 0 226 50t166.5 141.5t63.5 205.5q0 147 -106.5 238.5t-280.5 91.5q-123 0 -226 -50t-165.5 -141.5t-62.5 -205.5zM375 1133q0 -131 96 -212t250 -81q109 0 201 44t148.5 126 t56.5 184q0 131 -95.5 212t-250.5 81q-109 0 -201 -44t-148.5 -126t-56.5 -184z" />
<glyph horiz-adv-x="1196" d="M242 1067q0 133 61 243.5t173 178t253 67.5q123 0 221 -53t155.5 -152.5t57.5 -228.5q0 -178 -95 -388t-269 -407.5t-392 -328.5l-108 10q246 147 441.5 361.5t289.5 439.5q-59 -82 -153.5 -130t-196.5 -48q-123 0 -222.5 54t-157.5 153.5t-58 228.5zM319 1073 q0 -168 100.5 -270.5t266.5 -102.5q104 0 195.5 53.5t148.5 148.5t57 212q0 168 -100 270.5t-266 102.5q-106 0 -198.5 -52.5t-148 -148.5t-55.5 -213z" />
<glyph d="M51 303q0 96 15 160q35 180 133 286.5t229 106.5q127 0 199.5 -86t72.5 -238q0 -78 -18 -170q-33 -174 -132.5 -278t-230.5 -104q-125 0 -196.5 87t-71.5 236zM121 309q0 -131 53.5 -199.5t153.5 -68.5q98 0 176 88t112 242q14 55 15 153q0 133 -53.5 202t-153.5 69 q-98 0 -177 -89.5t-112 -238.5q-14 -57 -14 -158z" />
<glyph d="M199 641l2 61l305 134h61l-161 -836h-68l145 762z" />
<glyph d="M61 0l9 61q102 82 268 234q143 131 191.5 199.5t48.5 138.5q0 76 -43 119t-119 43q-61 0 -120.5 -29t-109.5 -82l-12 64q45 51 110.5 79.5t131.5 28.5q102 0 166.5 -61.5t64.5 -159.5q0 -82 -58.5 -166t-205.5 -215q-123 -109 -219 -188h418l-13 -66h-508z" />
<glyph d="M51 49l15 64q94 -74 206 -74q104 0 174 64.5t70 158.5q0 78 -47 123t-127 45q-37 0 -84 -10l-18 47l327 311h-379l15 58h452l-14 -60l-307 -289h16q100 0 165 -62.5t65 -160.5q0 -78 -39 -142.5t-109 -103t-160 -38.5q-133 0 -221 69z" />
<glyph d="M55 227l13 62l503 547h68l-107 -551h115l-12 -58h-115l-43 -227h-61l43 227h-404zM133 285h338l90 460z" />
<glyph d="M57 53l15 60q86 -72 231 -72q102 0 176 64.5t74 154.5q0 92 -55.5 141.5t-159.5 49.5q-94 0 -164 -17l88 402h406l-15 -68h-348l-57 -264q41 8 92 8q129 0 202.5 -66.5t73.5 -183.5q0 -76 -39.5 -139.5t-112.5 -103t-161 -39.5q-78 0 -142.5 19t-103.5 54z" />
<glyph d="M80 231q0 166 121 332t321 279l90 -8q-311 -174 -424 -398q78 74 195 74q109 0 179.5 -67.5t70.5 -172.5q0 -121 -85 -205.5t-208 -84.5q-113 0 -186.5 70.5t-73.5 180.5zM143 236q0 -88 54.5 -142.5t142.5 -54.5q94 0 160.5 65.5t66.5 159.5q0 86 -51 136.5t-137 50.5 q-102 0 -169 -61.5t-67 -153.5z" />
<glyph d="M143 0l482 766h-432l14 70h512l-12 -62l-492 -778z" />
<glyph d="M66 199q0 92 61 159.5t162 83.5q-57 31 -87 78t-30 105q0 98 77 164.5t189 66.5q102 0 170 -60.5t68 -152.5q0 -78 -52.5 -138.5t-136.5 -80.5q61 -25 96 -72t35 -110q0 -109 -83.5 -185.5t-202.5 -76.5q-117 0 -191.5 61t-74.5 158zM133 203q0 -74 54.5 -119t142.5 -45 q94 0 157.5 60.5t63.5 152.5q0 70 -54.5 112t-142.5 42q-94 0 -157.5 -58.5t-63.5 -144.5zM238 627q0 -72 48 -120t124 -48q84 0 142 53t58 131q0 68 -48 112t-124 44q-84 0 -142 -50.5t-58 -121.5z" />
<glyph d="M135 565q0 121 85 206t208 85q113 0 186.5 -70.5t73.5 -181.5q0 -166 -121 -332t-321 -278l-90 8q150 84 258 185.5t164 209.5q-78 -72 -193 -71q-109 0 -179.5 67.5t-70.5 171.5zM201 571q0 -86 51 -136t137 -50q102 0 169 61.5t67 153.5q0 90 -53.5 143.5t-143.5 53.5 q-94 0 -160.5 -65.5t-66.5 -160.5z" />
<glyph d="M184 991q0 96 15 160q35 180 133 286.5t229 106.5q127 0 199.5 -86t72.5 -238q0 -78 -18 -170q-33 -174 -132.5 -278t-230.5 -104q-125 0 -196.5 87t-71.5 236zM254 997q0 -131 53.5 -199.5t153.5 -68.5q98 0 176 88t112 242q14 55 15 153q0 133 -53.5 202t-153.5 69 q-98 0 -177 -89.5t-112 -238.5q-14 -57 -14 -158z" />
<glyph d="M334 1329l2 61l305 134h61l-161 -836h-68l145 762z" />
<glyph d="M196 688l9 61q102 82 268 234q143 131 191.5 199.5t48.5 138.5q0 76 -43 119t-119 43q-61 0 -120.5 -29t-109.5 -82l-12 64q45 51 110.5 79.5t131.5 28.5q102 0 166.5 -61.5t64.5 -159.5q0 -82 -58.5 -166t-205.5 -215q-123 -109 -219 -188h418l-13 -66h-508z" />
<glyph d="M184 737l15 64q94 -74 206 -74q104 0 174 64.5t70 158.5q0 78 -47 123t-127 45q-37 0 -84 -10l-18 47l327 311h-379l15 58h452l-14 -60l-307 -289h16q100 0 165 -62.5t65 -160.5q0 -78 -39 -142.5t-109 -103t-160 -38.5q-133 0 -221 69z" />
<glyph d="M190 915l13 62l503 547h68l-107 -551h115l-12 -58h-115l-43 -227h-61l43 227h-404zM268 973h338l90 460z" />
<glyph d="M190 741l15 60q86 -72 231 -72q102 0 176 64.5t74 154.5q0 92 -55.5 141.5t-159.5 49.5q-94 0 -164 -17l88 402h406l-15 -68h-348l-57 -264q41 8 92 8q129 0 202.5 -66.5t73.5 -183.5q0 -76 -39.5 -139.5t-112.5 -103t-161 -39.5q-78 0 -142.5 19t-103.5 54z" />
<glyph d="M215 919q0 166 121 332t321 279l90 -8q-311 -174 -424 -398q78 74 195 74q109 0 179.5 -67.5t70.5 -172.5q0 -121 -85 -205.5t-208 -84.5q-113 0 -186.5 70.5t-73.5 180.5zM278 924q0 -88 54.5 -142.5t142.5 -54.5q94 0 160.5 65.5t66.5 159.5q0 86 -51 136.5t-137 50.5 q-102 0 -169 -61.5t-67 -153.5z" />
<glyph d="M276 688l482 766h-432l14 70h512l-12 -62l-492 -778z" />
<glyph d="M201 887q0 92 61 159.5t162 83.5q-57 31 -87 78t-30 105q0 98 77 164.5t189 66.5q102 0 170 -60.5t68 -152.5q0 -78 -52.5 -138.5t-136.5 -80.5q61 -25 96 -72t35 -110q0 -109 -83.5 -185.5t-202.5 -76.5q-117 0 -191.5 61t-74.5 158zM268 891q0 -74 54.5 -119t142.5 -45 q94 0 157.5 60.5t63.5 152.5q0 70 -54.5 112t-142.5 42q-94 0 -157.5 -58.5t-63.5 -144.5zM373 1315q0 -72 48 -120t124 -48q84 0 142 53t58 131q0 68 -48 112t-124 44q-84 0 -142 -50.5t-58 -121.5z" />
<glyph d="M268 1253q0 121 85 206t208 85q113 0 186.5 -70.5t73.5 -181.5q0 -166 -121 -332t-321 -278l-90 8q150 84 258 185.5t164 209.5q-78 -72 -193 -71q-109 0 -179.5 67.5t-70.5 171.5zM334 1259q0 -86 51 -136t137 -50q102 0 169 61.5t67 153.5q0 90 -53.5 143.5 t-143.5 53.5q-94 0 -160.5 -65.5t-66.5 -160.5z" />
<glyph horiz-adv-x="888" d="M211 731l14 73h562l-15 -73h-561z" />
<glyph horiz-adv-x="1024" d="M49 745l15 76h1024l-15 -76h-1024z" />
<glyph horiz-adv-x="2048" d="M49 745l15 76h2048l-15 -76h-2048z" />
<glyph horiz-adv-x="765" d="M250 609q0 350 146.5 668.5t414.5 551.5h86q-279 -244 -427 -560t-148 -664q0 -199 51 -382.5t147 -332.5h-73q-96 143 -146.5 328.5t-50.5 390.5z" />
<glyph horiz-adv-x="765" d="M13 -110q279 244 427 560t148 665q0 199 -51 382t-148 332h74q96 -143 146.5 -328.5t50.5 -389.5q0 -350 -146.5 -669t-414.5 -552h-86z" />
<glyph horiz-adv-x="1015" d="M-101 -188l1245 1931h84l-1247 -1931h-82z" />
<glyph horiz-adv-x="1015" d="M276 1743h76l498 -1931h-76z" />
<glyph horiz-adv-x="729" d="M95 -113l376 1939h424l-12 -65h-354l-353 -1809h357l-12 -65h-426z" />
<glyph horiz-adv-x="729" d="M-22 -113l12 65h354l353 1809h-357l13 65h426l-377 -1939h-424z" />
<glyph horiz-adv-x="874" d="M201 838l14 74h33q137 0 197.5 51t74.5 178q6 61 11.5 136t12.5 153t25.5 149.5t54.5 129t95.5 91t149.5 33.5q61 0 120 -16l-12 -57q-53 14 -108 14q-90 -2 -142.5 -47t-78 -118t-36 -159t-14.5 -168.5t-14 -148.5q-20 -133 -70.5 -191.5t-152.5 -72.5q143 -33 143 -189 q-2 -66 -27.5 -141.5t-58.5 -154t-58.5 -152.5t-27.5 -137q0 -180 197 -181q68 0 88 2l-11 -59q-20 -2 -77 -2q-129 0 -197 62.5t-68 179.5q2 61 27 136t58.5 154.5t58 154.5t26.5 136q0 160 -200 160h-33z" />
<glyph horiz-adv-x="872" d="M21 -129l12 58q53 -14 109 -15q90 2 142 47.5t77.5 118t36 158.5t14.5 169t14 148q20 133 70.5 191.5t153.5 73.5q-143 33 -144 188q2 66 27.5 141.5t58.5 154.5t58.5 152.5t27.5 137.5q0 180 -196 180q-57 0 -88 -6l10 59q31 6 78 6q129 0 196.5 -62.5t67.5 -178.5 q-2 -61 -26.5 -136t-58.5 -155t-58.5 -154.5t-26.5 -136.5q0 -160 201 -160h32l-14 -73h-33q-137 0 -197.5 -51.5t-74.5 -178.5q-6 -61 -11.5 -136t-12.5 -152.5t-25.5 -149.5t-54 -129t-95 -91t-149.5 -34q-61 0 -121 16z" />
<glyph horiz-adv-x="690" d="M172 672q0 88 60 149.5t148 61.5q86 0 146.5 -61.5t60.5 -149.5t-60.5 -149.5t-146.5 -61.5q-88 0 -148 61.5t-60 149.5z" />
<glyph horiz-adv-x="530" d="M127 778l360 418h86l-360 -422l194 -413h-82z" />
<glyph horiz-adv-x="530" d="M67 361l361 421l-195 414h82l199 -418l-361 -417h-86z" />
<glyph horiz-adv-x="860" d="M129 778l360 418h86l-360 -422l194 -413h-82zM459 778l360 418h86l-360 -422l194 -413h-82z" />
<glyph horiz-adv-x="860" d="M67 361l361 421l-195 414h82l199 -418l-361 -417h-86zM399 361l361 421l-195 414h82l199 -418l-361 -417h-86z" />
<glyph horiz-adv-x="1972" d="M151 590q0 272 135 511.5t378 391t534 151.5q215 0 384 -82t267 -235.5t98 -355.5q0 -168 -61.5 -321t-171 -251t-236.5 -98q-92 0 -145 47t-55 131q-70 -82 -163 -128t-192 -46q-92 0 -168 44t-120 125t-44 183q0 133 62.5 252t174.5 193.5t247 74.5q121 0 209 -74.5 t110 -199.5l74 242h57l-164 -547q-23 -78 -22 -105q0 -66 36 -99.5t103 -33.5q94 0 185.5 80t153 221.5t61.5 300.5q0 180 -83 320.5t-238 219.5t-359 79q-180 0 -351.5 -69.5t-311.5 -201t-227 -315.5t-87 -391q0 -201 83 -354.5t239.5 -240.5t369.5 -87q227 0 434 94v-63 q-98 -45 -211.5 -70t-222.5 -25q-221 0 -393 88.5t-270.5 255t-98.5 388.5zM661 663q0 -133 73.5 -215t190.5 -82q109 0 205 59.5t156.5 166t60.5 237.5q0 127 -74.5 207t-195.5 80q-104 0 -198.5 -59.5t-156 -165t-61.5 -228.5z" />
<glyph horiz-adv-x="593" d="M293 809q0 31 21.5 52.5t52.5 21.5q27 0 44.5 -17.5t17.5 -44.5q0 -31 -20.5 -52t-53.5 -21q-27 0 -44.5 17t-17.5 44z" />
<glyph horiz-adv-x="1107" d="M82 246q0 158 126 256t329 98q86 0 171 -21.5t154 -60.5q18 90 19 150q0 137 -81 207.5t-237 70.5q-164 0 -301 -90l-2 76q125 84 309 84q182 0 285.5 -91t103.5 -253q0 -51 -12 -111l-108 -561h-76l33 176q-141 -209 -389 -209q-150 0 -237 75t-87 204zM160 250 q0 -102 65.5 -159.5t182.5 -57.5q166 0 287.5 116.5t152.5 305.5q-61 37 -144 58.5t-167 21.5q-170 0 -273.5 -78t-103.5 -207z" />
<glyph horiz-adv-x="1161" d="M-20 -238q0 115 81.5 197t231.5 113q-164 29 -164 145q0 127 172 195q-47 43 -72.5 100t-25.5 121q0 100 56 187t156.5 141.5t223.5 54.5q119 0 209 -45l334 14l-11 -67l-253 2q88 -92 88 -213q0 -102 -56.5 -188.5t-160 -139.5t-228.5 -53q-133 0 -211 51 q-147 -61 -147 -150q0 -43 28.5 -66.5t94 -36.5t186.5 -22l27 -2q371 -29 370 -274q0 -100 -60.5 -179t-174.5 -124t-268 -45q-201 0 -313.5 75.5t-112.5 208.5zM53 -236q0 -106 89 -163.5t259 -57.5q195 0 312.5 75t117.5 200q0 106 -89 161.5t-261 55.5q-199 0 -313.5 -73 t-114.5 -198zM279 635q0 -117 75.5 -182.5t206.5 -65.5q158 0 263.5 91t105.5 229q0 115 -76 181t-209 66q-100 0 -183 -40t-133 -113.5t-50 -165.5z" />
<glyph horiz-adv-x="1040" d="M-166 -483l21 69q47 -35 116 -35q66 0 118 31t107.5 98.5t118.5 174.5l93 153l-246 975h80l219 -899l528 899h86l-698 -1161q-78 -129 -142.5 -205t-125 -107.5t-140.5 -31.5q-39 0 -76.5 11t-58.5 28z" />
<glyph horiz-adv-x="593" d="M285 770q0 31 21.5 52.5t51.5 21.5q27 0 44.5 -17.5t17.5 -44.5q0 -31 -20.5 -52t-53.5 -21q-27 0 -44 17t-17 44z" />
<glyph horiz-adv-x="593" d="M295 827q0 31 21.5 52.5t52.5 21.5q27 0 44 -17.5t17 -43.5q0 -31 -20.5 -52.5t-53.5 -21.5q-27 0 -44 17.5t-17 43.5z" />
<glyph horiz-adv-x="1878" d="M82 246q0 100 55.5 181t158.5 127t239 46q180 0 327 -82q18 96 19 152q0 137 -81 206.5t-237 69.5q-164 0 -301 -90l-2 76q125 84 309 84q160 0 256.5 -69.5t116.5 -201.5q74 127 191.5 199t255.5 72q172 0 277.5 -101.5t105.5 -267.5q0 -82 -25 -166h-821q-2 -14 -2 -67 q0 -178 105.5 -277.5t293.5 -99.5q70 0 153 23.5t158 62.5l4 -68q-63 -41 -152 -64.5t-173 -23.5q-178 0 -296 87t-151 243q-72 -162 -189.5 -246t-273.5 -84q-150 0 -235.5 75t-85.5 204zM160 250q0 -102 65.5 -159.5t182.5 -57.5q166 0 287.5 116.5t152.5 305.5 q-137 80 -311 80q-170 0 -273.5 -78t-103.5 -207zM936 545h747q12 31 13 96q0 143 -83 225t-229 82q-158 0 -283.5 -113.5t-164.5 -289.5z" />
<glyph horiz-adv-x="0" d="M-268 -479l14 63q63 -45 166 -45q76 0 124 38t48 97q0 111 -133 111q-51 0 -80 -8l104 243h56l-76 -176h16q82 0 131.5 -47t49.5 -123q0 -84 -70 -140t-172 -56q-104 0 -178 43z" />
<glyph horiz-adv-x="0" d="M-199 -502q113 160 170 369h68q-27 -96 -75 -195.5t-103 -173.5h-60z" />
<glyph horiz-adv-x="0" d="M-303 -367q0 184 319 392l60 -25q-307 -188 -307 -358q0 -96 104 -97q76 0 139 41l2 -61q-29 -18 -69.5 -29.5t-77.5 -11.5q-72 0 -121 43t-49 106z" />
<glyph horiz-adv-x="0" d="M-244 -367q0 86 94.5 191.5t268.5 216.5l71 -6q-193 -133 -277.5 -225.5t-84.5 -167.5q0 -96 104 -97q76 0 140 41l2 -61q-29 -18 -70 -29.5t-78 -11.5q-72 0 -121 43t-49 106z" />
<glyph horiz-adv-x="0" d="M-244 -367q0 86 94.5 191.5t268.5 216.5l71 -6q-193 -133 -277.5 -225.5t-84.5 -167.5q0 -96 104 -97q76 0 140 41l2 -61q-29 -18 -70 -29.5t-78 -11.5q-72 0 -121 43t-49 106z" />
<glyph horiz-adv-x="1161" d="M-20 -238q0 115 81.5 197t231.5 113q-164 29 -164 145q0 127 172 195q-47 43 -72.5 100t-25.5 121q0 100 56 187t156.5 141.5t223.5 54.5q119 0 209 -45l334 14l-11 -67l-253 2q88 -92 88 -213q0 -102 -56.5 -188.5t-160 -139.5t-228.5 -53q-133 0 -211 51 q-147 -61 -147 -150q0 -43 28.5 -66.5t94 -36.5t186.5 -22l27 -2q371 -29 370 -274q0 -100 -60.5 -179t-174.5 -124t-268 -45q-201 0 -313.5 75.5t-112.5 208.5zM53 -236q0 -106 89 -163.5t259 -57.5q195 0 312.5 75t117.5 200q0 106 -89 161.5t-261 55.5q-199 0 -313.5 -73 t-114.5 -198zM279 635q0 -117 75.5 -182.5t206.5 -65.5q158 0 263.5 91t105.5 229q0 115 -76 181t-209 66q-100 0 -183 -40t-133 -113.5t-50 -165.5zM708 1249q27 92 72 182.5t94 151.5h62q-109 -143 -158 -334h-70z" />
<glyph horiz-adv-x="1107" d="M82 246q0 158 126 256t329 98q86 0 171 -21.5t154 -60.5q18 90 19 150q0 137 -81 207.5t-237 70.5q-164 0 -301 -90l-2 76q125 84 309 84q182 0 285.5 -91t103.5 -253q0 -51 -12 -111l-108 -561h-76l33 176q-141 -209 -389 -209q-150 0 -237 75t-87 204zM160 250 q0 -102 65.5 -159.5t182.5 -57.5q166 0 287.5 116.5t152.5 305.5q-61 37 -144 58.5t-167 21.5q-170 0 -273.5 -78t-103.5 -207zM459 -367q0 184 319 392l60 -25q-307 -188 -307 -358q0 -96 104 -97q76 0 139 41l2 -61q-29 -18 -69.5 -29.5t-77.5 -11.5q-72 0 -121 43 t-49 106z" />
<glyph horiz-adv-x="0" d="M-98 1710l362 264h115l-379 -264h-98z" />
<glyph horiz-adv-x="0" d="M-205 1710l301 264h90l-313 -264h-78zM59 1710l299 264h93l-312 -264h-80z" />
<glyph horiz-adv-x="1107" d="M82 246q0 158 126 256t329 98q86 0 171 -21.5t154 -60.5q18 90 19 150q0 137 -81 207.5t-237 70.5q-164 0 -301 -90l-2 76q125 84 309 84q182 0 285.5 -91t103.5 -253q0 -51 -12 -111l-108 -561h-76l33 176q-141 -209 -389 -209q-150 0 -237 75t-87 204zM160 250 q0 -102 65.5 -159.5t182.5 -57.5q166 0 287.5 116.5t152.5 305.5q-61 37 -144 58.5t-167 21.5q-170 0 -273.5 -78t-103.5 -207zM502 1208l350 375h94l-352 -375h-92z" />
<glyph horiz-adv-x="1040" d="M-166 -483l21 69q47 -35 116 -35q66 0 118 31t107.5 98.5t118.5 174.5l93 153l-246 975h80l219 -899l528 899h86l-698 -1161q-78 -129 -142.5 -205t-125 -107.5t-140.5 -31.5q-39 0 -76.5 11t-58.5 28zM504 1208l350 375h94l-352 -375h-92z" />
<glyph horiz-adv-x="0" d="M-205 1974h99l264 -264h-88z" />
<glyph horiz-adv-x="1107" d="M82 246q0 158 126 256t329 98q86 0 171 -21.5t154 -60.5q18 90 19 150q0 137 -81 207.5t-237 70.5q-164 0 -301 -90l-2 76q125 84 309 84q182 0 285.5 -91t103.5 -253q0 -51 -12 -111l-108 -561h-76l33 176q-141 -209 -389 -209q-150 0 -237 75t-87 204zM160 250 q0 -102 65.5 -159.5t182.5 -57.5q166 0 287.5 116.5t152.5 305.5q-61 37 -144 58.5t-167 21.5q-170 0 -273.5 -78t-103.5 -207zM512 1583h88l199 -375h-74z" />
<glyph horiz-adv-x="1040" d="M-166 -483l21 69q47 -35 116 -35q66 0 118 31t107.5 98.5t118.5 174.5l93 153l-246 975h80l219 -899l528 899h86l-698 -1161q-78 -129 -142.5 -205t-125 -107.5t-140.5 -31.5q-39 0 -76.5 11t-58.5 28zM514 1583h88l199 -375h-74z" />
<glyph horiz-adv-x="0" d="M-92 1710l348 291h70l235 -291h-86l-190 234l-277 -234h-100z" />
<glyph horiz-adv-x="0" d="M-266 1708q14 115 65 176.5t133 61.5q47 -2 83 -28t66 -59.5t59.5 -59t64.5 -27.5q111 0 131 172h63q-14 -115 -65 -176.5t-133 -61.5q-47 2 -83 27.5t-65.5 59.5t-59.5 59.5t-65 27.5q-111 0 -131 -172h-63z" />
<glyph horiz-adv-x="1107" d="M82 246q0 158 126 256t329 98q86 0 171 -21.5t154 -60.5q18 90 19 150q0 137 -81 207.5t-237 70.5q-164 0 -301 -90l-2 76q125 84 309 84q182 0 285.5 -91t103.5 -253q0 -51 -12 -111l-108 -561h-76l33 176q-141 -209 -389 -209q-150 0 -237 75t-87 204zM160 250 q0 -102 65.5 -159.5t182.5 -57.5q166 0 287.5 116.5t152.5 305.5q-61 37 -144 58.5t-167 21.5q-170 0 -273.5 -78t-103.5 -207zM312 1208l362 375h60l229 -375h-82l-182 314l-299 -314h-88z" />
<glyph horiz-adv-x="1040" d="M-166 -483l21 69q47 -35 116 -35q66 0 118 31t107.5 98.5t118.5 174.5l93 153l-246 975h80l219 -899l528 899h86l-698 -1161q-78 -129 -142.5 -205t-125 -107.5t-140.5 -31.5q-39 0 -76.5 11t-58.5 28zM314 1208l362 375h60l229 -375h-82l-182 314l-299 -314h-88z" />
<glyph horiz-adv-x="1107" d="M82 246q0 158 126 256t329 98q86 0 171 -21.5t154 -60.5q18 90 19 150q0 137 -81 207.5t-237 70.5q-164 0 -301 -90l-2 76q125 84 309 84q182 0 285.5 -91t103.5 -253q0 -51 -12 -111l-108 -561h-76l33 176q-141 -209 -389 -209q-150 0 -237 75t-87 204zM160 250 q0 -102 65.5 -159.5t182.5 -57.5q166 0 287.5 116.5t152.5 305.5q-61 37 -144 58.5t-167 21.5q-170 0 -273.5 -78t-103.5 -207zM353 1274q31 238 198 237q47 -2 82 -27.5t61.5 -59t53 -59.5t59.5 -28q106 0 131 172h64q-14 -117 -64.5 -177t-134.5 -60q-47 2 -82 27.5 t-61.5 59.5t-53 59.5t-59.5 27.5q-104 0 -129 -172h-65z" />
<glyph horiz-adv-x="0" d="M-225 2001h86l188 -236l279 236h100l-348 -291h-70z" />
<glyph horiz-adv-x="0" d="M-6 1239l108 420h72l-121 -420h-59z" />
<glyph horiz-adv-x="0" d="M-227 1790l12 70h573l-12 -70h-573z" />
<glyph horiz-adv-x="1107" d="M82 246q0 158 126 256t329 98q86 0 171 -21.5t154 -60.5q18 90 19 150q0 137 -81 207.5t-237 70.5q-164 0 -301 -90l-2 76q125 84 309 84q182 0 285.5 -91t103.5 -253q0 -51 -12 -111l-108 -561h-76l33 176q-141 -209 -389 -209q-150 0 -237 75t-87 204zM160 250 q0 -102 65.5 -159.5t182.5 -57.5q166 0 287.5 116.5t152.5 305.5q-61 37 -144 58.5t-167 21.5q-170 0 -273.5 -78t-103.5 -207zM385 1348l13 69h571l-12 -69h-572z" />
<glyph horiz-adv-x="0" d="M-170 1815q0 29 20.5 49t49.5 20q23 0 40 -17.5t17 -39.5q0 -29 -19.5 -49.5t-50.5 -20.5q-23 0 -40 17.5t-17 40.5zM180 1815q0 29 20.5 49t49.5 20q23 0 40 -17.5t17 -39.5q0 -29 -19 -49.5t-50 -20.5q-23 0 -40.5 17.5t-17.5 40.5z" />
<glyph horiz-adv-x="0" d="M-201 1903q0 33 6 69h60q-4 -29 -4 -51q0 -170 188 -170q215 0 246 221h59q-8 -129 -92 -205.5t-217 -76.5q-113 0 -179.5 57t-66.5 156z" />
<glyph horiz-adv-x="1107" d="M82 246q0 158 126 256t329 98q86 0 171 -21.5t154 -60.5q18 90 19 150q0 137 -81 207.5t-237 70.5q-164 0 -301 -90l-2 76q125 84 309 84q182 0 285.5 -91t103.5 -253q0 -51 -12 -111l-108 -561h-76l33 176q-141 -209 -389 -209q-150 0 -237 75t-87 204zM160 250 q0 -102 65.5 -159.5t182.5 -57.5q166 0 287.5 116.5t152.5 305.5q-61 37 -144 58.5t-167 21.5q-170 0 -273.5 -78t-103.5 -207zM447 1374q0 29 20.5 49.5t48.5 20.5q23 0 40.5 -17.5t17.5 -40.5q0 -29 -19.5 -49t-50.5 -20q-25 0 -41 17.5t-16 39.5zM795 1374 q0 29 20.5 49.5t49.5 20.5q23 0 40 -17.5t17 -40.5q0 -29 -19.5 -49t-50.5 -20q-23 0 -40 17.5t-17 39.5z" />
<glyph horiz-adv-x="1040" d="M-166 -483l21 69q47 -35 116 -35q66 0 118 31t107.5 98.5t118.5 174.5l93 153l-246 975h80l219 -899l528 899h86l-698 -1161q-78 -129 -142.5 -205t-125 -107.5t-140.5 -31.5q-39 0 -76.5 11t-58.5 28zM449 1374q0 29 20.5 49.5t48.5 20.5q23 0 40.5 -17.5t17.5 -40.5 q0 -29 -19.5 -49t-50.5 -20q-25 0 -41 17.5t-16 39.5zM797 1374q0 29 20.5 49.5t49.5 20.5q23 0 40 -17.5t17 -40.5q0 -29 -19.5 -49t-50.5 -20q-23 0 -40 17.5t-17 39.5z" />
<glyph horiz-adv-x="1107" d="M82 246q0 158 126 256t329 98q86 0 171 -21.5t154 -60.5q18 90 19 150q0 137 -81 207.5t-237 70.5q-164 0 -301 -90l-2 76q125 84 309 84q182 0 285.5 -91t103.5 -253q0 -51 -12 -111l-108 -561h-76l33 176q-141 -209 -389 -209q-150 0 -237 75t-87 204zM160 250 q0 -102 65.5 -159.5t182.5 -57.5q166 0 287.5 116.5t152.5 305.5q-61 37 -144 58.5t-167 21.5q-170 0 -273.5 -78t-103.5 -207zM434 1452q0 43 11 78h59q-4 -18 -4 -62q0 -94 45 -138t139 -44q111 0 170.5 59.5t73.5 184.5h64q-8 -143 -89.5 -223t-218.5 -80 q-115 0 -182.5 60.5t-67.5 164.5z" />
<glyph horiz-adv-x="1161" d="M-20 -238q0 115 81.5 197t231.5 113q-164 29 -164 145q0 127 172 195q-47 43 -72.5 100t-25.5 121q0 100 56 187t156.5 141.5t223.5 54.5q119 0 209 -45l334 14l-11 -67l-253 2q88 -92 88 -213q0 -102 -56.5 -188.5t-160 -139.5t-228.5 -53q-133 0 -211 51 q-147 -61 -147 -150q0 -43 28.5 -66.5t94 -36.5t186.5 -22l27 -2q371 -29 370 -274q0 -100 -60.5 -179t-174.5 -124t-268 -45q-201 0 -313.5 75.5t-112.5 208.5zM53 -236q0 -106 89 -163.5t259 -57.5q195 0 312.5 75t117.5 200q0 106 -89 161.5t-261 55.5q-199 0 -313.5 -73 t-114.5 -198zM279 635q0 -117 75.5 -182.5t206.5 -65.5q158 0 263.5 91t105.5 229q0 115 -76 181t-209 66q-100 0 -183 -40t-133 -113.5t-50 -165.5zM505 1452q0 43 11 78h59q-4 -18 -4 -62q0 -94 45 -138t139 -44q111 0 170.5 59.5t73.5 184.5h64q-8 -143 -89.5 -223 t-218.5 -80q-115 0 -182.5 60.5t-67.5 164.5z" />
<glyph horiz-adv-x="0" d="M2 1817q0 31 21.5 51t50.5 20q25 0 42 -17.5t17 -41.5q0 -31 -20.5 -51.5t-51.5 -20.5q-25 0 -42 17.5t-17 42.5z" />
<glyph horiz-adv-x="1161" d="M-20 -238q0 115 81.5 197t231.5 113q-164 29 -164 145q0 127 172 195q-47 43 -72.5 100t-25.5 121q0 100 56 187t156.5 141.5t223.5 54.5q119 0 209 -45l334 14l-11 -67l-253 2q88 -92 88 -213q0 -102 -56.5 -188.5t-160 -139.5t-228.5 -53q-133 0 -211 51 q-147 -61 -147 -150q0 -43 28.5 -66.5t94 -36.5t186.5 -22l27 -2q371 -29 370 -274q0 -100 -60.5 -179t-174.5 -124t-268 -45q-201 0 -313.5 75.5t-112.5 208.5zM53 -236q0 -106 89 -163.5t259 -57.5q195 0 312.5 75t117.5 200q0 106 -89 161.5t-261 55.5q-199 0 -313.5 -73 t-114.5 -198zM279 635q0 -117 75.5 -182.5t206.5 -65.5q158 0 263.5 91t105.5 229q0 115 -76 181t-209 66q-100 0 -183 -40t-133 -113.5t-50 -165.5zM678 1374q0 31 21.5 51.5t49.5 20.5q25 0 42.5 -17.5t17.5 -42.5q0 -31 -20.5 -51t-51.5 -20q-25 0 -42 17.5t-17 41.5z " />
<glyph horiz-adv-x="0" d="M25 1919q0 106 70.5 175t180.5 69q111 0 182.5 -69t71.5 -175t-71.5 -175t-182.5 -69q-109 0 -180 68.5t-71 175.5zM88 1919q0 -82 52 -134t136 -52t137.5 52t53.5 134t-53.5 134t-137.5 52t-136 -51t-52 -135z" />
<glyph horiz-adv-x="1107" d="M82 246q0 158 126 256t329 98q86 0 171 -21.5t154 -60.5q18 90 19 150q0 137 -81 207.5t-237 70.5q-164 0 -301 -90l-2 76q125 84 309 84q182 0 285.5 -91t103.5 -253q0 -51 -12 -111l-108 -561h-76l33 176q-141 -209 -389 -209q-150 0 -237 75t-87 204zM160 250 q0 -102 65.5 -159.5t182.5 -57.5q166 0 287.5 116.5t152.5 305.5q-61 37 -144 58.5t-167 21.5q-170 0 -273.5 -78t-103.5 -207zM421 1448q0 106 71 175t181 69q111 0 182.5 -69t71.5 -175t-71.5 -175t-182.5 -69q-109 0 -180.5 68.5t-71.5 175.5zM483 1448q0 -82 53 -134 t137 -52t138.5 52t54.5 134t-54.5 134t-138.5 52t-137 -52t-53 -134z" />
</font>
</defs>
</svg>
