<?xml version="1.0" standalone="no"?>
<!DOCTYPE svg PUBLIC "-//W3C//DTD SVG 1.1//EN" "http://www.w3.org/Graphics/SVG/1.1/DTD/svg11.dtd" >
<svg xmlns="http://www.w3.org/2000/svg" xmlns:xlink="http://www.w3.org/1999/xlink" version="1.1">
<metadata></metadata>
<defs>
<font id="objektiv_mk1thin" horiz-adv-x="790" >
<font-face units-per-em="2048" ascent="1638" descent="-410" />
<missing-glyph horiz-adv-x="460" />
<glyph unicode=" "  horiz-adv-x="460" />
<glyph unicode="&#x09;" horiz-adv-x="460" />
<glyph unicode="&#xa0;" horiz-adv-x="460" />
<glyph unicode="!" horiz-adv-x="503" d="M184 49q0 31 19.5 49.5t48.5 18.5t48 -18.5t19 -49.5t-19 -49t-48 -18t-48.5 18t-19.5 49zM211 1616h82l-10 -1202h-62z" />
<glyph unicode="&#x22;" horiz-adv-x="618" d="M104 1556h82l-10 -600h-61zM432 1556h82l-10 -600h-61z" />
<glyph unicode="#" horiz-adv-x="1392" d="M133 397v58h229l107 477h-262v57h274l90 397h64l-90 -397h418l90 397h63l-90 -397h223v-57h-235l-107 -477h267v-58h-279l-88 -397h-64l88 397h-417l-88 -397h-64l88 397h-217zM426 455h418l106 477h-418z" />
<glyph unicode="$" horiz-adv-x="1269" d="M184 100l17 72q164 -113 393 -117v701q-217 86 -307 179t-90 232q0 162 108.5 262.5t288.5 106.5v258h68v-260q180 -10 327 -90l-12 -68q-143 80 -315 90v-659q221 -90 314 -188.5t93 -241.5q0 -164 -110.5 -269.5t-296.5 -119.5v-254h-68v252q-248 4 -410 114zM270 1171 q0 -84 32 -139t100.5 -101t191.5 -97v634q-150 -6 -237 -85.5t-87 -211.5zM662 57q154 12 243.5 95.5t89.5 216.5q0 127 -71.5 203.5t-261.5 154.5v-670z" />
<glyph unicode="%" horiz-adv-x="1781" d="M102 1217q0 92 43 168.5t121 123.5t174 47q90 0 166 -43t122 -120.5t46 -175.5q0 -90 -42 -167t-119 -125t-173 -48q-90 0 -166.5 43t-124 121.5t-47.5 175.5zM176 1217q0 -115 75.5 -193t188.5 -78q111 0 185.5 78t74.5 193t-73.5 192.5t-186.5 77.5t-188.5 -77 t-75.5 -193zM238 0l1208 1524h90l-1208 -1524h-90zM1008 319q0 92 43 169t120.5 124t174.5 47q90 0 165.5 -43t121.5 -120.5t46 -176.5q0 -90 -42 -166.5t-118.5 -124.5t-172.5 -48q-90 0 -167 43t-124 121.5t-47 174.5zM1081 319q0 -115 76 -192.5t189 -77.5 q111 0 185.5 78t74.5 192q0 115 -74 193t-186 78q-113 0 -189 -77t-76 -194z" />
<glyph unicode="&#x26;" horiz-adv-x="1519" d="M164 385q0 141 89 255t275 212q-121 141 -166 227t-45 183q0 145 97.5 238t253.5 93q150 0 241.5 -90t91.5 -235q0 -123 -87 -225.5t-275 -204.5l500 -553q121 186 121 481l67 -10q0 -313 -141 -525l211 -231h-99l-157 174q-88 -102 -210 -154.5t-267 -52.5t-258 50.5 t-177.5 145.5t-64.5 222zM242 383q0 -156 117 -251t305 -95q272 0 430 188l-525 580q-180 -102 -253.5 -196.5t-73.5 -225.5zM393 1262q0 -82 42 -161t161 -216q176 96 253 185t77 198q0 119 -72 190.5t-186 71.5q-121 0 -198 -75t-77 -193z" />
<glyph unicode="'" horiz-adv-x="290" d="M104 1556h82l-10 -600h-61z" />
<glyph unicode="(" horiz-adv-x="763" d="M197 702q0 279 96 540t264 437h78q-174 -195 -269.5 -451.5t-95.5 -525.5q0 -268 95.5 -524t269.5 -450h-78q-168 180 -264 439t-96 535z" />
<glyph unicode=")" horiz-adv-x="763" d="M129 -272q174 195 269.5 451.5t95.5 525.5q0 268 -95.5 524t-269.5 450h78q168 -180 264 -439t96 -535q0 -279 -96 -540t-264 -437h-78z" />
<glyph unicode="*" horiz-adv-x="1046" d="M133 1247l27 68l332 -125l-9 366h78l-8 -366l334 125l26 -68l-333 -112l231 -287l-66 -45l-223 305l-221 -305l-65 45l231 287z" />
<glyph unicode="+" horiz-adv-x="1269" d="M188 655v70h408v403h76v-403h407v-70h-407v-403h-76v403h-408z" />
<glyph unicode="," horiz-adv-x="593" d="M68 -371q66 104 110.5 231.5t59.5 252.5h84q-18 -133 -67.5 -260t-121.5 -224h-65z" />
<glyph unicode="-" horiz-adv-x="899" d="M164 543v73h571v-73h-571z" />
<glyph unicode="." horiz-adv-x="593" d="M229 49q0 31 19.5 49.5t48.5 18.5t48.5 -18.5t19.5 -49.5t-19.5 -49t-48.5 -18t-48.5 18t-19.5 49z" />
<glyph unicode="/" horiz-adv-x="1032" d="M31 -272l891 1931h82l-891 -1931h-82z" />
<glyph unicode="0" horiz-adv-x="1269" d="M143 764q0 240 58.5 419t169 276t262.5 97q150 0 260.5 -93t171.5 -272t61 -427q0 -240 -58 -419t-169.5 -278.5t-265.5 -99.5q-225 0 -357.5 214t-132.5 583zM223 764q0 -336 111 -531.5t299 -195.5q125 0 218 86t144.5 250t51.5 391q0 219 -49.5 382t-142.5 252 t-222 89q-190 0 -300 -193.5t-110 -529.5z" />
<glyph unicode="1" horiz-adv-x="1269" d="M211 1305l489 219h62v-1524h-76v1440l-467 -205z" />
<glyph unicode="2" horiz-adv-x="1269" d="M180 0v66q43 43 160 171t213 238q207 236 292 385.5t85 280.5q0 160 -88 251t-246 91q-203 0 -367 -176l-14 73q72 84 173 130t210 46q188 0 299 -110.5t111 -298.5q0 -139 -75 -282.5t-263 -362.5q-193 -221 -396 -430h791v-72h-885z" />
<glyph unicode="3" horiz-adv-x="1269" d="M158 74l10 73q168 -111 362 -110q203 0 319 105.5t116 289.5q0 172 -107.5 269.5t-298.5 97.5q-82 0 -143 -17l-23 49l525 623h-725v70h806v-72l-503 -596q33 8 84 8q207 0 333.5 -118.5t126.5 -315.5q0 -135 -61 -239.5t-177 -164t-270 -59.5q-106 0 -206.5 29 t-167.5 78z" />
<glyph unicode="4" horiz-adv-x="1269" d="M109 424v61l735 1039h65v-1037h209v-63h-209v-424h-71v424h-729zM193 487h645v918z" />
<glyph unicode="5" horiz-adv-x="1269" d="M186 78l11 74q170 -115 364 -115q193 0 309.5 116.5t116.5 311.5q0 186 -121 291.5t-334 105.5q-129 0 -274 -53l25 715h692v-72h-627l-18 -555q94 33 229 33q147 0 261 -56.5t178.5 -161t64.5 -245.5t-60.5 -255t-173.5 -179.5t-260 -65.5q-109 0 -208 29t-175 82z" />
<glyph unicode="6" horiz-adv-x="1269" d="M186 449q0 270 168 567t441 510l96 -10q-215 -160 -378 -381.5t-226 -440.5q59 94 159.5 146.5t217.5 52.5q123 0 222 -56.5t158.5 -159t59.5 -235.5t-58.5 -240.5t-166 -171t-244.5 -63.5q-125 0 -227.5 59.5t-162 170t-59.5 252.5zM262 428q0 -176 104.5 -283.5 t276.5 -107.5q109 0 196 49t138 138t51 206q0 186 -101.5 289.5t-283.5 103.5q-102 0 -188 -50t-139.5 -141t-53.5 -204z" />
<glyph unicode="7" horiz-adv-x="1269" d="M176 1450v74h889v-58l-596 -1470l-80 8l596 1446h-809z" />
<glyph unicode="8" horiz-adv-x="1269" d="M145 399q0 145 88.5 254t237.5 150q-129 39 -203.5 137t-74.5 231q0 109 54 197t155.5 139.5t232.5 51.5q195 0 319.5 -109t124.5 -279q0 -131 -74.5 -229t-203.5 -139q96 -27 169.5 -85.5t114.5 -140t41 -178.5q0 -193 -136 -312.5t-355 -119.5q-141 0 -252 52.5 t-174.5 150.5t-63.5 229zM219 403q0 -162 116 -264t300 -102q121 0 215 45t148.5 129t54.5 192q0 102 -51.5 184.5t-146.5 130.5t-220 48q-117 0 -211 -45t-149.5 -128t-55.5 -190zM264 1165q0 -141 104.5 -232t266.5 -91t267.5 91t105.5 232q0 94 -45 167t-130 115t-198 42 q-166 0 -268.5 -89t-102.5 -235z" />
<glyph unicode="9" horiz-adv-x="1269" d="M166 1081q0 133 58.5 241t166 171t244.5 63q125 0 227.5 -59t161.5 -169.5t59 -252.5q0 -270 -167.5 -567t-440.5 -510l-96 10q213 158 376 379t226 440q-57 -92 -156.5 -144t-218.5 -52q-123 0 -222 56t-158.5 158.5t-59.5 235.5zM242 1094q0 -186 101.5 -290 t283.5 -104q102 0 188 50.5t139.5 141.5t53.5 204q0 176 -104.5 283.5t-276.5 107.5q-109 0 -196 -49t-138 -138.5t-51 -205.5z" />
<glyph unicode=":" horiz-adv-x="593" d="M229 49q0 31 19.5 49.5t48.5 18.5t48.5 -18.5t19.5 -49.5t-19.5 -49t-48.5 -18t-48.5 18t-19.5 49zM229 930q0 31 19.5 49.5t48.5 18.5t48.5 -18.5t19.5 -49.5t-19.5 -49t-48.5 -18t-48.5 18t-19.5 49z" />
<glyph unicode=";" horiz-adv-x="593" d="M68 -371q66 104 110.5 231.5t59.5 252.5h84q-18 -133 -67.5 -260t-121.5 -224h-65zM229 930q0 31 19.5 49.5t48.5 18.5t48.5 -18.5t19.5 -49.5t-19.5 -49t-48.5 -18t-48.5 18t-19.5 49z" />
<glyph unicode="&#x3c;" horiz-adv-x="1269" d="M227 655v68l815 407v-77l-725 -361l725 -360v-82z" />
<glyph unicode="=" horiz-adv-x="1269" d="M219 424v70h832v-70h-832zM219 885v69h832v-69h-832z" />
<glyph unicode="&#x3e;" horiz-adv-x="1269" d="M227 252v78l725 360l-725 361v82l815 -406v-68z" />
<glyph unicode="?" horiz-adv-x="968" d="M57 1464q63 80 170 126t228 46q113 0 201.5 -43t141 -122.5t52.5 -182.5q0 -90 -29.5 -154.5t-77 -114.5t-99.5 -97.5t-99 -100.5t-77 -125.5t-30 -173.5q0 -51 4 -108h-61q-8 66 -8 116q0 106 28.5 183.5t74.5 133.5t96.5 103t96.5 94.5t74.5 105.5t28.5 138 q0 127 -89 203t-237 76q-211 0 -370 -172zM348 49q0 31 19.5 49.5t48.5 18.5t48 -18.5t19 -49.5t-19 -49t-48 -18t-48.5 18t-19.5 49z" />
<glyph unicode="@" horiz-adv-x="1978" d="M113 373q0 252 123.5 471t348 355t498.5 136q231 0 410.5 -94t281 -270t101.5 -412q0 -158 -49 -283.5t-141.5 -199.5t-212.5 -74q-98 0 -154.5 48t-67.5 140q-61 -88 -152 -136t-198 -48q-154 0 -253 109.5t-99 281.5q0 125 56.5 234.5t157.5 178.5t224 69 q125 0 214 -70t124 -195l51 232h66l-115 -527q-12 -55 -12 -96q0 -162 164 -162q88 0 162.5 62.5t119.5 176.5t45 257q0 211 -87 372t-250.5 252t-387.5 91q-238 0 -441.5 -116t-330.5 -322.5t-127 -458.5q0 -229 93.5 -401.5t269.5 -266.5t420 -94q231 0 436 96l4 -65 q-192 -95 -442 -95q-256 0 -447.5 97.5t-297 284t-105.5 442.5zM616 399q0 -152 82 -242.5t217 -90.5q100 0 185.5 53t137.5 148t52 214q0 152 -81 243t-216 91q-98 0 -184 -53t-139.5 -148.5t-53.5 -214.5z" />
<glyph unicode="A" horiz-adv-x="1511" d="M68 0l641 1556h92l643 -1556h-92l-211 516h-779l-208 -516h-86zM393 590h719l-358 885z" />
<glyph unicode="B" horiz-adv-x="1472" d="M276 0v1556h463q231 0 357.5 -99t126.5 -281q0 -266 -256 -355q162 -29 249 -131t87 -262q0 -209 -129.5 -318.5t-376.5 -109.5h-521zM356 78h428q434 0 435 350q0 176 -110 262t-329 86h-424v-698zM356 854h400q186 0 284.5 81t98.5 232q0 311 -410 312h-373v-625z" />
<glyph unicode="C" horiz-adv-x="1589" d="M164 780q0 231 97 411.5t280.5 284t425.5 103.5q246 0 448 -111l-20 -75q-201 106 -432 106q-207 0 -368 -87t-253 -249t-92 -379q0 -207 86 -371.5t247.5 -260t372.5 -95.5q117 0 240 29t217 76l14 -76q-96 -51 -222 -80t-249 -29q-227 0 -406 98.5t-282.5 282 t-103.5 422.5z" />
<glyph unicode="D" horiz-adv-x="1755" d="M276 0v1556h482q403 0 618 -200.5t215 -579.5t-214 -577.5t-623 -198.5h-478zM358 78h400q369 0 558 176t189 522t-189.5 524.5t-557.5 178.5h-400v-1401z" />
<glyph unicode="E" horiz-adv-x="1327" d="M276 0v1556h857v-75h-775v-643h693v-72h-693v-690h805v-76h-887z" />
<glyph unicode="F" horiz-adv-x="1224" d="M276 0v1556h826v-75h-744v-682h639v-74h-639v-725h-82z" />
<glyph unicode="G" horiz-adv-x="1718" d="M164 770q0 229 99 412.5t285.5 290t430.5 106.5q127 0 264 -30.5t230 -80.5l-21 -77q-94 49 -224 78.5t-253 29.5q-203 0 -367 -89t-261 -254t-97 -378t88 -375.5t253 -254t388 -91.5q117 0 233.5 24.5t208.5 70.5v548h-422v78h504v-676q-102 -59 -242.5 -92t-287.5 -33 q-233 0 -416.5 96.5t-288 276.5t-104.5 420z" />
<glyph unicode="H" horiz-adv-x="1781" d="M276 0v1556h82v-700h1065v700h82v-1556h-82v778h-1065v-778h-82z" />
<glyph unicode="I" horiz-adv-x="634" d="M276 0v1556h82v-1556h-82z" />
<glyph unicode="J" horiz-adv-x="1114" d="M119 53l14 80q131 -80 295 -80q176 0 261 89t85 272v1142h82v-1130q0 -223 -106.5 -337t-317.5 -114q-166 0 -313 78z" />
<glyph unicode="K" horiz-adv-x="1544" d="M276 0v1556h82v-722l899 722h119l-932 -745l1014 -811h-127l-973 778v-778h-82z" />
<glyph unicode="L" horiz-adv-x="1234" d="M276 0v1556h82v-1480h764v-76h-846z" />
<glyph unicode="M" horiz-adv-x="2146" d="M254 0l70 1556h88l663 -1196l660 1196h88l69 -1556h-80l-69 1417l-639 -1153h-64l-639 1145l-67 -1409h-80z" />
<glyph unicode="N" horiz-adv-x="1822" d="M276 0v1556h84l1106 -1439v1439h80v-1556h-84l-1106 1440v-1440h-80z" />
<glyph unicode="O" horiz-adv-x="1888" d="M164 776q0 223 97 407.5t276.5 295t408.5 110.5q213 0 390 -101.5t282.5 -287.5t105.5 -422q0 -221 -97 -405.5t-276.5 -295t-406.5 -110.5q-215 0 -391 101.5t-282.5 287t-106.5 420.5zM248 780q0 -203 87 -368.5t246.5 -265t362.5 -99.5q190 0 349 91t253 258t94 380 q0 203 -87 369t-246.5 265t-362.5 99q-190 0 -349 -91t-253 -258t-94 -380z" />
<glyph unicode="P" horiz-adv-x="1318" d="M276 0v1556h402q231 0 368.5 -121.5t137.5 -326.5q0 -219 -144.5 -342t-398.5 -123h-283v-643h-82zM358 721h273q229 0 348 98.5t119 284.5q0 178 -113 276.5t-317 98.5h-310v-758z" />
<glyph unicode="Q" horiz-adv-x="1888" d="M164 776q0 223 97 407.5t276.5 295t408.5 110.5q213 0 390 -101.5t282.5 -287.5t105.5 -422q0 -268 -139 -476t-375 -290l353 -385h-111l-328 361q-76 -20 -180 -21q-215 0 -391 101.5t-282.5 287t-106.5 420.5zM248 780q0 -203 87 -368.5t246.5 -265t362.5 -99.5 q190 0 349 91t253 258t94 380q0 203 -87 369t-246.5 265t-362.5 99q-190 0 -349 -91t-253 -258t-94 -380z" />
<glyph unicode="R" horiz-adv-x="1423" d="M276 0v1556h412q227 0 362.5 -118.5t135.5 -317.5q0 -158 -80 -267.5t-232 -156.5l457 -696h-100l-436 678q-78 -10 -136 -10h-301v-668h-82zM358 745h289q219 0 336 95.5t117 273.5q0 174 -109.5 269.5t-308.5 95.5h-324v-734z" />
<glyph unicode="S" horiz-adv-x="1329" d="M162 94l14 78q88 -61 206 -96t241 -35q205 0 322.5 90t117.5 248q0 104 -43 168.5t-144.5 117t-293.5 117.5q-201 68 -294 168.5t-93 249.5q0 178 125.5 283.5t341.5 105.5q221 0 413 -96l-18 -72q-190 94 -395 95q-180 0 -284 -82t-104 -228q0 -94 37 -155.5t117 -108.5 t217 -94q199 -68 305.5 -133.5t150.5 -143t44 -186.5q0 -193 -140 -305.5t-380 -112.5q-133 0 -255 34t-208 93z" />
<glyph unicode="T" horiz-adv-x="1363" d="M109 1481v75h1146v-75h-532v-1481h-82v1481h-532z" />
<glyph unicode="U" horiz-adv-x="1712" d="M236 606v950h81v-933q0 -575 539 -576q539 0 539 576v933h82v-950q0 -309 -161 -474t-460 -165t-459.5 165t-160.5 474z" />
<glyph unicode="V" horiz-adv-x="1497" d="M76 1556h94l580 -1466l583 1466h88l-624 -1556h-97z" />
<glyph unicode="W" horiz-adv-x="2238" d="M86 1556h92l443 -1447l454 1427h88l455 -1427l444 1447h90l-487 -1556h-88l-461 1415l-452 -1415h-91z" />
<glyph unicode="X" horiz-adv-x="1492" d="M92 0l606 817l-546 739h102l494 -677l499 677h94l-546 -737l606 -819h-105l-551 756l-557 -756h-96z" />
<glyph unicode="Y" horiz-adv-x="1441" d="M82 1556h98l543 -782l545 782h92l-600 -854v-702h-82v702z" />
<glyph unicode="Z" horiz-adv-x="1435" d="M143 0v74l1014 1407h-962v75h1060v-73l-1013 -1407h1030v-76h-1129z" />
<glyph unicode="[" horiz-adv-x="735" d="M209 -272v1951h432v-65h-360v-1821h360v-65h-432z" />
<glyph unicode="\" horiz-adv-x="1032" d="M29 1659h82l890 -1931h-81z" />
<glyph unicode="]" horiz-adv-x="735" d="M94 -207h361v1821h-361v65h432v-1951h-432v65z" />
<glyph unicode="^" horiz-adv-x="1269" d="M182 688l426 737h74l403 -737h-81l-359 666l-383 -666h-80z" />
<glyph unicode="_" horiz-adv-x="1024" d="M0 -147h1024v-72h-1024v72z" />
<glyph unicode="`" horiz-adv-x="1024" d="M328 1583h90l279 -375h-82z" />
<glyph unicode="a" horiz-adv-x="1327" d="M127 492q0 141 63.5 259.5t179 191.5t261.5 73q131 0 240.5 -65.5t175.5 -182.5l2 215h73v-983h-73l-2 213q-66 -117 -175.5 -181.5t-240.5 -64.5q-139 0 -253 65.5t-182.5 185.5t-68.5 274zM207 492q0 -125 52 -228.5t149.5 -165t222.5 -61.5q117 0 213 56.5 t153.5 160.5t57.5 238q0 125 -53.5 228t-150.5 164.5t-220 61.5q-117 0 -213 -56t-153.5 -160.5t-57.5 -237.5z" />
<glyph unicode="b" horiz-adv-x="1327" d="M205 0v1659h78v-887q66 117 173 180.5t240 63.5q139 0 253 -65.5t182.5 -185.5t68.5 -273q0 -141 -63.5 -260t-179.5 -192t-261 -73q-133 0 -242.5 64.5t-172.5 181.5l-2 -213h-74zM272 492q0 -125 53.5 -228.5t150.5 -165t220 -61.5q117 0 213.5 56.5t153.5 160.5 t57 238q0 125 -52 228t-149.5 164.5t-222.5 61.5q-117 0 -213 -56t-153.5 -160.5t-57.5 -237.5z" />
<glyph unicode="c" horiz-adv-x="1073" d="M127 492q0 143 63.5 260.5t182.5 188.5t268 71q184 0 309 -72l-14 -72q-123 74 -295 74q-123 0 -221 -55.5t-155.5 -157.5t-57.5 -237q0 -131 54 -232.5t155.5 -160t234.5 -58.5q86 0 167 22.5t145 63.5l12 -68q-61 -41 -149.5 -64.5t-174.5 -23.5q-150 0 -268.5 63.5 t-187 182.5t-68.5 275z" />
<glyph unicode="d" horiz-adv-x="1327" d="M127 492q0 141 63.5 259.5t179 191.5t261.5 73q131 0 239.5 -63.5t173.5 -180.5v887h78v-1659h-73l-2 213q-66 -117 -175.5 -181.5t-240.5 -64.5q-139 0 -253 65.5t-182.5 185.5t-68.5 274zM207 492q0 -125 52 -228.5t149.5 -165t222.5 -61.5q117 0 213 56.5t153.5 160.5 t57.5 238q0 125 -53.5 228t-150.5 164.5t-220 61.5q-117 0 -213 -56t-153.5 -160.5t-57.5 -237.5z" />
<glyph unicode="e" horiz-adv-x="1155" d="M127 485q0 145 59.5 265t169 193t248.5 73q121 0 217.5 -57.5t151.5 -163t55 -244.5q0 -33 -6 -70h-819q4 -207 128 -325.5t333 -118.5q176 0 329 86l15 -70q-66 -39 -160.5 -62.5t-190.5 -23.5q-154 0 -273.5 62.5t-188 180.5t-68.5 275zM205 545h751q0 117 -43 208 t-124.5 143t-190.5 52q-98 0 -183 -50t-141.5 -142t-68.5 -211z" />
<glyph unicode="f" horiz-adv-x="776" d="M78 915v68h211v211q0 233 94 354t274 121q113 0 191 -41l-12 -67q-82 38 -174 38h-5q-147 0 -218.5 -102t-71.5 -313v-201h352v-68h-352v-915h-78v915h-211z" />
<glyph unicode="g" horiz-adv-x="1331" d="M127 492q0 141 63.5 259.5t179 191.5t261.5 73q133 0 243.5 -67.5t176.5 -188.5l2 223h73v-903q0 -309 -128 -455.5t-400 -146.5q-88 0 -191.5 28.5t-168.5 71.5l14 72q66 -45 164 -74t182 -29q238 0 344.5 124t106.5 403v143q-66 -119 -175.5 -184.5t-242.5 -65.5 q-139 0 -253 65.5t-182.5 185.5t-68.5 274zM207 492q0 -125 52 -228.5t149.5 -165t222.5 -61.5q115 0 211 56.5t154.5 160.5t58.5 238q0 125 -53.5 228t-150.5 164.5t-220 61.5q-117 0 -213 -56t-153.5 -160.5t-57.5 -237.5z" />
<glyph unicode="h" horiz-adv-x="1222" d="M205 0v1659h78v-862q53 109 147 164t221 55q176 0 275.5 -111.5t99.5 -310.5v-594h-78v584q0 362 -309 362q-162 0 -259 -113.5t-97 -302.5v-530h-78z" />
<glyph unicode="i" horiz-adv-x="487" d="M178 1380q0 31 17.5 48.5t48.5 17.5t48 -17.5t17 -48.5t-17 -48t-48 -17t-48.5 17.5t-17.5 47.5zM205 0v983h78v-983h-78z" />
<glyph unicode="j" horiz-adv-x="487" d="M-205 -475l8 67q88 -45 197 -45t157 61.5t48 203.5v1171h78v-1171q0 -170 -70.5 -252t-220.5 -82q-102 0 -197 47zM178 1380q0 31 18.5 48.5t47.5 17.5q31 0 48 -17.5t17 -48.5q0 -29 -17 -47t-48 -18t-48.5 17.5t-17.5 47.5z" />
<glyph unicode="k" horiz-adv-x="1099" d="M205 0v1659h78v-1086l577 410h117l-612 -434l694 -549h-119l-657 520v-520h-78z" />
<glyph unicode="l" horiz-adv-x="487" d="M205 0v1659h78v-1659h-78z" />
<glyph unicode="m" horiz-adv-x="1904" d="M205 0v983h74v-192q51 111 144 168t218 57q127 0 213 -66.5t121 -189.5q51 123 149.5 189.5t229.5 66.5q168 0 261 -111.5t93 -310.5v-594h-78v584q0 180 -72.5 271t-216.5 91q-158 0 -252 -114.5t-94 -305.5v-526h-77v584q0 180 -73 271t-216 91q-156 0 -251 -115.5 t-95 -302.5v-528h-78z" />
<glyph unicode="n" horiz-adv-x="1222" d="M205 0v983h74v-192q51 109 146 167t226 58q176 0 275.5 -111.5t99.5 -310.5v-594h-78v584q0 362 -309 362q-162 0 -259 -113.5t-97 -302.5v-530h-78z" />
<glyph unicode="o" horiz-adv-x="1261" d="M127 492q0 141 63.5 259.5t179 191.5t261.5 73q139 0 252.5 -65.5t182.5 -185.5t69 -273q0 -141 -63.5 -260t-179.5 -192t-261 -73q-139 0 -253 65.5t-182.5 185.5t-68.5 274zM207 492q0 -125 52 -228.5t149.5 -165t222.5 -61.5q117 0 213 56.5t153.5 160.5t57.5 238 q0 125 -52.5 228t-149.5 164.5t-222 61.5q-117 0 -213 -56t-153.5 -160.5t-57.5 -237.5z" />
<glyph unicode="p" horiz-adv-x="1327" d="M205 -502v1485h74l2 -215q63 119 172.5 183.5t242.5 64.5q139 0 253 -65.5t182.5 -185.5t68.5 -273q0 -141 -63.5 -260t-179 -192t-261.5 -73q-131 0 -240.5 63.5t-172.5 178.5v-711h-78zM272 492q0 -125 53.5 -228.5t150.5 -165t220 -61.5q117 0 213.5 56.5t153.5 160.5 t57 238q0 125 -52 228t-149.5 164.5t-222.5 61.5q-117 0 -213 -56t-153.5 -160.5t-57.5 -237.5z" />
<glyph unicode="q" horiz-adv-x="1327" d="M127 492q0 141 63.5 259.5t179 191.5t261.5 73q131 0 240.5 -65.5t175.5 -182.5l2 215h73v-1485h-78v711q-66 -115 -174 -178.5t-239 -63.5q-139 0 -253 65.5t-182.5 185.5t-68.5 274zM207 492q0 -125 52 -228.5t149.5 -165t222.5 -61.5q117 0 213 56.5t153.5 160.5 t57.5 238q0 125 -53.5 228t-150.5 164.5t-220 61.5q-117 0 -213 -56t-153.5 -160.5t-57.5 -237.5z" />
<glyph unicode="r" horiz-adv-x="798" d="M205 0v983h76v-221q45 115 133 175t209 60q68 0 104 -16l-6 -72q-59 16 -111 17q-154 0 -240.5 -127t-86.5 -350v-449h-78z" />
<glyph unicode="s" horiz-adv-x="937" d="M113 63l10 76q63 -47 152.5 -74.5t170.5 -27.5q135 0 213 53t78 146q0 61 -27.5 100t-89 68.5t-174.5 62.5q-160 47 -233.5 117.5t-73.5 177.5q0 115 89 184.5t239 69.5q82 0 163 -20.5t138 -55.5l-10 -72q-59 37 -137 57.5t-154 20.5q-119 0 -185.5 -48t-66.5 -132 q0 -80 58.5 -132t189.5 -89q197 -57 274.5 -125t77.5 -180q0 -125 -100.5 -199t-268.5 -74q-90 0 -180 25.5t-153 70.5z" />
<glyph unicode="t" horiz-adv-x="856" d="M41 915v68h233v336h78v-336h377v-68h-377v-563q0 -174 50.5 -244.5t172.5 -70.5q47 0 104.5 16.5t98.5 40.5l15 -67q-41 -27 -105 -43.5t-121 -16.5q-152 0 -222.5 84t-70.5 266v598h-233z" />
<glyph unicode="u" horiz-adv-x="1216" d="M197 389v594h77v-584q0 -178 78 -270t230 -92q158 0 255 114.5t97 301.5v530h78v-983h-74l-2 190q-51 -109 -145.5 -166t-221.5 -57q-176 0 -274 111.5t-98 310.5z" />
<glyph unicode="v" horiz-adv-x="1050" d="M61 983h86l383 -897l379 897h80l-422 -983h-78z" />
<glyph unicode="w" horiz-adv-x="1617" d="M72 983h80l325 -893l297 873h70l297 -871l329 891h76l-364 -983h-78l-297 868l-295 -868h-80z" />
<glyph unicode="x" horiz-adv-x="1097" d="M90 0l414 510l-373 473h98l322 -418l328 418h88l-373 -471l414 -512h-99l-362 457l-367 -457h-90z" />
<glyph unicode="y" horiz-adv-x="1067" d="M61 983h86l406 -838l373 838h80l-668 -1485h-84l258 557z" />
<glyph unicode="z" horiz-adv-x="1013" d="M119 0v61l657 854h-633v68h727v-61l-659 -854h674v-68h-766z" />
<glyph unicode="{" horiz-adv-x="866" d="M133 655v74h35q121 0 179.5 47t58.5 146q-2 76 -19.5 160.5t-35 169.5t-19.5 159q0 139 71.5 204.5t223.5 65.5q45 0 98 -4v-59q-45 4 -100 4q-119 0 -171.5 -48t-52.5 -157q0 -51 11.5 -114.5t26 -130t25.5 -129t11 -113.5q0 -98 -47 -158.5t-137 -79.5 q90 -18 137 -78.5t47 -158.5q0 -51 -11 -113.5t-25.5 -129.5t-26 -130.5t-11.5 -114.5q0 -109 52.5 -157t171.5 -48q55 0 100 5v-60q-53 -4 -98 -4q-152 0 -223.5 65.5t-71.5 204.5q2 74 19.5 159t34.5 170t20 161q0 98 -58.5 145t-179.5 47h-35z" />
<glyph unicode="|" horiz-adv-x="487" d="M205 -465v2239h78v-2239h-78z" />
<glyph unicode="}" horiz-adv-x="866" d="M141 -233q45 -4 101 -5q119 0 171 48.5t52 156.5q0 51 -11.5 114.5t-25.5 130.5t-25.5 129t-11.5 114q0 98 47 158.5t137 78.5q-90 18 -137 78.5t-47 159.5q0 51 11.5 113.5t25.5 129t25.5 130t11.5 114.5q0 109 -52.5 157t-170.5 48q-55 0 -101 -4v59q53 4 99 4 q152 0 223.5 -66.5t71.5 -203.5q-2 -74 -19.5 -159l-35 -170t-19.5 -160q0 -98 58.5 -145.5t178.5 -47.5h35v-74h-35q-121 0 -179 -47t-58 -145q2 -76 19.5 -161t34.5 -170t20 -159q0 -137 -71.5 -203.5t-223.5 -66.5q-45 0 -99 4v60z" />
<glyph unicode="~" horiz-adv-x="1269" d="M176 532v29q0 139 57.5 217t157.5 78q57 0 114.5 -27.5t135.5 -93.5q88 -76 137 -103.5t99 -27.5q76 0 112.5 60.5t36.5 191.5h68v-29q0 -137 -57.5 -216t-159.5 -79q-55 0 -107.5 26t-140.5 97q-94 78 -140.5 103.5t-93.5 25.5q-78 0 -114.5 -61t-36.5 -191h-68z" />
<glyph unicode="&#xa1;" horiz-adv-x="503" d="M184 963q0 31 19.5 49t48.5 18t48 -18.5t19 -48.5q0 -31 -19 -49.5t-48 -18.5t-48.5 18.5t-19.5 49.5zM211 -604l10 1202h62l10 -1202h-82z" />
<glyph unicode="&#xa2;" horiz-adv-x="1269" d="M236 510q0 197 112.5 337t298.5 173v270h68v-264q158 -2 286 -74l-8 -69q-115 72 -278 75v-897q174 0 305 86l8 -67q-59 -39 -142 -61.5t-171 -24.5v-260h-68v266q-190 33 -300.5 170t-110.5 340zM311 510q0 -172 90.5 -290t245.5 -150v882q-154 -33 -245 -153.5 t-91 -288.5z" />
<glyph unicode="&#xa3;" horiz-adv-x="1269" d="M184 0v70h201v645h-192v67h192v197q0 285 114.5 431t336.5 146q72 0 143.5 -16t128.5 -45l-10 -68q-59 27 -131 43.5t-131 16.5q-188 0 -280.5 -128t-92.5 -390v-187h457v-67h-457v-645h661v-70h-940z" />
<glyph unicode="&#xa4;" horiz-adv-x="1269" d="M186 475l133 127q-80 104 -79 252q0 141 79 254l-133 127l47 43l127 -123q115 111 273 111q78 0 149.5 -28t124.5 -81l127 121l47 -43l-133 -127q80 -109 80 -254q0 -139 -80 -252l133 -127l-47 -43l-127 121q-53 -53 -124.5 -81t-149.5 -28t-149.5 28t-125.5 81 l-125 -121zM307 854q0 -152 92.5 -251t233.5 -99q143 0 236.5 99t93.5 251q0 154 -93.5 253t-236.5 99q-141 0 -233.5 -100t-92.5 -252z" />
<glyph unicode="&#xa5;" horiz-adv-x="1269" d="M86 1524h90l461 -766l459 766h86l-465 -762h379v-66h-420v-270h420v-66h-420v-360h-78v360h-424v66h424v270h-424v66h383z" />
<glyph unicode="&#xa6;" horiz-adv-x="485" d="M205 446h76v-911h-76v911zM205 862v912h76v-912h-76z" />
<glyph unicode="&#xa7;" horiz-adv-x="974" d="M133 655q0 129 83 215t220 103q-262 82 -262 289q0 125 95.5 198.5t252.5 73.5q76 0 151 -20.5t130 -55.5l-10 -72q-57 37 -129 57.5t-142 20.5q-129 0 -202.5 -53t-73.5 -145q0 -88 68.5 -150.5t209.5 -103.5q172 -51 250 -131t78 -205q0 -123 -79 -209t-204 -102 q135 -45 198.5 -116t63.5 -173q0 -147 -103 -235.5t-277 -88.5q-84 0 -169 25.5t-145 70.5l10 76q59 -47 142.5 -74.5t161.5 -27.5q137 0 220 68.5t83 183.5q0 94 -72 154.5t-244 109.5q-158 45 -231.5 122t-73.5 195zM205 659q0 -109 82 -178t211 -69q125 0 202.5 69.5 t77.5 182.5q0 115 -80 188.5t-202 73.5q-129 0 -210 -75t-81 -192z" />
<glyph unicode="&#xa8;" horiz-adv-x="1024" d="M274 1380q0 29 17.5 46.5t46.5 17.5q27 0 45 -18.5t18 -45.5t-18 -45t-45 -18t-45.5 18.5t-18.5 44.5zM623 1380q0 29 17 46.5t46 17.5t46.5 -17.5t17.5 -46.5q0 -27 -18.5 -45t-45.5 -18t-45 18.5t-18 44.5z" />
<glyph unicode="&#xa9;" horiz-adv-x="1632" d="M115 778q0 195 87 353.5t247.5 253t367.5 94.5q197 0 355.5 -86t252 -246t93.5 -369q0 -197 -86 -355.5t-247 -251.5t-368 -93q-197 0 -355.5 87t-252.5 246.5t-94 366.5zM186 778q0 -178 78 -321.5t222.5 -227.5t330.5 -84q178 0 320.5 78t225.5 222.5t83 332.5 q0 178 -78 321.5t-221 227.5t-330 84q-178 0 -320.5 -78t-226.5 -222t-84 -333zM463 786q0 104 46 190.5t132 138.5t195 52q117 0 219 -51l-11 -72q-88 51 -208 52q-131 0 -212 -85t-81 -225q0 -139 82 -224t217 -85q127 0 221 64l10 -72q-41 -29 -102 -45t-129 -16 q-109 0 -194 46t-135 132t-50 200z" />
<glyph unicode="&#xaa;" horiz-adv-x="948" d="M117 1196q0 96 44 178t125 132t181 50q82 0 152.5 -39.5t117.5 -111.5l2 131h66v-680h-66l-2 129q-47 -72 -118.5 -110.5t-157.5 -38.5q-90 0 -169 46t-127 129t-48 185zM160 604v60h655v-60h-655zM188 1196q0 -127 81 -213t198 -86t199 86t82 213q0 129 -80 214t-201 85 q-117 0 -198 -87t-81 -212z" />
<glyph unicode="&#xab;" horiz-adv-x="868" d="M72 526l282 418h86l-282 -418l282 -417h-86zM408 526l282 418h86l-282 -418l282 -417h-86z" />
<glyph unicode="&#xac;" horiz-adv-x="1269" d="M223 705v69h834v-403h-76v334h-758z" />
<glyph unicode="&#xad;" horiz-adv-x="899" d="M164 543v73h571v-73h-571z" />
<glyph unicode="&#xae;" horiz-adv-x="1040" d="M92 1241q0 115 54.5 212t152.5 155.5t221 58.5q115 0 212 -54t156.5 -152.5t59.5 -219.5q0 -115 -54 -212t-152.5 -155.5t-221.5 -58.5q-115 0 -212 54.5t-156.5 152.5t-59.5 219zM156 1241q0 -98 46 -182t130 -135.5t188 -51.5q98 0 181 47.5t133.5 132.5t50.5 189 q0 98 -46 182t-130 135.5t-189 51.5q-98 0 -181 -47t-133 -132t-50 -190zM381 1044v414h137q72 0 112 -33.5t40 -91.5q0 -41 -20.5 -70.5t-57.5 -43.5l110 -175h-73l-101 164h-88v-164h-59zM440 1260h64q57 0 79.5 16t22.5 57q0 39 -23.5 56.5t-74.5 17.5h-68v-147z" />
<glyph unicode="&#xaf;" horiz-adv-x="1024" d="M219 1348v69h586v-69h-586z" />
<glyph unicode="&#xb0;" horiz-adv-x="1021" d="M176 1239q0 94 42 173t120 127t174 48q92 0 168 -44t121 -124t45 -180q0 -94 -42 -173t-119 -128t-173 -49q-92 0 -168 44t-122 124t-46 182zM244 1239q0 -125 76.5 -207t191.5 -82q113 0 189.5 83t76.5 206t-76.5 205t-189.5 82q-72 0 -133.5 -36t-98 -102.5 t-36.5 -148.5z" />
<glyph unicode="&#xb1;" horiz-adv-x="1269" d="M188 2v70h891v-70h-891zM188 759v70h408v403h76v-403h407v-70h-407v-403h-76v403h-408z" />
<glyph unicode="&#xb2;" d="M125 1684q41 47 110.5 76.5t139.5 29.5q115 0 185.5 -64.5t70.5 -166.5q0 -88 -43 -169t-148 -194q-66 -72 -211 -196h435v-66h-529v61q88 76 143.5 128.5t110.5 111.5q94 96 134 169t40 144q0 80 -51 128.5t-139 48.5q-135 0 -228 -103z" />
<glyph unicode="&#xb3;" d="M125 975l8 61q51 -33 102.5 -48t114.5 -15q106 0 164.5 54t58.5 153q0 88 -58 136t-163 48q-49 0 -84 -14l-18 43l291 315h-394v62h471v-60l-268 -291q6 2 12.5 2h10.5q119 0 193.5 -67.5t74.5 -173.5q0 -123 -79 -194.5t-210 -71.5q-61 0 -123.5 16t-103.5 45z" />
<glyph unicode="&#xb4;" horiz-adv-x="1024" d="M353 1208l278 375h90l-286 -375h-82z" />
<glyph unicode="&#xb5;" horiz-adv-x="1224" d="M205 -502v1485h78v-584q0 -188 73.5 -275t233.5 -87q158 0 255 114.5t97 301.5v530h78v-983h-74l-2 190q-51 -106 -144 -164.5t-212 -58.5q-217 0 -303 154v-623h-80z" />
<glyph unicode="&#xb6;" horiz-adv-x="1196" d="M102 1151q0 188 130 296.5t356 108.5h403v-1822h-80v1741h-307v-1741h-80v1014q-199 14 -310.5 120.5t-111.5 282.5z" />
<glyph unicode="&#xb7;" horiz-adv-x="593" d="M229 776q0 31 19.5 49.5t48.5 18.5t48.5 -18.5t19.5 -49.5t-19.5 -49t-48.5 -18t-48.5 18t-19.5 49z" />
<glyph unicode="&#xb8;" horiz-adv-x="1024" d="M328 -481l14 57q29 -16 74 -26.5t84 -10.5q70 0 113.5 35t43.5 92q0 55 -39 87t-102 32q-55 0 -90 -8l63 243h58l-43 -176h18q90 0 145.5 -48t55.5 -124q0 -88 -61.5 -141t-161.5 -53q-94 0 -172 41z" />
<glyph unicode="&#xb9;" d="M156 1634l286 136h62v-836h-68v762l-268 -123z" />
<glyph unicode="&#xba;" horiz-adv-x="927" d="M113 1196q0 96 44 178t124.5 132t181.5 50q98 0 178 -45t127 -128t47 -187q0 -154 -101 -257t-251 -103t-250 103t-100 257zM135 604v60h656v-60h-656zM184 1196q0 -127 81 -213t198 -86t198.5 86t81.5 213q0 129 -79.5 214t-200.5 85q-117 0 -198 -87t-81 -212z" />
<glyph unicode="&#xbb;" horiz-adv-x="868" d="M92 109l283 417l-283 418h86l283 -418l-283 -417h-86zM428 109l283 417l-283 418h86l283 -418l-283 -417h-86z" />
<glyph unicode="&#xbc;" horiz-adv-x="1906" d="M156 1388l286 136h62v-836h-68v762l-268 -123zM361 0l1208 1524h90l-1208 -1524h-90zM1210 227v62l410 547h71v-551h119v-58h-119v-227h-63v227h-418zM1280 285h348v463z" />
<glyph unicode="&#xbd;" horiz-adv-x="1906" d="M156 1388l286 136h62v-836h-68v762l-268 -123zM289 0l1208 1524h90l-1208 -1524h-90zM1241 750q41 47 110.5 76.5t139.5 29.5q115 0 185.5 -64.5t70.5 -166.5q0 -88 -43 -169t-148 -194q-66 -72 -211 -196h435v-66h-529v61q88 76 143.5 128.5t110.5 111.5q94 96 134 169 t40 144q0 80 -51 128.5t-139 48.5q-135 0 -228 -103z" />
<glyph unicode="&#xbe;" horiz-adv-x="1906" d="M125 729l8 61q51 -33 102.5 -48t114.5 -15q106 0 164.5 54t58.5 153q0 88 -58 136t-163 48q-49 0 -84 -14l-18 43l291 315h-394v62h471v-60l-268 -291q6 2 12.5 2h10.5q119 0 193.5 -67.5t74.5 -173.5q0 -123 -79 -194.5t-210 -71.5q-61 0 -123.5 16t-103.5 45zM363 0 l1208 1524h90l-1208 -1524h-90zM1210 227v62l410 547h71v-551h119v-58h-119v-227h-63v227h-418zM1280 285h348v463z" />
<glyph unicode="&#xbf;" horiz-adv-x="968" d="M119 -276q0 90 29.5 154.5t76.5 114.5t99.5 97t99.5 100.5t76.5 126t29.5 172.5q0 51 -4 109h62q8 -66 8 -117q0 -106 -28.5 -183t-75 -133t-96.5 -103.5t-96 -94.5t-74.5 -105.5t-28.5 -137.5q0 -127 89 -203t236 -76q211 0 371 172l18 -70q-63 -80 -169.5 -126 t-227.5 -46q-113 0 -202 43t-141 123t-52 183zM485 963q0 31 19.5 49t48.5 18t48.5 -18.5t19.5 -48.5q0 -31 -19.5 -49.5t-48.5 -18.5t-48.5 18.5t-19.5 49.5z" />
<glyph unicode="&#xc0;" horiz-adv-x="1511" d="M68 0l641 1556h92l643 -1556h-92l-211 516h-779l-208 -516h-86zM393 590h719l-358 885zM459 1974h109l317 -264h-96z" />
<glyph unicode="&#xc1;" horiz-adv-x="1511" d="M68 0l641 1556h92l643 -1556h-92l-211 516h-779l-208 -516h-86zM393 590h719l-358 885zM627 1710l317 264h109l-330 -264h-96z" />
<glyph unicode="&#xc2;" horiz-adv-x="1511" d="M68 0l641 1556h92l643 -1556h-92l-211 516h-779l-208 -516h-86zM393 590h719l-358 885zM424 1710l299 291h70l297 -291h-90l-244 236l-242 -236h-90z" />
<glyph unicode="&#xc3;" horiz-adv-x="1511" d="M68 0l641 1556h92l643 -1556h-92l-211 516h-779l-208 -516h-86zM393 590h719l-358 885zM439 1710q0 117 44 177.5t128 60.5q49 -2 87 -28t69.5 -59.5t62 -59t65.5 -27.5q115 0 115 172h63q0 -113 -45 -175.5t-129 -62.5q-49 2 -87 27.5t-69.5 59.5t-62 59.5t-65.5 27.5 q-113 0 -113 -172h-63z" />
<glyph unicode="&#xc4;" horiz-adv-x="1511" d="M68 0l641 1556h92l643 -1556h-92l-211 516h-779l-208 -516h-86zM393 590h719l-358 885zM506 1821q0 29 17.5 46t46.5 17q27 0 45 -18.5t18 -44.5q0 -27 -18 -45.5t-45 -18.5t-45.5 18.5t-18.5 45.5zM879 1821q0 29 17.5 46t45.5 17q29 0 46.5 -17.5t17.5 -45.5 q0 -27 -18.5 -45.5t-45.5 -18.5t-45 18.5t-18 45.5z" />
<glyph unicode="&#xc5;" horiz-adv-x="1511" d="M68 0l641 1556h92l643 -1556h-92l-211 516h-779l-208 -516h-86zM393 590h719l-358 885zM504 1919q0 106 70.5 175t181.5 69t182.5 -69t71.5 -175t-71.5 -175t-182.5 -69q-109 0 -180.5 68.5t-71.5 175.5zM566 1919q0 -82 53 -134t137 -52t138.5 52t54.5 134t-54.5 134 t-138.5 52t-137 -52t-53 -134z" />
<glyph unicode="&#xc6;" horiz-adv-x="2177" d="M61 0l1033 1556h888v-75h-774v-643h693v-72h-693v-690h805v-76h-883v516h-634l-340 -516h-95zM545 590h585v887z" />
<glyph unicode="&#xc7;" horiz-adv-x="1589" d="M164 780q0 231 97 411.5t280.5 284t425.5 103.5q246 0 448 -111l-20 -75q-201 106 -432 106q-207 0 -368 -87t-253 -249t-92 -379q0 -207 86 -371.5t247.5 -260t372.5 -95.5q117 0 240 29t217 76l14 -76q-96 -51 -222 -80t-249 -29q-227 0 -406 98.5t-282.5 282 t-103.5 422.5zM666 -481l14 57q29 -16 74 -26.5t84 -10.5q70 0 112.5 35t42.5 92q0 55 -38 87t-101 32q-55 0 -90 -8l63 243h58l-43 -176h18q90 0 145.5 -48t55.5 -124q0 -88 -61.5 -141t-161.5 -53q-94 0 -172 41z" />
<glyph unicode="&#xc8;" horiz-adv-x="1327" d="M276 0v1556h857v-75h-775v-643h693v-72h-693v-690h805v-76h-887zM428 1974h109l317 -264h-96z" />
<glyph unicode="&#xc9;" horiz-adv-x="1327" d="M276 0v1556h857v-75h-775v-643h693v-72h-693v-690h805v-76h-887zM596 1710l317 264h109l-330 -264h-96z" />
<glyph unicode="&#xca;" horiz-adv-x="1327" d="M276 0v1556h857v-75h-775v-643h693v-72h-693v-690h805v-76h-887zM393 1710l299 291h70l297 -291h-90l-244 236l-242 -236h-90z" />
<glyph unicode="&#xcb;" horiz-adv-x="1327" d="M276 0v1556h857v-75h-775v-643h693v-72h-693v-690h805v-76h-887zM475 1821q0 29 17.5 46t46.5 17q27 0 45 -18.5t18 -44.5q0 -27 -18 -45.5t-45 -18.5t-45.5 18.5t-18.5 45.5zM848 1821q0 29 17.5 46t45.5 17q29 0 46.5 -17.5t17.5 -45.5q0 -27 -18.5 -45.5t-45.5 -18.5 t-45 18.5t-18 45.5z" />
<glyph unicode="&#xcc;" horiz-adv-x="634" d="M20 1974h109l317 -264h-96zM276 0v1556h82v-1556h-82z" />
<glyph unicode="&#xcd;" horiz-adv-x="634" d="M188 1710l317 264h109l-330 -264h-96zM276 0v1556h82v-1556h-82z" />
<glyph unicode="&#xce;" horiz-adv-x="634" d="M-15 1710l299 291h70l297 -291h-90l-244 236l-242 -236h-90zM276 0v1556h82v-1556h-82z" />
<glyph unicode="&#xcf;" horiz-adv-x="634" d="M67 1821q0 29 17.5 46t46.5 17q27 0 45 -18.5t18 -44.5q0 -27 -18 -45.5t-45 -18.5t-45.5 18.5t-18.5 45.5zM276 0v1556h82v-1556h-82zM440 1821q0 29 17.5 46t45.5 17q29 0 46.5 -17.5t17.5 -45.5q0 -27 -18.5 -45.5t-45.5 -18.5t-45 18.5t-18 45.5z" />
<glyph unicode="&#xd0;" horiz-adv-x="1775" d="M82 750v71h215v735h481q403 0 618.5 -200.5t215.5 -579.5t-214 -577.5t-624 -198.5h-477v750h-215zM379 78h399q369 0 558.5 176t189.5 522t-189.5 524.5t-558.5 178.5h-399v-658h399v-71h-399v-672z" />
<glyph unicode="&#xd1;" horiz-adv-x="1822" d="M276 0v1556h84l1106 -1439v1439h80v-1556h-84l-1106 1440v-1440h-80zM588 1710q0 117 44 177.5t128 60.5q49 -2 87 -28t69.5 -59.5t62 -59t65.5 -27.5q115 0 115 172h63q0 -113 -45 -175.5t-129 -62.5q-49 2 -87 27.5t-69.5 59.5t-62 59.5t-65.5 27.5q-113 0 -113 -172 h-63z" />
<glyph unicode="&#xd2;" horiz-adv-x="1888" d="M164 776q0 223 97 407.5t276.5 295t408.5 110.5q213 0 390 -101.5t282.5 -287.5t105.5 -422q0 -221 -97 -405.5t-276.5 -295t-406.5 -110.5q-215 0 -391 101.5t-282.5 287t-106.5 420.5zM248 780q0 -203 87 -368.5t246.5 -265t362.5 -99.5q190 0 349 91t253 258t94 380 q0 203 -87 369t-246.5 265t-362.5 99q-190 0 -349 -91t-253 -258t-94 -380zM647 1974h109l317 -264h-96z" />
<glyph unicode="&#xd3;" horiz-adv-x="1888" d="M164 776q0 223 97 407.5t276.5 295t408.5 110.5q213 0 390 -101.5t282.5 -287.5t105.5 -422q0 -221 -97 -405.5t-276.5 -295t-406.5 -110.5q-215 0 -391 101.5t-282.5 287t-106.5 420.5zM248 780q0 -203 87 -368.5t246.5 -265t362.5 -99.5q190 0 349 91t253 258t94 380 q0 203 -87 369t-246.5 265t-362.5 99q-190 0 -349 -91t-253 -258t-94 -380zM815 1710l317 264h109l-330 -264h-96z" />
<glyph unicode="&#xd4;" horiz-adv-x="1888" d="M164 776q0 223 97 407.5t276.5 295t408.5 110.5q213 0 390 -101.5t282.5 -287.5t105.5 -422q0 -221 -97 -405.5t-276.5 -295t-406.5 -110.5q-215 0 -391 101.5t-282.5 287t-106.5 420.5zM248 780q0 -203 87 -368.5t246.5 -265t362.5 -99.5q190 0 349 91t253 258t94 380 q0 203 -87 369t-246.5 265t-362.5 99q-190 0 -349 -91t-253 -258t-94 -380zM612 1710l299 291h70l297 -291h-90l-244 236l-242 -236h-90z" />
<glyph unicode="&#xd5;" horiz-adv-x="1888" d="M164 776q0 223 97 407.5t276.5 295t408.5 110.5q213 0 390 -101.5t282.5 -287.5t105.5 -422q0 -221 -97 -405.5t-276.5 -295t-406.5 -110.5q-215 0 -391 101.5t-282.5 287t-106.5 420.5zM248 780q0 -203 87 -368.5t246.5 -265t362.5 -99.5q190 0 349 91t253 258t94 380 q0 203 -87 369t-246.5 265t-362.5 99q-190 0 -349 -91t-253 -258t-94 -380zM627 1710q0 117 44 177.5t128 60.5q49 -2 87 -28t69.5 -59.5t62 -59t65.5 -27.5q115 0 115 172h63q0 -113 -45 -175.5t-129 -62.5q-49 2 -87 27.5t-69.5 59.5t-62 59.5t-65.5 27.5 q-113 0 -113 -172h-63z" />
<glyph unicode="&#xd6;" horiz-adv-x="1888" d="M164 776q0 223 97 407.5t276.5 295t408.5 110.5q213 0 390 -101.5t282.5 -287.5t105.5 -422q0 -221 -97 -405.5t-276.5 -295t-406.5 -110.5q-215 0 -391 101.5t-282.5 287t-106.5 420.5zM248 780q0 -203 87 -368.5t246.5 -265t362.5 -99.5q190 0 349 91t253 258t94 380 q0 203 -87 369t-246.5 265t-362.5 99q-190 0 -349 -91t-253 -258t-94 -380zM694 1821q0 29 17.5 46t46.5 17q27 0 45 -18.5t18 -44.5q0 -27 -18 -45.5t-45 -18.5t-45.5 18.5t-18.5 45.5zM1067 1821q0 29 17.5 46t45.5 17q29 0 46.5 -17.5t17.5 -45.5q0 -27 -18.5 -45.5 t-45.5 -18.5t-45 18.5t-18 45.5z" />
<glyph unicode="&#xd7;" horiz-adv-x="1269" d="M268 379l316 311l-316 316l47 49l318 -316l319 316l47 -54l-317 -313l317 -313l-47 -49l-317 315l-320 -315z" />
<glyph unicode="&#xd8;" horiz-adv-x="1888" d="M164 776q0 223 97 407.5t276.5 295t408.5 110.5q154 0 292 -55t245 -158l182 187l53 -54l-184 -188q92 -111 141 -250t49 -293q0 -221 -97 -405.5t-276.5 -295t-406.5 -110.5q-154 0 -292 53.5t-244 155.5l-185 -186l-53 53l186 188q-94 109 -143 249.5t-49 295.5z M248 780q0 -141 43 -267t123 -222l1009 1028q-96 92 -220 141t-259 49q-190 0 -349 -91t-253 -258t-94 -380zM465 236q94 -92 217 -140.5t262 -48.5q190 0 349 91t253 258t94 380q0 139 -42 263t-123 223z" />
<glyph unicode="&#xd9;" horiz-adv-x="1712" d="M236 606v950h81v-933q0 -575 539 -576q539 0 539 576v933h82v-950q0 -309 -161 -474t-460 -165t-459.5 165t-160.5 474zM559 1974h109l317 -264h-96z" />
<glyph unicode="&#xda;" horiz-adv-x="1712" d="M236 606v950h81v-933q0 -575 539 -576q539 0 539 576v933h82v-950q0 -309 -161 -474t-460 -165t-459.5 165t-160.5 474zM727 1710l317 264h109l-330 -264h-96z" />
<glyph unicode="&#xdb;" horiz-adv-x="1712" d="M236 606v950h81v-933q0 -575 539 -576q539 0 539 576v933h82v-950q0 -309 -161 -474t-460 -165t-459.5 165t-160.5 474zM524 1710l299 291h70l297 -291h-90l-244 236l-242 -236h-90z" />
<glyph unicode="&#xdc;" horiz-adv-x="1712" d="M236 606v950h81v-933q0 -575 539 -576q539 0 539 576v933h82v-950q0 -309 -161 -474t-460 -165t-459.5 165t-160.5 474zM606 1821q0 29 17.5 46t46.5 17q27 0 45 -18.5t18 -44.5q0 -27 -18 -45.5t-45 -18.5t-45.5 18.5t-18.5 45.5zM979 1821q0 29 17.5 46t45.5 17 q29 0 46.5 -17.5t17.5 -45.5q0 -27 -18.5 -45.5t-45.5 -18.5t-45 18.5t-18 45.5z" />
<glyph unicode="&#xdd;" horiz-adv-x="1441" d="M82 1556h98l543 -782l545 782h92l-600 -854v-702h-82v702zM590 1710l317 264h109l-330 -264h-96z" />
<glyph unicode="&#xde;" horiz-adv-x="1327" d="M276 0v1556h82v-303h320q231 0 368.5 -121.5t137.5 -326.5q0 -219 -144.5 -342t-398.5 -123h-283v-340h-82zM358 418h273q229 0 348 98t119 285q0 178 -113 276.5t-317 98.5h-310v-758z" />
<glyph unicode="&#xdf;" horiz-adv-x="1310" d="M205 0v1171q0 225 120.5 361.5t323.5 136.5q121 0 215 -50t148.5 -142.5t54.5 -214.5q0 -131 -63.5 -234.5t-174.5 -148.5q162 -35 253.5 -152t91.5 -289q0 -131 -56.5 -237.5t-160 -170t-236.5 -63.5q-160 0 -264 68l20 69q47 -31 109.5 -48t126.5 -17 q172 0 276.5 113.5t104.5 300.5q0 176 -113 279.5t-305 103.5h-90v71h73q147 0 237.5 97.5t90.5 257.5q0 152 -93 243.5t-247 91.5q-174 0 -269 -118.5t-95 -335.5v-1143h-78z" />
<glyph unicode="&#xe0;" horiz-adv-x="1327" d="M127 492q0 141 63.5 259.5t179 191.5t261.5 73q131 0 240.5 -65.5t175.5 -182.5l2 215h73v-983h-73l-2 213q-66 -117 -175.5 -181.5t-240.5 -64.5q-139 0 -253 65.5t-182.5 185.5t-68.5 274zM207 492q0 -125 52 -228.5t149.5 -165t222.5 -61.5q117 0 213 56.5 t153.5 160.5t57.5 238q0 125 -53.5 228t-150.5 164.5t-220 61.5q-117 0 -213 -56t-153.5 -160.5t-57.5 -237.5zM434 1583h90l279 -375h-82z" />
<glyph unicode="&#xe1;" horiz-adv-x="1327" d="M127 492q0 141 63.5 259.5t179 191.5t261.5 73q131 0 240.5 -65.5t175.5 -182.5l2 215h73v-983h-73l-2 213q-66 -117 -175.5 -181.5t-240.5 -64.5q-139 0 -253 65.5t-182.5 185.5t-68.5 274zM207 492q0 -125 52 -228.5t149.5 -165t222.5 -61.5q117 0 213 56.5 t153.5 160.5t57.5 238q0 125 -53.5 228t-150.5 164.5t-220 61.5q-117 0 -213 -56t-153.5 -160.5t-57.5 -237.5zM508 1208l278 375h90l-286 -375h-82z" />
<glyph unicode="&#xe2;" horiz-adv-x="1327" d="M127 492q0 141 63.5 259.5t179 191.5t261.5 73q131 0 240.5 -65.5t175.5 -182.5l2 215h73v-983h-73l-2 213q-66 -117 -175.5 -181.5t-240.5 -64.5q-139 0 -253 65.5t-182.5 185.5t-68.5 274zM207 492q0 -125 52 -228.5t149.5 -165t222.5 -61.5q117 0 213 56.5 t153.5 160.5t57.5 238q0 125 -53.5 228t-150.5 164.5t-220 61.5q-117 0 -213 -56t-153.5 -160.5t-57.5 -237.5zM317 1208l301 375h60l309 -375h-86l-252 310l-250 -310h-82z" />
<glyph unicode="&#xe3;" horiz-adv-x="1327" d="M127 492q0 141 63.5 259.5t179 191.5t261.5 73q131 0 240.5 -65.5t175.5 -182.5l2 215h73v-983h-73l-2 213q-66 -117 -175.5 -181.5t-240.5 -64.5q-139 0 -253 65.5t-182.5 185.5t-68.5 274zM207 492q0 -125 52 -228.5t149.5 -165t222.5 -61.5q117 0 213 56.5 t153.5 160.5t57.5 238q0 125 -53.5 228t-150.5 164.5t-220 61.5q-117 0 -213 -56t-153.5 -160.5t-57.5 -237.5zM336 1274q0 117 44 177t128 60q49 -2 87 -27.5t69.5 -59t62 -59.5t65.5 -28q115 0 115 172h63q0 -113 -45 -175t-129 -62q-49 2 -87 27.5t-69.5 59.5t-62 59.5 t-65.5 27.5q-113 0 -113 -172h-63z" />
<glyph unicode="&#xe4;" horiz-adv-x="1327" d="M127 492q0 141 63.5 259.5t179 191.5t261.5 73q131 0 240.5 -65.5t175.5 -182.5l2 215h73v-983h-73l-2 213q-66 -117 -175.5 -181.5t-240.5 -64.5q-139 0 -253 65.5t-182.5 185.5t-68.5 274zM207 492q0 -125 52 -228.5t149.5 -165t222.5 -61.5q117 0 213 56.5 t153.5 160.5t57.5 238q0 125 -53.5 228t-150.5 164.5t-220 61.5q-117 0 -213 -56t-153.5 -160.5t-57.5 -237.5zM415 1380q0 29 17.5 46.5t46.5 17.5q27 0 45 -18.5t18 -45.5t-18 -45t-45 -18t-45.5 18.5t-18.5 44.5zM764 1380q0 29 17 46.5t46 17.5t46.5 -17.5t17.5 -46.5 q0 -27 -18.5 -45t-45.5 -18t-45 18.5t-18 44.5z" />
<glyph unicode="&#xe5;" horiz-adv-x="1327" d="M127 492q0 141 63.5 259.5t179 191.5t261.5 73q131 0 240.5 -65.5t175.5 -182.5l2 215h73v-983h-73l-2 213q-66 -117 -175.5 -181.5t-240.5 -64.5q-139 0 -253 65.5t-182.5 185.5t-68.5 274zM207 492q0 -125 52 -228.5t149.5 -165t222.5 -61.5q117 0 213 56.5 t153.5 160.5t57.5 238q0 125 -53.5 228t-150.5 164.5t-220 61.5q-117 0 -213 -56t-153.5 -160.5t-57.5 -237.5zM401 1448q0 106 70.5 175t181.5 69t182.5 -69t71.5 -175t-71.5 -175t-182.5 -69q-109 0 -180.5 68.5t-71.5 175.5zM463 1448q0 -82 53 -134t137 -52t138.5 52 t54.5 134t-54.5 134t-138.5 52t-137 -52t-53 -134z" />
<glyph unicode="&#xe6;" horiz-adv-x="2058" d="M127 492q0 141 63.5 259.5t179 191.5t261.5 73q135 0 242.5 -69.5t166.5 -194.5v231h70v-225q57 121 161.5 189.5t235.5 68.5q121 0 217.5 -57.5t151.5 -163t55 -244.5q0 -33 -6 -70h-819q4 -207 128 -325.5t333 -118.5q176 0 329 86l15 -70q-66 -39 -160 -62.5 t-190 -23.5q-158 0 -275 65.5t-176 186.5v-219h-70v229q-63 -127 -168.5 -194.5t-240.5 -67.5q-139 0 -253 65.5t-182.5 185.5t-68.5 274zM207 492q0 -125 52 -228.5t149.5 -165t222.5 -61.5q115 0 209 57.5t149 160.5t55 237q0 123 -51 226t-146 165.5t-216 62.5 q-117 0 -213 -56t-153.5 -160.5t-57.5 -237.5zM1108 545h752q0 117 -43 208t-125 143t-191 52q-98 0 -183 -50t-141.5 -142t-68.5 -211z" />
<glyph unicode="&#xe7;" horiz-adv-x="1073" d="M127 492q0 143 63.5 260.5t182.5 188.5t268 71q184 0 309 -72l-14 -72q-123 74 -295 74q-123 0 -221 -55.5t-155.5 -157.5t-57.5 -237q0 -131 54 -232.5t155.5 -160t234.5 -58.5q86 0 167 22.5t145 63.5l12 -68q-61 -41 -149.5 -64.5t-174.5 -23.5q-150 0 -268.5 63.5 t-187 182.5t-68.5 275zM426 -481l14 57q29 -16 74 -26.5t84 -10.5q70 0 113.5 35t43.5 92q0 55 -39 87t-102 32q-55 0 -90 -8l63 243h58l-43 -176h18q90 0 145.5 -48t55.5 -124q0 -88 -61.5 -141t-161.5 -53q-94 0 -172 41z" />
<glyph unicode="&#xe8;" horiz-adv-x="1155" d="M127 485q0 145 59.5 265t169 193t248.5 73q121 0 217.5 -57.5t151.5 -163t55 -244.5q0 -33 -6 -70h-819q4 -207 128 -325.5t333 -118.5q176 0 329 86l15 -70q-66 -39 -160.5 -62.5t-190.5 -23.5q-154 0 -273.5 62.5t-188 180.5t-68.5 275zM205 545h751q0 117 -43 208 t-124.5 143t-190.5 52q-98 0 -183 -50t-141.5 -142t-68.5 -211zM371 1583h90l279 -375h-82z" />
<glyph unicode="&#xe9;" horiz-adv-x="1155" d="M127 485q0 145 59.5 265t169 193t248.5 73q121 0 217.5 -57.5t151.5 -163t55 -244.5q0 -33 -6 -70h-819q4 -207 128 -325.5t333 -118.5q176 0 329 86l15 -70q-66 -39 -160.5 -62.5t-190.5 -23.5q-154 0 -273.5 62.5t-188 180.5t-68.5 275zM205 545h751q0 117 -43 208 t-124.5 143t-190.5 52q-98 0 -183 -50t-141.5 -142t-68.5 -211zM445 1208l278 375h90l-286 -375h-82z" />
<glyph unicode="&#xea;" horiz-adv-x="1155" d="M127 485q0 145 59.5 265t169 193t248.5 73q121 0 217.5 -57.5t151.5 -163t55 -244.5q0 -33 -6 -70h-819q4 -207 128 -325.5t333 -118.5q176 0 329 86l15 -70q-66 -39 -160.5 -62.5t-190.5 -23.5q-154 0 -273.5 62.5t-188 180.5t-68.5 275zM205 545h751q0 117 -43 208 t-124.5 143t-190.5 52q-98 0 -183 -50t-141.5 -142t-68.5 -211zM254 1208l301 375h60l309 -375h-86l-252 310l-250 -310h-82z" />
<glyph unicode="&#xeb;" horiz-adv-x="1155" d="M127 485q0 145 59.5 265t169 193t248.5 73q121 0 217.5 -57.5t151.5 -163t55 -244.5q0 -33 -6 -70h-819q4 -207 128 -325.5t333 -118.5q176 0 329 86l15 -70q-66 -39 -160.5 -62.5t-190.5 -23.5q-154 0 -273.5 62.5t-188 180.5t-68.5 275zM205 545h751q0 117 -43 208 t-124.5 143t-190.5 52q-98 0 -183 -50t-141.5 -142t-68.5 -211zM352 1380q0 29 17.5 46.5t46.5 17.5q27 0 45 -18.5t18 -45.5t-18 -45t-45 -18t-45.5 18.5t-18.5 44.5zM701 1380q0 29 17 46.5t46 17.5t46.5 -17.5t17.5 -46.5q0 -27 -18.5 -45t-45.5 -18t-45 18.5t-18 44.5z " />
<glyph unicode="&#xec;" horiz-adv-x="487" d="M25 1583h90l279 -375h-82zM205 0v983h78v-983h-78z" />
<glyph unicode="&#xed;" horiz-adv-x="487" d="M99 1208l278 375h90l-286 -375h-82zM205 0v983h78v-983h-78z" />
<glyph unicode="&#xee;" horiz-adv-x="487" d="M-92 1208l301 375h60l309 -375h-86l-252 310l-250 -310h-82zM205 0v983h78v-983h-78z" />
<glyph unicode="&#xef;" horiz-adv-x="487" d="M6 1380q0 29 17.5 46.5t46.5 17.5q27 0 45 -18.5t18 -45.5t-18 -45t-45 -18t-45.5 18.5t-18.5 44.5zM205 0v983h78v-983h-78zM355 1380q0 29 17 46.5t46 17.5t46.5 -17.5t17.5 -46.5q0 -27 -18.5 -45t-45.5 -18t-45 18.5t-18 44.5z" />
<glyph unicode="&#xf0;" horiz-adv-x="1259" d="M127 492q0 143 63.5 261.5t179 190.5t261.5 72q121 0 223 -54.5t166 -152.5q-92 281 -313 541l-295 -164l-33 59l280 158q-129 139 -262 233l103 13q119 -92 227 -209l231 129l33 -62l-217 -121q174 -205 266.5 -432t92.5 -446q0 -147 -62.5 -270t-176.5 -197t-259 -74 q-139 0 -255 64.5t-184.5 185.5t-68.5 275zM207 492q0 -125 52 -228.5t148.5 -165t219.5 -61.5q119 0 216 56.5t154.5 161.5t57.5 241q0 125 -53.5 227t-149.5 162.5t-221 60.5q-117 0 -213 -56t-153.5 -160.5t-57.5 -237.5z" />
<glyph unicode="&#xf1;" horiz-adv-x="1222" d="M205 0v983h74v-192q51 109 146 167t226 58q176 0 275.5 -111.5t99.5 -310.5v-594h-78v584q0 362 -309 362q-162 0 -259 -113.5t-97 -302.5v-530h-78zM297 1274q0 117 44 177t128 60q49 -2 87 -27.5t69.5 -59t62 -59.5t65.5 -28q115 0 115 172h63q0 -113 -45 -175 t-129 -62q-49 2 -87 27.5t-69.5 59.5t-62 59.5t-65.5 27.5q-113 0 -113 -172h-63z" />
<glyph unicode="&#xf2;" horiz-adv-x="1261" d="M127 492q0 141 63.5 259.5t179 191.5t261.5 73q139 0 252.5 -65.5t182.5 -185.5t69 -273q0 -141 -63.5 -260t-179.5 -192t-261 -73q-139 0 -253 65.5t-182.5 185.5t-68.5 274zM207 492q0 -125 52 -228.5t149.5 -165t222.5 -61.5q117 0 213 56.5t153.5 160.5t57.5 238 q0 125 -52.5 228t-149.5 164.5t-222 61.5q-117 0 -213 -56t-153.5 -160.5t-57.5 -237.5zM412 1583h90l279 -375h-82z" />
<glyph unicode="&#xf3;" horiz-adv-x="1261" d="M127 492q0 141 63.5 259.5t179 191.5t261.5 73q139 0 252.5 -65.5t182.5 -185.5t69 -273q0 -141 -63.5 -260t-179.5 -192t-261 -73q-139 0 -253 65.5t-182.5 185.5t-68.5 274zM207 492q0 -125 52 -228.5t149.5 -165t222.5 -61.5q117 0 213 56.5t153.5 160.5t57.5 238 q0 125 -52.5 228t-149.5 164.5t-222 61.5q-117 0 -213 -56t-153.5 -160.5t-57.5 -237.5zM486 1208l278 375h90l-286 -375h-82z" />
<glyph unicode="&#xf4;" horiz-adv-x="1261" d="M127 492q0 141 63.5 259.5t179 191.5t261.5 73q139 0 252.5 -65.5t182.5 -185.5t69 -273q0 -141 -63.5 -260t-179.5 -192t-261 -73q-139 0 -253 65.5t-182.5 185.5t-68.5 274zM207 492q0 -125 52 -228.5t149.5 -165t222.5 -61.5q117 0 213 56.5t153.5 160.5t57.5 238 q0 125 -52.5 228t-149.5 164.5t-222 61.5q-117 0 -213 -56t-153.5 -160.5t-57.5 -237.5zM295 1208l301 375h60l309 -375h-86l-252 310l-250 -310h-82z" />
<glyph unicode="&#xf5;" horiz-adv-x="1261" d="M127 492q0 141 63.5 259.5t179 191.5t261.5 73q139 0 252.5 -65.5t182.5 -185.5t69 -273q0 -141 -63.5 -260t-179.5 -192t-261 -73q-139 0 -253 65.5t-182.5 185.5t-68.5 274zM207 492q0 -125 52 -228.5t149.5 -165t222.5 -61.5q117 0 213 56.5t153.5 160.5t57.5 238 q0 125 -52.5 228t-149.5 164.5t-222 61.5q-117 0 -213 -56t-153.5 -160.5t-57.5 -237.5zM314 1274q0 117 44 177t128 60q49 -2 87 -27.5t69.5 -59t62 -59.5t65.5 -28q115 0 115 172h63q0 -113 -45 -175t-129 -62q-49 2 -87 27.5t-69.5 59.5t-62 59.5t-65.5 27.5 q-113 0 -113 -172h-63z" />
<glyph unicode="&#xf6;" horiz-adv-x="1261" d="M127 492q0 141 63.5 259.5t179 191.5t261.5 73q139 0 252.5 -65.5t182.5 -185.5t69 -273q0 -141 -63.5 -260t-179.5 -192t-261 -73q-139 0 -253 65.5t-182.5 185.5t-68.5 274zM207 492q0 -125 52 -228.5t149.5 -165t222.5 -61.5q117 0 213 56.5t153.5 160.5t57.5 238 q0 125 -52.5 228t-149.5 164.5t-222 61.5q-117 0 -213 -56t-153.5 -160.5t-57.5 -237.5zM393 1380q0 29 17.5 46.5t46.5 17.5q27 0 45 -18.5t18 -45.5t-18 -45t-45 -18t-45.5 18.5t-18.5 44.5zM742 1380q0 29 17 46.5t46 17.5t46.5 -17.5t17.5 -46.5q0 -27 -18.5 -45 t-45.5 -18t-45 18.5t-18 44.5z" />
<glyph unicode="&#xf7;" horiz-adv-x="1269" d="M190 655v70h891v-70h-891zM563 330q0 33 19.5 52t52.5 19q31 0 51.5 -20.5t20.5 -50.5q0 -29 -21.5 -50.5t-50.5 -21.5t-50.5 21.5t-21.5 50.5zM563 1036q0 33 19.5 52.5t52.5 19.5q31 0 51.5 -20.5t20.5 -51.5q0 -29 -21.5 -50t-50.5 -21t-50.5 21.5t-21.5 49.5z" />
<glyph unicode="&#xf8;" horiz-adv-x="1261" d="M121 35l117 119q-111 145 -111 338q0 141 63.5 259.5t179 191.5t261.5 73q193 0 334 -125l137 141l45 -45l-139 -141q61 -72 94 -163t33 -191q0 -141 -63.5 -260t-179.5 -192t-261 -73q-102 0 -192.5 36t-157.5 103l-115 -116zM207 492q0 -164 84 -283l620 631 q-117 106 -280 106q-117 0 -213 -56t-153.5 -160.5t-57.5 -237.5zM332 160q59 -59 135 -91t164 -32q117 0 213 56.5t153.5 160.5t57.5 238q0 176 -101 301z" />
<glyph unicode="&#xf9;" horiz-adv-x="1216" d="M197 389v594h77v-584q0 -178 78 -270t230 -92q158 0 255 115t97 301v530h78v-983h-74l-2 190q-51 -109 -145 -165q-95 -58 -222 -58q-176 0 -274 112t-98 310zM385 1583h90l279 -375h-82z" />
<glyph unicode="&#xfa;" horiz-adv-x="1216" d="M197 389v594h77v-584q0 -178 78 -270t230 -92q158 0 255 115t97 301v530h78v-983h-74l-2 190q-51 -109 -145 -165q-95 -58 -222 -58q-176 0 -274 112t-98 310zM459 1208l278 375h90l-286 -375h-82z" />
<glyph unicode="&#xfb;" horiz-adv-x="1216" d="M197 389v594h77v-584q0 -178 78 -270t230 -92q158 0 255 115t97 301v530h78v-983h-74l-2 190q-51 -109 -145 -165q-95 -58 -222 -58q-176 0 -274 112t-98 310zM268 1208l301 375h60l309 -375h-86l-252 310l-250 -310h-82z" />
<glyph unicode="&#xfc;" horiz-adv-x="1216" d="M197 389v594h77v-584q0 -178 78 -270t230 -92q158 0 255 115t97 301v530h78v-983h-74l-2 190q-51 -109 -145 -165q-95 -58 -222 -58q-176 0 -274 112t-98 310zM366 1380q0 29 17.5 46.5t46.5 17.5q27 0 45 -18.5t18 -45.5t-18 -45t-45 -18t-45.5 18.5t-18.5 44.5z M715 1380q0 29 17 46.5t46 17.5t46.5 -17.5t17.5 -46.5q0 -27 -18.5 -45t-45.5 -18t-45 18.5t-18 44.5z" />
<glyph unicode="&#xfd;" horiz-adv-x="1067" d="M61 983h86l406 -838l373 838h80l-668 -1485h-84l258 557zM404 1208l278 375h90l-286 -375h-82z" />
<glyph unicode="&#xfe;" horiz-adv-x="1327" d="M205 -502v2161h78v-887q68 117 175 180.5t238 63.5q139 0 253 -65.5t182.5 -185.5t68.5 -273q0 -141 -63.5 -260t-179 -192t-261.5 -73q-131 0 -240.5 63.5t-172.5 178.5v-711h-78zM272 492q0 -125 53.5 -228.5t150.5 -165t220 -61.5q117 0 213.5 56.5t153.5 160.5 t57 238q0 125 -52 228t-149.5 164.5t-222.5 61.5q-117 0 -213 -56t-153.5 -160.5t-57.5 -237.5z" />
<glyph unicode="&#xff;" horiz-adv-x="1067" d="M61 983h86l406 -838l373 838h80l-668 -1485h-84l258 557zM311 1380q0 29 17.5 46.5t46.5 17.5q27 0 45 -18.5t18 -45.5t-18 -45t-45 -18t-45.5 18.5t-18.5 44.5zM660 1380q0 29 17 46.5t46 17.5t46.5 -17.5t17.5 -46.5q0 -27 -18.5 -45t-45.5 -18t-45 18.5t-18 44.5z" />
<glyph unicode="&#x100;" horiz-adv-x="1511" d="M68 0l641 1556h92l643 -1556h-92l-211 516h-779l-208 -516h-86zM393 590h719l-358 885zM463 1790v70h586v-70h-586z" />
<glyph unicode="&#x101;" horiz-adv-x="1327" d="M127 492q0 141 63.5 259.5t179 191.5t261.5 73q131 0 240.5 -65.5t175.5 -182.5l2 215h73v-983h-73l-2 213q-66 -117 -175.5 -181.5t-240.5 -64.5q-139 0 -253 65.5t-182.5 185.5t-68.5 274zM207 492q0 -125 52 -228.5t149.5 -165t222.5 -61.5q117 0 213 56.5 t153.5 160.5t57.5 238q0 125 -53.5 228t-150.5 164.5t-220 61.5q-117 0 -213 -56t-153.5 -160.5t-57.5 -237.5zM360 1348v69h586v-69h-586z" />
<glyph unicode="&#x102;" horiz-adv-x="1511" d="M68 0l641 1556h92l643 -1556h-92l-211 516h-779l-208 -516h-86zM393 590h719l-358 885zM471 1942q0 23 2 30h64q0 -221 219 -221q113 0 166 54.5t53 166.5h64q2 -8 2 -30q0 -115 -78 -183.5t-207 -68.5q-127 0 -206 70.5t-79 181.5z" />
<glyph unicode="&#x103;" horiz-adv-x="1327" d="M127 492q0 141 63.5 259.5t179 191.5t261.5 73q131 0 240.5 -65.5t175.5 -182.5l2 215h73v-983h-73l-2 213q-66 -117 -175.5 -181.5t-240.5 -64.5q-139 0 -253 65.5t-182.5 185.5t-68.5 274zM207 492q0 -125 52 -228.5t149.5 -165t222.5 -61.5q117 0 213 56.5 t153.5 160.5t57.5 238q0 125 -53.5 228t-150.5 164.5t-220 61.5q-117 0 -213 -56t-153.5 -160.5t-57.5 -237.5zM368 1501q0 23 2 31h62q0 -244 221 -244t221 244h62q2 -8 2 -31q0 -123 -78 -197.5t-207 -74.5t-207 74.5t-78 197.5z" />
<glyph unicode="&#x104;" horiz-adv-x="1511" d="M68 0l641 1556h92l643 -1556h-92l-211 516h-779l-208 -516h-86zM393 590h719l-358 885zM1126 -332q0 90 67 179.5t206 185.5l45 -33q-248 -166 -248 -322q0 -63 35 -98t96 -35q72 0 135 41l13 -57q-29 -20 -74 -32.5t-84 -12.5q-82 0 -136.5 52t-54.5 132z" />
<glyph unicode="&#x105;" horiz-adv-x="1327" d="M127 492q0 141 63.5 259.5t179 191.5t261.5 73q131 0 240.5 -65.5t175.5 -182.5l2 215h73v-983h-73l-2 213q-66 -117 -175.5 -181.5t-240.5 -64.5q-139 0 -253 65.5t-182.5 185.5t-68.5 274zM207 492q0 -125 52 -228.5t149.5 -165t222.5 -61.5q117 0 213 56.5 t153.5 160.5t57.5 238q0 125 -53.5 228t-150.5 164.5t-220 61.5q-117 0 -213 -56t-153.5 -160.5t-57.5 -237.5zM804 -332q0 88 67 177t206 186l45 -31q-248 -166 -248 -322q0 -63 34 -98t97 -35q72 0 135 41l13 -57q-29 -20 -74 -32.5t-84 -12.5q-82 0 -136.5 52t-54.5 132z " />
<glyph unicode="&#x106;" horiz-adv-x="1589" d="M164 780q0 231 97 411.5t280.5 284t425.5 103.5q246 0 448 -111l-20 -75q-201 106 -432 106q-207 0 -368 -87t-253 -249t-92 -379q0 -207 86 -371.5t247.5 -260t372.5 -95.5q117 0 240 29t217 76l14 -76q-96 -51 -222 -80t-249 -29q-227 0 -406 98.5t-282.5 282 t-103.5 422.5zM803 1710l317 264h109l-330 -264h-96z" />
<glyph unicode="&#x107;" horiz-adv-x="1073" d="M127 492q0 143 63.5 260.5t182.5 188.5t268 71q184 0 309 -72l-14 -72q-123 74 -295 74q-123 0 -221 -55.5t-155.5 -157.5t-57.5 -237q0 -131 54 -232.5t155.5 -160t234.5 -58.5q86 0 167 22.5t145 63.5l12 -68q-61 -41 -149.5 -64.5t-174.5 -23.5q-150 0 -268.5 63.5 t-187 182.5t-68.5 275zM461 1208l278 375h90l-286 -375h-82z" />
<glyph unicode="&#x10a;" horiz-adv-x="1589" d="M164 780q0 231 97 411.5t280.5 284t425.5 103.5q246 0 448 -111l-20 -75q-201 106 -432 106q-207 0 -368 -87t-253 -249t-92 -379q0 -207 86 -371.5t247.5 -260t372.5 -95.5q117 0 240 29t217 76l14 -76q-96 -51 -222 -80t-249 -29q-227 0 -406 98.5t-282.5 282 t-103.5 422.5zM866 1823q0 31 17.5 48t48.5 17t48.5 -17.5t17.5 -47.5q0 -29 -17.5 -47.5t-48.5 -18.5t-48.5 17.5t-17.5 48.5z" />
<glyph unicode="&#x10b;" horiz-adv-x="1073" d="M127 492q0 143 63.5 260.5t182.5 188.5t268 71q184 0 309 -72l-14 -72q-123 74 -295 74q-123 0 -221 -55.5t-155.5 -157.5t-57.5 -237q0 -131 54 -232.5t155.5 -160t234.5 -58.5q86 0 167 22.5t145 63.5l12 -68q-61 -41 -149.5 -64.5t-174.5 -23.5q-150 0 -268.5 63.5 t-187 182.5t-68.5 275zM540 1380q0 31 17.5 48.5t48.5 17.5t48.5 -17.5t17.5 -48.5q0 -29 -17.5 -47t-48.5 -18t-48.5 17.5t-17.5 47.5z" />
<glyph unicode="&#x10c;" horiz-adv-x="1589" d="M164 780q0 231 97 411.5t280.5 284t425.5 103.5q246 0 448 -111l-20 -75q-201 106 -432 106q-207 0 -368 -87t-253 -249t-92 -379q0 -207 86 -371.5t247.5 -260t372.5 -95.5q117 0 240 29t217 76l14 -76q-96 -51 -222 -80t-249 -29q-227 0 -406 98.5t-282.5 282 t-103.5 422.5zM598 2001h90l244 -238l242 238h90l-299 -291h-70z" />
<glyph unicode="&#x10d;" horiz-adv-x="1073" d="M127 492q0 143 63.5 260.5t182.5 188.5t268 71q184 0 309 -72l-14 -72q-123 74 -295 74q-123 0 -221 -55.5t-155.5 -157.5t-57.5 -237q0 -131 54 -232.5t155.5 -160t234.5 -58.5q86 0 167 22.5t145 63.5l12 -68q-61 -41 -149.5 -64.5t-174.5 -23.5q-150 0 -268.5 63.5 t-187 182.5t-68.5 275zM270 1583h86l254 -311l248 311h82l-301 -375h-60z" />
<glyph unicode="&#x10e;" horiz-adv-x="1755" d="M276 0v1556h482q403 0 618 -200.5t215 -579.5t-214 -577.5t-623 -198.5h-478zM358 78h400q369 0 558 176t189 522t-189.5 524.5t-557.5 178.5h-400v-1401zM483 2001h90l244 -238l242 238h90l-299 -291h-70z" />
<glyph unicode="&#x10f;" horiz-adv-x="1327" d="M127 492q0 141 63.5 259.5t179 191.5t261.5 73q131 0 239.5 -63.5t173.5 -180.5v887h78v-1659h-73l-2 213q-66 -117 -175.5 -181.5t-240.5 -64.5q-139 0 -253 65.5t-182.5 185.5t-68.5 274zM207 492q0 -125 52 -228.5t149.5 -165t222.5 -61.5q117 0 213 56.5t153.5 160.5 t57.5 238q0 125 -53.5 228t-150.5 164.5t-220 61.5q-117 0 -213 -56t-153.5 -160.5t-57.5 -237.5zM1266 1188l29 471h67l-43 -471h-53z" />
<glyph unicode="&#x110;" horiz-adv-x="1775" d="M82 750v71h215v735h481q403 0 618.5 -200.5t215.5 -579.5t-214 -577.5t-624 -198.5h-477v750h-215zM379 78h399q369 0 558.5 176t189.5 522t-189.5 524.5t-558.5 178.5h-399v-658h399v-71h-399v-672z" />
<glyph unicode="&#x111;" horiz-adv-x="1327" d="M127 492q0 141 63.5 259.5t179 191.5t261.5 73q131 0 239.5 -63.5t173.5 -180.5v522h-360v62h360v303h78v-303h158v-62h-158v-1294h-73l-2 213q-66 -117 -175.5 -181.5t-240.5 -64.5q-139 0 -253 65.5t-182.5 185.5t-68.5 274zM207 492q0 -125 52 -228.5t149.5 -165 t222.5 -61.5q117 0 213 56.5t153.5 160.5t57.5 238q0 125 -53.5 228t-150.5 164.5t-220 61.5q-117 0 -213 -56t-153.5 -160.5t-57.5 -237.5z" />
<glyph unicode="&#x112;" horiz-adv-x="1327" d="M276 0v1556h857v-75h-775v-643h693v-72h-693v-690h805v-76h-887zM432 1790v70h586v-70h-586z" />
<glyph unicode="&#x113;" horiz-adv-x="1155" d="M127 485q0 145 59.5 265t169 193t248.5 73q121 0 217.5 -57.5t151.5 -163t55 -244.5q0 -33 -6 -70h-819q4 -207 128 -325.5t333 -118.5q176 0 329 86l15 -70q-66 -39 -160.5 -62.5t-190.5 -23.5q-154 0 -273.5 62.5t-188 180.5t-68.5 275zM205 545h751q0 117 -43 208 t-124.5 143t-190.5 52q-98 0 -183 -50t-141.5 -142t-68.5 -211zM297 1348v69h586v-69h-586z" />
<glyph unicode="&#x116;" horiz-adv-x="1327" d="M276 0v1556h857v-75h-775v-643h693v-72h-693v-690h805v-76h-887zM659 1823q0 31 17.5 48t48.5 17t48.5 -17.5t17.5 -47.5q0 -29 -17.5 -47.5t-48.5 -18.5t-48.5 17.5t-17.5 48.5z" />
<glyph unicode="&#x117;" horiz-adv-x="1155" d="M127 485q0 145 59.5 265t169 193t248.5 73q121 0 217.5 -57.5t151.5 -163t55 -244.5q0 -33 -6 -70h-819q4 -207 128 -325.5t333 -118.5q176 0 329 86l15 -70q-66 -39 -160.5 -62.5t-190.5 -23.5q-154 0 -273.5 62.5t-188 180.5t-68.5 275zM205 545h751q0 117 -43 208 t-124.5 143t-190.5 52q-98 0 -183 -50t-141.5 -142t-68.5 -211zM524 1380q0 31 17.5 48.5t48.5 17.5t48.5 -17.5t17.5 -48.5q0 -29 -17.5 -47t-48.5 -18t-48.5 17.5t-17.5 47.5z" />
<glyph unicode="&#x118;" horiz-adv-x="1327" d="M276 0v1556h857v-75h-775v-643h693v-72h-693v-690h805v-76h-887zM845 -332q0 90 67 179.5t206 185.5l45 -33q-248 -166 -248 -322q0 -63 35 -98t96 -35q72 0 135 41l13 -57q-29 -20 -74 -32.5t-84 -12.5q-82 0 -136.5 52t-54.5 132z" />
<glyph unicode="&#x119;" horiz-adv-x="1155" d="M127 485q0 145 59.5 265t169 193t248.5 73q121 0 217.5 -57.5t151.5 -163t55 -244.5q0 -33 -6 -70h-819q4 -207 128 -325.5t333 -118.5q176 0 329 86l15 -70q-66 -39 -160.5 -62.5t-190.5 -23.5q-154 0 -273.5 62.5t-188 180.5t-68.5 275zM205 545h751q0 117 -43 208 t-124.5 143t-190.5 52q-98 0 -183 -50t-141.5 -142t-68.5 -211zM606 -332q0 94 79 193.5t214 175.5l73 -2q-152 -96 -224.5 -183.5t-72.5 -173.5q0 -63 35 -98t97 -35q72 0 135 41l12 -57q-29 -20 -74 -32.5t-84 -12.5q-82 0 -136 52t-54 132z" />
<glyph unicode="&#x11a;" horiz-adv-x="1327" d="M276 0v1556h857v-75h-775v-643h693v-72h-693v-690h805v-76h-887zM391 2001h90l244 -238l242 238h90l-299 -291h-70z" />
<glyph unicode="&#x11b;" horiz-adv-x="1155" d="M127 485q0 145 59.5 265t169 193t248.5 73q121 0 217.5 -57.5t151.5 -163t55 -244.5q0 -33 -6 -70h-819q4 -207 128 -325.5t333 -118.5q176 0 329 86l15 -70q-66 -39 -160.5 -62.5t-190.5 -23.5q-154 0 -273.5 62.5t-188 180.5t-68.5 275zM205 545h751q0 117 -43 208 t-124.5 143t-190.5 52q-98 0 -183 -50t-141.5 -142t-68.5 -211zM254 1583h86l254 -311l248 311h82l-301 -375h-60z" />
<glyph unicode="&#x11e;" horiz-adv-x="1718" d="M164 770q0 229 99 412.5t285.5 290t430.5 106.5q127 0 264 -30.5t230 -80.5l-21 -77q-94 49 -224 78.5t-253 29.5q-203 0 -367 -89t-261 -254t-97 -378t88 -375.5t253 -254t388 -91.5q117 0 233.5 24.5t208.5 70.5v548h-422v78h504v-676q-102 -59 -242.5 -92t-287.5 -33 q-233 0 -416.5 96.5t-288 276.5t-104.5 420zM665 1942q0 23 2 30h64q0 -221 219 -221q113 0 166 54.5t53 166.5h64q2 -8 2 -30q0 -115 -78 -183.5t-207 -68.5q-127 0 -206 70.5t-79 181.5z" />
<glyph unicode="&#x11f;" horiz-adv-x="1331" d="M127 492q0 141 63.5 259.5t179 191.5t261.5 73q133 0 243.5 -67.5t176.5 -188.5l2 223h73v-903q0 -309 -128 -455.5t-400 -146.5q-88 0 -191.5 28.5t-168.5 71.5l14 72q66 -45 164 -74t182 -29q238 0 344.5 124t106.5 403v143q-66 -119 -175.5 -184.5t-242.5 -65.5 q-139 0 -253 65.5t-182.5 185.5t-68.5 274zM207 492q0 -125 52 -228.5t149.5 -165t222.5 -61.5q115 0 211 56.5t154.5 160.5t58.5 238q0 125 -53.5 228t-150.5 164.5t-220 61.5q-117 0 -213 -56t-153.5 -160.5t-57.5 -237.5zM366 1501q0 23 2 31h62q0 -244 221 -244t221 244 h62q2 -8 2 -31q0 -123 -78 -197.5t-207 -74.5t-207 74.5t-78 197.5z" />
<glyph unicode="&#x120;" horiz-adv-x="1718" d="M164 770q0 229 99 412.5t285.5 290t430.5 106.5q127 0 264 -30.5t230 -80.5l-21 -77q-94 49 -224 78.5t-253 29.5q-203 0 -367 -89t-261 -254t-97 -378t88 -375.5t253 -254t388 -91.5q117 0 233.5 24.5t208.5 70.5v548h-422v78h504v-676q-102 -59 -242.5 -92t-287.5 -33 q-233 0 -416.5 96.5t-288 276.5t-104.5 420zM884 1823q0 31 17.5 48t48.5 17t48.5 -17.5t17.5 -47.5q0 -29 -17.5 -47.5t-48.5 -18.5t-48.5 17.5t-17.5 48.5z" />
<glyph unicode="&#x121;" horiz-adv-x="1331" d="M127 492q0 141 63.5 259.5t179 191.5t261.5 73q133 0 243.5 -67.5t176.5 -188.5l2 223h73v-903q0 -309 -128 -455.5t-400 -146.5q-88 0 -191.5 28.5t-168.5 71.5l14 72q66 -45 164 -74t182 -29q238 0 344.5 124t106.5 403v143q-66 -119 -175.5 -184.5t-242.5 -65.5 q-139 0 -253 65.5t-182.5 185.5t-68.5 274zM207 492q0 -125 52 -228.5t149.5 -165t222.5 -61.5q115 0 211 56.5t154.5 160.5t58.5 238q0 125 -53.5 228t-150.5 164.5t-220 61.5q-117 0 -213 -56t-153.5 -160.5t-57.5 -237.5zM585 1380q0 31 17.5 48.5t48.5 17.5t48.5 -17.5 t17.5 -48.5q0 -29 -17.5 -47t-48.5 -18t-48.5 17.5t-17.5 47.5z" />
<glyph unicode="&#x122;" horiz-adv-x="1718" d="M164 770q0 229 99 412.5t285.5 290t430.5 106.5q127 0 264 -30.5t230 -80.5l-21 -77q-94 49 -224 78.5t-253 29.5q-203 0 -367 -89t-261 -254t-97 -378t88 -375.5t253 -254t388 -91.5q117 0 233.5 24.5t208.5 70.5v548h-422v78h504v-676q-102 -59 -242.5 -92t-287.5 -33 q-233 0 -416.5 96.5t-288 276.5t-104.5 420zM780 -502q88 172 100 369h70q-10 -102 -39 -201.5t-70 -167.5h-61z" />
<glyph unicode="&#x123;" horiz-adv-x="1331" d="M127 492q0 141 63.5 259.5t179 191.5t261.5 73q133 0 243.5 -67.5t176.5 -188.5l2 223h73v-903q0 -309 -128 -455.5t-400 -146.5q-88 0 -191.5 28.5t-168.5 71.5l14 72q66 -45 164 -74t182 -29q238 0 344.5 124t106.5 403v143q-66 -119 -175.5 -184.5t-242.5 -65.5 q-139 0 -253 65.5t-182.5 185.5t-68.5 274zM207 492q0 -125 52 -228.5t149.5 -165t222.5 -61.5q115 0 211 56.5t154.5 160.5t58.5 238q0 125 -53.5 228t-150.5 164.5t-220 61.5q-117 0 -213 -56t-153.5 -160.5t-57.5 -237.5zM608 1249q6 90 33.5 180.5t68.5 153.5h62 q-84 -147 -94 -334h-70z" />
<glyph unicode="&#x126;" horiz-adv-x="1820" d="M82 1182v71h215v303h82v-303h1063v303h82v-303h215v-71h-215v-1182h-82v778h-1063v-778h-82v1182h-215zM379 856h1063v326h-1063v-326z" />
<glyph unicode="&#x127;" horiz-adv-x="1222" d="M20 1294v62h185v303h78v-303h325v-62h-325v-497q53 109 147 164t221 55q176 0 275.5 -111.5t99.5 -310.5v-594h-78v584q0 362 -309 362q-162 0 -259 -113.5t-97 -302.5v-530h-78v1294h-185z" />
<glyph unicode="&#x128;" horiz-adv-x="634" d="M0 1710q0 117 44 177.5t128 60.5q49 -2 87 -28t69.5 -59.5t62 -59t65.5 -27.5q115 0 115 172h63q0 -113 -45 -175.5t-129 -62.5q-49 2 -87 27.5t-69.5 59.5t-62 59.5t-65.5 27.5q-113 0 -113 -172h-63zM276 0v1556h82v-1556h-82z" />
<glyph unicode="&#x129;" horiz-adv-x="487" d="M-73 1274q0 117 44 177t128 60q49 -2 87 -27.5t69.5 -59t62 -59.5t65.5 -28q115 0 115 172h63q0 -113 -45 -175t-129 -62q-49 2 -87 27.5t-69.5 59.5t-62 59.5t-65.5 27.5q-113 0 -113 -172h-63zM205 0v983h78v-983h-78z" />
<glyph unicode="&#x12a;" horiz-adv-x="634" d="M24 1790v70h586v-70h-586zM276 0v1556h82v-1556h-82z" />
<glyph unicode="&#x12b;" horiz-adv-x="487" d="M-49 1348v69h586v-69h-586zM205 0v983h78v-983h-78z" />
<glyph unicode="&#x12e;" horiz-adv-x="634" d="M41 -332q0 90 67 179.5t206 185.5l45 -33q-248 -166 -248 -322q0 -63 35 -98t96 -35q72 0 135 41l13 -57q-29 -20 -74 -32.5t-84 -12.5q-82 0 -136.5 52t-54.5 132zM276 0v1556h82v-1556h-82z" />
<glyph unicode="&#x12f;" horiz-adv-x="487" d="M-35 -332q0 88 67 177t206 186l45 -31q-248 -166 -248 -322q0 -63 34 -98t97 -35q72 0 135 41l13 -57q-29 -20 -74 -32.5t-84 -12.5q-82 0 -136.5 52t-54.5 132zM178 1380q0 31 17.5 48.5t48.5 17.5t48 -17.5t17 -48.5t-17 -48t-48 -17t-48.5 17.5t-17.5 47.5zM205 0v983 h78v-983h-78z" />
<glyph unicode="&#x130;" horiz-adv-x="634" d="M251 1823q0 31 17.5 48t48.5 17t48.5 -17.5t17.5 -47.5q0 -29 -17.5 -47.5t-48.5 -18.5t-48.5 17.5t-17.5 48.5zM276 0v1556h82v-1556h-82z" />
<glyph unicode="&#x131;" horiz-adv-x="487" d="M205 0v983h78v-983h-78z" />
<glyph unicode="&#x132;" horiz-adv-x="1748" d="M276 0v1556h82v-1556h-82zM754 53l14 80q131 -80 295 -80q176 0 261 89t85 272v1142h82v-1130q0 -223 -106.5 -337t-317.5 -114q-166 0 -313 78z" />
<glyph unicode="&#x133;" horiz-adv-x="974" d="M178 1380q0 31 17.5 48.5t48.5 17.5t48 -17.5t17 -48.5t-17 -48t-48 -17t-48.5 17.5t-17.5 47.5zM205 0v983h78v-983h-78zM283 -475l8 67q88 -45 196 -45q109 0 157 62q48 61 48 203v1171h78v-1171q0 -170 -71 -252q-70 -82 -220 -82q-102 0 -196 47zM666 1380 q0 31 18 48t47 18q31 0 48 -18q17 -17 18 -48q0 -29 -18 -47q-17 -18 -48 -18t-48 17t-17 48z" />
<glyph unicode="&#x136;" horiz-adv-x="1544" d="M276 0v1556h82v-722l899 722h119l-932 -745l1014 -811h-127l-973 778v-778h-82zM709 -502q88 172 100 369h70q-10 -102 -39 -201.5t-70 -167.5h-61z" />
<glyph unicode="&#x137;" horiz-adv-x="1099" d="M205 0v1659h78v-1086l577 410h117l-612 -434l694 -549h-119l-657 520v-520h-78zM494 -502q88 172 100 369h70q-8 -98 -39 -197.5t-72 -171.5h-59z" />
<glyph unicode="&#x138;" horiz-adv-x="1101" d="M205 0v983h78v-424l579 424h113l-617 -442l703 -541h-119l-659 508v-508h-78z" />
<glyph unicode="&#x139;" horiz-adv-x="1234" d="M188 1710l317 264h109l-330 -264h-96zM276 0v1556h82v-1480h764v-76h-846z" />
<glyph unicode="&#x13a;" horiz-adv-x="487" d="M115 1741l317 264h109l-330 -264h-96zM205 0v1659h78v-1659h-78z" />
<glyph unicode="&#x13b;" horiz-adv-x="1234" d="M276 0v1556h82v-1480h764v-76h-846zM555 -502q88 172 100 369h70q-10 -102 -39 -201.5t-70 -167.5h-61z" />
<glyph unicode="&#x13c;" horiz-adv-x="487" d="M117 -502q88 172 100 369h70q-8 -98 -39 -197.5t-72 -171.5h-59zM205 0v1659h78v-1659h-78z" />
<glyph unicode="&#x13d;" horiz-adv-x="1234" d="M276 0v1556h82v-1480h764v-76h-846zM670 1188l29 471h67l-43 -471h-53z" />
<glyph unicode="&#x13e;" horiz-adv-x="487" d="M205 0v1659h78v-1659h-78zM426 1188l29 471h67l-43 -471h-53z" />
<glyph unicode="&#x141;" horiz-adv-x="1255" d="M94 553l203 143v860h82v-813l409 293l13 -80l-422 -301v-579h764v-76h-846v608l-191 -135z" />
<glyph unicode="&#x142;" horiz-adv-x="528" d="M14 698l211 127v834h78v-793l199 119l12 -74l-211 -127v-784h-78v743l-198 -118z" />
<glyph unicode="&#x143;" horiz-adv-x="1822" d="M276 0v1556h84l1106 -1439v1439h80v-1556h-84l-1106 1440v-1440h-80zM776 1710l317 264h109l-330 -264h-96z" />
<glyph unicode="&#x144;" horiz-adv-x="1222" d="M205 0v983h74v-192q51 109 146 167t226 58q176 0 275.5 -111.5t99.5 -310.5v-594h-78v584q0 362 -309 362q-162 0 -259 -113.5t-97 -302.5v-530h-78zM469 1208l278 375h90l-286 -375h-82z" />
<glyph unicode="&#x145;" horiz-adv-x="1822" d="M276 0v1556h84l1106 -1439v1439h80v-1556h-84l-1106 1440v-1440h-80zM754 -502q88 172 100 369h70q-10 -102 -39 -201.5t-70 -167.5h-61z" />
<glyph unicode="&#x146;" horiz-adv-x="1222" d="M205 0v983h74v-192q51 109 146 167t226 58q176 0 275.5 -111.5t99.5 -310.5v-594h-78v584q0 362 -309 362q-162 0 -259 -113.5t-97 -302.5v-530h-78zM487 -502q88 172 100 369h70q-8 -98 -39 -197.5t-72 -171.5h-59z" />
<glyph unicode="&#x147;" horiz-adv-x="1822" d="M276 0v1556h84l1106 -1439v1439h80v-1556h-84l-1106 1440v-1440h-80zM571 2001h90l244 -238l242 238h90l-299 -291h-70z" />
<glyph unicode="&#x148;" horiz-adv-x="1222" d="M205 0v983h74v-192q51 109 146 167t226 58q176 0 275.5 -111.5t99.5 -310.5v-594h-78v584q0 362 -309 362q-162 0 -259 -113.5t-97 -302.5v-530h-78zM278 1583h86l254 -311l248 311h82l-301 -375h-60z" />
<glyph unicode="&#x14c;" horiz-adv-x="1888" d="M164 776q0 223 97 407.5t276.5 295t408.5 110.5q213 0 390 -101.5t282.5 -287.5t105.5 -422q0 -221 -97 -405.5t-276.5 -295t-406.5 -110.5q-215 0 -391 101.5t-282.5 287t-106.5 420.5zM248 780q0 -203 87 -368.5t246.5 -265t362.5 -99.5q190 0 349 91t253 258t94 380 q0 203 -87 369t-246.5 265t-362.5 99q-190 0 -349 -91t-253 -258t-94 -380zM651 1790v70h586v-70h-586z" />
<glyph unicode="&#x14d;" horiz-adv-x="1261" d="M127 492q0 141 63.5 259.5t179 191.5t261.5 73q139 0 252.5 -65.5t182.5 -185.5t69 -273q0 -141 -63.5 -260t-179.5 -192t-261 -73q-139 0 -253 65.5t-182.5 185.5t-68.5 274zM207 492q0 -125 52 -228.5t149.5 -165t222.5 -61.5q117 0 213 56.5t153.5 160.5t57.5 238 q0 125 -52.5 228t-149.5 164.5t-222 61.5q-117 0 -213 -56t-153.5 -160.5t-57.5 -237.5zM338 1348v69h586v-69h-586z" />
<glyph unicode="&#x150;" horiz-adv-x="1888" d="M164 776q0 223 97 407.5t276.5 295t408.5 110.5q213 0 390 -101.5t282.5 -287.5t105.5 -422q0 -221 -97 -405.5t-276.5 -295t-406.5 -110.5q-215 0 -391 101.5t-282.5 287t-106.5 420.5zM248 780q0 -203 87 -368.5t246.5 -265t362.5 -99.5q190 0 349 91t253 258t94 380 q0 203 -87 369t-246.5 265t-362.5 99q-190 0 -349 -91t-253 -258t-94 -380zM721 1710l254 264h92l-266 -264h-80zM993 1710l254 264h94l-266 -264h-82z" />
<glyph unicode="&#x151;" horiz-adv-x="1261" d="M127 492q0 141 63.5 259.5t179 191.5t261.5 73q139 0 252.5 -65.5t182.5 -185.5t69 -273q0 -141 -63.5 -260t-179.5 -192t-261 -73q-139 0 -253 65.5t-182.5 185.5t-68.5 274zM207 492q0 -125 52 -228.5t149.5 -165t222.5 -61.5q117 0 213 56.5t153.5 160.5t57.5 238 q0 125 -52.5 228t-149.5 164.5t-222 61.5q-117 0 -213 -56t-153.5 -160.5t-57.5 -237.5zM369 1202l282 381h89l-291 -381h-80zM662 1202l282 381h88l-290 -381h-80z" />
<glyph unicode="&#x152;" horiz-adv-x="2646" d="M164 776q0 223 95 407.5t269 295t398 110.5q223 0 400 -117.5t269 -328.5v413h856v-75h-774v-643h693v-72h-693v-690h805v-76h-887v414q-90 -209 -269 -328t-402 -119q-209 0 -381 101.5t-275.5 287t-103.5 420.5zM248 780q0 -203 85 -368.5t239.5 -265t351.5 -99.5 q186 0 339.5 91t244.5 258t91 380q0 203 -84.5 369t-239.5 265t-351 99q-186 0 -339 -91t-245 -258t-92 -380z" />
<glyph unicode="&#x153;" horiz-adv-x="2076" d="M127 492q0 141 63.5 259.5t179 191.5t261.5 73q158 0 281.5 -92.5t174.5 -247.5q47 156 166 248t273 92q121 0 217 -57.5t151.5 -163t55.5 -244.5q0 -33 -6 -70h-820q4 -207 128 -325.5t333 -118.5q176 0 330 86l14 -70q-66 -39 -160 -62.5t-190 -23.5q-186 0 -315 87 t-179 245q-53 -152 -176.5 -242t-277.5 -90q-139 0 -253 65.5t-182.5 185.5t-68.5 274zM207 492q0 -125 52 -228.5t149.5 -165t222.5 -61.5q117 0 213 56.5t153.5 160.5t57.5 238q0 125 -52.5 228t-149.5 164.5t-222 61.5q-117 0 -213 -56t-153.5 -160.5t-57.5 -237.5z M1126 545h752q0 117 -43 208t-125 143t-190 52q-98 0 -183.5 -50t-141.5 -142t-69 -211z" />
<glyph unicode="&#x154;" horiz-adv-x="1423" d="M276 0v1556h412q227 0 362.5 -118.5t135.5 -317.5q0 -158 -80 -267.5t-232 -156.5l457 -696h-100l-436 678q-78 -10 -136 -10h-301v-668h-82zM358 745h289q219 0 336 95.5t117 273.5q0 174 -109.5 269.5t-308.5 95.5h-324v-734zM526 1710l317 264h109l-330 -264h-96z" />
<glyph unicode="&#x155;" horiz-adv-x="798" d="M205 0v983h76v-221q45 115 133 175t209 60q68 0 104 -16l-6 -72q-59 16 -111 17q-154 0 -240.5 -127t-86.5 -350v-449h-78zM304 1208l278 375h90l-286 -375h-82z" />
<glyph unicode="&#x158;" horiz-adv-x="1423" d="M276 0v1556h412q227 0 362.5 -118.5t135.5 -317.5q0 -158 -80 -267.5t-232 -156.5l457 -696h-100l-436 678q-78 -10 -136 -10h-301v-668h-82zM321 2001h90l244 -238l242 238h90l-299 -291h-70zM358 745h289q219 0 336 95.5t117 273.5q0 174 -109.5 269.5t-308.5 95.5 h-324v-734z" />
<glyph unicode="&#x159;" horiz-adv-x="798" d="M113 1583h86l254 -311l248 311h82l-301 -375h-60zM205 0v983h76v-221q45 115 133 175t209 60q68 0 104 -16l-6 -72q-59 16 -111 17q-154 0 -240.5 -127t-86.5 -350v-449h-78z" />
<glyph unicode="&#x15a;" horiz-adv-x="1329" d="M162 94l14 78q88 -61 206 -96t241 -35q205 0 322.5 90t117.5 248q0 104 -43 168.5t-144.5 117t-293.5 117.5q-201 68 -294 168.5t-93 249.5q0 178 125.5 283.5t341.5 105.5q221 0 413 -96l-18 -72q-190 94 -395 95q-180 0 -284 -82t-104 -228q0 -94 37 -155.5t117 -108.5 t217 -94q199 -68 305.5 -133.5t150.5 -143t44 -186.5q0 -193 -140 -305.5t-380 -112.5q-133 0 -255 34t-208 93zM526 1710l317 264h109l-330 -264h-96z" />
<glyph unicode="&#x15b;" horiz-adv-x="937" d="M113 63l10 76q63 -47 152.5 -74.5t170.5 -27.5q135 0 213 53t78 146q0 61 -27.5 100t-89 68.5t-174.5 62.5q-160 47 -233.5 117.5t-73.5 177.5q0 115 89 184.5t239 69.5q82 0 163 -20.5t138 -55.5l-10 -72q-59 37 -137 57.5t-154 20.5q-119 0 -185.5 -48t-66.5 -132 q0 -80 58.5 -132t189.5 -89q197 -57 274.5 -125t77.5 -180q0 -125 -100.5 -199t-268.5 -74q-90 0 -180 25.5t-153 70.5zM318 1208l278 375h90l-286 -375h-82z" />
<glyph unicode="&#x15e;" horiz-adv-x="1329" d="M162 94l14 78q88 -61 206 -96t241 -35q205 0 322.5 90t117.5 248q0 104 -43 168.5t-144.5 117t-293.5 117.5q-201 68 -294 168.5t-93 249.5q0 178 125.5 283.5t341.5 105.5q221 0 413 -96l-18 -72q-190 94 -395 95q-180 0 -284 -82t-104 -228q0 -94 37 -155.5t117 -108.5 t217 -94q199 -68 305.5 -133.5t150.5 -143t44 -186.5q0 -193 -140 -305.5t-380 -112.5q-133 0 -255 34t-208 93zM445 -481l14 57q29 -16 74 -26.5t84 -10.5q70 0 112.5 35t42.5 92q0 55 -38 87t-101 32q-55 0 -90 -8l63 243h58l-43 -176h18q90 0 145.5 -48t55.5 -124 q0 -88 -61.5 -141t-161.5 -53q-94 0 -172 41z" />
<glyph unicode="&#x15f;" horiz-adv-x="937" d="M113 63l10 76q63 -47 152.5 -74.5t170.5 -27.5q135 0 213 53t78 146q0 61 -27.5 100t-89 68.5t-174.5 62.5q-160 47 -233.5 117.5t-73.5 177.5q0 115 89 184.5t239 69.5q82 0 163 -20.5t138 -55.5l-10 -72q-59 37 -137 57.5t-154 20.5q-119 0 -185.5 -48t-66.5 -132 q0 -80 58.5 -132t189.5 -89q197 -57 274.5 -125t77.5 -180q0 -125 -100.5 -199t-268.5 -74q-90 0 -180 25.5t-153 70.5zM256 -481l14 57q29 -16 74 -26.5t84 -10.5q70 0 113.5 35t43.5 92q0 55 -39 87t-102 32q-55 0 -90 -8l63 243h58l-43 -176h18q90 0 145.5 -48t55.5 -124 q0 -88 -61.5 -141t-161.5 -53q-94 0 -172 41z" />
<glyph unicode="&#x160;" horiz-adv-x="1329" d="M162 94l14 78q88 -61 206 -96t241 -35q205 0 322.5 90t117.5 248q0 104 -43 168.5t-144.5 117t-293.5 117.5q-201 68 -294 168.5t-93 249.5q0 178 125.5 283.5t341.5 105.5q221 0 413 -96l-18 -72q-190 94 -395 95q-180 0 -284 -82t-104 -228q0 -94 37 -155.5t117 -108.5 t217 -94q199 -68 305.5 -133.5t150.5 -143t44 -186.5q0 -193 -140 -305.5t-380 -112.5q-133 0 -255 34t-208 93zM321 2001h90l244 -238l242 238h90l-299 -291h-70z" />
<glyph unicode="&#x161;" horiz-adv-x="937" d="M113 63l10 76q63 -47 152.5 -74.5t170.5 -27.5q135 0 213 53t78 146q0 61 -27.5 100t-89 68.5t-174.5 62.5q-160 47 -233.5 117.5t-73.5 177.5q0 115 89 184.5t239 69.5q82 0 163 -20.5t138 -55.5l-10 -72q-59 37 -137 57.5t-154 20.5q-119 0 -185.5 -48t-66.5 -132 q0 -80 58.5 -132t189.5 -89q197 -57 274.5 -125t77.5 -180q0 -125 -100.5 -199t-268.5 -74q-90 0 -180 25.5t-153 70.5zM127 1583h86l254 -311l248 311h82l-301 -375h-60z" />
<glyph unicode="&#x162;" horiz-adv-x="1363" d="M109 1481v75h1146v-75h-532v-1481h-82v1481h-532zM498 -481l14 57q29 -16 74 -26.5t84 -10.5q70 0 112.5 35t42.5 92q0 55 -38 87t-101 32q-55 0 -90 -8l63 243h58l-43 -176h18q90 0 145.5 -48t55.5 -124q0 -88 -61.5 -141t-161.5 -53q-94 0 -172 41z" />
<glyph unicode="&#x163;" horiz-adv-x="856" d="M41 915v68h233v336h78v-336h377v-68h-377v-563q0 -174 50 -244q50 -71 173 -71q47 0 105 16q57 16 98 41l15 -67q-41 -27 -105 -43q-64 -17 -121 -17q-152 0 -222 84q-71 84 -71 266v598h-233zM338 -481l14 57q29 -16 74 -26.5t84 -10.5q70 0 113.5 35t43.5 92 q0 55 -39 87t-102 32q-55 0 -90 -8l63 243h58l-43 -176h18q90 0 145.5 -48t55.5 -124q0 -88 -61.5 -141t-161.5 -53q-94 0 -172 41z" />
<glyph unicode="&#x164;" horiz-adv-x="1363" d="M109 1481v75h1146v-75h-532v-1481h-82v1481h-532zM348 2001h90l244 -238l242 238h90l-299 -291h-70z" />
<glyph unicode="&#x165;" horiz-adv-x="856" d="M41 915v68h233v336h78v-336h377v-68h-377v-563q0 -174 50 -244q50 -71 173 -71q47 0 105 16q57 16 98 41l15 -67q-41 -27 -105 -43q-64 -17 -121 -17q-152 0 -222 84q-71 84 -71 266v598h-233zM498 1239l27 420h67l-39 -420h-55z" />
<glyph unicode="&#x168;" horiz-adv-x="1712" d="M236 606v950h81v-933q0 -575 539 -576q539 0 539 576v933h82v-950q0 -309 -161 -474t-460 -165t-459.5 165t-160.5 474zM539 1710q0 117 44 177.5t128 60.5q49 -2 87 -28t69.5 -59.5t62 -59t65.5 -27.5q115 0 115 172h63q0 -113 -45 -175.5t-129 -62.5q-49 2 -87 27.5 t-69.5 59.5t-62 59.5t-65.5 27.5q-113 0 -113 -172h-63z" />
<glyph unicode="&#x169;" horiz-adv-x="1216" d="M197 389v594h77v-584q0 -178 78 -270t230 -92q158 0 255 115t97 301v530h78v-983h-74l-2 190q-51 -109 -145 -165q-95 -58 -222 -58q-176 0 -274 112t-98 310zM287 1274q0 117 44 177t128 60q49 -2 87 -27.5t69.5 -59t62 -59.5t65.5 -28q115 0 115 172h63 q0 -113 -45 -175t-129 -62q-49 2 -87 27.5t-69.5 59.5t-62 59.5t-65.5 27.5q-113 0 -113 -172h-63z" />
<glyph unicode="&#x16a;" horiz-adv-x="1712" d="M236 606v950h81v-933q0 -575 539 -576q539 0 539 576v933h82v-950q0 -309 -161 -474t-460 -165t-459.5 165t-160.5 474zM563 1790v70h586v-70h-586z" />
<glyph unicode="&#x16b;" horiz-adv-x="1216" d="M197 389v594h77v-584q0 -178 78 -270t230 -92q158 0 255 115t97 301v530h78v-983h-74l-2 190q-51 -109 -145 -165q-95 -58 -222 -58q-176 0 -274 112t-98 310zM311 1348v69h586v-69h-586z" />
<glyph unicode="&#x16e;" horiz-adv-x="1712" d="M236 606v950h81v-933q0 -575 539 -576q539 0 539 576v933h82v-950q0 -309 -161 -474t-460 -165t-459.5 165t-160.5 474zM604 1919q0 106 70.5 175t181.5 69t182.5 -69t71.5 -175t-71.5 -175t-182.5 -69q-109 0 -180.5 68.5t-71.5 175.5zM666 1919q0 -82 53 -134t137 -52 t138.5 52t54.5 134t-54.5 134t-138.5 52t-137 -52t-53 -134z" />
<glyph unicode="&#x16f;" horiz-adv-x="1216" d="M197 389v594h77v-584q0 -178 78 -270t230 -92q158 0 255 115t97 301v530h78v-983h-74l-2 190q-51 -109 -145 -165q-95 -58 -222 -58q-176 0 -274 112t-98 310zM352 1448q0 106 70.5 175t181.5 69t182.5 -69t71.5 -175t-71.5 -175t-182.5 -69q-109 0 -180.5 68.5 t-71.5 175.5zM414 1448q0 -82 53 -134t137 -52t138.5 52t54.5 134t-54.5 134t-138.5 52t-137 -52t-53 -134z" />
<glyph unicode="&#x170;" horiz-adv-x="1712" d="M236 606v950h81v-933q0 -575 539 -576q539 0 539 576v933h82v-950q0 -309 -161 -474t-460 -165t-459.5 165t-160.5 474zM633 1710l254 264h92l-266 -264h-80zM905 1710l254 264h94l-266 -264h-82z" />
<glyph unicode="&#x171;" horiz-adv-x="1216" d="M197 389v594h77v-584q0 -178 78 -270t230 -92q158 0 255 115t97 301v530h78v-983h-74l-2 190q-51 -109 -145 -165q-95 -58 -222 -58q-176 0 -274 112t-98 310zM342 1202l282 381h89l-291 -381h-80zM635 1202l282 381h88l-290 -381h-80z" />
<glyph unicode="&#x172;" horiz-adv-x="1712" d="M236 606v950h81v-933q0 -575 539 -576q539 0 539 576v933h82v-950q0 -309 -161 -474t-460 -165t-459.5 165t-160.5 474zM811 -332q0 96 78.5 194.5t216.5 174.5l73 -2q-152 -96 -224.5 -183.5t-72.5 -173.5q0 -133 132 -133q72 0 135 41l12 -57q-29 -18 -74 -31.5 t-84 -13.5q-86 0 -139 51t-53 133z" />
<glyph unicode="&#x173;" horiz-adv-x="1216" d="M197 389v594h77v-584q0 -178 78 -270t230 -92q158 0 255 115t97 301v530h78v-983h-74l-2 190q-51 -109 -145 -165q-95 -58 -222 -58q-176 0 -274 112t-98 310zM694 -332q0 88 67 177t206 186l45 -31q-248 -166 -248 -322q0 -63 34 -98t97 -35q72 0 135 41l13 -57 q-29 -20 -74 -32.5t-84 -12.5q-82 0 -136.5 52t-54.5 132z" />
<glyph unicode="&#x174;" horiz-adv-x="2238" d="M86 1556h92l443 -1447l454 1427h88l455 -1427l444 1447h90l-487 -1556h-88l-461 1415l-452 -1415h-91zM792 1710l299 291h70l297 -291h-90l-244 236l-242 -236h-90z" />
<glyph unicode="&#x175;" horiz-adv-x="1617" d="M72 983h80l325 -893l297 873h70l297 -871l329 891h76l-364 -983h-78l-297 868l-295 -868h-80zM465 1208l301 375h60l309 -375h-86l-252 310l-250 -310h-82z" />
<glyph unicode="&#x176;" horiz-adv-x="1441" d="M82 1556h98l543 -782l545 782h92l-600 -854v-702h-82v702zM387 1710l299 291h70l297 -291h-90l-244 236l-242 -236h-90z" />
<glyph unicode="&#x177;" horiz-adv-x="1067" d="M61 983h86l406 -838l373 838h80l-668 -1485h-84l258 557zM213 1208l301 375h60l309 -375h-86l-252 310l-250 -310h-82z" />
<glyph unicode="&#x178;" horiz-adv-x="1441" d="M82 1556h98l543 -782l545 782h92l-600 -854v-702h-82v702zM469 1821q0 29 17.5 46t46.5 17q27 0 45 -18.5t18 -44.5q0 -27 -18 -45.5t-45 -18.5t-45.5 18.5t-18.5 45.5zM842 1821q0 29 17.5 46t45.5 17q29 0 46.5 -17.5t17.5 -45.5q0 -27 -18.5 -45.5t-45.5 -18.5 t-45 18.5t-18 45.5z" />
<glyph unicode="&#x179;" horiz-adv-x="1435" d="M143 0v74l1014 1407h-962v75h1060v-73l-1013 -1407h1030v-76h-1129zM592 1710l317 264h109l-330 -264h-96z" />
<glyph unicode="&#x17a;" horiz-adv-x="1013" d="M119 0v61l657 854h-633v68h727v-61l-659 -854h674v-68h-766zM357 1208l278 375h90l-286 -375h-82z" />
<glyph unicode="&#x17b;" horiz-adv-x="1435" d="M143 0v74l1014 1407h-962v75h1060v-73l-1013 -1407h1030v-76h-1129zM655 1823q0 31 17.5 48t48.5 17t48.5 -17.5t17.5 -47.5q0 -29 -17.5 -47.5t-48.5 -18.5t-48.5 17.5t-17.5 48.5z" />
<glyph unicode="&#x17c;" horiz-adv-x="1013" d="M119 0v61l657 854h-633v68h727v-61l-659 -854h674v-68h-766zM436 1380q0 31 17.5 48.5t48.5 17.5t48.5 -17.5t17.5 -48.5q0 -29 -17.5 -47t-48.5 -18t-48.5 17.5t-17.5 47.5z" />
<glyph unicode="&#x17d;" horiz-adv-x="1435" d="M143 0v74l1014 1407h-962v75h1060v-73l-1013 -1407h1030v-76h-1129zM387 2001h90l244 -238l242 238h90l-299 -291h-70z" />
<glyph unicode="&#x17e;" horiz-adv-x="1013" d="M119 0v61l657 854h-633v68h727v-61l-659 -854h674v-68h-766zM166 1583h86l254 -311l248 311h82l-301 -375h-60z" />
<glyph unicode="&#x192;" horiz-adv-x="786" d="M-117 -475l8 67q88 -45 197 -45t157 61.5t48 203.5v1103h-211v68h211v211q0 233 94 354t275 121q113 0 190 -41l-12 -67q-84 39 -178 38q-147 0 -219 -102t-72 -313v-201h352v-68h-352v-1103q0 -170 -70.5 -252t-220.5 -82q-102 0 -197 47z" />
<glyph unicode="&#x218;" horiz-adv-x="1329" d="M162 94l14 78q88 -61 206 -96t241 -35q205 0 322.5 90t117.5 248q0 104 -43 168.5t-144.5 117t-293.5 117.5q-201 68 -294 168.5t-93 249.5q0 178 125.5 283.5t341.5 105.5q221 0 413 -96l-18 -72q-190 94 -395 95q-180 0 -284 -82t-104 -228q0 -94 37 -155.5t117 -108.5 t217 -94q199 -68 305.5 -133.5t150.5 -143t44 -186.5q0 -193 -140 -305.5t-380 -112.5q-133 0 -255 34t-208 93zM524 -502q88 172 100 369h70q-10 -102 -39 -201.5t-70 -167.5h-61z" />
<glyph unicode="&#x219;" horiz-adv-x="937" d="M113 63l10 76q63 -47 152.5 -74.5t170.5 -27.5q135 0 213 53t78 146q0 61 -27.5 100t-89 68.5t-174.5 62.5q-160 47 -233.5 117.5t-73.5 177.5q0 115 89 184.5t239 69.5q82 0 163 -20.5t138 -55.5l-10 -72q-59 37 -137 57.5t-154 20.5q-119 0 -185.5 -48t-66.5 -132 q0 -80 58.5 -132t189.5 -89q197 -57 274.5 -125t77.5 -180q0 -125 -100.5 -199t-268.5 -74q-90 0 -180 25.5t-153 70.5zM319 -502q88 172 100 369h70q-8 -98 -39 -197.5t-72 -171.5h-59z" />
<glyph unicode="&#x21a;" horiz-adv-x="1363" d="M109 1481v75h1146v-75h-532v-1481h-82v1481h-532zM551 -502q88 172 100 369h70q-10 -102 -39 -201.5t-70 -167.5h-61z" />
<glyph unicode="&#x21b;" horiz-adv-x="856" d="M41 915v68h233v336h78v-336h377v-68h-377v-563q0 -174 50 -244q50 -71 173 -71q47 0 105 16q57 16 98 41l15 -67q-41 -27 -105 -43q-64 -17 -121 -17q-152 0 -222 84q-71 84 -71 266v598h-233zM383 -502q88 172 100 369h70q-8 -98 -39 -197.5t-72 -171.5h-59z" />
<glyph unicode="&#x237;" horiz-adv-x="487" d="M-205 -475l8 67q88 -45 197 -45t157 61.5t48 203.5v1171h78v-1171q0 -170 -70.5 -252t-220.5 -82q-102 0 -197 47z" />
<glyph unicode="&#x2c6;" horiz-adv-x="1024" d="M176 1208l301 375h60l309 -375h-86l-252 310l-250 -310h-82z" />
<glyph unicode="&#x2c7;" horiz-adv-x="1024" d="M176 1583h86l254 -311l248 311h82l-301 -375h-60z" />
<glyph unicode="&#x2c9;" horiz-adv-x="1024" d="M219 1348v69h586v-69h-586z" />
<glyph unicode="&#x2cb;" horiz-adv-x="1024" d="M328 1583h90l279 -375h-82z" />
<glyph unicode="&#x2d8;" horiz-adv-x="1024" d="M227 1501q0 23 2 31h62q0 -244 221 -244t221 244h62q2 -8 2 -31q0 -123 -78 -197.5t-207 -74.5t-207 74.5t-78 197.5z" />
<glyph unicode="&#x2d9;" horiz-adv-x="1024" d="M446 1380q0 31 17.5 48.5t48.5 17.5t48.5 -17.5t17.5 -48.5q0 -29 -17.5 -47t-48.5 -18t-48.5 17.5t-17.5 47.5z" />
<glyph unicode="&#x2da;" horiz-adv-x="1024" d="M260 1448q0 106 70.5 175t181.5 69t182.5 -69t71.5 -175t-71.5 -175t-182.5 -69q-109 0 -180.5 68.5t-71.5 175.5zM322 1448q0 -82 53 -134t137 -52t138.5 52t54.5 134t-54.5 134t-138.5 52t-137 -52t-53 -134z" />
<glyph unicode="&#x2db;" horiz-adv-x="1024" d="M368 -332q0 88 67 177t206 186l45 -31q-248 -166 -248 -322q0 -63 34 -98t97 -35q72 0 135 41l13 -57q-29 -20 -74 -32.5t-84 -12.5q-82 0 -136.5 52t-54.5 132z" />
<glyph unicode="&#x2dc;" horiz-adv-x="1024" d="M195 1274q0 117 44 177t128 60q49 -2 87 -27.5t69.5 -59t62 -59.5t65.5 -28q115 0 115 172h63q0 -113 -45 -175t-129 -62q-49 2 -87 27.5t-69.5 59.5t-62 59.5t-65.5 27.5q-113 0 -113 -172h-63z" />
<glyph unicode="&#x2dd;" horiz-adv-x="1024" d="M209 1202l282 381h89l-291 -381h-80zM502 1202l282 381h88l-290 -381h-80z" />
<glyph unicode="&#x300;" horiz-adv-x="0" d="M-219 1583h90l279 -375h-82z" />
<glyph unicode="&#x301;" horiz-adv-x="0" d="M-145 1208l278 375h90l-286 -375h-82z" />
<glyph unicode="&#x302;" horiz-adv-x="0" d="M-336 1208l301 375h60l309 -375h-86l-252 310l-250 -310h-82z" />
<glyph unicode="&#x303;" horiz-adv-x="0" d="M-317 1274q0 117 44 177t128 60q49 -2 87 -27.5t69.5 -59t62 -59.5t65.5 -28q115 0 115 172h63q0 -113 -45 -175t-129 -62q-49 2 -87 27.5t-69.5 59.5t-62 59.5t-65.5 27.5q-113 0 -113 -172h-63z" />
<glyph unicode="&#x304;" horiz-adv-x="0" d="M-293 1348v69h586v-69h-586z" />
<glyph unicode="&#x306;" horiz-adv-x="0" d="M-285 1501q0 23 2 31h62q0 -244 221 -244t221 244h62q2 -8 2 -31q0 -123 -78 -197.5t-207 -74.5t-207 74.5t-78 197.5z" />
<glyph unicode="&#x307;" horiz-adv-x="0" d="M-66 1380q0 31 17.5 48.5t48.5 17.5t48.5 -17.5t17.5 -48.5q0 -29 -17.5 -47t-48.5 -18t-48.5 17.5t-17.5 47.5z" />
<glyph unicode="&#x308;" horiz-adv-x="0" d="M-238 1380q0 29 17.5 46.5t46.5 17.5q27 0 45 -18.5t18 -45.5t-18 -45t-45 -18t-45.5 18.5t-18.5 44.5zM111 1380q0 29 17 46.5t46 17.5t46.5 -17.5t17.5 -46.5q0 -27 -18.5 -45t-45.5 -18t-45 18.5t-18 44.5z" />
<glyph unicode="&#x30a;" horiz-adv-x="0" d="M-252 1448q0 106 70.5 175t181.5 69t182.5 -69t71.5 -175t-71.5 -175t-182.5 -69q-109 0 -180.5 68.5t-71.5 175.5zM-190 1448q0 -82 53 -134t137 -52t138.5 52t54.5 134t-54.5 134t-138.5 52t-137 -52t-53 -134z" />
<glyph unicode="&#x30b;" horiz-adv-x="0" d="M-262 1202l282 381h89l-291 -381h-80zM31 1202l282 381h88l-290 -381h-80z" />
<glyph unicode="&#x30c;" horiz-adv-x="0" d="M-336 1583h86l254 -311l248 311h82l-301 -375h-60z" />
<glyph unicode="&#x312;" horiz-adv-x="0" d="M-43 1249q6 90 33.5 180.5t68.5 153.5h62q-84 -147 -94 -334h-70z" />
<glyph unicode="&#x315;" horiz-adv-x="0" d="M-49 1188l29 471h67l-43 -471h-53z" />
<glyph unicode="&#x326;" horiz-adv-x="0" d="M-127 -502q88 172 100 369h70q-8 -98 -39 -197.5t-72 -171.5h-59z" />
<glyph unicode="&#x327;" horiz-adv-x="0" d="M-190 -481l14 57q29 -16 74 -26.5t84 -10.5q70 0 113.5 35t43.5 92q0 55 -39 87t-102 32q-55 0 -90 -8l63 243h58l-43 -176h18q90 0 145.5 -48t55.5 -124q0 -88 -61.5 -141t-161.5 -53q-94 0 -172 41z" />
<glyph unicode="&#x328;" horiz-adv-x="0" d="M-240 -332q0 88 67 177t206 186l45 -31q-248 -166 -248 -322q0 -63 34 -98t97 -35q72 0 135 41l13 -57q-29 -20 -74 -32.5t-84 -12.5q-82 0 -136.5 52t-54.5 132z" />
<glyph unicode="&#x3c0;" horiz-adv-x="1298" d="M123 915v68h1067v-68h-172v-702q0 -90 18.5 -122t69.5 -32q39 0 78 17l12 -64q-16 -10 -45.5 -16t-54.5 -6q-84 0 -120 52t-36 171v702h-569v-915h-78v915h-170z" />
<glyph unicode="&#x1e80;" horiz-adv-x="2238" d="M86 1556h92l443 -1447l454 1427h88l455 -1427l444 1447h90l-487 -1556h-88l-461 1415l-452 -1415h-91zM827 1974h109l317 -264h-96z" />
<glyph unicode="&#x1e81;" horiz-adv-x="1617" d="M72 983h80l325 -893l297 873h70l297 -871l329 891h76l-364 -983h-78l-297 868l-295 -868h-80zM582 1583h90l279 -375h-82z" />
<glyph unicode="&#x1e82;" horiz-adv-x="2238" d="M86 1556h92l443 -1447l454 1427h88l455 -1427l444 1447h90l-487 -1556h-88l-461 1415l-452 -1415h-91zM995 1710l317 264h109l-330 -264h-96z" />
<glyph unicode="&#x1e83;" horiz-adv-x="1617" d="M72 983h80l325 -893l297 873h70l297 -871l329 891h76l-364 -983h-78l-297 868l-295 -868h-80zM656 1208l278 375h90l-286 -375h-82z" />
<glyph unicode="&#x1e84;" horiz-adv-x="2238" d="M86 1556h92l443 -1447l454 1427h88l455 -1427l444 1447h90l-487 -1556h-88l-461 1415l-452 -1415h-91zM874 1821q0 29 17.5 46t46.5 17q27 0 45 -18.5t18 -44.5q0 -27 -18 -45.5t-45 -18.5t-45.5 18.5t-18.5 45.5zM1247 1821q0 29 17.5 46t45.5 17q29 0 46.5 -17.5 t17.5 -45.5q0 -27 -18.5 -45.5t-45.5 -18.5t-45 18.5t-18 45.5z" />
<glyph unicode="&#x1e85;" horiz-adv-x="1617" d="M72 983h80l325 -893l297 873h70l297 -871l329 891h76l-364 -983h-78l-297 868l-295 -868h-80zM563 1380q0 29 17.5 46.5t46.5 17.5q27 0 45 -18.5t18 -45.5t-18 -45t-45 -18t-45.5 18.5t-18.5 44.5zM912 1380q0 29 17 46.5t46 17.5t46.5 -17.5t17.5 -46.5 q0 -27 -18.5 -45t-45.5 -18t-45 18.5t-18 44.5z" />
<glyph unicode="&#x1e9e;" horiz-adv-x="1628" d="M260 0v879q0 344 150.5 527t433.5 183q145 0 280.5 -55t229.5 -156l2 -59l-367 -455q6 2 23 2q131 0 235.5 -53t165 -153.5t60.5 -231.5q0 -127 -61.5 -231.5t-176.5 -167t-262 -62.5q-90 0 -175 22.5t-145 63.5l11 76q76 -47 149.5 -68.5t157.5 -21.5q119 0 214 48 t151.5 137t56.5 206q0 164 -105.5 265.5t-275.5 101.5q-63 0 -121 -23l-14 57l409 512q-88 82 -204.5 126t-237.5 44q-502 0 -502 -645v-868h-82z" />
<glyph unicode="&#x1ef2;" horiz-adv-x="1441" d="M82 1556h98l543 -782l545 782h92l-600 -854v-702h-82v702zM422 1974h109l317 -264h-96z" />
<glyph unicode="&#x1ef3;" horiz-adv-x="1067" d="M61 983h86l406 -838l373 838h80l-668 -1485h-84l258 557zM330 1583h90l279 -375h-82z" />
<glyph unicode="&#x2000;" horiz-adv-x="1024" />
<glyph unicode="&#x2001;" horiz-adv-x="2048" />
<glyph unicode="&#x2002;" horiz-adv-x="1024" />
<glyph unicode="&#x2003;" horiz-adv-x="2048" />
<glyph unicode="&#x2004;" horiz-adv-x="681" />
<glyph unicode="&#x2005;" horiz-adv-x="512" />
<glyph unicode="&#x2006;" horiz-adv-x="339" />
<glyph unicode="&#x2007;" horiz-adv-x="1269" />
<glyph unicode="&#x2008;" horiz-adv-x="593" />
<glyph unicode="&#x2009;" horiz-adv-x="409" />
<glyph unicode="&#x200a;" horiz-adv-x="112" />
<glyph unicode="&#x200b;" horiz-adv-x="0" />
<glyph unicode="&#x2010;" horiz-adv-x="899" d="M164 543v73h571v-73h-571z" />
<glyph unicode="&#x2011;" horiz-adv-x="899" d="M164 543v73h571v-73h-571z" />
<glyph unicode="&#x2012;" horiz-adv-x="1024" d="M0 557v76h1024v-76h-1024z" />
<glyph unicode="&#x2013;" horiz-adv-x="1024" d="M0 557v76h1024v-76h-1024z" />
<glyph unicode="&#x2014;" horiz-adv-x="2048" d="M0 557v76h2048v-76h-2048z" />
<glyph unicode="&#x2015;" horiz-adv-x="2048" d="M0 557v76h2048v-76h-2048z" />
<glyph unicode="&#x2018;" horiz-adv-x="374" d="M113 1085q8 127 40.5 254t79.5 217h60q-90 -201 -107 -471h-73z" />
<glyph unicode="&#x2019;" horiz-adv-x="374" d="M82 1085q90 201 106 471h74q-8 -127 -41 -253.5t-80 -217.5h-59z" />
<glyph unicode="&#x201a;" horiz-adv-x="374" d="M82 -229q90 201 106 471h74q-8 -127 -41 -254t-80 -217h-59z" />
<glyph unicode="&#x201c;" horiz-adv-x="634" d="M113 1085q8 127 40.5 254t79.5 217h60q-90 -201 -107 -471h-73zM373 1085q8 127 40.5 254t79.5 217h60q-90 -201 -107 -471h-73z" />
<glyph unicode="&#x201d;" horiz-adv-x="634" d="M82 1085q90 201 106 471h74q-8 -127 -41 -253.5t-80 -217.5h-59zM342 1085q90 201 106 471h74q-8 -127 -41 -253.5t-80 -217.5h-59z" />
<glyph unicode="&#x201e;" horiz-adv-x="634" d="M82 -229q90 201 106 471h74q-8 -127 -41 -254t-80 -217h-59zM342 -229q90 201 106 471h74q-8 -127 -41 -254t-80 -217h-59z" />
<glyph unicode="&#x2020;" horiz-adv-x="1001" d="M102 948v72h361v536h74v-536h362v-72h-362v-1214h-74v1214h-361z" />
<glyph unicode="&#x2021;" horiz-adv-x="1001" d="M102 252v72h361v645h-361v71h361v516h74v-516h362v-71h-362v-645h362v-72h-362v-518h-74v518h-361z" />
<glyph unicode="&#x2022;" horiz-adv-x="684" d="M133 561q0 88 61.5 148.5t147.5 60.5q88 0 148.5 -60.5t60.5 -148.5q0 -86 -60.5 -147.5t-148.5 -61.5q-86 0 -147.5 61.5t-61.5 147.5z" />
<glyph unicode="&#x2026;" horiz-adv-x="2048" d="M274 49q0 31 19.5 49.5t48.5 18.5t48.5 -18.5t19.5 -49.5t-19.5 -49t-48.5 -18t-48.5 18t-19.5 49zM956 49q0 31 19.5 49.5t48.5 18.5t48.5 -18.5t19.5 -49.5t-19.5 -49t-48.5 -18t-48.5 18t-19.5 49zM1638 49q0 31 19.5 49.5t48.5 18.5t48.5 -18.5t19.5 -49.5t-19.5 -49 t-48.5 -18t-48.5 18t-19.5 49z" />
<glyph unicode="&#x202f;" horiz-adv-x="432" />
<glyph unicode="&#x2030;" horiz-adv-x="2619" d="M102 1217q0 92 43 168.5t121 123.5t174 47q90 0 166 -43t122 -120.5t46 -175.5q0 -90 -42 -167t-119 -125t-173 -48q-90 0 -166.5 43t-124 121.5t-47.5 175.5zM176 1217q0 -115 75.5 -193t188.5 -78q111 0 185.5 78t74.5 193t-73.5 192.5t-186.5 77.5t-188.5 -77 t-75.5 -193zM238 0l1208 1524h90l-1208 -1524h-90zM1008 319q0 92 43 169t120.5 124t174.5 47q90 0 165.5 -43t121.5 -120.5t46 -176.5q0 -90 -42 -166.5t-118.5 -124.5t-172.5 -48q-90 0 -167 43t-124 121.5t-47 174.5zM1081 319q0 -115 76 -192.5t189 -77.5 q111 0 185.5 78t74.5 192q0 115 -74 193t-186 78q-113 0 -189 -77t-76 -194zM1845 319q0 92 43 169t121 124t174 47q90 0 166 -43t122 -120.5t46 -176.5q0 -90 -42 -166.5t-119 -124.5t-173 -48q-90 0 -167 43t-124 121.5t-47 174.5zM1919 319q0 -115 75.5 -192.5 t188.5 -77.5q111 0 185.5 78t74.5 192q0 115 -73.5 193t-186.5 78t-188.5 -77t-75.5 -194z" />
<glyph unicode="&#x2032;" horiz-adv-x="499" d="M154 961l110 595h82l-129 -595h-63z" />
<glyph unicode="&#x2033;" horiz-adv-x="770" d="M154 961l110 595h82l-129 -595h-63zM424 961l110 595h82l-129 -595h-63z" />
<glyph unicode="&#x2039;" horiz-adv-x="532" d="M72 526l282 418h86l-282 -418l282 -417h-86z" />
<glyph unicode="&#x203a;" horiz-adv-x="532" d="M92 109l283 417l-283 418h86l283 -418l-283 -417h-86z" />
<glyph unicode="&#x2044;" horiz-adv-x="325" d="M-487 0l1208 1524h90l-1208 -1524h-90z" />
<glyph unicode="&#x205f;" horiz-adv-x="540" />
<glyph unicode="&#x2070;" d="M80 1350q0 197 88 318.5t227 121.5t227.5 -122t88.5 -318q0 -190 -89.5 -313t-226.5 -123q-88 0 -159.5 53t-113.5 153.5t-42 229.5zM150 1350q0 -104 29.5 -189.5t85.5 -135.5t130 -50q70 0 125 46t88 132t33 197q0 168 -68.5 273.5t-177.5 105.5t-177 -105.5 t-68 -273.5z" />
<glyph unicode="&#x2074;" d="M94 1161v62l410 547h71v-551h119v-58h-119v-227h-63v227h-418zM164 1219h348v463z" />
<glyph unicode="&#x2075;" d="M150 975l8 63q55 -33 106 -48t111 -15q106 0 163.5 56.5t57.5 158.5q0 90 -64.5 142.5t-173.5 52.5t-172 -35l15 420h413v-68h-356l-8 -272q53 16 115 16q135 0 218 -70.5t83 -185.5q0 -127 -79 -201.5t-210 -74.5q-61 0 -124 16t-103 45z" />
<glyph unicode="&#x2076;" d="M121 1190q0 152 95 314.5t249 271.5l86 -8q-115 -76 -207 -186.5t-135 -223.5q80 86 203 86q115 0 191.5 -74t76.5 -184q0 -119 -81 -195.5t-206 -76.5q-117 0 -194.5 78.5t-77.5 197.5zM184 1186q0 -94 60.5 -153.5t154.5 -59.5t154.5 57.5t60.5 147.5q0 98 -57 152.5 t-158 54.5q-92 0 -153.5 -56.5t-61.5 -142.5z" />
<glyph unicode="&#x2077;" d="M135 1700v70h522v-62l-360 -778l-68 4l355 766h-449z" />
<glyph unicode="&#x2078;" d="M115 1153q0 74 47 132.5t129 82.5q-70 25 -111 82t-41 129q0 92 74 151.5t186 59.5q109 0 180.5 -60.5t71.5 -150.5q0 -72 -39 -128t-106 -83q78 -25 124 -83t46 -132q0 -66 -34 -120t-97.5 -86.5t-145.5 -32.5q-121 0 -202.5 68.5t-81.5 170.5zM182 1155 q0 -82 60.5 -133t156.5 -51q94 0 151.5 51t57.5 133q0 80 -59.5 132.5t-149.5 52.5q-94 0 -155.5 -52.5t-61.5 -132.5zM205 1577q0 -78 55 -130t139 -52q82 0 134.5 51t52.5 131q0 70 -52.5 114t-134.5 44q-88 0 -141 -43t-53 -115z" />
<glyph unicode="&#x2079;" d="M117 1518q0 119 81 195.5t205 76.5q117 0 195 -79t78 -197q0 -152 -95.5 -315t-248.5 -271l-86 8q115 76 207 186.5t135 221.5q-39 -41 -92.5 -62.5t-110.5 -21.5q-115 0 -191.5 73.5t-76.5 184.5zM182 1526q0 -98 57.5 -152.5t157.5 -54.5q92 0 153.5 56.5t61.5 142.5 q0 94 -60 153.5t-155 59.5q-94 0 -154.5 -57.5t-60.5 -147.5z" />
<glyph unicode="&#x2080;" d="M80 160q0 197 88 318.5t227 121.5t227.5 -122t88.5 -318q0 -190 -89.5 -313t-226.5 -123q-88 0 -159.5 53t-113.5 153.5t-42 229.5zM150 160q0 -104 29.5 -189.5t85.5 -135.5t130 -50q70 0 125 46t88 132t33 197q0 168 -68.5 273.5t-177.5 105.5t-177 -105.5t-68 -273.5z " />
<glyph unicode="&#x2081;" d="M156 444l286 136h62v-836h-68v762l-268 -123z" />
<glyph unicode="&#x2082;" d="M125 494q41 47 110.5 76.5t139.5 29.5q115 0 185.5 -64.5t70.5 -166.5q0 -88 -43 -169t-148 -194q-66 -72 -211 -196h435v-66h-529v61q88 76 143.5 128.5t110.5 111.5q94 96 134 169t40 144q0 80 -51 128.5t-139 48.5q-135 0 -228 -103z" />
<glyph unicode="&#x2083;" d="M125 -215l8 61q51 -33 102.5 -48t114.5 -15q106 0 164.5 54t58.5 153q0 88 -58 136t-163 48q-49 0 -84 -14l-18 43l291 315h-394v62h471v-60l-268 -291q6 2 12.5 2h10.5q119 0 193.5 -67.5t74.5 -173.5q0 -123 -79 -194.5t-210 -71.5q-61 0 -123.5 16t-103.5 45z" />
<glyph unicode="&#x2084;" d="M94 -29v62l410 547h71v-551h119v-58h-119v-227h-63v227h-418zM164 29h348v463z" />
<glyph unicode="&#x2085;" d="M150 -215l8 63q55 -33 106 -48t111 -15q106 0 163.5 56.5t57.5 158.5q0 90 -64.5 142.5t-173.5 52.5t-172 -35l15 420h413v-68h-356l-8 -272q53 16 115 16q135 0 218 -70.5t83 -185.5q0 -127 -79 -201.5t-210 -74.5q-61 0 -124 16t-103 45z" />
<glyph unicode="&#x2086;" d="M121 0q0 152 95 314.5t249 271.5l86 -8q-115 -76 -207 -186.5t-135 -223.5q80 86 203 86q115 0 191.5 -74t76.5 -184q0 -119 -81 -195.5t-206 -76.5q-117 0 -194.5 78.5t-77.5 197.5zM184 -4q0 -94 60.5 -153.5t154.5 -59.5t154.5 57.5t60.5 147.5q0 98 -57 152.5 t-158 54.5q-92 0 -153.5 -56.5t-61.5 -142.5z" />
<glyph unicode="&#x2087;" d="M135 510v70h522v-62l-360 -778l-68 4l355 766h-449z" />
<glyph unicode="&#x2088;" d="M115 -37q0 74 47 132.5t129 82.5q-70 25 -111 82t-41 129q0 92 74 151.5t186 59.5q109 0 180.5 -60.5t71.5 -150.5q0 -72 -39 -128t-106 -83q78 -25 124 -83t46 -132q0 -66 -34 -120t-97.5 -86.5t-145.5 -32.5q-121 0 -202.5 68.5t-81.5 170.5zM182 -35q0 -82 60.5 -133 t156.5 -51q94 0 151.5 51t57.5 133q0 80 -59.5 132.5t-149.5 52.5q-94 0 -155.5 -52.5t-61.5 -132.5zM205 387q0 -78 55 -130t139 -52q82 0 134.5 51t52.5 131q0 70 -52.5 114t-134.5 44q-88 0 -141 -43t-53 -115z" />
<glyph unicode="&#x2089;" d="M117 328q0 119 81 195.5t205 76.5q117 0 195 -79t78 -197q0 -152 -95.5 -315t-248.5 -271l-86 8q115 76 207 186.5t135 221.5q-39 -41 -92.5 -62.5t-110.5 -21.5q-115 0 -191.5 73.5t-76.5 184.5zM182 336q0 -98 57.5 -152.5t157.5 -54.5q92 0 153.5 56.5t61.5 142.5 q0 94 -60 153.5t-155 59.5q-94 0 -154.5 -57.5t-60.5 -147.5z" />
<glyph unicode="&#x20ac;" horiz-adv-x="1269" d="M102 551v65h220q-8 66 -9 168q0 31 2 62t4 61h-217v66h226q45 276 199.5 429.5t385.5 153.5q150 0 277 -73l-16 -72q-119 72 -265 72q-197 0 -330 -134.5t-176 -375.5h592v-66h-600q-2 -29 -4 -59.5t-2 -59.5q0 -96 10 -172h596v-65h-585q45 -236 177 -368t326 -132 q139 0 273 72l10 -74q-127 -72 -283 -72q-225 0 -379.5 153t-201.5 421h-230z" />
<glyph unicode="&#x20ba;" horiz-adv-x="1269" d="M102 512v68l217 100v274l-217 -100v68l217 100v502h78v-467l486 227v-67l-486 -228v-274l486 227v-68l-486 -227v-584q33 -8 97 -8q156 0 278.5 70t196 201t84.5 309l75 -12q-8 -188 -90 -334t-225.5 -227.5t-333.5 -81.5q-82 0 -160 20v612z" />
<glyph unicode="&#x2122;" horiz-adv-x="1730" d="M72 1493v63h569v-63h-250v-694h-69v694h-250zM795 799l36 757h84l271 -561l266 561h84l37 -757h-70l-30 661l-250 -530h-76l-254 524l-29 -655h-69z" />
<glyph unicode="&#x2126;" horiz-adv-x="1908" d="M215 0v72h451q-213 119 -331 318.5t-118 443.5q0 209 91 379.5t259 273t383 102.5q205 0 373 -93t267.5 -266t99.5 -396q0 -242 -118 -444t-329 -318h449v-72h-596v57q240 113 376 317t136 451q0 195 -81 350.5t-230.5 245.5t-346.5 90q-182 0 -329.5 -85t-234.5 -241.5 t-87 -359.5q0 -248 136 -451.5t376 -316.5v-57h-596z" />
<glyph unicode="&#x2150;" horiz-adv-x="1906" d="M156 1388l286 136h62v-836h-68v762l-268 -123zM265 0l1208 1524h90l-1208 -1524h-90zM1251 766v70h522v-62l-360 -778l-68 4l355 766h-449z" />
<glyph unicode="&#x2151;" horiz-adv-x="1906" d="M156 1388l286 136h62v-836h-68v762l-268 -123zM279 0l1208 1524h90l-1208 -1524h-90zM1233 584q0 119 81 195.5t205 76.5q117 0 195 -79t78 -197q0 -152 -95.5 -315t-248.5 -271l-86 8q115 76 207 186.5t135 221.5q-39 -41 -92.5 -62.5t-110.5 -21.5q-115 0 -191.5 73.5 t-76.5 184.5zM1298 592q0 -98 57.5 -152.5t157.5 -54.5q92 0 153.5 56.5t61.5 142.5q0 94 -60 153.5t-155 59.5q-94 0 -154.5 -57.5t-60.5 -147.5z" />
<glyph unicode="&#x2153;" horiz-adv-x="1906" d="M156 1388l286 136h62v-836h-68v762l-268 -123zM269 0l1208 1524h90l-1208 -1524h-90zM1241 41l8 61q51 -33 102.5 -48t114.5 -15q106 0 164.5 54t58.5 153q0 88 -58 136t-163 48q-49 0 -84 -14l-18 43l291 315h-394v62h471v-60l-268 -291q6 2 12.5 2h10.5 q119 0 193.5 -67.5t74.5 -173.5q0 -123 -79 -194.5t-210 -71.5q-61 0 -123.5 16t-103.5 45z" />
<glyph unicode="&#x2154;" horiz-adv-x="1906" d="M125 1438q41 47 110.5 76.5t139.5 29.5q115 0 185.5 -64.5t70.5 -166.5q0 -88 -43 -169t-148 -194q-66 -72 -211 -196h435v-66h-529v61q88 76 143.5 128.5t110.5 111.5q94 96 134 169t40 144q0 80 -51 128.5t-139 48.5q-135 0 -228 -103zM289 0l1208 1524h90l-1208 -1524 h-90zM1241 41l8 61q51 -33 102.5 -48t114.5 -15q106 0 164.5 54t58.5 153q0 88 -58 136t-163 48q-49 0 -84 -14l-18 43l291 315h-394v62h471v-60l-268 -291q6 2 12.5 2h10.5q119 0 193.5 -67.5t74.5 -173.5q0 -123 -79 -194.5t-210 -71.5q-61 0 -123.5 16t-103.5 45z" />
<glyph unicode="&#x2155;" horiz-adv-x="1906" d="M156 1388l286 136h62v-836h-68v762l-268 -123zM289 0l1208 1524h90l-1208 -1524h-90zM1266 41l8 63q55 -33 106 -48t111 -15q106 0 163.5 56.5t57.5 158.5q0 90 -64.5 142.5t-173.5 52.5t-172 -35l15 420h413v-68h-356l-8 -272q53 16 115 16q135 0 218 -70.5t83 -185.5 q0 -127 -79 -201.5t-210 -74.5q-61 0 -124 16t-103 45z" />
<glyph unicode="&#x2156;" horiz-adv-x="1906" d="M125 1438q41 47 110.5 76.5t139.5 29.5q115 0 185.5 -64.5t70.5 -166.5q0 -88 -43 -169t-148 -194q-66 -72 -211 -196h435v-66h-529v61q88 76 143.5 128.5t110.5 111.5q94 96 134 169t40 144q0 80 -51 128.5t-139 48.5q-135 0 -228 -103zM332 0l1208 1524h90l-1208 -1524 h-90zM1266 41l8 63q55 -33 106 -48t111 -15q106 0 163.5 56.5t57.5 158.5q0 90 -64.5 142.5t-173.5 52.5t-172 -35l15 420h413v-68h-356l-8 -272q53 16 115 16q135 0 218 -70.5t83 -185.5q0 -127 -79 -201.5t-210 -74.5q-61 0 -124 16t-103 45z" />
<glyph unicode="&#x2157;" horiz-adv-x="1906" d="M125 729l8 61q51 -33 102.5 -48t114.5 -15q106 0 164.5 54t58.5 153q0 88 -58 136t-163 48q-49 0 -84 -14l-18 43l291 315h-394v62h471v-60l-268 -291q6 2 12.5 2h10.5q119 0 193.5 -67.5t74.5 -173.5q0 -123 -79 -194.5t-210 -71.5q-61 0 -123.5 16t-103.5 45zM279 0 l1208 1524h90l-1208 -1524h-90zM1266 41l8 63q55 -33 106 -48t111 -15q106 0 163.5 56.5t57.5 158.5q0 90 -64.5 142.5t-173.5 52.5t-172 -35l15 420h413v-68h-356l-8 -272q53 16 115 16q135 0 218 -70.5t83 -185.5q0 -127 -79 -201.5t-210 -74.5q-61 0 -124 16t-103 45z " />
<glyph unicode="&#x2158;" horiz-adv-x="1906" d="M94 915v62l410 547h71v-551h119v-58h-119v-227h-63v227h-418zM164 973h348v463zM310 0l1208 1524h90l-1208 -1524h-90zM1266 41l8 63q55 -33 106 -48t111 -15q106 0 163.5 56.5t57.5 158.5q0 90 -64.5 142.5t-173.5 52.5t-172 -35l15 420h413v-68h-356l-8 -272 q53 16 115 16q135 0 218 -70.5t83 -185.5q0 -127 -79 -201.5t-210 -74.5q-61 0 -124 16t-103 45z" />
<glyph unicode="&#x2159;" horiz-adv-x="1906" d="M156 1388l286 136h62v-836h-68v762l-268 -123zM322 0l1208 1524h90l-1208 -1524h-90zM1237 256q0 152 95 314.5t249 271.5l86 -8q-115 -76 -207 -186.5t-135 -223.5q80 86 203 86q115 0 191.5 -74t76.5 -184q0 -119 -81 -195.5t-206 -76.5q-117 0 -194.5 78.5 t-77.5 197.5zM1300 252q0 -94 60.5 -153.5t154.5 -59.5t154.5 57.5t60.5 147.5q0 98 -57 152.5t-158 54.5q-92 0 -153.5 -56.5t-61.5 -142.5z" />
<glyph unicode="&#x215a;" horiz-adv-x="1906" d="M150 729l8 63q55 -33 106 -48t111 -15q106 0 163.5 56.5t57.5 158.5q0 90 -64.5 142.5t-173.5 52.5t-172 -35l15 420h413v-68h-356l-8 -272q53 16 115 16q135 0 218 -70.5t83 -185.5q0 -127 -79 -201.5t-210 -74.5q-61 0 -124 16t-103 45zM351 0l1208 1524h90 l-1208 -1524h-90zM1237 256q0 152 95 314.5t249 271.5l86 -8q-115 -76 -207 -186.5t-135 -223.5q80 86 203 86q115 0 191.5 -74t76.5 -184q0 -119 -81 -195.5t-206 -76.5q-117 0 -194.5 78.5t-77.5 197.5zM1300 252q0 -94 60.5 -153.5t154.5 -59.5t154.5 57.5t60.5 147.5 q0 98 -57 152.5t-158 54.5q-92 0 -153.5 -56.5t-61.5 -142.5z" />
<glyph unicode="&#x215b;" horiz-adv-x="1906" d="M156 1388l286 136h62v-836h-68v762l-268 -123zM269 0l1208 1524h90l-1208 -1524h-90zM1231 219q0 74 47 132.5t129 82.5q-70 25 -111 82t-41 129q0 92 74 151.5t186 59.5q109 0 180.5 -60.5t71.5 -150.5q0 -72 -39 -128t-106 -83q78 -25 124 -83t46 -132q0 -66 -34 -120 t-97.5 -86.5t-145.5 -32.5q-121 0 -202.5 68.5t-81.5 170.5zM1298 221q0 -82 60.5 -133t156.5 -51q94 0 151.5 51t57.5 133q0 80 -59.5 132.5t-149.5 52.5q-94 0 -155.5 -52.5t-61.5 -132.5zM1321 643q0 -78 55 -130t139 -52q82 0 134.5 51t52.5 131q0 70 -52.5 114 t-134.5 44q-88 0 -141 -43t-53 -115z" />
<glyph unicode="&#x215c;" horiz-adv-x="1906" d="M125 729l8 61q51 -33 102.5 -48t114.5 -15q106 0 164.5 54t58.5 153q0 88 -58 136t-163 48q-49 0 -84 -14l-18 43l291 315h-394v62h471v-60l-268 -291q6 2 12.5 2h10.5q119 0 193.5 -67.5t74.5 -173.5q0 -123 -79 -194.5t-210 -71.5q-61 0 -123.5 16t-103.5 45zM277 0 l1208 1524h90l-1208 -1524h-90zM1231 219q0 74 47 132.5t129 82.5q-70 25 -111 82t-41 129q0 92 74 151.5t186 59.5q109 0 180.5 -60.5t71.5 -150.5q0 -72 -39 -128t-106 -83q78 -25 124 -83t46 -132q0 -66 -34 -120t-97.5 -86.5t-145.5 -32.5q-121 0 -202.5 68.5 t-81.5 170.5zM1298 221q0 -82 60.5 -133t156.5 -51q94 0 151.5 51t57.5 133q0 80 -59.5 132.5t-149.5 52.5q-94 0 -155.5 -52.5t-61.5 -132.5zM1321 643q0 -78 55 -130t139 -52q82 0 134.5 51t52.5 131q0 70 -52.5 114t-134.5 44q-88 0 -141 -43t-53 -115z" />
<glyph unicode="&#x215d;" horiz-adv-x="1906" d="M150 729l8 63q55 -33 106 -48t111 -15q106 0 163.5 56.5t57.5 158.5q0 90 -64.5 142.5t-173.5 52.5t-172 -35l15 420h413v-68h-356l-8 -272q53 16 115 16q135 0 218 -70.5t83 -185.5q0 -127 -79 -201.5t-210 -74.5q-61 0 -124 16t-103 45zM297 0l1208 1524h90 l-1208 -1524h-90zM1231 219q0 74 47 132.5t129 82.5q-70 25 -111 82t-41 129q0 92 74 151.5t186 59.5q109 0 180.5 -60.5t71.5 -150.5q0 -72 -39 -128t-106 -83q78 -25 124 -83t46 -132q0 -66 -34 -120t-97.5 -86.5t-145.5 -32.5q-121 0 -202.5 68.5t-81.5 170.5zM1298 221 q0 -82 60.5 -133t156.5 -51q94 0 151.5 51t57.5 133q0 80 -59.5 132.5t-149.5 52.5q-94 0 -155.5 -52.5t-61.5 -132.5zM1321 643q0 -78 55 -130t139 -52q82 0 134.5 51t52.5 131q0 70 -52.5 114t-134.5 44q-88 0 -141 -43t-53 -115z" />
<glyph unicode="&#x215e;" horiz-adv-x="1906" d="M135 1454v70h522v-62l-360 -778l-68 4l355 766h-449zM187 0l1208 1524h90l-1208 -1524h-90zM1231 219q0 74 47 132.5t129 82.5q-70 25 -111 82t-41 129q0 92 74 151.5t186 59.5q109 0 180.5 -60.5t71.5 -150.5q0 -72 -39 -128t-106 -83q78 -25 124 -83t46 -132 q0 -66 -34 -120t-97.5 -86.5t-145.5 -32.5q-121 0 -202.5 68.5t-81.5 170.5zM1298 221q0 -82 60.5 -133t156.5 -51q94 0 151.5 51t57.5 133q0 80 -59.5 132.5t-149.5 52.5q-94 0 -155.5 -52.5t-61.5 -132.5zM1321 643q0 -78 55 -130t139 -52q82 0 134.5 51t52.5 131 q0 70 -52.5 114t-134.5 44q-88 0 -141 -43t-53 -115z" />
<glyph unicode="&#x2202;" horiz-adv-x="1245" d="M84 412q0 137 63.5 252.5t179 186.5t261.5 71q160 0 268.5 -81t142.5 -227q14 88 15 242q0 311 -114 471t-333 160q-82 0 -165 -37t-142 -100l-12 73q66 61 155 97t177 36q242 0 374.5 -181t132.5 -509q0 -276 -67.5 -478t-196.5 -311.5t-309 -109.5q-123 0 -220 55.5 t-153.5 156t-56.5 233.5zM164 412q0 -166 97 -270.5t255 -104.5q109 0 208 61.5t163.5 169t64.5 230.5q0 102 -44 182t-128 126t-192 46q-113 0 -209 -55.5t-155.5 -157.5t-59.5 -227z" />
<glyph unicode="&#x2206;" horiz-adv-x="1511" d="M68 0l641 1556h92l643 -1556h-1376zM180 70h1143l-569 1405z" />
<glyph unicode="&#x220f;" horiz-adv-x="1519" d="M276 -164v1720h967v-1720h-82v1643h-803v-1643h-82z" />
<glyph unicode="&#x2211;" horiz-adv-x="1148" d="M92 -90l567 809l-532 764v73h897v-73h-801l529 -760l-570 -811h854v-74h-944v72z" />
<glyph unicode="&#x2212;" horiz-adv-x="1269" d="M188 655v70h891v-70h-891z" />
<glyph unicode="&#x2215;" horiz-adv-x="325" d="M-487 0l1208 1524h90l-1208 -1524h-90z" />
<glyph unicode="&#x2219;" horiz-adv-x="593" d="M229 780q0 31 19.5 49.5t48.5 18.5t48.5 -18.5t19.5 -49.5t-19.5 -49t-48.5 -18t-48.5 18t-19.5 49z" />
<glyph unicode="&#x221a;" horiz-adv-x="1323" d="M82 838v75h252l342 -839l612 1585h78l-647 -1659h-86l-348 838h-203z" />
<glyph unicode="&#x221e;" horiz-adv-x="1482" d="M102 711q0 143 88.5 235t223.5 92q109 0 194.5 -59t132.5 -170q51 113 135.5 171t192.5 58q135 0 223 -92t88 -235t-88 -235.5t-223 -92.5q-111 0 -193.5 58.5t-136.5 170.5q-49 -111 -132.5 -170t-192.5 -59q-135 0 -223.5 92t-88.5 236zM176 711q0 -117 66.5 -188.5 t175.5 -71.5q100 0 177 67.5t114 188.5q-39 129 -114 196.5t-177 67.5q-109 0 -175.5 -72t-66.5 -188zM774 715q39 -131 114 -197.5t177 -66.5q109 0 175.5 71.5t66.5 188.5t-66.5 188.5t-175.5 71.5q-100 0 -177 -67.5t-114 -188.5z" />
<glyph unicode="&#x222b;" horiz-adv-x="724" d="M-72 -483l15 73q35 -16 83 -25t89 -9q98 0 145 70.5t47 215.5q0 49 -2 74l-94 1335q-2 23 -2 72q0 176 70.5 267t207.5 91q102 0 181 -36l-15 -74q-35 16 -83 25.5t-89 9.5q-98 0 -145 -71t-47 -216q0 -47 2 -74l94 -1335q2 -27 2 -72q0 -176 -70.5 -267t-207.5 -91 q-102 0 -181 37z" />
<glyph unicode="&#x2248;" horiz-adv-x="1269" d="M176 288v29q0 139 57.5 217t157.5 78q57 0 114.5 -27.5t135.5 -93.5q88 -76 137 -103.5t99 -27.5q76 0 112.5 60.5t36.5 191.5h68v-29q0 -137 -57.5 -216t-159.5 -79q-55 0 -107.5 26t-140.5 97q-94 78 -140.5 103.5t-93.5 25.5q-78 0 -114.5 -61t-36.5 -191h-68z M176 811v29q0 139 57.5 217t157.5 78q57 0 114.5 -27.5t135.5 -93.5q88 -76 137 -103.5t99 -27.5q76 0 112.5 60.5t36.5 191.5h68v-29q0 -137 -57.5 -216t-159.5 -79q-55 0 -107.5 26t-140.5 97q-94 78 -140.5 103.5t-93.5 25.5q-78 0 -114.5 -61t-36.5 -191h-68z" />
<glyph unicode="&#x2260;" horiz-adv-x="1269" d="M219 424v70h273l221 391h-494v69h533l159 283h78l-160 -283h222v-69h-260l-222 -391h482v-70h-521l-163 -293h-78l164 293h-234z" />
<glyph unicode="&#x2264;" horiz-adv-x="1269" d="M190 2v70h891v-70h-891zM227 655v68l815 407v-77l-725 -361l725 -360v-82z" />
<glyph unicode="&#x2265;" horiz-adv-x="1269" d="M190 2v70h891v-70h-891zM227 252v78l725 360l-725 361v82l815 -406v-68z" />
<glyph unicode="&#x25ca;" horiz-adv-x="1212" d="M92 829l473 832h86l469 -832l-469 -829h-86zM178 829l426 -757l434 757l-434 762z" />
<glyph unicode="&#x25fc;" horiz-adv-x="983" d="M0 0v983h983v-983h-983z" />
<glyph unicode="&#xf507;" horiz-adv-x="1906" d="M125 1438q41 47 110.5 76.5t139.5 29.5q115 0 185.5 -64.5t70.5 -166.5q0 -88 -43 -169t-148 -194q-66 -72 -211 -196h435v-66h-529v61q88 76 143.5 128.5t110.5 111.5q94 96 134 169t40 144q0 80 -51 128.5t-139 48.5q-135 0 -228 -103zM306 0l1208 1524h90l-1208 -1524 h-90zM1251 766v70h522v-62l-360 -778l-68 4l355 766h-449z" />
<glyph unicode="&#xf508;" horiz-adv-x="1906" d="M125 729l8 61q51 -33 102.5 -48t114.5 -15q106 0 164.5 54t58.5 153q0 88 -58 136t-163 48q-49 0 -84 -14l-18 43l291 315h-394v62h471v-60l-268 -291q6 2 12.5 2h10.5q119 0 193.5 -67.5t74.5 -173.5q0 -123 -79 -194.5t-210 -71.5q-61 0 -123.5 16t-103.5 45zM248 0 l1208 1524h90l-1208 -1524h-90zM1251 766v70h522v-62l-360 -778l-68 4l355 766h-449z" />
<glyph unicode="&#xf509;" horiz-adv-x="1906" d="M94 915v62l410 547h71v-551h119v-58h-119v-227h-63v227h-418zM164 973h348v463zM252 0l1208 1524h90l-1208 -1524h-90zM1251 766v70h522v-62l-360 -778l-68 4l355 766h-449z" />
<glyph unicode="&#xf50a;" horiz-adv-x="1906" d="M150 729l8 63q55 -33 106 -48t111 -15q106 0 163.5 56.5t57.5 158.5q0 90 -64.5 142.5t-173.5 52.5t-172 -35l15 420h413v-68h-356l-8 -272q53 16 115 16q135 0 218 -70.5t83 -185.5q0 -127 -79 -201.5t-210 -74.5q-61 0 -124 16t-103 45zM254 0l1208 1524h90 l-1208 -1524h-90zM1251 766v70h522v-62l-360 -778l-68 4l355 766h-449z" />
<glyph unicode="&#xf50b;" horiz-adv-x="1906" d="M121 944q0 152 95 314.5t249 271.5l86 -8q-115 -76 -207 -186.5t-135 -223.5q80 86 203 86q115 0 191.5 -74t76.5 -184q0 -119 -81 -195.5t-206 -76.5q-117 0 -194.5 78.5t-77.5 197.5zM184 940q0 -94 60.5 -153.5t154.5 -59.5t154.5 57.5t60.5 147.5q0 98 -57 152.5 t-158 54.5q-92 0 -153.5 -56.5t-61.5 -142.5zM261 0l1208 1524h90l-1208 -1524h-90zM1251 766v70h522v-62l-360 -778l-68 4l355 766h-449z" />
<glyph unicode="&#xf50d;" horiz-adv-x="1906" d="M125 1438q41 47 110.5 76.5t139.5 29.5q115 0 185.5 -64.5t70.5 -166.5q0 -88 -43 -169t-148 -194q-66 -72 -211 -196h435v-66h-529v61q88 76 143.5 128.5t110.5 111.5q94 96 134 169t40 144q0 80 -51 128.5t-139 48.5q-135 0 -228 -103zM340 0l1208 1524h90l-1208 -1524 h-90zM1233 584q0 119 81 195.5t205 76.5q117 0 195 -79t78 -197q0 -152 -95.5 -315t-248.5 -271l-86 8q115 76 207 186.5t135 221.5q-39 -41 -92.5 -62.5t-110.5 -21.5q-115 0 -191.5 73.5t-76.5 184.5zM1298 592q0 -98 57.5 -152.5t157.5 -54.5q92 0 153.5 56.5t61.5 142.5 q0 94 -60 153.5t-155 59.5q-94 0 -154.5 -57.5t-60.5 -147.5z" />
<glyph unicode="&#xf50e;" horiz-adv-x="1906" d="M94 915v62l410 547h71v-551h119v-58h-119v-227h-63v227h-418zM164 973h348v463zM330 0l1208 1524h90l-1208 -1524h-90zM1233 584q0 119 81 195.5t205 76.5q117 0 195 -79t78 -197q0 -152 -95.5 -315t-248.5 -271l-86 8q115 76 207 186.5t135 221.5q-39 -41 -92.5 -62.5 t-110.5 -21.5q-115 0 -191.5 73.5t-76.5 184.5zM1298 592q0 -98 57.5 -152.5t157.5 -54.5q92 0 153.5 56.5t61.5 142.5q0 94 -60 153.5t-155 59.5q-94 0 -154.5 -57.5t-60.5 -147.5z" />
<glyph unicode="&#xf50f;" horiz-adv-x="1906" d="M150 729l8 63q55 -33 106 -48t111 -15q106 0 163.5 56.5t57.5 158.5q0 90 -64.5 142.5t-173.5 52.5t-172 -35l15 420h413v-68h-356l-8 -272q53 16 115 16q135 0 218 -70.5t83 -185.5q0 -127 -79 -201.5t-210 -74.5q-61 0 -124 16t-103 45zM308 0l1208 1524h90 l-1208 -1524h-90zM1233 584q0 119 81 195.5t205 76.5q117 0 195 -79t78 -197q0 -152 -95.5 -315t-248.5 -271l-86 8q115 76 207 186.5t135 221.5q-39 -41 -92.5 -62.5t-110.5 -21.5q-115 0 -191.5 73.5t-76.5 184.5zM1298 592q0 -98 57.5 -152.5t157.5 -54.5 q92 0 153.5 56.5t61.5 142.5q0 94 -60 153.5t-155 59.5q-94 0 -154.5 -57.5t-60.5 -147.5z" />
<glyph unicode="&#xf510;" horiz-adv-x="1906" d="M135 1454v70h522v-62l-360 -778l-68 4l355 766h-449zM207 0l1208 1524h90l-1208 -1524h-90zM1233 584q0 119 81 195.5t205 76.5q117 0 195 -79t78 -197q0 -152 -95.5 -315t-248.5 -271l-86 8q115 76 207 186.5t135 221.5q-39 -41 -92.5 -62.5t-110.5 -21.5 q-115 0 -191.5 73.5t-76.5 184.5zM1298 592q0 -98 57.5 -152.5t157.5 -54.5q92 0 153.5 56.5t61.5 142.5q0 94 -60 153.5t-155 59.5q-94 0 -154.5 -57.5t-60.5 -147.5z" />
<glyph unicode="&#xf511;" horiz-adv-x="1906" d="M115 907q0 74 47 132.5t129 82.5q-70 25 -111 82t-41 129q0 92 74 151.5t186 59.5q109 0 180.5 -60.5t71.5 -150.5q0 -72 -39 -128t-106 -83q78 -25 124 -83t46 -132q0 -66 -34 -120t-97.5 -86.5t-145.5 -32.5q-121 0 -202.5 68.5t-81.5 170.5zM182 909q0 -82 60.5 -133 t156.5 -51q94 0 151.5 51t57.5 133q0 80 -59.5 132.5t-149.5 52.5q-94 0 -155.5 -52.5t-61.5 -132.5zM205 1331q0 -78 55 -130t139 -52q82 0 134.5 51t52.5 131q0 70 -52.5 114t-134.5 44q-88 0 -141 -43t-53 -115zM310 0l1208 1524h90l-1208 -1524h-90zM1233 584 q0 119 81 195.5t205 76.5q117 0 195 -79t78 -197q0 -152 -95.5 -315t-248.5 -271l-86 8q115 76 207 186.5t135 221.5q-39 -41 -92.5 -62.5t-110.5 -21.5q-115 0 -191.5 73.5t-76.5 184.5zM1298 592q0 -98 57.5 -152.5t157.5 -54.5q92 0 153.5 56.5t61.5 142.5 q0 94 -60 153.5t-155 59.5q-94 0 -154.5 -57.5t-60.5 -147.5z" />
<glyph unicode="&#xfb01;" horiz-adv-x="1335" d="M78 915v68h211v211q0 233 89 354t259 121q92 0 166 -35l-12 -67q-76 33 -154 32q-137 0 -203.5 -101t-66.5 -314v-201h319v-68h-319v-915h-78v915h-211zM1026 1380q0 31 18.5 48.5t47.5 17.5q31 0 48 -17.5t17 -48.5q0 -29 -17 -47t-48 -18t-48.5 17.5t-17.5 47.5z M1053 0v983h77v-983h-77z" />
<glyph unicode="&#xfb02;" horiz-adv-x="1335" d="M78 915v68h211v211q0 233 89 354t259 121q92 0 166 -35l-12 -67q-76 33 -154 32q-137 0 -203.5 -101t-66.5 -314v-201h319v-68h-319v-915h-78v915h-211zM1053 0v1659h77v-1659h-77z" />
<glyph unicode="&#xfeff;" horiz-adv-x="0" />
<glyph horiz-adv-x="1269" d="M135 764q0 369 133 580.5t365 211.5q152 0 265.5 -93t175 -272t61.5 -427q0 -369 -135.5 -583t-366.5 -214q-229 0 -363.5 214t-134.5 583zM215 764q0 -221 50 -385t144.5 -253t223.5 -89t223 86t146.5 250t52.5 391q0 338 -113 530.5t-309 192.5q-195 0 -306.5 -192.5 t-111.5 -530.5z" />
<glyph horiz-adv-x="962" d="M111 1305l489 219h62v-1524h-76v1440l-467 -205z" />
<glyph horiz-adv-x="1193" d="M147 0v66q43 43 160 171t213 238q207 236 292 385.5t85 280.5q0 160 -88 251t-246 91q-203 0 -367 -176l-14 73q72 84 173 130t210 46q188 0 299 -110.5t111 -298.5q0 -139 -75 -282.5t-263 -362.5q-193 -221 -396 -430h791v-72h-885z" />
<glyph horiz-adv-x="1191" d="M131 74l10 73q168 -111 362 -110q203 0 319 105.5t116 289.5q0 172 -107.5 269.5t-298.5 97.5q-82 0 -143 -17l-23 49l525 623h-725v70h806v-72l-503 -596q33 8 84 8q207 0 333.5 -118.5t126.5 -315.5q0 -135 -61 -239.5t-177 -164t-270 -59.5q-106 0 -206.5 29 t-167.5 78z" />
<glyph horiz-adv-x="1236" d="M111 424v61l735 1039h65v-1037h209v-63h-209v-424h-71v424h-729zM195 487h645v918z" />
<glyph horiz-adv-x="1185" d="M151 78l11 74q170 -115 364 -115q193 0 309.5 116.5t116.5 311.5q0 186 -121 291.5t-334 105.5q-129 0 -274 -53l25 715h692v-72h-627l-18 -555q94 33 229 33q147 0 261 -56.5t178.5 -161t64.5 -245.5t-60.5 -255t-173.5 -179.5t-260 -65.5q-109 0 -208 29t-175 82z" />
<glyph horiz-adv-x="1179" d="M145 449q0 270 168 567t441 510l96 -10q-215 -160 -378 -381.5t-226 -440.5q59 94 159.5 146.5t217.5 52.5q123 0 222 -56.5t158.5 -159t59.5 -235.5t-58.5 -240.5t-166 -171t-244.5 -63.5q-125 0 -227.5 59.5t-162 170t-59.5 252.5zM221 428q0 -176 104.5 -283.5 t276.5 -107.5q109 0 196 49t138 138t51 206q0 186 -101.5 289.5t-283.5 103.5q-102 0 -188 -50t-139.5 -141t-53.5 -204z" />
<glyph horiz-adv-x="1136" d="M131 1450v74h889v-58l-596 -1470l-80 8l596 1446h-809z" />
<glyph horiz-adv-x="1222" d="M122 399q0 145 88.5 254t237.5 150q-129 39 -203.5 137t-74.5 231q0 109 54 197t155.5 139.5t232.5 51.5q195 0 319.5 -109t124.5 -279q0 -131 -74.5 -229t-203.5 -139q96 -27 169.5 -85.5t114.5 -140t41 -178.5q0 -193 -136 -312.5t-355 -119.5q-141 0 -252 52.5 t-174.5 150.5t-63.5 229zM196 403q0 -162 116 -264t300 -102q121 0 215 45t148.5 129t54.5 192q0 102 -51.5 184.5t-146.5 130.5t-220 48q-117 0 -211 -45t-149.5 -128t-55.5 -190zM241 1165q0 -141 104.5 -232t266.5 -91t267.5 91t105.5 232q0 94 -45 167t-130 115t-198 42 q-166 0 -268.5 -89t-102.5 -235z" />
<glyph horiz-adv-x="1179" d="M121 1081q0 133 58.5 241t166 171t244.5 63q125 0 227.5 -59t161.5 -169.5t59 -252.5q0 -270 -167.5 -567t-440.5 -510l-96 10q213 158 376 379t226 440q-57 -92 -156.5 -144t-218.5 -52q-123 0 -222 56t-158.5 158.5t-59.5 235.5zM197 1094q0 -186 101.5 -290 t283.5 -104q102 0 188 50.5t139.5 141.5t53.5 204q0 176 -104.5 283.5t-276.5 107.5q-109 0 -196 -49t-138 -138.5t-51 -205.5z" />
<glyph d="M80 416q0 197 88 318.5t227 121.5t227.5 -122t88.5 -318q0 -190 -89.5 -313t-226.5 -123q-88 0 -159.5 53t-113.5 153.5t-42 229.5zM150 416q0 -104 29.5 -189.5t85.5 -135.5t130 -50q70 0 125 46t88 132t33 197q0 168 -68.5 273.5t-177.5 105.5t-177 -105.5t-68 -273.5z " />
<glyph d="M156 700l286 136h62v-836h-68v762l-268 -123z" />
<glyph d="M125 750q41 47 110.5 76.5t139.5 29.5q115 0 185.5 -64.5t70.5 -166.5q0 -88 -43 -169t-148 -194q-66 -72 -211 -196h435v-66h-529v61q88 76 143.5 128.5t110.5 111.5q94 96 134 169t40 144q0 80 -51 128.5t-139 48.5q-135 0 -228 -103z" />
<glyph d="M125 41l8 61q51 -33 102.5 -48t114.5 -15q106 0 164.5 54t58.5 153q0 88 -58 136t-163 48q-49 0 -84 -14l-18 43l291 315h-394v62h471v-60l-268 -291q6 2 12.5 2h10.5q119 0 193.5 -67.5t74.5 -173.5q0 -123 -79 -194.5t-210 -71.5q-61 0 -123.5 16t-103.5 45z" />
<glyph d="M94 227v62l410 547h71v-551h119v-58h-119v-227h-63v227h-418zM164 285h348v463z" />
<glyph d="M150 41l8 63q55 -33 106 -48t111 -15q106 0 163.5 56.5t57.5 158.5q0 90 -64.5 142.5t-173.5 52.5t-172 -35l15 420h413v-68h-356l-8 -272q53 16 115 16q135 0 218 -70.5t83 -185.5q0 -127 -79 -201.5t-210 -74.5q-61 0 -124 16t-103 45z" />
<glyph d="M121 256q0 152 95 314.5t249 271.5l86 -8q-115 -76 -207 -186.5t-135 -223.5q80 86 203 86q115 0 191.5 -74t76.5 -184q0 -119 -81 -195.5t-206 -76.5q-117 0 -194.5 78.5t-77.5 197.5zM184 252q0 -94 60.5 -153.5t154.5 -59.5t154.5 57.5t60.5 147.5q0 98 -57 152.5 t-158 54.5q-92 0 -153.5 -56.5t-61.5 -142.5z" />
<glyph d="M135 766v70h522v-62l-360 -778l-68 4l355 766h-449z" />
<glyph d="M115 219q0 74 47 132.5t129 82.5q-70 25 -111 82t-41 129q0 92 74 151.5t186 59.5q109 0 180.5 -60.5t71.5 -150.5q0 -72 -39 -128t-106 -83q78 -25 124 -83t46 -132q0 -66 -34 -120t-97.5 -86.5t-145.5 -32.5q-121 0 -202.5 68.5t-81.5 170.5zM182 221q0 -82 60.5 -133 t156.5 -51q94 0 151.5 51t57.5 133q0 80 -59.5 132.5t-149.5 52.5q-94 0 -155.5 -52.5t-61.5 -132.5zM205 643q0 -78 55 -130t139 -52q82 0 134.5 51t52.5 131q0 70 -52.5 114t-134.5 44q-88 0 -141 -43t-53 -115z" />
<glyph d="M117 584q0 119 81 195.5t205 76.5q117 0 195 -79t78 -197q0 -152 -95.5 -315t-248.5 -271l-86 8q115 76 207 186.5t135 221.5q-39 -41 -92.5 -62.5t-110.5 -21.5q-115 0 -191.5 73.5t-76.5 184.5zM182 592q0 -98 57.5 -152.5t157.5 -54.5q92 0 153.5 56.5t61.5 142.5 q0 94 -60 153.5t-155 59.5q-94 0 -154.5 -57.5t-60.5 -147.5z" />
<glyph d="M80 1104q0 197 88 318.5t227 121.5t227.5 -122t88.5 -318q0 -190 -89.5 -313t-226.5 -123q-88 0 -159.5 53t-113.5 153.5t-42 229.5zM150 1104q0 -104 29.5 -189.5t85.5 -135.5t130 -50q70 0 125 46t88 132t33 197q0 168 -68.5 273.5t-177.5 105.5t-177 -105.5 t-68 -273.5z" />
<glyph d="M156 1388l286 136h62v-836h-68v762l-268 -123z" />
<glyph d="M125 1438q41 47 110.5 76.5t139.5 29.5q115 0 185.5 -64.5t70.5 -166.5q0 -88 -43 -169t-148 -194q-66 -72 -211 -196h435v-66h-529v61q88 76 143.5 128.5t110.5 111.5q94 96 134 169t40 144q0 80 -51 128.5t-139 48.5q-135 0 -228 -103z" />
<glyph d="M125 729l8 61q51 -33 102.5 -48t114.5 -15q106 0 164.5 54t58.5 153q0 88 -58 136t-163 48q-49 0 -84 -14l-18 43l291 315h-394v62h471v-60l-268 -291q6 2 12.5 2h10.5q119 0 193.5 -67.5t74.5 -173.5q0 -123 -79 -194.5t-210 -71.5q-61 0 -123.5 16t-103.5 45z" />
<glyph d="M94 915v62l410 547h71v-551h119v-58h-119v-227h-63v227h-418zM164 973h348v463z" />
<glyph d="M150 729l8 63q55 -33 106 -48t111 -15q106 0 163.5 56.5t57.5 158.5q0 90 -64.5 142.5t-173.5 52.5t-172 -35l15 420h413v-68h-356l-8 -272q53 16 115 16q135 0 218 -70.5t83 -185.5q0 -127 -79 -201.5t-210 -74.5q-61 0 -124 16t-103 45z" />
<glyph d="M121 944q0 152 95 314.5t249 271.5l86 -8q-115 -76 -207 -186.5t-135 -223.5q80 86 203 86q115 0 191.5 -74t76.5 -184q0 -119 -81 -195.5t-206 -76.5q-117 0 -194.5 78.5t-77.5 197.5zM184 940q0 -94 60.5 -153.5t154.5 -59.5t154.5 57.5t60.5 147.5q0 98 -57 152.5 t-158 54.5q-92 0 -153.5 -56.5t-61.5 -142.5z" />
<glyph d="M135 1454v70h522v-62l-360 -778l-68 4l355 766h-449z" />
<glyph d="M115 907q0 74 47 132.5t129 82.5q-70 25 -111 82t-41 129q0 92 74 151.5t186 59.5q109 0 180.5 -60.5t71.5 -150.5q0 -72 -39 -128t-106 -83q78 -25 124 -83t46 -132q0 -66 -34 -120t-97.5 -86.5t-145.5 -32.5q-121 0 -202.5 68.5t-81.5 170.5zM182 909q0 -82 60.5 -133 t156.5 -51q94 0 151.5 51t57.5 133q0 80 -59.5 132.5t-149.5 52.5q-94 0 -155.5 -52.5t-61.5 -132.5zM205 1331q0 -78 55 -130t139 -52q82 0 134.5 51t52.5 131q0 70 -52.5 114t-134.5 44q-88 0 -141 -43t-53 -115z" />
<glyph d="M117 1272q0 119 81 195.5t205 76.5q117 0 195 -79t78 -197q0 -152 -95.5 -315t-248.5 -271l-86 8q115 76 207 186.5t135 221.5q-39 -41 -92.5 -62.5t-110.5 -21.5q-115 0 -191.5 73.5t-76.5 184.5zM182 1280q0 -98 57.5 -152.5t157.5 -54.5q92 0 153.5 56.5t61.5 142.5 q0 94 -60 153.5t-155 59.5q-94 0 -154.5 -57.5t-60.5 -147.5z" />
<glyph horiz-adv-x="899" d="M164 731v73h571v-73h-571z" />
<glyph horiz-adv-x="1024" d="M0 745v76h1024v-76h-1024z" />
<glyph horiz-adv-x="2048" d="M0 745v76h2048v-76h-2048z" />
<glyph horiz-adv-x="763" d="M197 852q0 279 96 540t264 437h78q-174 -195 -269.5 -451.5t-95.5 -525.5q0 -268 95.5 -524t269.5 -450h-78q-168 180 -264 439t-96 535z" />
<glyph horiz-adv-x="763" d="M129 -122q174 195 269.5 451.5t95.5 525.5q0 268 -95.5 524t-269.5 450h78q168 -180 264 -439t96 -535q0 -279 -96 -540t-264 -437h-78z" />
<glyph horiz-adv-x="1032" d="M31 -188l891 1931h82l-891 -1931h-82z" />
<glyph horiz-adv-x="1032" d="M29 1743h82l890 -1931h-81z" />
<glyph horiz-adv-x="735" d="M209 -125v1951h432v-65h-360v-1821h360v-65h-432z" />
<glyph horiz-adv-x="735" d="M94 -60h361v1821h-361v65h432v-1951h-432v65z" />
<glyph horiz-adv-x="866" d="M133 807v74h35q121 0 179.5 47t58.5 146q-2 76 -19.5 160.5t-35 169.5t-19.5 159q0 139 71.5 204.5t223.5 65.5q45 0 98 -4v-59q-45 4 -100 4q-119 0 -171.5 -48t-52.5 -157q0 -51 11.5 -114.5t26 -130t25.5 -129t11 -113.5q0 -98 -47 -158.5t-137 -79.5 q90 -18 137 -78.5t47 -158.5q0 -51 -11 -113.5t-25.5 -129.5t-26 -130.5t-11.5 -114.5q0 -109 52.5 -157t171.5 -48q55 0 100 5v-60q-53 -4 -98 -4q-152 0 -223.5 65.5t-71.5 204.5q2 74 19.5 159t34.5 170t20 161q0 98 -58.5 145t-179.5 47h-35z" />
<glyph horiz-adv-x="866" d="M141 -81q45 -4 101 -5q119 0 171 48.5t52 156.5q0 51 -11.5 114.5t-25.5 130.5t-25.5 129t-11.5 114q0 98 47 158.5t137 78.5q-90 18 -137 78.5t-47 159.5q0 51 11.5 113.5t25.5 129t25.5 130t11.5 114.5q0 109 -52.5 157t-170.5 48q-55 0 -101 -4v59q53 4 99 4 q152 0 223.5 -66.5t71.5 -203.5q-2 -74 -19.5 -159l-35 -170t-19.5 -160q0 -98 58.5 -145.5t178.5 -47.5h35v-74h-35q-121 0 -179 -47t-58 -145q2 -76 19.5 -161t34.5 -170t20 -159q0 -137 -71.5 -203.5t-223.5 -66.5q-45 0 -99 4v60z" />
<glyph horiz-adv-x="684" d="M133 672q0 88 61.5 148.5t147.5 60.5q88 0 148.5 -60.5t60.5 -148.5q0 -86 -60.5 -147.5t-148.5 -61.5q-86 0 -147.5 61.5t-61.5 147.5z" />
<glyph horiz-adv-x="532" d="M72 778l282 418h86l-282 -418l282 -417h-86z" />
<glyph horiz-adv-x="532" d="M92 361l283 417l-283 418h86l283 -418l-283 -417h-86z" />
<glyph horiz-adv-x="868" d="M72 778l282 418h86l-282 -418l282 -417h-86zM408 778l282 418h86l-282 -418l282 -417h-86z" />
<glyph horiz-adv-x="868" d="M92 361l283 417l-283 418h86l283 -418l-283 -417h-86zM428 361l283 417l-283 418h86l283 -418l-283 -417h-86z" />
<glyph horiz-adv-x="1978" d="M113 682q0 252 123.5 471t348 355t498.5 136q231 0 410.5 -94t281 -270t101.5 -412q0 -158 -49 -283.5t-141.5 -199.5t-212.5 -74q-98 0 -154.5 48t-67.5 140q-61 -88 -152 -136t-198 -48q-154 0 -253 109.5t-99 281.5q0 125 56.5 234.5t157.5 178.5t224 69 q125 0 214 -70t124 -195l51 232h66l-115 -527q-12 -55 -12 -96q0 -162 164 -162q88 0 162.5 62.5t119.5 176.5t45 257q0 211 -87 372t-250.5 252t-387.5 91q-238 0 -441.5 -116t-330.5 -322.5t-127 -458.5q0 -229 93.5 -401.5t269.5 -266.5t420 -94q231 0 436 96l4 -65 q-192 -95 -442 -95q-256 0 -447.5 97.5t-297 284t-105.5 442.5zM616 708q0 -152 82 -242.5t217 -90.5q100 0 185.5 53t137.5 148t52 214q0 152 -81 243t-216 91q-98 0 -184 -53t-139.5 -148.5t-53.5 -214.5z" />
<glyph horiz-adv-x="593" d="M229 815q0 31 19.5 49.5t48.5 18.5t48.5 -18.5t19.5 -49.5t-19.5 -49t-48.5 -18t-48.5 18t-19.5 49z" />
<glyph horiz-adv-x="1114" d="M123 268q0 152 106.5 239t294.5 87q180 0 340 -72v62q0 178 -90 270t-264 92q-184 0 -322 -115l-12 72q63 53 155.5 83t190.5 30q195 0 305.5 -111.5t110.5 -310.5v-594h-74v211q-51 -117 -150.5 -180.5t-228.5 -63.5q-158 0 -260 85t-102 216zM201 274q0 -111 80 -176 t213 -65q164 0 267 117.5t103 306.5q-152 72 -336 71q-154 0 -240.5 -67.5t-86.5 -186.5z" />
<glyph horiz-adv-x="1169" d="M115 -227q0 98 52 167.5t150 102.5q-66 10 -107.5 55t-41.5 107q0 59 38 109.5t105 84.5q-68 47 -104.5 117t-36.5 154q0 156 111.5 251t293.5 95q47 0 103.5 -12.5t103.5 -32.5l316 14v-67l-240 2q123 -92 123 -250q0 -156 -111.5 -250t-294.5 -94q-121 0 -210 43 q-123 -68 -123 -152q0 -66 54 -94.5t177 -28.5h133q440 0 441 -299q0 -150 -122 -233.5t-337 -83.5q-223 0 -348 77.5t-125 217.5zM190 -221q0 -115 102.5 -174.5t301.5 -59.5q178 0 277.5 65.5t99.5 182.5q0 123 -88 178.5t-283 55.5h-53q-172 0 -264.5 -64.5t-92.5 -183.5 zM246 670q0 -125 91 -203t238 -78q150 0 240 77t90 204t-91 204.5t-239 77.5q-152 0 -240.5 -77.5t-88.5 -204.5z" />
<glyph horiz-adv-x="1054" d="M25 -494l10 76q47 -31 106 -31q76 0 127 36t99.5 119t111.5 233l29 67l-447 977h84l402 -891l362 891h84l-440 -1055q-76 -182 -137.5 -277t-125 -134t-147.5 -39q-31 0 -64.5 8t-53.5 20z" />
<glyph horiz-adv-x="593" d="M229 776q0 31 19.5 49.5t48.5 18.5t48.5 -19.5t19.5 -48.5q0 -27 -19.5 -47t-48.5 -20q-27 0 -47.5 20.5t-20.5 46.5z" />
<glyph horiz-adv-x="593" d="M229 834q0 31 19.5 49t48.5 18t48.5 -19.5t19.5 -47.5q0 -27 -19.5 -47.5t-48.5 -20.5q-27 0 -47.5 20.5t-20.5 47.5z" />
<glyph horiz-adv-x="1857" d="M123 268q0 152 101.5 239t279.5 87q180 0 340 -72v62q0 178 -90 270t-265 92q-84 0 -162.5 -27.5t-144.5 -80.5l-12 71q61 49 151.5 78t180.5 29q160 0 261 -81t130 -230q47 143 159.5 227t254.5 84q121 0 217 -57.5t151.5 -163t55.5 -244.5q0 -33 -7 -70h-809 q4 -207 125 -325.5t326 -118.5q176 0 330 86l14 -70q-66 -39 -160 -62.5t-190 -23.5q-174 0 -302 88t-173 238q-39 -147 -153.5 -236.5t-266.5 -89.5q-150 0 -246 85t-96 216zM201 274q0 -111 73.5 -176t198.5 -65q100 0 184 50t135.5 140t51.5 203v31q-152 72 -336 71 q-145 0 -226 -67.5t-81 -186.5zM918 545h741q0 117 -43 208t-125 143t-191 52q-94 0 -177 -50t-138 -142t-67 -211z" />
<glyph horiz-adv-x="0" d="M-190 -481l14 57q29 -16 74 -26.5t84 -10.5q70 0 112.5 35t42.5 92q0 55 -38 87t-101 32q-55 0 -90 -8l63 243h58l-43 -176h18q90 0 145.5 -48t55.5 -124q0 -88 -61.5 -141t-161.5 -53q-94 0 -172 41z" />
<glyph horiz-adv-x="0" d="M-131 -502q88 172 100 369h70q-10 -102 -39 -201.5t-70 -167.5h-61z" />
<glyph horiz-adv-x="0" d="M-240 -332q0 90 67 179.5t206 185.5l45 -33q-248 -166 -248 -322q0 -63 35 -98t96 -35q72 0 135 41l13 -57q-29 -20 -74 -32.5t-84 -12.5q-82 0 -136.5 52t-54.5 132z" />
<glyph horiz-adv-x="0" d="M-178 -332q0 94 79 193.5t214 175.5l73 -2q-152 -96 -224.5 -183.5t-72.5 -173.5q0 -63 35 -98t97 -35q72 0 135 41l12 -57q-29 -20 -74 -32.5t-84 -12.5q-82 0 -136 52t-54 132z" />
<glyph horiz-adv-x="0" d="M-180 -332q0 96 78.5 194.5t216.5 174.5l73 -2q-152 -96 -224.5 -183.5t-72.5 -173.5q0 -133 132 -133q72 0 135 41l12 -57q-29 -18 -74 -31.5t-84 -13.5q-86 0 -139 51t-53 133z" />
<glyph horiz-adv-x="1169" d="M115 -227q0 98 52 167.5t150 102.5q-66 10 -107.5 55t-41.5 107q0 59 38 109.5t105 84.5q-68 47 -104.5 117t-36.5 154q0 156 111.5 251t293.5 95q47 0 103.5 -12.5t103.5 -32.5l316 14v-67l-240 2q123 -92 123 -250q0 -156 -111.5 -250t-294.5 -94q-121 0 -210 43 q-123 -68 -123 -152q0 -66 54 -94.5t177 -28.5h133q440 0 441 -299q0 -150 -122 -233.5t-337 -83.5q-223 0 -348 77.5t-125 217.5zM190 -221q0 -115 102.5 -174.5t301.5 -59.5q178 0 277.5 65.5t99.5 182.5q0 123 -88 178.5t-283 55.5h-53q-172 0 -264.5 -64.5t-92.5 -183.5 zM246 670q0 -125 91 -203t238 -78q150 0 240 77t90 204t-91 204.5t-239 77.5q-152 0 -240.5 -77.5t-88.5 -204.5zM553 1249q6 90 33.5 180.5t68.5 153.5h62q-84 -147 -94 -334h-70z" />
<glyph horiz-adv-x="1114" d="M123 268q0 152 106.5 239t294.5 87q180 0 340 -72v62q0 178 -90 270t-264 92q-184 0 -322 -115l-12 72q63 53 155.5 83t190.5 30q195 0 305.5 -111.5t110.5 -310.5v-594h-74v211q-51 -117 -150.5 -180.5t-228.5 -63.5q-158 0 -260 85t-102 216zM201 274q0 -111 80 -176 t213 -65q164 0 267 117.5t103 306.5q-152 72 -336 71q-154 0 -240.5 -67.5t-86.5 -186.5zM620 -332q0 88 67 177t206 186l45 -31q-248 -166 -248 -322q0 -63 34 -98t97 -35q72 0 135 41l13 -57q-29 -20 -74 -32.5t-84 -12.5q-82 0 -136.5 52t-54.5 132z" />
<glyph horiz-adv-x="0" d="M-129 1710l317 264h109l-330 -264h-96z" />
<glyph horiz-adv-x="0" d="M-223 1710l254 264h92l-266 -264h-80zM49 1710l254 264h94l-266 -264h-82z" />
<glyph horiz-adv-x="1114" d="M123 268q0 152 106.5 239t294.5 87q180 0 340 -72v62q0 178 -90 270t-264 92q-184 0 -322 -115l-12 72q63 53 155.5 83t190.5 30q195 0 305.5 -111.5t110.5 -310.5v-594h-74v211q-51 -117 -150.5 -180.5t-228.5 -63.5q-158 0 -260 85t-102 216zM201 274q0 -111 80 -176 t213 -65q164 0 267 117.5t103 306.5q-152 72 -336 71q-154 0 -240.5 -67.5t-86.5 -186.5zM385 1208l278 375h90l-286 -375h-82z" />
<glyph horiz-adv-x="1054" d="M25 -494l10 76q47 -31 106 -31q76 0 127 36t99.5 119t111.5 233l29 67l-447 977h84l402 -891l362 891h84l-440 -1055q-76 -182 -137.5 -277t-125 -134t-147.5 -39q-31 0 -64.5 8t-53.5 20zM390 1208l278 375h90l-286 -375h-82z" />
<glyph horiz-adv-x="0" d="M-297 1974h109l317 -264h-96z" />
<glyph horiz-adv-x="1114" d="M123 268q0 152 106.5 239t294.5 87q180 0 340 -72v62q0 178 -90 270t-264 92q-184 0 -322 -115l-12 72q63 53 155.5 83t190.5 30q195 0 305.5 -111.5t110.5 -310.5v-594h-74v211q-51 -117 -150.5 -180.5t-228.5 -63.5q-158 0 -260 85t-102 216zM201 274q0 -111 80 -176 t213 -65q164 0 267 117.5t103 306.5q-152 72 -336 71q-154 0 -240.5 -67.5t-86.5 -186.5zM311 1583h90l279 -375h-82z" />
<glyph horiz-adv-x="1054" d="M25 -494l10 76q47 -31 106 -31q76 0 127 36t99.5 119t111.5 233l29 67l-447 977h84l402 -891l362 891h84l-440 -1055q-76 -182 -137.5 -277t-125 -134t-147.5 -39q-31 0 -64.5 8t-53.5 20zM316 1583h90l279 -375h-82z" />
<glyph horiz-adv-x="0" d="M-332 1710l299 291h70l297 -291h-90l-244 236l-242 -236h-90z" />
<glyph horiz-adv-x="0" d="M-317 1710q0 117 44 177.5t128 60.5q49 -2 87 -28t69.5 -59.5t62 -59t65.5 -27.5q115 0 115 172h63q0 -113 -45 -175.5t-129 -62.5q-49 2 -87 27.5t-69.5 59.5t-62 59.5t-65.5 27.5q-113 0 -113 -172h-63z" />
<glyph horiz-adv-x="1114" d="M123 268q0 152 106.5 239t294.5 87q180 0 340 -72v62q0 178 -90 270t-264 92q-184 0 -322 -115l-12 72q63 53 155.5 83t190.5 30q195 0 305.5 -111.5t110.5 -310.5v-594h-74v211q-51 -117 -150.5 -180.5t-228.5 -63.5q-158 0 -260 85t-102 216zM194 1208l301 375h60 l309 -375h-86l-252 310l-250 -310h-82zM201 274q0 -111 80 -176t213 -65q164 0 267 117.5t103 306.5q-152 72 -336 71q-154 0 -240.5 -67.5t-86.5 -186.5z" />
<glyph horiz-adv-x="1054" d="M25 -494l10 76q47 -31 106 -31q76 0 127 36t99.5 119t111.5 233l29 67l-447 977h84l402 -891l362 891h84l-440 -1055q-76 -182 -137.5 -277t-125 -134t-147.5 -39q-31 0 -64.5 8t-53.5 20zM199 1208l301 375h60l309 -375h-86l-252 310l-250 -310h-82z" />
<glyph horiz-adv-x="1114" d="M123 268q0 152 106.5 239t294.5 87q180 0 340 -72v62q0 178 -90 270t-264 92q-184 0 -322 -115l-12 72q63 53 155.5 83t190.5 30q195 0 305.5 -111.5t110.5 -310.5v-594h-74v211q-51 -117 -150.5 -180.5t-228.5 -63.5q-158 0 -260 85t-102 216zM201 274q0 -111 80 -176 t213 -65q164 0 267 117.5t103 306.5q-152 72 -336 71q-154 0 -240.5 -67.5t-86.5 -186.5zM213 1274q0 117 44 177t128 60q49 -2 87 -27.5t69.5 -59t62 -59.5t65.5 -28q115 0 115 172h63q0 -113 -45 -175t-129 -62q-49 2 -87 27.5t-69.5 59.5t-62 59.5t-65.5 27.5 q-113 0 -113 -172h-63z" />
<glyph horiz-adv-x="0" d="M-334 2001h90l244 -238l242 238h90l-299 -291h-70z" />
<glyph horiz-adv-x="0" d="M-47 1239l27 420h67l-39 -420h-55z" />
<glyph horiz-adv-x="0" d="M-293 1790v70h586v-70h-586z" />
<glyph horiz-adv-x="1114" d="M123 268q0 152 106.5 239t294.5 87q180 0 340 -72v62q0 178 -90 270t-264 92q-184 0 -322 -115l-12 72q63 53 155.5 83t190.5 30q195 0 305.5 -111.5t110.5 -310.5v-594h-74v211q-51 -117 -150.5 -180.5t-228.5 -63.5q-158 0 -260 85t-102 216zM201 274q0 -111 80 -176 t213 -65q164 0 267 117.5t103 306.5q-152 72 -336 71q-154 0 -240.5 -67.5t-86.5 -186.5zM237 1348v69h586v-69h-586z" />
<glyph horiz-adv-x="0" d="M-250 1821q0 29 17.5 46t46.5 17q27 0 45 -18.5t18 -44.5q0 -27 -18 -45.5t-45 -18.5t-45.5 18.5t-18.5 45.5zM123 1821q0 29 17.5 46t45.5 17q29 0 46.5 -17.5t17.5 -45.5q0 -27 -18.5 -45.5t-45.5 -18.5t-45 18.5t-18 45.5z" />
<glyph horiz-adv-x="0" d="M-285 1942q0 23 2 30h64q0 -221 219 -221q113 0 166 54.5t53 166.5h64q2 -8 2 -30q0 -115 -78 -183.5t-207 -68.5q-127 0 -206 70.5t-79 181.5z" />
<glyph horiz-adv-x="1114" d="M123 268q0 152 106.5 239t294.5 87q180 0 340 -72v62q0 178 -90 270t-264 92q-184 0 -322 -115l-12 72q63 53 155.5 83t190.5 30q195 0 305.5 -111.5t110.5 -310.5v-594h-74v211q-51 -117 -150.5 -180.5t-228.5 -63.5q-158 0 -260 85t-102 216zM201 274q0 -111 80 -176 t213 -65q164 0 267 117.5t103 306.5q-152 72 -336 71q-154 0 -240.5 -67.5t-86.5 -186.5zM292 1380q0 29 17.5 46.5t46.5 17.5q27 0 45 -18.5t18 -45.5t-18 -45t-45 -18t-45.5 18.5t-18.5 44.5zM641 1380q0 29 17 46.5t46 17.5t46.5 -17.5t17.5 -46.5q0 -27 -18.5 -45 t-45.5 -18t-45 18.5t-18 44.5z" />
<glyph horiz-adv-x="1054" d="M25 -494l10 76q47 -31 106 -31q76 0 127 36t99.5 119t111.5 233l29 67l-447 977h84l402 -891l362 891h84l-440 -1055q-76 -182 -137.5 -277t-125 -134t-147.5 -39q-31 0 -64.5 8t-53.5 20zM297 1380q0 29 17.5 46.5t46.5 17.5q27 0 45 -18.5t18 -45.5t-18 -45t-45 -18 t-45.5 18.5t-18.5 44.5zM646 1380q0 29 17 46.5t46 17.5t46.5 -17.5t17.5 -46.5q0 -27 -18.5 -45t-45.5 -18t-45 18.5t-18 44.5z" />
<glyph horiz-adv-x="1114" d="M123 268q0 152 106.5 239t294.5 87q180 0 340 -72v62q0 178 -90 270t-264 92q-184 0 -322 -115l-12 72q63 53 155.5 83t190.5 30q195 0 305.5 -111.5t110.5 -310.5v-594h-74v211q-51 -117 -150.5 -180.5t-228.5 -63.5q-158 0 -260 85t-102 216zM201 274q0 -111 80 -176 t213 -65q164 0 267 117.5t103 306.5q-152 72 -336 71q-154 0 -240.5 -67.5t-86.5 -186.5zM245 1501q0 23 2 31h62q0 -244 221 -244t221 244h62q2 -8 2 -31q0 -123 -78 -197.5t-207 -74.5t-207 74.5t-78 197.5z" />
<glyph horiz-adv-x="1169" d="M115 -227q0 98 52 167.5t150 102.5q-66 10 -107.5 55t-41.5 107q0 59 38 109.5t105 84.5q-68 47 -104.5 117t-36.5 154q0 156 111.5 251t293.5 95q47 0 103.5 -12.5t103.5 -32.5l316 14v-67l-240 2q123 -92 123 -250q0 -156 -111.5 -250t-294.5 -94q-121 0 -210 43 q-123 -68 -123 -152q0 -66 54 -94.5t177 -28.5h133q440 0 441 -299q0 -150 -122 -233.5t-337 -83.5q-223 0 -348 77.5t-125 217.5zM190 -221q0 -115 102.5 -174.5t301.5 -59.5q178 0 277.5 65.5t99.5 182.5q0 123 -88 178.5t-283 55.5h-53q-172 0 -264.5 -64.5t-92.5 -183.5 zM246 670q0 -125 91 -203t238 -78q150 0 240 77t90 204t-91 204.5t-239 77.5q-152 0 -240.5 -77.5t-88.5 -204.5zM311 1501q0 23 2 31h62q0 -244 221 -244t221 244h62q2 -8 2 -31q0 -123 -78 -197.5t-207 -74.5t-207 74.5t-78 197.5z" />
<glyph horiz-adv-x="0" d="M-66 1823q0 31 17.5 48t48.5 17t48.5 -17.5t17.5 -47.5q0 -29 -17.5 -47.5t-48.5 -18.5t-48.5 17.5t-17.5 48.5z" />
<glyph horiz-adv-x="1169" d="M115 -227q0 98 52 167.5t150 102.5q-66 10 -107.5 55t-41.5 107q0 59 38 109.5t105 84.5q-68 47 -104.5 117t-36.5 154q0 156 111.5 251t293.5 95q47 0 103.5 -12.5t103.5 -32.5l316 14v-67l-240 2q123 -92 123 -250q0 -156 -111.5 -250t-294.5 -94q-121 0 -210 43 q-123 -68 -123 -152q0 -66 54 -94.5t177 -28.5h133q440 0 441 -299q0 -150 -122 -233.5t-337 -83.5q-223 0 -348 77.5t-125 217.5zM190 -221q0 -115 102.5 -174.5t301.5 -59.5q178 0 277.5 65.5t99.5 182.5q0 123 -88 178.5t-283 55.5h-53q-172 0 -264.5 -64.5t-92.5 -183.5 zM246 670q0 -125 91 -203t238 -78q150 0 240 77t90 204t-91 204.5t-239 77.5q-152 0 -240.5 -77.5t-88.5 -204.5zM530 1380q0 31 17.5 48.5t48.5 17.5t48.5 -17.5t17.5 -48.5q0 -29 -17.5 -47t-48.5 -18t-48.5 17.5t-17.5 47.5z" />
<glyph horiz-adv-x="0" d="M-252 1919q0 106 70.5 175t181.5 69t182.5 -69t71.5 -175t-71.5 -175t-182.5 -69q-109 0 -180.5 68.5t-71.5 175.5zM-190 1919q0 -82 53 -134t137 -52t138.5 52t54.5 134t-54.5 134t-138.5 52t-137 -52t-53 -134z" />
<glyph horiz-adv-x="1114" d="M123 268q0 152 106.5 239t294.5 87q180 0 340 -72v62q0 178 -90 270t-264 92q-184 0 -322 -115l-12 72q63 53 155.5 83t190.5 30q195 0 305.5 -111.5t110.5 -310.5v-594h-74v211q-51 -117 -150.5 -180.5t-228.5 -63.5q-158 0 -260 85t-102 216zM201 274q0 -111 80 -176 t213 -65q164 0 267 117.5t103 306.5q-152 72 -336 71q-154 0 -240.5 -67.5t-86.5 -186.5zM278 1448q0 106 70.5 175t181.5 69t182.5 -69t71.5 -175t-71.5 -175t-182.5 -69q-109 0 -180.5 68.5t-71.5 175.5zM340 1448q0 -82 53 -134t137 -52t138.5 52t54.5 134t-54.5 134 t-138.5 52t-137 -52t-53 -134z" />
</font>
</defs>
</svg>
