<?xml version="1.0" standalone="no"?>
<!DOCTYPE svg PUBLIC "-//W3C//DTD SVG 1.1//EN" "http://www.w3.org/Graphics/SVG/1.1/DTD/svg11.dtd" >
<svg xmlns="http://www.w3.org/2000/svg" xmlns:xlink="http://www.w3.org/1999/xlink" version="1.1">
<metadata></metadata>
<defs>
<font id="objektiv_mk1medium" horiz-adv-x="790" >
<font-face units-per-em="2048" ascent="1638" descent="-410" />
<missing-glyph horiz-adv-x="450" />
<glyph unicode=" "  horiz-adv-x="450" />
<glyph unicode="&#x09;" horiz-adv-x="450" />
<glyph unicode="&#xa0;" horiz-adv-x="450" />
<glyph unicode="!" horiz-adv-x="681" d="M184 141q0 66 44 109t112 43t113 -43t45 -109t-44 -109.5t-114 -43.5q-68 0 -112 44t-44 109zM215 1618h252l-18 -1108h-216z" />
<glyph unicode="&#x22;" horiz-adv-x="817" d="M92 1556h238l-25 -612h-190zM487 1556h238l-25 -612h-190z" />
<glyph unicode="#" horiz-adv-x="1402" d="M94 338v172h230l82 367h-232v172h268l76 337h189l-74 -337h291l75 337h189l-76 -337h199v-172h-236l-82 -367h236v-172h-273l-75 -338h-191l74 338h-289l-74 -338h-188l74 338h-193zM512 510h291l84 367h-293z" />
<glyph unicode="$" horiz-adv-x="1269" d="M139 82l25 203q168 -109 383 -121v534q-215 82 -310.5 186.5t-95.5 260.5q0 162 110.5 271.5t295.5 131.5v248h153v-244q205 -16 347 -100l-35 -192q-141 84 -312 98v-490q219 -80 322.5 -194.5t103.5 -278.5q0 -162 -117.5 -277.5t-308.5 -140.5v-245h-153v241 q-244 10 -408 109zM352 1155q0 -86 46 -140t149 -93v434q-195 -35 -195 -201zM700 174q96 20 151.5 79.5t55.5 139.5q0 88 -49 147.5t-158 102.5v-469z" />
<glyph unicode="%" horiz-adv-x="1978" d="M113 1163q0 106 50 195.5t141 143.5t204 54q106 0 196.5 -49t144.5 -140t54 -204q0 -106 -49 -194t-140 -142.5t-206 -54.5q-106 0 -196.5 49t-144.5 139.5t-54 202.5zM303 1163q0 -98 56.5 -159.5t148.5 -61.5t148.5 61.5t56.5 159.5q0 100 -56.5 160.5t-148.5 60.5 t-148.5 -60t-56.5 -161zM326 0l1106 1524h217l-1108 -1524h-215zM1075 369q0 106 50.5 195t141.5 143.5t203 54.5q106 0 196.5 -49t145 -140.5t54.5 -203.5q0 -106 -49.5 -194.5t-140.5 -143t-206 -54.5q-106 0 -196 49.5t-144.5 139.5t-54.5 203zM1266 369q0 -98 56 -160 t148 -62t148.5 61.5t56.5 160.5q0 100 -56 160.5t-149 60.5q-92 0 -148 -60.5t-56 -160.5z" />
<glyph unicode="&#x26;" horiz-adv-x="1531" d="M109 399q0 139 82.5 247t257.5 196q-106 127 -145.5 210t-39.5 179q0 160 115 261t295 101q115 0 207 -43t145 -123.5t53 -185.5q0 -131 -82 -236.5t-252 -193.5l351 -395q94 158 100 385l197 -21q-6 -150 -48 -281.5t-116 -234.5l235 -264h-276l-107 119 q-182 -152 -438 -152q-154 0 -274.5 52.5t-190 150.5t-69.5 229zM334 416q0 -115 90 -185.5t233 -70.5q172 0 297 102l-393 449q-227 -125 -227 -295zM477 1237q0 -68 32 -129.5t124 -167.5q121 68 177 138.5t56 154.5t-52 136t-140 52t-142.5 -50t-54.5 -134z" />
<glyph unicode="'" horiz-adv-x="421" d="M92 1556h238l-25 -612h-190z" />
<glyph unicode="(" horiz-adv-x="849" d="M164 702q0 287 106.5 555.5t280.5 421.5h268q-207 -180 -317.5 -434t-110.5 -543q0 -291 111.5 -543.5t316.5 -430.5h-268q-174 156 -280.5 422t-106.5 552z" />
<glyph unicode=")" horiz-adv-x="849" d="M31 -272q207 180 317.5 434t110.5 543q0 291 -111.5 543.5t-316.5 430.5h268q174 -156 280.5 -422t106.5 -552q0 -287 -106.5 -555.5t-280.5 -421.5h-268z" />
<glyph unicode="*" horiz-adv-x="958" d="M66 1190l71 188l266 -121l-26 299h205l-27 -299l266 121l72 -188l-291 -82l209 -240l-164 -114l-168 260l-164 -260l-163 114l206 240z" />
<glyph unicode="+" horiz-adv-x="1269" d="M162 584v202h364v392h217v-392h365v-202h-365v-391h-217v391h-364z" />
<glyph unicode="," horiz-adv-x="604" d="M12 -362q86 127 135.5 295.5t51.5 342.5h241q-2 -174 -68.5 -357t-164.5 -281h-195z" />
<glyph unicode="-" horiz-adv-x="890" d="M137 481v215h617v-215h-617z" />
<glyph unicode="." horiz-adv-x="604" d="M145 141q0 66 45.5 109t112.5 43q68 0 112 -43t44 -109t-44 -109.5t-112 -43.5q-70 0 -114 44t-44 109z" />
<glyph unicode="/" horiz-adv-x="1091" d="M31 -272l796 1931h234l-797 -1931h-233z" />
<glyph unicode="0" horiz-adv-x="1269" d="M88 762q0 373 145.5 583.5t401.5 210.5t401.5 -210.5t145.5 -583.5t-145.5 -584t-401.5 -211t-401.5 211t-145.5 584zM344 762q0 -283 74 -431.5t217 -148.5t217 148.5t74 431.5t-74 431t-217 148t-217 -148.5t-74 -430.5z" />
<glyph unicode="1" horiz-adv-x="1269" d="M164 1303l493 221h189v-1524h-240v1274l-405 -182z" />
<glyph unicode="2" horiz-adv-x="1269" d="M147 0v193q248 231 388 395q166 197 226 307.5t60 214.5q0 111 -65.5 174.5t-180.5 63.5q-102 0 -198 -47.5t-170 -135.5l-45 211q80 84 198.5 132t249.5 48q209 0 334 -112.5t125 -302.5q0 -147 -78 -298t-252 -341q-164 -176 -280 -285h653v-217h-965z" />
<glyph unicode="3" horiz-adv-x="1269" d="M145 66l21 210q174 -102 379 -102q152 0 238.5 74t86.5 203q0 127 -84 198.5t-233 71.5q-59 0 -135 -16l-62 139l420 463h-608v217h901v-189l-401 -440q133 -6 233 -61.5t156.5 -152.5t56.5 -228q0 -225 -150.5 -355.5t-412.5 -130.5q-117 0 -225.5 26.5t-180.5 72.5z " />
<glyph unicode="4" horiz-adv-x="1269" d="M78 360v201l672 963h247v-961h195v-203h-195v-360h-233v360h-686zM309 563h455v647z" />
<glyph unicode="5" horiz-adv-x="1269" d="M139 63l21 211q78 -47 176 -73.5t196 -26.5q162 0 254.5 79t92.5 218q0 133 -99.5 210t-273.5 77q-61 0 -146.5 -10.5t-154.5 -26.5l28 803h793v-217h-584l-14 -365q72 14 147 14q250 0 398.5 -130t148.5 -351q0 -231 -156.5 -369.5t-418.5 -138.5q-115 0 -228.5 26.5 t-179.5 69.5z" />
<glyph unicode="6" horiz-adv-x="1269" d="M121 489q0 160 68.5 343.5t197.5 364.5t303 331l293 -10q-399 -332 -551 -672q55 51 120.5 74.5t156.5 23.5q125 0 229 -59.5t167.5 -168t63.5 -245.5q0 -141 -65.5 -256t-186 -181.5t-278.5 -66.5q-236 0 -377 142.5t-141 379.5zM352 459q0 -127 82 -210t209 -83 q125 0 207 82t82 211q0 131 -80 213t-209 82q-82 0 -147.5 -37t-104.5 -104.5t-39 -153.5z" />
<glyph unicode="7" horiz-adv-x="1269" d="M137 1298v226h991v-205l-571 -1323l-250 10l567 1292h-737z" />
<glyph unicode="8" horiz-adv-x="1269" d="M94 410q0 131 66.5 235.5t179.5 151.5q-98 49 -152.5 141t-54.5 207q0 117 61.5 210t176 147t264.5 54q141 0 255 -50t180.5 -144t66.5 -217q0 -115 -54.5 -207t-152.5 -141q113 -47 179.5 -151.5t66.5 -235.5q0 -129 -66 -228.5t-188.5 -157t-286.5 -57.5 q-158 0 -280 54.5t-191.5 154.5t-69.5 234zM344 432q0 -119 79 -189.5t212 -70.5t212 70.5t79 189.5t-79 189.5t-212 70.5t-212 -70.5t-79 -189.5zM373 1122q0 -111 69.5 -173t192.5 -62t192.5 62.5t69.5 172.5q0 109 -71.5 173.5t-190.5 64.5t-190.5 -64.5t-71.5 -173.5z " />
<glyph unicode="9" horiz-adv-x="1269" d="M100 1053q0 141 65.5 255.5t186.5 181t279 66.5q236 0 377 -142t141 -380q0 -160 -68.5 -343t-197.5 -364.5t-303 -330.5l-293 10q403 340 551 670q-57 -51 -123 -73.5t-154 -22.5q-125 0 -229.5 59t-168 167.5t-63.5 246.5zM338 1065q0 -131 80 -213t209 -82 q82 0 147.5 37t104.5 104.5t39 153.5q0 127 -82 210t-209 83q-125 0 -207 -82t-82 -211z" />
<glyph unicode=":" horiz-adv-x="604" d="M145 141q0 66 45.5 109t112.5 43q68 0 112 -43t44 -109t-44 -109.5t-112 -43.5q-70 0 -114 44t-44 109zM145 893q0 66 45.5 109t112.5 43q68 0 112 -43t44 -109t-44 -109.5t-112 -43.5q-70 0 -114 44t-44 109z" />
<glyph unicode=";" horiz-adv-x="604" d="M12 -362q86 127 135.5 295.5t51.5 342.5h241q-2 -174 -68.5 -357t-164.5 -281h-195zM145 893q0 66 45.5 109t112.5 43q68 0 112 -43t44 -109t-44 -109.5t-112 -43.5q-70 0 -114 44t-44 109z" />
<glyph unicode="&#x3c;" horiz-adv-x="1269" d="M193 584v227l884 377v-221l-639 -267l639 -266v-225z" />
<glyph unicode="=" horiz-adv-x="1269" d="M199 340v201h872v-201h-872zM199 823v201h872v-201h-872z" />
<glyph unicode="&#x3e;" horiz-adv-x="1269" d="M193 209v225l638 264l-638 267v223l884 -377v-227z" />
<glyph unicode="?" horiz-adv-x="1003" d="M35 1444q70 88 192.5 140t261.5 52q199 0 323 -107.5t124 -281.5q0 -86 -28.5 -150.5t-72.5 -117.5t-94.5 -100.5t-94.5 -96.5t-72.5 -108.5t-28.5 -134.5v-29h-213q-6 31 -6 65q0 92 26.5 162t67.5 123t87 97t87 85t67.5 88.5t26.5 104.5q0 90 -62.5 141t-170.5 51 q-98 0 -191.5 -47t-171.5 -135zM279 141q0 66 45 109t112 43q68 0 112 -43t44 -109t-44 -109.5t-112 -43.5q-70 0 -113.5 44t-43.5 109z" />
<glyph unicode="@" horiz-adv-x="2076" d="M100 385q0 264 130 489.5t368 363.5t535 138q244 0 436 -95t304 -273.5t112 -413.5q0 -170 -59.5 -308.5t-169 -221t-251.5 -82.5q-102 0 -172.5 39.5t-97.5 111.5q-41 -70 -122 -109.5t-179 -39.5q-162 0 -262.5 113.5t-100.5 295.5q0 137 56.5 253t159 187.5 t229.5 71.5q96 0 170 -43t108 -119l31 129h191l-91 -538q-6 -39 -6 -72q0 -59 25.5 -87t81.5 -28q72 0 132 54.5t98 154t38 222.5q0 186 -80 326t-231.5 218t-360.5 78q-229 0 -417.5 -100.5t-301 -286.5t-112.5 -426q0 -203 87 -356.5t251 -239.5t389 -86q231 0 452 98 l17 -178q-223 -96 -475 -96q-264 0 -470 104.5t-324 299t-118 452.5zM778 412q0 -119 55.5 -181.5t159.5 -62.5q115 0 187.5 86t72.5 223q0 117 -55 179.5t-160 62.5q-115 0 -187.5 -86t-72.5 -221z" />
<glyph unicode="A" horiz-adv-x="1622" d="M49 0l625 1556h274l625 -1556h-273l-163 436h-664l-164 -436h-260zM549 639h510l-256 680z" />
<glyph unicode="B" horiz-adv-x="1454" d="M199 0v1556h569q231 0 360 -103t129 -292q0 -236 -200 -327q131 -41 205.5 -143.5t74.5 -241.5q0 -215 -140 -332t-400 -117h-598zM440 211h346q143 0 216 60.5t73 179.5q0 249 -309 249h-2h-324v-489zM440 911h269q152 0 222 57.5t70 178.5q0 100 -67.5 149.5 t-206.5 49.5h-287v-435z" />
<glyph unicode="C" horiz-adv-x="1564" d="M106 768q0 231 103.5 414.5t295 290t441.5 106.5q127 0 257 -35t224 -92l-43 -221q-127 61 -232 90t-212 29q-164 0 -292 -70t-201.5 -201t-73.5 -303q0 -170 68.5 -298t198.5 -199.5t306 -71.5q109 0 231.5 30.5t235.5 86.5l27 -224q-233 -123 -512 -123 q-236 0 -421 96.5t-293 276.5t-108 418z" />
<glyph unicode="D" horiz-adv-x="1726" d="M199 0v1556h583q256 0 444.5 -91t291 -266t102.5 -419q0 -371 -227.5 -575.5t-640.5 -204.5h-553zM455 211h297q602 0 602 567t-600 568h-299v-1135z" />
<glyph unicode="E" horiz-adv-x="1368" d="M199 0v1556h997v-215h-752v-440h670v-215h-670v-471h783v-215h-1028z" />
<glyph unicode="F" horiz-adv-x="1269" d="M199 0v1556h968v-215h-712v-473h614v-215h-614v-653h-256z" />
<glyph unicode="G" horiz-adv-x="1681" d="M106 766q0 236 104.5 419t300.5 288.5t454 105.5q141 0 278 -33t252 -92l-43 -225q-109 59 -239 90t-265 31q-168 0 -298 -70t-203.5 -201t-73.5 -305q0 -264 156.5 -417.5t424.5 -153.5q88 0 160 9t162 34v389h-328v213h582v-758q-271 -113 -588 -113q-242 0 -431 95.5 t-297 274.5t-108 419z" />
<glyph unicode="H" horiz-adv-x="1738" d="M199 0v1556h256v-643h829v643h256v-1556h-256v698h-829v-698h-256z" />
<glyph unicode="I" horiz-adv-x="653" d="M199 0v1556h256v-1556h-256z" />
<glyph unicode="J" horiz-adv-x="1138" d="M72 55l26 217q133 -82 308 -82q156 0 222 84t66 285v997h256v-1019q0 -291 -127 -430.5t-389 -139.5q-98 0 -197.5 24.5t-164.5 63.5z" />
<glyph unicode="K" horiz-adv-x="1556" d="M199 0v1556h250v-675l698 675h319l-778 -741l852 -815h-350l-741 719v-719h-250z" />
<glyph unicode="L" horiz-adv-x="1257" d="M199 0v1556h256v-1331h731v-225h-987z" />
<glyph unicode="M" horiz-adv-x="2093" d="M172 0l80 1556h246l555 -1046l540 1046h246l82 -1556h-244l-49 1176l-475 -914h-213l-477 891l-49 -1153h-242z" />
<glyph unicode="N" horiz-adv-x="1761" d="M199 0v1556h235l893 -1185v1185h236v-1556h-234l-895 1184v-1184h-235z" />
<glyph unicode="O" horiz-adv-x="1837" d="M106 778q0 217 102.5 401.5t289 297t420.5 112.5q223 0 407 -101.5t295 -287.5t111 -422q0 -217 -102.5 -401t-290 -297t-420.5 -113q-221 0 -405.5 101.5t-295.5 288t-111 421.5zM373 778q0 -162 67.5 -294t192.5 -209.5t285 -77.5q152 0 275.5 71.5t197 204.5t73.5 305 q0 162 -67.5 294t-193.5 210t-285 78q-152 0 -276 -73t-196.5 -206t-72.5 -303z" />
<glyph unicode="P" horiz-adv-x="1316" d="M199 0v1556h483q162 0 287 -60t195.5 -173t70.5 -264q0 -147 -67.5 -261t-193.5 -178.5t-294 -64.5h-236v-555h-245zM444 764h199q168 0 254 73.5t86 217.5q0 143 -87 218t-253 75h-199v-584z" />
<glyph unicode="Q" horiz-adv-x="1837" d="M106 778q0 217 102.5 401.5t289 297t420.5 112.5q223 0 407 -101.5t295 -287.5t111 -422q0 -242 -125 -439.5t-338 -295.5l360 -416h-321l-295 346q-45 -6 -94 -6q-221 0 -405.5 101.5t-295.5 288t-111 421.5zM373 778q0 -162 67.5 -294t192.5 -209.5t285 -77.5 q152 0 275.5 71.5t197 204.5t73.5 305q0 162 -67.5 294t-193.5 210t-285 78q-152 0 -276 -73t-196.5 -206t-72.5 -303z" />
<glyph unicode="R" horiz-adv-x="1460" d="M199 0v1556h479q256 0 406.5 -130t150.5 -353q0 -139 -74 -251.5t-203 -170.5l433 -651h-301l-367 592q-45 -6 -102 -6h-177v-586h-245zM444 795h191q350 0 350 276q0 137 -85 207t-253 70h-203v-553z" />
<glyph unicode="S" horiz-adv-x="1363" d="M127 94l29 230q100 -61 229 -98.5t244 -37.5q158 0 243.5 59.5t85.5 168.5q0 92 -70.5 148.5t-264.5 117.5q-254 80 -360.5 188.5t-106.5 290.5q0 125 64.5 222.5t186 151.5t285.5 54q119 0 240 -29.5t213 -80.5l-39 -224q-90 51 -199.5 82t-208.5 31q-143 0 -219 -53 t-76 -154q0 -66 29 -106.5t92.5 -73.5t180.5 -70q193 -61 303 -131.5t158 -159t48 -204.5q0 -133 -68.5 -234.5t-198.5 -158t-308 -56.5q-137 0 -281.5 36t-230.5 91z" />
<glyph unicode="T" horiz-adv-x="1427" d="M72 1341v215h1284v-215h-514v-1341h-256v1341h-514z" />
<glyph unicode="U" horiz-adv-x="1726" d="M188 649v907h256v-886q0 -236 105.5 -354.5t312.5 -118.5t313.5 118.5t106.5 354.5v886h256v-907q0 -324 -178 -503t-502 -179q-317 0 -493.5 179.5t-176.5 502.5z" />
<glyph unicode="V" horiz-adv-x="1570" d="M51 1556h283l457 -1282l456 1282h273l-598 -1556h-275z" />
<glyph unicode="W" horiz-adv-x="2283" d="M51 1556h266l340 -1249l367 1229h242l366 -1219l338 1239h262l-471 -1556h-256l-366 1208l-361 -1208h-258z" />
<glyph unicode="X" horiz-adv-x="1511" d="M31 0l577 815l-524 741h307l377 -565l377 565h299l-533 -751l570 -805h-307l-420 631l-424 -631h-299z" />
<glyph unicode="Y" horiz-adv-x="1464" d="M27 1556h284l426 -698l428 698h273l-580 -899v-657h-256v659z" />
<glyph unicode="Z" horiz-adv-x="1468" d="M109 0v195l903 1146h-854v215h1169v-194l-905 -1147h919v-215h-1232z" />
<glyph unicode="[" horiz-adv-x="841" d="M225 -272v1951h541v-194h-320v-1563h320v-194h-541z" />
<glyph unicode="\" horiz-adv-x="1091" d="M31 1659h233l797 -1931h-234z" />
<glyph unicode="]" horiz-adv-x="841" d="M76 -78h319v1563h-319v194h540v-1951h-540v194z" />
<glyph unicode="^" horiz-adv-x="1269" d="M115 637l420 799h200l422 -799h-237l-289 573l-287 -573h-229z" />
<glyph unicode="_" horiz-adv-x="1024" d="M0 -92h1024v-193h-1024v193z" />
<glyph unicode="`" horiz-adv-x="1024" d="M269 1587h268l219 -338h-209z" />
<glyph unicode="a" horiz-adv-x="1351" d="M100 516q0 147 63.5 272t179.5 202t259 77q115 0 207 -46t145 -130l4 143h228v-1034h-228l-4 141q-112 -174 -362 -174q-139 0 -251 67.5t-176.5 192.5t-64.5 289zM338 518q0 -150 87 -245t226 -95t226.5 95.5t87.5 244.5q0 150 -88.5 244t-225.5 94t-225 -94t-88 -244z " />
<glyph unicode="b" horiz-adv-x="1351" d="M166 0v1659h235v-762q111 170 359 170q139 0 250.5 -67.5t176 -192.5t64.5 -289q0 -147 -63.5 -272t-179 -202t-258.5 -77q-115 0 -208 45t-147 129l-2 -141h-227zM387 516q0 -150 88 -244t225 -94t225.5 94.5t88.5 243.5q0 150 -87 245t-227 95q-139 0 -226 -95 t-87 -245z" />
<glyph unicode="c" horiz-adv-x="1105" d="M100 512q0 158 70 282t198 195.5t298 71.5q86 0 171 -20.5t150 -55.5l-31 -201q-59 33 -132.5 50.5t-143.5 17.5q-156 0 -249 -91t-93 -243q0 -158 94 -247t258 -89q131 0 287 66l27 -195q-66 -37 -154 -58.5t-182 -21.5q-168 0 -296 64.5t-200 186.5t-72 288z" />
<glyph unicode="d" horiz-adv-x="1351" d="M100 516q0 147 63.5 272t179.5 202t259 77q113 0 204 -44t144 -126v762h236v-1659h-228l-4 141q-112 -174 -362 -174q-139 0 -251 67.5t-176.5 192.5t-64.5 289zM338 518q0 -150 87 -245t226 -95t226.5 95.5t87.5 244.5q0 150 -88.5 244t-225.5 94t-225 -94t-88 -244z " />
<glyph unicode="e" horiz-adv-x="1222" d="M100 514q0 158 64.5 283t183.5 197.5t275 72.5q141 0 250.5 -61.5t171 -178t61.5 -272.5q0 -78 -8 -117h-762q23 -133 120 -205.5t255 -72.5q184 0 348 80l24 -185q-76 -41 -180 -64.5t-213 -23.5q-176 0 -309 64.5t-207 189.5t-74 293zM334 616h543q-8 127 -76 197 t-187 70q-117 0 -190.5 -70t-89.5 -197z" />
<glyph unicode="f" horiz-adv-x="851" d="M47 836v198h199v146q0 236 109.5 362.5t316.5 126.5q59 0 121.5 -11t105.5 -32l-25 -196q-85 32 -173 32h-5q-113 0 -164 -73.5t-51 -233.5v-121h299v-198h-299v-836h-235v836h-199z" />
<glyph unicode="g" horiz-adv-x="1351" d="M100 516q0 147 63.5 272t179.5 202t259 77q115 0 207 -46t145 -130l4 143h228v-966q0 -291 -144.5 -439.5t-429.5 -148.5q-104 0 -216.5 24.5t-176.5 59.5l27 217q68 -43 161 -67.5t189 -24.5q184 0 271 88t87 274v90q-113 -174 -362 -174q-139 0 -251 67.5t-176.5 192.5 t-64.5 289zM338 518q0 -150 87 -245t226 -95t226.5 95.5t87.5 244.5q0 150 -88.5 244t-225.5 94t-225 -94t-88 -244z" />
<glyph unicode="h" horiz-adv-x="1259" d="M166 0v1659h235v-746q45 74 126 114t188 40q186 0 285.5 -113.5t99.5 -326.5v-627h-236v584q0 139 -52 206.5t-161 67.5q-119 0 -184.5 -78t-65.5 -217v-563h-235z" />
<glyph unicode="i" horiz-adv-x="567" d="M135 1421q0 63 42 104.5t106 41.5q63 0 105 -41t42 -105q0 -63 -42 -105t-105 -42t-105.5 42t-42.5 105zM166 0v1034h235v-1034h-235z" />
<glyph unicode="j" horiz-adv-x="567" d="M-219 -473l24 201q88 -39 179 -39q94 0 138 54t44 171v1120h235v-1126q0 -428 -391 -428q-68 0 -130 13t-99 34zM135 1421q0 63 42 104.5t106 41.5q63 0 105 -41t42 -105q0 -63 -42 -105t-105 -42t-105.5 42t-42.5 105z" />
<glyph unicode="k" horiz-adv-x="1206" d="M166 0v1659h235v-1022l418 397h295l-496 -456l574 -578h-311l-480 492v-492h-235z" />
<glyph unicode="l" horiz-adv-x="567" d="M166 0v1659h235v-1659h-235z" />
<glyph unicode="m" horiz-adv-x="1929" d="M166 0v1034h225l2 -133q43 80 127 123t199 43q113 0 193.5 -48t125.5 -140q47 88 139.5 138t204.5 50q188 0 287.5 -113.5t99.5 -326.5v-627h-235v584q0 139 -52 206.5t-159 67.5q-113 0 -175.5 -78t-62.5 -217v-563h-235v584q0 141 -50 207.5t-159 66.5 q-111 0 -175.5 -79t-64.5 -214v-565h-235z" />
<glyph unicode="n" horiz-adv-x="1259" d="M166 0v1034h225l2 -133q43 80 127 123t195 43q186 0 285.5 -113.5t99.5 -326.5v-627h-236v584q0 139 -52 206.5t-161 67.5q-119 0 -184.5 -78t-65.5 -217v-563h-235z" />
<glyph unicode="o" horiz-adv-x="1302" d="M100 518q0 147 70 272t197 201t284 76q152 0 277 -68.5t199.5 -194.5t74.5 -286q0 -150 -69.5 -274.5t-196.5 -200.5t-285 -76q-152 0 -276.5 68.5t-199.5 195.5t-75 287zM338 518q0 -150 87 -245t226 -95t226.5 95.5t87.5 244.5q0 150 -88.5 244t-225.5 94t-225 -94 t-88 -244z" />
<glyph unicode="p" horiz-adv-x="1351" d="M166 -502v1536h221l2 -153q113 186 371 186q139 0 250.5 -67.5t176 -192.5t64.5 -289q0 -147 -63.5 -272t-179 -202t-258.5 -77q-115 0 -205 43t-144 125v-637h-235zM387 516q0 -150 88 -244t225 -94t225.5 94.5t88.5 243.5q0 150 -87 245t-227 95q-139 0 -226 -95 t-87 -245z" />
<glyph unicode="q" horiz-adv-x="1351" d="M100 516q0 147 63.5 272t179.5 202t259 77q115 0 207 -46t145 -130l4 143h228v-1536h-236v637q-115 -168 -358 -168q-139 0 -251 67.5t-176.5 192.5t-64.5 289zM338 518q0 -150 87 -245t226 -95t226.5 95.5t87.5 244.5q0 150 -88.5 244t-225.5 94t-225 -94t-88 -244z" />
<glyph unicode="r" horiz-adv-x="874" d="M166 0v1034h225l2 -174q43 92 120 141.5t177 49.5q27 0 61.5 -6.5t59.5 -16.5l-23 -221q-55 24 -117 24h-5q-125 0 -195 -91t-70 -253v-487h-235z" />
<glyph unicode="s" horiz-adv-x="978" d="M86 66l31 198q66 -45 158 -74.5t174 -29.5q208 0 208 113q0 42 -19.5 65.5t-65.5 43t-136 46.5q-176 51 -254 128t-78 198q0 145 109 229t297 84q90 0 182 -22.5t150 -59.5l-31 -192q-63 37 -144 59t-153 22q-88 0 -135 -26.5t-47 -77.5q0 -39 18.5 -62.5t60.5 -43 t124 -41.5q193 -55 274.5 -133t81.5 -207q0 -145 -117.5 -230.5t-318.5 -85.5q-106 0 -208 26.5t-161 72.5z" />
<glyph unicode="t" horiz-adv-x="923" d="M23 836v198h217v289h235v-289h340v-198h-340v-439q0 -117 40 -170t136 -53q100 0 193 49l26 -196q-45 -27 -114.5 -43.5t-145.5 -16.5q-190 0 -280 95.5t-90 299.5v474h-217z" />
<glyph unicode="u" horiz-adv-x="1255" d="M160 385v649h235v-592q0 -141 50.5 -203.5t164.5 -62.5q115 0 179.5 78t64.5 217v563h236v-1034h-226l-4 131q-43 -78 -125.5 -121t-193.5 -43q-188 0 -284.5 106.5t-96.5 311.5z" />
<glyph unicode="v" horiz-adv-x="1134" d="M37 1034h256l278 -782l283 782h244l-410 -1034h-239z" />
<glyph unicode="w" horiz-adv-x="1714" d="M47 1034h244l219 -764l242 764h200l252 -766l223 766h240l-352 -1034h-215l-250 735l-240 -735h-213z" />
<glyph unicode="x" horiz-adv-x="1165" d="M51 0l393 535l-372 499h274l240 -344l231 344h266l-368 -502l399 -532h-274l-267 381l-256 -381h-266z" />
<glyph unicode="y" horiz-adv-x="1173" d="M37 1034h254l303 -706l291 706h252l-699 -1536h-250l283 582z" />
<glyph unicode="z" horiz-adv-x="1093" d="M96 0v178l576 658h-553v198h850v-178l-580 -657h594v-199h-887z" />
<glyph unicode="{" horiz-adv-x="888" d="M98 594v199h56q109 0 149.5 34.5t40.5 126.5q-2 72 -16.5 141.5t-28.5 136t-16 132.5q0 164 95 240.5t298 76.5q51 0 112 -4v-188q-25 2 -92 2q-98 0 -145 -38t-47 -116q2 -51 16.5 -116.5t27.5 -139t15 -145.5q0 -86 -40 -149.5t-111 -94.5q72 -27 111.5 -90t39.5 -151 q-2 -72 -16.5 -146t-27.5 -139.5t-15 -116.5q0 -78 47 -115.5t145 -37.5q68 0 92 2v-189q-61 -4 -112 -4q-203 0 -298 77t-95 241q2 66 16 132t28.5 135.5t16.5 141.5q0 92 -41 127t-149 35h-56z" />
<glyph unicode="|" horiz-adv-x="661" d="M219 -465v2239h223v-2239h-223z" />
<glyph unicode="}" horiz-adv-x="888" d="M100 -102q25 -2 93 -2q98 0 145 37.5t47 115.5q-2 51 -15.5 116.5t-27.5 139.5t-16 146q0 86 40 149.5t111 93.5q-72 27 -111.5 90.5t-39.5 151.5q2 72 16 145.5t27.5 139t15.5 116.5q0 78 -47 116t-145 38q-68 0 -93 -2v188q61 4 113 4q203 0 298 -76.5t95 -240.5 q-2 -66 -16.5 -132.5t-28.5 -136t-16 -141.5q0 -92 41 -126.5t149 -34.5h56v-199h-56q-109 0 -149.5 -35t-40.5 -127q2 -72 16 -141.5t28.5 -136t16.5 -131.5q0 -164 -95 -241t-298 -77q-51 0 -113 4v189z" />
<glyph unicode="~" horiz-adv-x="1269" d="M100 492v28q0 182 82 285.5t226 103.5q68 0 130 -26.5t132 -83.5q68 -57 103.5 -78t72.5 -21q63 0 96 53.5t33 153.5h194v-28q0 -182 -82 -286t-225 -104q-68 0 -130 27t-132 84q-68 57 -103.5 77.5t-72.5 20.5q-63 0 -96 -53t-33 -153h-195z" />
<glyph unicode="&#xa1;" horiz-adv-x="681" d="M184 893q0 66 44 110t114 44q68 0 112 -44.5t44 -109.5q0 -66 -44 -109t-112 -43t-113 43t-45 109zM215 -584l18 1108h216l18 -1108h-252z" />
<glyph unicode="&#xa2;" horiz-adv-x="1269" d="M186 506q0 137 52.5 250.5t150.5 190.5t232 100v258h153v-250q156 -6 281 -74l-31 -195q-53 29 -119.5 46.5t-130.5 21.5v-674q119 0 270 66l25 -189q-119 -72 -295 -77v-248h-153v256q-201 31 -318 170t-117 348zM414 518q0 -121 53 -203t154 -114v633 q-98 -33 -152.5 -115t-54.5 -201z" />
<glyph unicode="&#xa3;" horiz-adv-x="1269" d="M129 0v205h199v446h-189v193h189v119q0 285 136 439t388 154q168 0 313 -69l-43 -205q-137 66 -266 66q-299 0 -299 -402v-102h420v-193h-420v-446h621v-205h-1049z" />
<glyph unicode="&#xa4;" horiz-adv-x="1269" d="M59 432l181 191q-57 104 -58 231q0 131 58 231l-181 191l152 137l166 -184q59 41 126.5 62.5t131.5 21.5q63 0 131 -22.5t127 -61.5l166 184l151 -137l-182 -191q59 -102 59 -231q0 -131 -59 -231l182 -191l-151 -137l-166 182q-59 -39 -127 -60.5t-131 -21.5 q-133 0 -258 82l-166 -182zM375 854q0 -125 72.5 -204t187.5 -79t187.5 79t72.5 204t-72.5 204t-187.5 79t-187.5 -79t-72.5 -204z" />
<glyph unicode="&#xa5;" horiz-adv-x="1269" d="M31 1524h264l344 -666l344 666h256l-405 -715h323v-170h-403v-168h403v-170h-403v-301h-230v301h-411v170h411v168h-411v170h321z" />
<glyph unicode="&#xa6;" horiz-adv-x="661" d="M219 446h223v-911h-223v911zM219 862v912h223v-912h-223z" />
<glyph unicode="&#xa7;" horiz-adv-x="1050" d="M100 627q0 117 58.5 200.5t165.5 122.5q-94 51 -137.5 117t-43.5 158q0 141 107.5 225t290.5 84q207 0 346 -82l-33 -184q-68 39 -149.5 60.5t-159.5 21.5q-88 0 -135.5 -31t-47.5 -88q0 -37 22 -63.5t71 -51t137 -57.5q193 -70 272.5 -155t79.5 -218q0 -111 -55 -192.5 t-158 -122.5q94 -51 138 -117t44 -158q0 -158 -116.5 -252t-315.5 -94q-106 0 -209.5 27.5t-169.5 75.5l31 190q82 -51 172 -78.5t178 -27.5q94 0 147.5 38.5t53.5 108.5q0 63 -50 102t-177 78q-186 55 -271.5 142.5t-85.5 220.5zM315 651q0 -84 58.5 -138t150.5 -54 q90 0 148.5 59.5t58.5 149.5q0 84 -59.5 138t-151.5 54q-88 0 -146.5 -59.5t-58.5 -149.5z" />
<glyph unicode="&#xa8;" horiz-adv-x="1024" d="M170 1413q0 57 37 93t94 36t94 -36t37 -93t-37 -93t-94 -36q-59 0 -95 36t-36 93zM592 1413q0 57 37 93t94 36t94 -36t37 -93t-37 -93t-94 -36q-59 0 -95 36t-36 93z" />
<glyph unicode="&#xa9;" horiz-adv-x="1630" d="M82 778q0 197 91 362t260 264t382 99q201 0 368 -91t266 -257t99 -377q0 -199 -92 -363.5t-260 -263t-381 -98.5q-199 0 -365.5 90t-267 257t-100.5 378zM244 778q0 -162 69.5 -292t200.5 -206.5t301 -76.5q160 0 290 70.5t207 201.5t77 303q0 162 -71 292t-202 207 t-301 77q-162 0 -291 -71t-204.5 -202t-75.5 -303zM453 778q0 113 49 202t140 140t210 51q59 0 119.5 -14t101.5 -37l-26 -170q-94 45 -187 45q-92 0 -150.5 -59t-58.5 -152q0 -94 60.5 -150t160.5 -56q45 0 85 8t106 35l27 -168q-105 -52 -236 -52q-184 0 -292.5 101.5 t-108.5 275.5z" />
<glyph unicode="&#xaa;" horiz-adv-x="948" d="M96 1186q0 96 44 180t122 137t172 53q139 0 223 -108l2 88h175v-700h-175l-2 88q-39 -53 -97 -82t-130 -29q-92 0 -168 47t-121 133t-45 193zM137 504v164h701v-164h-701zM287 1186q0 -90 50 -147.5t132 -57.5t134 57.5t52 147.5t-51 146.5t-131 56.5q-84 0 -135 -56.5 t-51 -146.5z" />
<glyph unicode="&#xab;" horiz-adv-x="1157" d="M61 526l301 445h263l-306 -445l306 -444h-263zM512 526l301 445h263l-306 -445l306 -444h-263z" />
<glyph unicode="&#xac;" horiz-adv-x="1269" d="M180 641v207h907v-518h-219v311h-688z" />
<glyph unicode="&#xad;" horiz-adv-x="890" d="M137 481v215h617v-215h-617z" />
<glyph unicode="&#xae;" horiz-adv-x="1040" d="M72 1241q0 119 56 220.5t159.5 163t232.5 61.5q121 0 223.5 -55.5t164 -158t61.5 -231.5q0 -121 -56.5 -221t-160 -161.5t-232.5 -61.5q-121 0 -222 56t-163.5 158.5t-62.5 229.5zM190 1241q0 -145 94.5 -240.5t235.5 -95.5q143 0 237.5 95.5t94.5 240.5t-94 240.5 t-238 95.5q-141 0 -235.5 -95.5t-94.5 -240.5zM356 1040v422h158q86 0 134 -38t48 -105q0 -86 -67 -127l90 -152h-125l-68 125h-59v-125h-111zM467 1262h43q39 0 55.5 12t16.5 41q0 51 -72 51h-43v-104z" />
<glyph unicode="&#xaf;" horiz-adv-x="1024" d="M188 1309v178h648v-178h-648z" />
<glyph unicode="&#xb0;" horiz-adv-x="1013" d="M143 1227q0 96 46.5 178t130 132t188.5 50q98 0 180 -45t132 -128t50 -187q0 -94 -46 -176t-130 -132.5t-186 -50.5q-98 0 -181 45t-133.5 127t-50.5 187zM330 1227q0 -82 49 -134.5t129 -52.5q78 0 128 52.5t50 134.5q0 84 -50 137t-128 53t-128 -53t-50 -137z" />
<glyph unicode="&#xb1;" horiz-adv-x="1269" d="M162 2v206h946v-206h-946zM162 731v202h364v392h217v-392h365v-202h-365v-391h-217v391h-364z" />
<glyph unicode="&#xb2;" d="M94 934v158q125 96 232 198q86 82 119.5 135.5t33.5 106.5q0 47 -35.5 74.5t-93.5 27.5q-111 0 -215 -104l-35 152q45 49 121 78.5t158 29.5q125 0 204 -66.5t79 -175.5q0 -170 -211 -354q-33 -29 -123 -102h362v-158h-596z" />
<glyph unicode="&#xb3;" d="M90 969l16 153q45 -27 102.5 -41t117.5 -14q84 0 129 35t45 94q0 53 -44 84t-118 31q-39 0 -80 -12l-41 94l221 223h-327v154h538v-146l-192 -192q102 -12 161.5 -78t59.5 -164q0 -125 -96 -200.5t-254 -75.5q-70 0 -132.5 14t-105.5 41z" />
<glyph unicode="&#xb4;" horiz-adv-x="1024" d="M313 1249l217 338h268l-276 -338h-209z" />
<glyph unicode="&#xb5;" horiz-adv-x="1261" d="M166 -502v1536h235v-592q0 -139 50.5 -202.5t162.5 -63.5q115 0 180.5 79t65.5 216v563h236v-1034h-226l-4 131q-37 -72 -115.5 -118t-164.5 -46q-125 0 -185 64v-533h-235z" />
<glyph unicode="&#xb6;" horiz-adv-x="1294" d="M70 1133q0 201 137 312t387 111h530v-1822h-215v1632h-188v-1632h-215v979q-209 18 -322.5 127.5t-113.5 292.5z" />
<glyph unicode="&#xb7;" horiz-adv-x="604" d="M145 776q0 66 45.5 109t112.5 43q68 0 112 -43t44 -109t-44 -109.5t-112 -43.5q-70 0 -114 44t-44 109z" />
<glyph unicode="&#xb8;" horiz-adv-x="1024" d="M282 -492l31 138q61 -31 143 -31q119 0 119 78q0 72 -123 71q-39 0 -75 -4l71 260h146l-41 -139q96 -8 151.5 -61t55.5 -135q0 -100 -78 -157.5t-211 -57.5q-49 0 -105.5 11t-83.5 27z" />
<glyph unicode="&#xb9;" d="M123 1645l270 125h166v-836h-184v645l-225 -102z" />
<glyph unicode="&#xba;" horiz-adv-x="942" d="M96 1186q0 160 106.5 265t268.5 105q102 0 187 -46t136.5 -131t51.5 -193q0 -102 -47 -187.5t-133 -135.5t-195 -50q-104 0 -189 46t-135.5 132t-50.5 195zM121 504v164h698v-164h-698zM287 1186q0 -90 50 -147.5t132 -57.5t134 57.5t52 147.5t-51 146.5t-131 56.5 q-84 0 -135 -56.5t-51 -146.5z" />
<glyph unicode="&#xbb;" horiz-adv-x="1157" d="M82 82l305 444l-305 445h262l301 -445l-301 -444h-262zM533 82l305 444l-305 445h262l301 -445l-301 -444h-262z" />
<glyph unicode="&#xbc;" horiz-adv-x="1918" d="M123 1399l270 125h166v-836h-184v645l-225 -102zM313 0l1112 1524h222l-1112 -1524h-222zM1179 180v146l381 510h184v-508h105v-148h-105v-180h-165v180h-400zM1355 328h224v299z" />
<glyph unicode="&#xbd;" horiz-adv-x="1918" d="M123 1399l270 125h166v-836h-184v645l-225 -102zM256 0l1112 1524h222l-1112 -1524h-222zM1222 0v158q125 96 232 198q86 82 119.5 135.5t33.5 106.5q0 47 -35.5 74.5t-93.5 27.5q-111 0 -215 -104l-35 152q45 49 121 78.5t158 29.5q125 0 204 -66.5t79 -175.5 q0 -170 -211 -354q-33 -29 -123 -102h362v-158h-596z" />
<glyph unicode="&#xbe;" horiz-adv-x="1918" d="M90 723l16 153q45 -27 102.5 -41t117.5 -14q84 0 129 35t45 94q0 53 -44 84t-118 31q-39 0 -80 -12l-41 94l221 223h-327v154h538v-146l-192 -192q102 -12 161.5 -78t59.5 -164q0 -125 -96 -200.5t-254 -75.5q-70 0 -132.5 14t-105.5 41zM356 0l1112 1524h222 l-1112 -1524h-222zM1179 180v146l381 510h184v-508h105v-148h-105v-180h-165v180h-400zM1355 328h224v299z" />
<glyph unicode="&#xbf;" horiz-adv-x="1003" d="M68 -213q0 86 28.5 150.5t72.5 118t94 100.5t94 96t73 108.5t29 135.5v28h213q6 -31 6 -65q0 -92 -26.5 -162t-67.5 -123t-87 -97t-87 -85t-68 -88t-27 -105q0 -90 62.5 -141t171.5 -51q98 0 191.5 47t170.5 135l58 -199q-70 -88 -193 -140t-262 -52q-199 0 -322.5 107.5 t-123.5 281.5zM412 893q0 66 43.5 110t111.5 44q70 0 114 -44.5t44 -109.5q0 -66 -45 -109t-113 -43t-111.5 43t-43.5 109z" />
<glyph unicode="&#xc0;" horiz-adv-x="1622" d="M49 0l625 1556h274l625 -1556h-273l-163 436h-664l-164 -436h-260zM469 1991h295l231 -281h-231zM549 639h510l-256 680z" />
<glyph unicode="&#xc1;" horiz-adv-x="1622" d="M49 0l625 1556h274l625 -1556h-273l-163 436h-664l-164 -436h-260zM549 639h510l-256 680zM627 1710l229 281h295l-293 -281h-231z" />
<glyph unicode="&#xc2;" horiz-adv-x="1622" d="M49 0l625 1556h274l625 -1556h-273l-163 436h-664l-164 -436h-260zM408 1710l288 301h230l288 -301h-245l-158 166l-158 -166h-245zM549 639h510l-256 680z" />
<glyph unicode="&#xc3;" horiz-adv-x="1622" d="M49 0l625 1556h274l625 -1556h-273l-163 436h-664l-164 -436h-260zM444 1708v14q2 141 57.5 215t159.5 74q55 0 95.5 -19.5t71 -44t58 -44t58.5 -19.5q35 0 50.5 29t15.5 94h170v-14q-4 -141 -59.5 -214t-157.5 -73q-55 0 -96.5 19.5t-72 44t-58 44t-56.5 19.5 q-35 0 -51.5 -29.5t-16.5 -95.5h-168zM549 639h510l-256 680z" />
<glyph unicode="&#xc4;" horiz-adv-x="1622" d="M49 0l625 1556h274l625 -1556h-273l-163 436h-664l-164 -436h-260zM463 1835q0 59 37 96t96 37q57 0 95 -37t38 -96q0 -55 -38 -92t-95 -37q-59 0 -96 36t-37 93zM549 639h510l-256 680zM893 1835q0 57 37 95t94 38q59 0 97 -37t38 -96q0 -55 -38 -92t-97 -37 q-57 0 -94 36t-37 93z" />
<glyph unicode="&#xc5;" horiz-adv-x="1622" d="M49 0l625 1556h274l625 -1556h-273l-163 436h-664l-164 -436h-260zM532 1939q0 113 80 189t199 76t199 -76t80 -189q0 -115 -80 -190.5t-199 -75.5t-199 76t-80 190zM549 639h510l-256 680zM680 1939q0 -59 36 -95t95 -36t95 36t36 95t-36 94t-95 35t-95 -34.5t-36 -94.5 z" />
<glyph unicode="&#xc6;" horiz-adv-x="2252" d="M18 0l961 1556h1102v-215h-752v-440h670v-215h-670v-471h782v-215h-1028v436h-532l-258 -436h-275zM672 639h411v690z" />
<glyph unicode="&#xc7;" horiz-adv-x="1564" d="M106 768q0 231 103.5 414.5t295 290t441.5 106.5q127 0 257 -35t224 -92l-43 -221q-127 61 -232 90t-212 29q-164 0 -292 -70t-201.5 -201t-73.5 -303q0 -170 68.5 -298t198.5 -199.5t306 -71.5q109 0 231.5 30.5t235.5 86.5l27 -224q-233 -123 -512 -123 q-236 0 -421 96.5t-293 276.5t-108 418zM616 -492l31 142q57 -29 139 -29q115 0 115 72q0 68 -117 67q-57 0 -77 -6l71 266h154l-41 -139q92 -6 148.5 -59t56.5 -135q0 -102 -79 -159.5t-218 -57.5q-45 0 -98.5 11t-84.5 27z" />
<glyph unicode="&#xc8;" horiz-adv-x="1368" d="M199 0v1556h997v-215h-752v-440h670v-215h-670v-471h783v-215h-1028zM369 1991h295l231 -281h-231z" />
<glyph unicode="&#xc9;" horiz-adv-x="1368" d="M199 0v1556h997v-215h-752v-440h670v-215h-670v-471h783v-215h-1028zM527 1710l229 281h295l-293 -281h-231z" />
<glyph unicode="&#xca;" horiz-adv-x="1368" d="M199 0v1556h997v-215h-752v-440h670v-215h-670v-471h783v-215h-1028zM308 1710l288 301h230l288 -301h-245l-158 166l-158 -166h-245z" />
<glyph unicode="&#xcb;" horiz-adv-x="1368" d="M199 0v1556h997v-215h-752v-440h670v-215h-670v-471h783v-215h-1028zM363 1835q0 59 37 96t96 37q57 0 95 -37t38 -96q0 -55 -38 -92t-95 -37q-59 0 -96 36t-37 93zM793 1835q0 57 37 95t94 38q59 0 97 -37t38 -96q0 -55 -38 -92t-97 -37q-57 0 -94 36t-37 93z" />
<glyph unicode="&#xcc;" horiz-adv-x="653" d="M-14 1991h295l231 -281h-231zM199 0v1556h256v-1556h-256z" />
<glyph unicode="&#xcd;" horiz-adv-x="653" d="M144 1710l229 281h295l-293 -281h-231zM199 0v1556h256v-1556h-256z" />
<glyph unicode="&#xce;" horiz-adv-x="653" d="M-75 1710l288 301h230l288 -301h-245l-158 166l-158 -166h-245zM199 0v1556h256v-1556h-256z" />
<glyph unicode="&#xcf;" horiz-adv-x="653" d="M-20 1835q0 59 37 96t96 37q57 0 95 -37t38 -96q0 -55 -38 -92t-95 -37q-59 0 -96 36t-37 93zM199 0v1556h256v-1556h-256zM410 1835q0 57 37 95t94 38q59 0 97 -37t38 -96q0 -55 -38 -92t-97 -37q-57 0 -94 36t-37 93z" />
<glyph unicode="&#xd0;" horiz-adv-x="1736" d="M10 692v185h199v679h584q256 0 444 -91t290.5 -266t102.5 -419q0 -371 -227 -575.5t-641 -204.5h-553v692h-199zM465 211h297q602 0 602 567t-600 568h-299v-469h362v-185h-362v-481z" />
<glyph unicode="&#xd1;" horiz-adv-x="1761" d="M199 0v1556h235l893 -1185v1185h236v-1556h-234l-895 1184v-1184h-235zM497 1708v14q2 141 57.5 215t159.5 74q55 0 95.5 -19.5t71 -44t58 -44t58.5 -19.5q35 0 50.5 29t15.5 94h170v-14q-4 -141 -59.5 -214t-157.5 -73q-55 0 -96.5 19.5t-72 44t-58 44t-56.5 19.5 q-35 0 -51.5 -29.5t-16.5 -95.5h-168z" />
<glyph unicode="&#xd2;" horiz-adv-x="1837" d="M106 778q0 217 102.5 401.5t289 297t420.5 112.5q223 0 407 -101.5t295 -287.5t111 -422q0 -217 -102.5 -401t-290 -297t-420.5 -113q-221 0 -405.5 101.5t-295.5 288t-111 421.5zM373 778q0 -162 67.5 -294t192.5 -209.5t285 -77.5q152 0 275.5 71.5t197 204.5t73.5 305 q0 162 -67.5 294t-193.5 210t-285 78q-152 0 -276 -73t-196.5 -206t-72.5 -303zM576 1991h295l231 -281h-231z" />
<glyph unicode="&#xd3;" horiz-adv-x="1837" d="M106 778q0 217 102.5 401.5t289 297t420.5 112.5q223 0 407 -101.5t295 -287.5t111 -422q0 -217 -102.5 -401t-290 -297t-420.5 -113q-221 0 -405.5 101.5t-295.5 288t-111 421.5zM373 778q0 -162 67.5 -294t192.5 -209.5t285 -77.5q152 0 275.5 71.5t197 204.5t73.5 305 q0 162 -67.5 294t-193.5 210t-285 78q-152 0 -276 -73t-196.5 -206t-72.5 -303zM734 1710l229 281h295l-293 -281h-231z" />
<glyph unicode="&#xd4;" horiz-adv-x="1837" d="M106 778q0 217 102.5 401.5t289 297t420.5 112.5q223 0 407 -101.5t295 -287.5t111 -422q0 -217 -102.5 -401t-290 -297t-420.5 -113q-221 0 -405.5 101.5t-295.5 288t-111 421.5zM373 778q0 -162 67.5 -294t192.5 -209.5t285 -77.5q152 0 275.5 71.5t197 204.5t73.5 305 q0 162 -67.5 294t-193.5 210t-285 78q-152 0 -276 -73t-196.5 -206t-72.5 -303zM515 1710l288 301h230l288 -301h-245l-158 166l-158 -166h-245z" />
<glyph unicode="&#xd5;" horiz-adv-x="1837" d="M106 778q0 217 102.5 401.5t289 297t420.5 112.5q223 0 407 -101.5t295 -287.5t111 -422q0 -217 -102.5 -401t-290 -297t-420.5 -113q-221 0 -405.5 101.5t-295.5 288t-111 421.5zM373 778q0 -162 67.5 -294t192.5 -209.5t285 -77.5q152 0 275.5 71.5t197 204.5t73.5 305 q0 162 -67.5 294t-193.5 210t-285 78q-152 0 -276 -73t-196.5 -206t-72.5 -303zM551 1708v14q2 141 57.5 215t159.5 74q55 0 95.5 -19.5t71 -44t58 -44t58.5 -19.5q35 0 50.5 29t15.5 94h170v-14q-4 -141 -59.5 -214t-157.5 -73q-55 0 -96.5 19.5t-72 44t-58 44t-56.5 19.5 q-35 0 -51.5 -29.5t-16.5 -95.5h-168z" />
<glyph unicode="&#xd6;" horiz-adv-x="1837" d="M106 778q0 217 102.5 401.5t289 297t420.5 112.5q223 0 407 -101.5t295 -287.5t111 -422q0 -217 -102.5 -401t-290 -297t-420.5 -113q-221 0 -405.5 101.5t-295.5 288t-111 421.5zM373 778q0 -162 67.5 -294t192.5 -209.5t285 -77.5q152 0 275.5 71.5t197 204.5t73.5 305 q0 162 -67.5 294t-193.5 210t-285 78q-152 0 -276 -73t-196.5 -206t-72.5 -303zM570 1835q0 59 37 96t96 37q57 0 95 -37t38 -96q0 -55 -38 -92t-95 -37q-59 0 -96 36t-37 93zM1000 1835q0 57 37 95t94 38q59 0 97 -37t38 -96q0 -55 -38 -92t-97 -37q-57 0 -94 36t-37 93z " />
<glyph unicode="&#xd7;" horiz-adv-x="1269" d="M199 393l293 293l-293 293l145 145l293 -293l291 293l139 -137l-293 -293l295 -295l-145 -145l-295 295l-291 -293z" />
<glyph unicode="&#xd8;" horiz-adv-x="1837" d="M100 88l179 178q-84 104 -128.5 235.5t-44.5 276.5q0 217 102.5 401.5t289 297t420.5 112.5q141 0 272 -43t237 -127l181 183l129 -129l-181 -181q86 -109 130.5 -239.5t44.5 -274.5q0 -217 -102.5 -401t-290 -297t-420.5 -113q-143 0 -274.5 43t-235.5 127l-179 -178z M373 778q0 -188 86 -329l794 796q-150 115 -335 115q-152 0 -276 -73t-196.5 -206t-72.5 -303zM580 311q143 -114 338 -114q152 0 275.5 71.5t197 204.5t73.5 305q0 184 -88 332z" />
<glyph unicode="&#xd9;" horiz-adv-x="1726" d="M188 649v907h256v-886q0 -236 105.5 -354.5t312.5 -118.5t313.5 118.5t106.5 354.5v886h256v-907q0 -324 -178 -503t-502 -179q-317 0 -493.5 179.5t-176.5 502.5zM520 1991h295l231 -281h-231z" />
<glyph unicode="&#xda;" horiz-adv-x="1726" d="M188 649v907h256v-886q0 -236 105.5 -354.5t312.5 -118.5t313.5 118.5t106.5 354.5v886h256v-907q0 -324 -178 -503t-502 -179q-317 0 -493.5 179.5t-176.5 502.5zM678 1710l229 281h295l-293 -281h-231z" />
<glyph unicode="&#xdb;" horiz-adv-x="1726" d="M188 649v907h256v-886q0 -236 105.5 -354.5t312.5 -118.5t313.5 118.5t106.5 354.5v886h256v-907q0 -324 -178 -503t-502 -179q-317 0 -493.5 179.5t-176.5 502.5zM459 1710l288 301h230l288 -301h-245l-158 166l-158 -166h-245z" />
<glyph unicode="&#xdc;" horiz-adv-x="1726" d="M188 649v907h256v-886q0 -236 105.5 -354.5t312.5 -118.5t313.5 118.5t106.5 354.5v886h256v-907q0 -324 -178 -503t-502 -179q-317 0 -493.5 179.5t-176.5 502.5zM514 1835q0 59 37 96t96 37q57 0 95 -37t38 -96q0 -55 -38 -92t-95 -37q-59 0 -96 36t-37 93zM944 1835 q0 57 37 95t94 38q59 0 97 -37t38 -96q0 -55 -38 -92t-97 -37q-57 0 -94 36t-37 93z" />
<glyph unicode="&#xdd;" horiz-adv-x="1464" d="M27 1556h284l426 -698l428 698h273l-580 -899v-657h-256v659zM547 1710l229 281h295l-293 -281h-231z" />
<glyph unicode="&#xde;" horiz-adv-x="1316" d="M199 0v1556h245v-258h238q162 0 287 -60t195.5 -173t70.5 -264q0 -147 -67.5 -261t-193.5 -178.5t-294 -64.5h-236v-297h-245zM444 506h199q168 0 254 74.5t86 218.5q0 143 -87 217t-253 74h-199v-584z" />
<glyph unicode="&#xdf;" horiz-adv-x="1355" d="M166 0v1126q0 254 137 398.5t375 144.5q139 0 247.5 -51t170 -148.5t61.5 -226.5q0 -123 -57.5 -219t-159.5 -141q150 -35 237 -152t87 -285q0 -139 -59.5 -247.5t-172 -170t-262.5 -61.5q-162 0 -266 64l28 190q43 -27 101.5 -42t111.5 -15q127 0 206 83t79 216 q0 135 -91 216t-247 81h-90v192h64q121 0 191.5 72t70.5 197q0 115 -67.5 180t-184.5 65q-131 0 -203 -95t-72 -265v-1106h-235z" />
<glyph unicode="&#xe0;" horiz-adv-x="1351" d="M100 516q0 147 63.5 272t179.5 202t259 77q115 0 207 -46t145 -130l4 143h228v-1034h-228l-4 141q-112 -174 -362 -174q-139 0 -251 67.5t-176.5 192.5t-64.5 289zM338 518q0 -150 87 -245t226 -95t226.5 95.5t87.5 244.5q0 150 -88.5 244t-225.5 94t-225 -94t-88 -244z M367 1587h268l219 -338h-209z" />
<glyph unicode="&#xe1;" horiz-adv-x="1351" d="M100 516q0 147 63.5 272t179.5 202t259 77q115 0 207 -46t145 -130l4 143h228v-1034h-228l-4 141q-112 -174 -362 -174q-139 0 -251 67.5t-176.5 192.5t-64.5 289zM338 518q0 -150 87 -245t226 -95t226.5 95.5t87.5 244.5q0 150 -88.5 244t-225.5 94t-225 -94t-88 -244z M508 1249l217 338h268l-276 -338h-209z" />
<glyph unicode="&#xe2;" horiz-adv-x="1351" d="M100 516q0 147 63.5 272t179.5 202t259 77q115 0 207 -46t145 -130l4 143h228v-1034h-228l-4 141q-112 -174 -362 -174q-139 0 -251 67.5t-176.5 192.5t-64.5 289zM295 1249l285 338h200l285 -338h-219l-166 197l-166 -197h-219zM338 518q0 -150 87 -245t226 -95 t226.5 95.5t87.5 244.5q0 150 -88.5 244t-225.5 94t-225 -94t-88 -244z" />
<glyph unicode="&#xe3;" horiz-adv-x="1351" d="M100 516q0 147 63.5 272t179.5 202t259 77q115 0 207 -46t145 -130l4 143h228v-1034h-228l-4 141q-112 -174 -362 -174q-139 0 -251 67.5t-176.5 192.5t-64.5 289zM315 1266v22q2 133 57.5 205t153.5 72q59 0 101.5 -19.5t73 -43t57 -43t57.5 -19.5q35 0 50.5 28.5 t15.5 94.5h166v-23q-2 -133 -57.5 -204.5t-153.5 -71.5q-59 0 -101.5 19.5t-73 43t-57 43t-57.5 19.5q-35 0 -50.5 -29t-15.5 -94h-166zM338 518q0 -150 87 -245t226 -95t226.5 95.5t87.5 244.5q0 150 -88.5 244t-225.5 94t-225 -94t-88 -244z" />
<glyph unicode="&#xe4;" horiz-adv-x="1351" d="M100 516q0 147 63.5 272t179.5 202t259 77q115 0 207 -46t145 -130l4 143h228v-1034h-228l-4 141q-112 -174 -362 -174q-139 0 -251 67.5t-176.5 192.5t-64.5 289zM338 518q0 -150 87 -245t226 -95t226.5 95.5t87.5 244.5q0 150 -88.5 244t-225.5 94t-225 -94t-88 -244z M338 1413q0 57 37 93t94 36t94 -36t37 -93t-37 -93t-94 -36q-59 0 -95 36t-36 93zM760 1413q0 57 37 93t94 36t94 -36t37 -93t-37 -93t-94 -36q-59 0 -95 36t-36 93z" />
<glyph unicode="&#xe5;" horiz-adv-x="1351" d="M100 516q0 147 63.5 272t179.5 202t259 77q115 0 207 -46t145 -130l4 143h228v-1034h-228l-4 141q-112 -174 -362 -174q-139 0 -251 67.5t-176.5 192.5t-64.5 289zM338 518q0 -150 87 -245t226 -95t226.5 95.5t87.5 244.5q0 150 -88.5 244t-225.5 94t-225 -94t-88 -244z M399 1456q0 115 81 190.5t200 75.5t200 -75.5t81 -190.5t-81 -190.5t-200 -75.5t-200 75.5t-81 190.5zM553 1456q0 -55 35 -91t92 -36t92 36t35 91q0 57 -35 92t-92 35t-92 -35t-35 -92z" />
<glyph unicode="&#xe6;" horiz-adv-x="2062" d="M100 516q0 147 63.5 272t179.5 202t261 77q106 0 195.5 -42t142.5 -116l4 125h199l2 -119q51 72 138 112t194 40q135 0 240.5 -61.5t166 -178t60.5 -270.5q0 -84 -9 -119h-761q23 -133 120 -205.5t254 -72.5q182 0 348 80l25 -185q-68 -39 -172 -63.5t-203 -24.5 q-127 0 -233.5 43t-167.5 121l-2 -131h-199l-4 125q-114 -158 -358 -158q-135 0 -245 67.5t-174.5 192.5t-64.5 289zM338 518q0 -150 87 -245t226 -95t226.5 95.5t87.5 244.5q0 150 -88.5 244t-225.5 94t-225 -94t-88 -244zM1174 616h542q-8 127 -75.5 197t-186.5 70 q-117 0 -190.5 -70t-89.5 -197z" />
<glyph unicode="&#xe7;" horiz-adv-x="1105" d="M100 512q0 158 70 282t198 195.5t298 71.5q86 0 171 -20.5t150 -55.5l-31 -201q-59 33 -132.5 50.5t-143.5 17.5q-156 0 -249 -91t-93 -243q0 -158 94 -247t258 -89q131 0 287 66l27 -195q-66 -37 -154 -58.5t-182 -21.5q-168 0 -296 64.5t-200 186.5t-72 288zM385 -492 l31 138q61 -31 143 -31q119 0 119 78q0 72 -123 71q-39 0 -75 -4l71 260h146l-41 -139q96 -8 151.5 -61t55.5 -135q0 -100 -78 -157.5t-211 -57.5q-49 0 -105.5 11t-83.5 27z" />
<glyph unicode="&#xe8;" horiz-adv-x="1222" d="M100 514q0 158 64.5 283t183.5 197.5t275 72.5q141 0 250.5 -61.5t171 -178t61.5 -272.5q0 -78 -8 -117h-762q23 -133 120 -205.5t255 -72.5q184 0 348 80l24 -185q-76 -41 -180 -64.5t-213 -23.5q-176 0 -309 64.5t-207 189.5t-74 293zM299 1587h268l219 -338h-209z M334 616h543q-8 127 -76 197t-187 70q-117 0 -190.5 -70t-89.5 -197z" />
<glyph unicode="&#xe9;" horiz-adv-x="1222" d="M100 514q0 158 64.5 283t183.5 197.5t275 72.5q141 0 250.5 -61.5t171 -178t61.5 -272.5q0 -78 -8 -117h-762q23 -133 120 -205.5t255 -72.5q184 0 348 80l24 -185q-76 -41 -180 -64.5t-213 -23.5q-176 0 -309 64.5t-207 189.5t-74 293zM334 616h543q-8 127 -76 197 t-187 70q-117 0 -190.5 -70t-89.5 -197zM440 1249l217 338h268l-276 -338h-209z" />
<glyph unicode="&#xea;" horiz-adv-x="1222" d="M100 514q0 158 64.5 283t183.5 197.5t275 72.5q141 0 250.5 -61.5t171 -178t61.5 -272.5q0 -78 -8 -117h-762q23 -133 120 -205.5t255 -72.5q184 0 348 80l24 -185q-76 -41 -180 -64.5t-213 -23.5q-176 0 -309 64.5t-207 189.5t-74 293zM227 1249l285 338h200l285 -338 h-219l-166 197l-166 -197h-219zM334 616h543q-8 127 -76 197t-187 70q-117 0 -190.5 -70t-89.5 -197z" />
<glyph unicode="&#xeb;" horiz-adv-x="1222" d="M100 514q0 158 64.5 283t183.5 197.5t275 72.5q141 0 250.5 -61.5t171 -178t61.5 -272.5q0 -78 -8 -117h-762q23 -133 120 -205.5t255 -72.5q184 0 348 80l24 -185q-76 -41 -180 -64.5t-213 -23.5q-176 0 -309 64.5t-207 189.5t-74 293zM270 1413q0 57 37 93t94 36 t94 -36t37 -93t-37 -93t-94 -36q-59 0 -95 36t-36 93zM334 616h543q-8 127 -76 197t-187 70q-117 0 -190.5 -70t-89.5 -197zM692 1413q0 57 37 93t94 36t94 -36t37 -93t-37 -93t-94 -36q-59 0 -95 36t-36 93z" />
<glyph unicode="&#xec;" horiz-adv-x="567" d="M-30 1587h268l219 -338h-209zM166 0v1034h235v-1034h-235z" />
<glyph unicode="&#xed;" horiz-adv-x="567" d="M111 1249l217 338h268l-276 -338h-209zM166 0v1034h235v-1034h-235z" />
<glyph unicode="&#xee;" horiz-adv-x="567" d="M-102 1249l285 338h200l285 -338h-219l-166 197l-166 -197h-219zM166 0v1034h235v-1034h-235z" />
<glyph unicode="&#xef;" horiz-adv-x="567" d="M-59 1413q0 57 37 93t94 36t94 -36t37 -93t-37 -93t-94 -36q-59 0 -95 36t-36 93zM166 0v1034h235v-1034h-235zM363 1413q0 57 37 93t94 36t94 -36t37 -93t-37 -93t-94 -36q-59 0 -95 36t-36 93z" />
<glyph unicode="&#xf0;" horiz-adv-x="1302" d="M100 514q0 145 66.5 271t187.5 205t269 79q76 0 144.5 -27.5t117.5 -76.5q-84 184 -201 327l-332 -159l-71 151l290 139q-96 102 -233 215l276 17q100 -84 150 -137l244 116l71 -151l-200 -97q150 -190 231.5 -404t81.5 -413q0 -180 -64.5 -315t-187.5 -211t-291 -76 q-156 0 -279.5 66.5t-196.5 191.5t-73 289zM338 516q0 -150 88 -244t225 -94t225.5 94.5t88.5 243.5q0 150 -88.5 245t-225.5 95t-225 -95t-88 -245z" />
<glyph unicode="&#xf1;" horiz-adv-x="1259" d="M166 0v1034h225l2 -133q43 80 127 123t195 43q186 0 285.5 -113.5t99.5 -326.5v-627h-236v584q0 139 -52 206.5t-161 67.5q-119 0 -184.5 -78t-65.5 -217v-563h-235zM268 1266v22q2 133 57.5 205t153.5 72q59 0 101.5 -19.5t73 -43t57 -43t57.5 -19.5q35 0 50.5 28.5 t15.5 94.5h166v-23q-2 -133 -57.5 -204.5t-153.5 -71.5q-59 0 -101.5 19.5t-73 43t-57 43t-57.5 19.5q-35 0 -50.5 -29t-15.5 -94h-166z" />
<glyph unicode="&#xf2;" horiz-adv-x="1302" d="M100 518q0 147 70 272t197 201t284 76q152 0 277 -68.5t199.5 -194.5t74.5 -286q0 -150 -69.5 -274.5t-196.5 -200.5t-285 -76q-152 0 -276.5 68.5t-199.5 195.5t-75 287zM338 518q0 -150 87 -245t226 -95t226.5 95.5t87.5 244.5q0 150 -88.5 244t-225.5 94t-225 -94 t-88 -244zM338 1587h268l219 -338h-209z" />
<glyph unicode="&#xf3;" horiz-adv-x="1302" d="M100 518q0 147 70 272t197 201t284 76q152 0 277 -68.5t199.5 -194.5t74.5 -286q0 -150 -69.5 -274.5t-196.5 -200.5t-285 -76q-152 0 -276.5 68.5t-199.5 195.5t-75 287zM338 518q0 -150 87 -245t226 -95t226.5 95.5t87.5 244.5q0 150 -88.5 244t-225.5 94t-225 -94 t-88 -244zM479 1249l217 338h268l-276 -338h-209z" />
<glyph unicode="&#xf4;" horiz-adv-x="1302" d="M100 518q0 147 70 272t197 201t284 76q152 0 277 -68.5t199.5 -194.5t74.5 -286q0 -150 -69.5 -274.5t-196.5 -200.5t-285 -76q-152 0 -276.5 68.5t-199.5 195.5t-75 287zM266 1249l285 338h200l285 -338h-219l-166 197l-166 -197h-219zM338 518q0 -150 87 -245t226 -95 t226.5 95.5t87.5 244.5q0 150 -88.5 244t-225.5 94t-225 -94t-88 -244z" />
<glyph unicode="&#xf5;" horiz-adv-x="1302" d="M100 518q0 147 70 272t197 201t284 76q152 0 277 -68.5t199.5 -194.5t74.5 -286q0 -150 -69.5 -274.5t-196.5 -200.5t-285 -76q-152 0 -276.5 68.5t-199.5 195.5t-75 287zM286 1266v22q2 133 57.5 205t153.5 72q59 0 101.5 -19.5t73 -43t57 -43t57.5 -19.5 q35 0 50.5 28.5t15.5 94.5h166v-23q-2 -133 -57.5 -204.5t-153.5 -71.5q-59 0 -101.5 19.5t-73 43t-57 43t-57.5 19.5q-35 0 -50.5 -29t-15.5 -94h-166zM338 518q0 -150 87 -245t226 -95t226.5 95.5t87.5 244.5q0 150 -88.5 244t-225.5 94t-225 -94t-88 -244z" />
<glyph unicode="&#xf6;" horiz-adv-x="1302" d="M100 518q0 147 70 272t197 201t284 76q152 0 277 -68.5t199.5 -194.5t74.5 -286q0 -150 -69.5 -274.5t-196.5 -200.5t-285 -76q-152 0 -276.5 68.5t-199.5 195.5t-75 287zM309 1413q0 57 37 93t94 36t94 -36t37 -93t-37 -93t-94 -36q-59 0 -95 36t-36 93zM338 518 q0 -150 87 -245t226 -95t226.5 95.5t87.5 244.5q0 150 -88.5 244t-225.5 94t-225 -94t-88 -244zM731 1413q0 57 37 93t94 36t94 -36t37 -93t-37 -93t-94 -36q-59 0 -95 36t-36 93z" />
<glyph unicode="&#xf7;" horiz-adv-x="1269" d="M162 586v198h946v-198h-946zM496 301q0 55 39.5 94t99.5 39q59 0 98 -39t39 -94t-39 -94t-98 -39t-99 39t-40 94zM496 1069q0 55 39.5 94t99.5 39q59 0 98 -39t39 -94t-39 -94t-98 -39t-99 39t-40 94z" />
<glyph unicode="&#xf8;" horiz-adv-x="1302" d="M92 70l113 114q-104 143 -105 334q0 147 70 272t197 201t284 76q180 0 326 -98l113 114l120 -118l-112 -115q104 -145 104 -332q0 -150 -69.5 -274.5t-196.5 -200.5t-285 -76q-180 0 -325 99l-113 -115zM338 518q0 -100 33 -166l448 457q-72 47 -168 47q-137 0 -225 -94 t-88 -244zM481 225q76 -47 170 -47q139 0 226.5 95.5t87.5 244.5q0 88 -35 162z" />
<glyph unicode="&#xf9;" horiz-adv-x="1255" d="M160 385v649h235v-592q0 -141 50 -203t165 -63q115 0 180 78t64 217v563h236v-1034h-226l-4 131q-43 -78 -126 -121q-82 -43 -193 -43q-188 0 -285 107q-96 106 -96 311zM305 1587h268l219 -338h-209z" />
<glyph unicode="&#xfa;" horiz-adv-x="1255" d="M160 385v649h235v-592q0 -141 50 -203t165 -63q115 0 180 78t64 217v563h236v-1034h-226l-4 131q-43 -78 -126 -121q-82 -43 -193 -43q-188 0 -285 107q-96 106 -96 311zM446 1249l217 338h268l-276 -338h-209z" />
<glyph unicode="&#xfb;" horiz-adv-x="1255" d="M160 385v649h235v-592q0 -141 50 -203t165 -63q115 0 180 78t64 217v563h236v-1034h-226l-4 131q-43 -78 -126 -121q-82 -43 -193 -43q-188 0 -285 107q-96 106 -96 311zM233 1249l285 338h200l285 -338h-219l-166 197l-166 -197h-219z" />
<glyph unicode="&#xfc;" horiz-adv-x="1255" d="M160 385v649h235v-592q0 -141 50 -203t165 -63q115 0 180 78t64 217v563h236v-1034h-226l-4 131q-43 -78 -126 -121q-82 -43 -193 -43q-188 0 -285 107q-96 106 -96 311zM276 1413q0 57 37 93t94 36t94 -36t37 -93t-37 -93t-94 -36q-59 0 -95 36t-36 93zM698 1413 q0 57 37 93t94 36t94 -36t37 -93t-37 -93t-94 -36q-59 0 -95 36t-36 93z" />
<glyph unicode="&#xfd;" horiz-adv-x="1173" d="M37 1034h254l303 -706l291 706h252l-699 -1536h-250l283 582zM424 1249l217 338h268l-276 -338h-209z" />
<glyph unicode="&#xfe;" horiz-adv-x="1351" d="M166 -502v2161h235v-762q111 170 359 170q139 0 250.5 -67.5t176 -192.5t64.5 -289q0 -147 -63.5 -272t-179 -202t-258.5 -77q-115 0 -205 43t-144 125v-637h-235zM387 516q0 -150 88 -244t225 -94t225.5 94.5t88.5 243.5q0 150 -87 245t-227 95q-139 0 -226 -95 t-87 -245z" />
<glyph unicode="&#xff;" horiz-adv-x="1173" d="M37 1034h254l303 -706l291 706h252l-699 -1536h-250l283 582zM254 1413q0 57 37 93t94 36t94 -36t37 -93t-37 -93t-94 -36q-59 0 -95 36t-36 93zM676 1413q0 57 37 93t94 36t94 -36t37 -93t-37 -93t-94 -36q-59 0 -95 36t-36 93z" />
<glyph unicode="&#x100;" horiz-adv-x="1622" d="M49 0l625 1556h274l625 -1556h-273l-163 436h-664l-164 -436h-260zM485 1741v180h652v-180h-652zM549 639h510l-256 680z" />
<glyph unicode="&#x101;" horiz-adv-x="1351" d="M100 516q0 147 63.5 272t179.5 202t259 77q115 0 207 -46t145 -130l4 143h228v-1034h-228l-4 141q-112 -174 -362 -174q-139 0 -251 67.5t-176.5 192.5t-64.5 289zM338 518q0 -150 87 -245t226 -95t226.5 95.5t87.5 244.5q0 150 -88.5 244t-225.5 94t-225 -94t-88 -244z M356 1309v178h648v-178h-648z" />
<glyph unicode="&#x102;" horiz-adv-x="1622" d="M49 0l625 1556h274l625 -1556h-273l-163 436h-664l-164 -436h-260zM465 1978q0 18 2 25h176q0 -78 43 -120t125 -42t125 42t43 120h176q2 -6 2 -25q0 -137 -92 -216t-254 -79t-254 79t-92 216zM549 639h510l-256 680z" />
<glyph unicode="&#x103;" horiz-adv-x="1351" d="M100 516q0 147 63.5 272t179.5 202t259 77q115 0 207 -46t145 -130l4 143h228v-1034h-228l-4 141q-112 -174 -362 -174q-139 0 -251 67.5t-176.5 192.5t-64.5 289zM338 518q0 -150 87 -245t226 -95t226.5 95.5t87.5 244.5q0 150 -88.5 244t-225.5 94t-225 -94t-88 -244z M346 1526q0 20 2 24h166q0 -178 166 -178t166 178h166q2 -4 2 -24q0 -143 -89 -225t-245 -82t-245 81.5t-89 225.5z" />
<glyph unicode="&#x104;" horiz-adv-x="1622" d="M49 0l625 1556h274l625 -1556h-273l-163 436h-664l-164 -436h-260zM549 639h510l-256 680zM1176 -324q0 102 76.5 205t216.5 185l104 -66q-96 -72 -148.5 -141.5t-52.5 -126.5q0 -74 86 -74q55 0 111 27l18 -168q-72 -41 -174 -41q-113 0 -175 53t-62 147z" />
<glyph unicode="&#x105;" horiz-adv-x="1351" d="M100 516q0 147 63.5 272t179.5 202t259 77q115 0 207 -46t145 -130l4 143h228v-1034h-228l-4 141q-112 -174 -362 -174q-139 0 -251 67.5t-176.5 192.5t-64.5 289zM338 518q0 -150 87 -245t226 -95t226.5 95.5t87.5 244.5q0 150 -88.5 244t-225.5 94t-225 -94t-88 -244z M791 -324q0 104 77.5 208t214.5 182l103 -66q-98 -72 -150.5 -141.5t-52.5 -126.5q0 -76 88 -76q61 0 113 27l18 -166q-72 -41 -174 -41q-113 0 -175 53t-62 147z" />
<glyph unicode="&#x106;" horiz-adv-x="1564" d="M106 768q0 231 103.5 414.5t295 290t441.5 106.5q127 0 257 -35t224 -92l-43 -221q-127 61 -232 90t-212 29q-164 0 -292 -70t-201.5 -201t-73.5 -303q0 -170 68.5 -298t198.5 -199.5t306 -71.5q109 0 231.5 30.5t235.5 86.5l27 -224q-233 -123 -512 -123 q-236 0 -421 96.5t-293 276.5t-108 418zM682 1710l229 281h295l-293 -281h-231z" />
<glyph unicode="&#x107;" horiz-adv-x="1105" d="M100 512q0 158 70 282t198 195.5t298 71.5q86 0 171 -20.5t150 -55.5l-31 -201q-59 33 -132.5 50.5t-143.5 17.5q-156 0 -249 -91t-93 -243q0 -158 94 -247t258 -89q131 0 287 66l27 -195q-66 -37 -154 -58.5t-182 -21.5q-168 0 -296 64.5t-200 186.5t-72 288zM434 1249 l217 338h268l-276 -338h-209z" />
<glyph unicode="&#x10a;" horiz-adv-x="1564" d="M106 768q0 231 103.5 414.5t295 290t441.5 106.5q127 0 257 -35t224 -92l-43 -221q-127 61 -232 90t-212 29q-164 0 -292 -70t-201.5 -201t-73.5 -303q0 -170 68.5 -298t198.5 -199.5t306 -71.5q109 0 231.5 30.5t235.5 86.5l27 -224q-233 -123 -512 -123 q-236 0 -421 96.5t-293 276.5t-108 418zM721 1841q0 66 39.5 106t105.5 40t106.5 -40t40.5 -106q0 -63 -40.5 -103t-106.5 -40t-105.5 39t-39.5 104z" />
<glyph unicode="&#x10b;" horiz-adv-x="1105" d="M100 512q0 158 70 282t198 195.5t298 71.5q86 0 171 -20.5t150 -55.5l-31 -201q-59 33 -132.5 50.5t-143.5 17.5q-156 0 -249 -91t-93 -243q0 -158 94 -247t258 -89q131 0 287 66l27 -195q-66 -37 -154 -58.5t-182 -21.5q-168 0 -296 64.5t-200 186.5t-72 288zM465 1415 q0 63 39 102t102 39t103 -38.5t40 -102.5q0 -61 -40 -100t-103 -39t-102 38t-39 101z" />
<glyph unicode="&#x10c;" horiz-adv-x="1564" d="M106 768q0 231 103.5 414.5t295 290t441.5 106.5q127 0 257 -35t224 -92l-43 -221q-127 61 -232 90t-212 29q-164 0 -292 -70t-201.5 -201t-73.5 -303q0 -170 68.5 -298t198.5 -199.5t306 -71.5q109 0 231.5 30.5t235.5 86.5l27 -224q-233 -123 -512 -123 q-236 0 -421 96.5t-293 276.5t-108 418zM463 2011h245l158 -168l158 168h245l-288 -301h-230z" />
<glyph unicode="&#x10d;" horiz-adv-x="1105" d="M100 512q0 158 70 282t198 195.5t298 71.5q86 0 171 -20.5t150 -55.5l-31 -201q-59 33 -132.5 50.5t-143.5 17.5q-156 0 -249 -91t-93 -243q0 -158 94 -247t258 -89q131 0 287 66l27 -195q-66 -37 -154 -58.5t-182 -21.5q-168 0 -296 64.5t-200 186.5t-72 288zM221 1587 h219l166 -198l166 198h219l-285 -338h-200z" />
<glyph unicode="&#x10e;" horiz-adv-x="1726" d="M199 0v1556h583q256 0 444.5 -91t291 -266t102.5 -419q0 -371 -227.5 -575.5t-640.5 -204.5h-553zM412 2011h245l158 -168l158 168h245l-288 -301h-230zM455 211h297q602 0 602 567t-600 568h-299v-1135z" />
<glyph unicode="&#x10f;" horiz-adv-x="1351" d="M100 516q0 147 63.5 272t179.5 202t259 77q113 0 204 -44t144 -126v762h236v-1659h-228l-4 141q-112 -174 -362 -174q-139 0 -251 67.5t-176.5 192.5t-64.5 289zM338 518q0 -150 87 -245t226 -95t226.5 95.5t87.5 244.5q0 150 -88.5 244t-225.5 94t-225 -94t-88 -244z M1323 1178l25 481h233l-102 -481h-156z" />
<glyph unicode="&#x110;" horiz-adv-x="1736" d="M10 692v185h199v679h584q256 0 444 -91t290.5 -266t102.5 -419q0 -371 -227 -575.5t-641 -204.5h-553v692h-199zM465 211h297q602 0 602 567t-600 568h-299v-469h362v-185h-362v-481z" />
<glyph unicode="&#x111;" horiz-adv-x="1351" d="M100 516q0 147 63.5 272t179.5 202t259 77q113 0 204 -44t144 -126v354h-325v168h325v240h236v-240h166v-168h-166v-1251h-228l-4 141q-112 -174 -362 -174q-139 0 -251 67.5t-176.5 192.5t-64.5 289zM338 518q0 -150 87 -245t226 -95t226.5 95.5t87.5 244.5 q0 150 -88.5 244t-225.5 94t-225 -94t-88 -244z" />
<glyph unicode="&#x112;" horiz-adv-x="1368" d="M199 0v1556h997v-215h-752v-440h670v-215h-670v-471h783v-215h-1028zM385 1741v180h652v-180h-652z" />
<glyph unicode="&#x113;" horiz-adv-x="1222" d="M100 514q0 158 64.5 283t183.5 197.5t275 72.5q141 0 250.5 -61.5t171 -178t61.5 -272.5q0 -78 -8 -117h-762q23 -133 120 -205.5t255 -72.5q184 0 348 80l24 -185q-76 -41 -180 -64.5t-213 -23.5q-176 0 -309 64.5t-207 189.5t-74 293zM288 1309v178h648v-178h-648z M334 616h543q-8 127 -76 197t-187 70q-117 0 -190.5 -70t-89.5 -197z" />
<glyph unicode="&#x116;" horiz-adv-x="1368" d="M199 0v1556h997v-215h-752v-440h670v-215h-670v-471h783v-215h-1028zM566 1841q0 66 39.5 106t105.5 40t106.5 -40t40.5 -106q0 -63 -40.5 -103t-106.5 -40t-105.5 39t-39.5 104z" />
<glyph unicode="&#x117;" horiz-adv-x="1222" d="M100 514q0 158 64.5 283t183.5 197.5t275 72.5q141 0 250.5 -61.5t171 -178t61.5 -272.5q0 -78 -8 -117h-762q23 -133 120 -205.5t255 -72.5q184 0 348 80l24 -185q-76 -41 -180 -64.5t-213 -23.5q-176 0 -309 64.5t-207 189.5t-74 293zM334 616h543q-8 127 -76 197 t-187 70q-117 0 -190.5 -70t-89.5 -197zM471 1415q0 63 39 102t102 39t103 -38.5t40 -102.5q0 -61 -40 -100t-103 -39t-102 38t-39 101z" />
<glyph unicode="&#x118;" horiz-adv-x="1368" d="M199 0v1556h997v-215h-752v-440h670v-215h-670v-471h783v-215h-1028zM830 -324q0 102 76.5 205t216.5 185l104 -66q-96 -72 -148.5 -141.5t-52.5 -126.5q0 -74 86 -74q55 0 111 27l18 -168q-72 -41 -174 -41q-113 0 -175 53t-62 147z" />
<glyph unicode="&#x119;" horiz-adv-x="1222" d="M100 514q0 158 64.5 283t183.5 197.5t275 72.5q141 0 250.5 -61.5t171 -178t61.5 -272.5q0 -78 -8 -117h-762q23 -133 120 -205.5t255 -72.5q184 0 348 80l24 -185q-76 -41 -180 -64.5t-213 -23.5q-176 0 -309 64.5t-207 189.5t-74 293zM334 616h543q-8 127 -76 197 t-187 70q-117 0 -190.5 -70t-89.5 -197zM623 -324q0 113 89 219.5t230 163.5l142 -4q-268 -180 -269 -323q0 -76 90 -76q66 0 111 27l21 -166q-66 -41 -175 -41q-115 0 -177 53t-62 147z" />
<glyph unicode="&#x11a;" horiz-adv-x="1368" d="M199 0v1556h997v-215h-752v-440h670v-215h-670v-471h783v-215h-1028zM308 2011h245l158 -168l158 168h245l-288 -301h-230z" />
<glyph unicode="&#x11b;" horiz-adv-x="1222" d="M100 514q0 158 64.5 283t183.5 197.5t275 72.5q141 0 250.5 -61.5t171 -178t61.5 -272.5q0 -78 -8 -117h-762q23 -133 120 -205.5t255 -72.5q184 0 348 80l24 -185q-76 -41 -180 -64.5t-213 -23.5q-176 0 -309 64.5t-207 189.5t-74 293zM227 1587h219l166 -198l166 198 h219l-285 -338h-200zM334 616h543q-8 127 -76 197t-187 70q-117 0 -190.5 -70t-89.5 -197z" />
<glyph unicode="&#x11e;" horiz-adv-x="1681" d="M106 766q0 236 104.5 419t300.5 288.5t454 105.5q141 0 278 -33t252 -92l-43 -225q-109 59 -239 90t-265 31q-168 0 -298 -70t-203.5 -201t-73.5 -305q0 -264 156.5 -417.5t424.5 -153.5q88 0 160 9t162 34v389h-328v213h582v-758q-271 -113 -588 -113q-242 0 -431 95.5 t-297 274.5t-108 419zM524 1978q0 18 2 25h176q0 -78 43 -120t125 -42t125 42t43 120h176q2 -6 2 -25q0 -137 -92 -216t-254 -79t-254 79t-92 216z" />
<glyph unicode="&#x11f;" horiz-adv-x="1351" d="M100 516q0 147 63.5 272t179.5 202t259 77q115 0 207 -46t145 -130l4 143h228v-966q0 -291 -144.5 -439.5t-429.5 -148.5q-104 0 -216.5 24.5t-176.5 59.5l27 217q68 -43 161 -67.5t189 -24.5q184 0 271 88t87 274v90q-113 -174 -362 -174q-139 0 -251 67.5t-176.5 192.5 t-64.5 289zM338 518q0 -150 87 -245t226 -95t226.5 95.5t87.5 244.5q0 150 -88.5 244t-225.5 94t-225 -94t-88 -244zM346 1526q0 20 2 24h166q0 -178 166 -178t166 178h166q2 -4 2 -24q0 -143 -89 -225t-245 -82t-245 81.5t-89 225.5z" />
<glyph unicode="&#x120;" horiz-adv-x="1681" d="M106 766q0 236 104.5 419t300.5 288.5t454 105.5q141 0 278 -33t252 -92l-43 -225q-109 59 -239 90t-265 31q-168 0 -298 -70t-203.5 -201t-73.5 -305q0 -264 156.5 -417.5t424.5 -153.5q88 0 160 9t162 34v389h-328v213h582v-758q-271 -113 -588 -113q-242 0 -431 95.5 t-297 274.5t-108 419zM725 1841q0 66 39.5 106t105.5 40t106.5 -40t40.5 -106q0 -63 -40.5 -103t-106.5 -40t-105.5 39t-39.5 104z" />
<glyph unicode="&#x121;" horiz-adv-x="1351" d="M100 516q0 147 63.5 272t179.5 202t259 77q115 0 207 -46t145 -130l4 143h228v-966q0 -291 -144.5 -439.5t-429.5 -148.5q-104 0 -216.5 24.5t-176.5 59.5l27 217q68 -43 161 -67.5t189 -24.5q184 0 271 88t87 274v90q-113 -174 -362 -174q-139 0 -251 67.5t-176.5 192.5 t-64.5 289zM338 518q0 -150 87 -245t226 -95t226.5 95.5t87.5 244.5q0 150 -88.5 244t-225.5 94t-225 -94t-88 -244zM539 1415q0 63 39 102t102 39t103 -38.5t40 -102.5q0 -61 -40 -100t-103 -39t-102 38t-39 101z" />
<glyph unicode="&#x122;" horiz-adv-x="1681" d="M106 766q0 236 104.5 419t300.5 288.5t454 105.5q141 0 278 -33t252 -92l-43 -225q-109 59 -239 90t-265 31q-168 0 -298 -70t-203.5 -201t-73.5 -305q0 -264 156.5 -417.5t424.5 -153.5q88 0 160 9t162 34v389h-328v213h582v-758q-271 -113 -588 -113q-242 0 -431 95.5 t-297 274.5t-108 419zM671 -504q41 74 64.5 172.5t23.5 200.5h230q-2 -59 -20.5 -129t-49.5 -135.5t-70 -108.5h-178z" />
<glyph unicode="&#x123;" horiz-adv-x="1351" d="M100 516q0 147 63.5 272t179.5 202t259 77q115 0 207 -46t145 -130l4 143h228v-966q0 -291 -144.5 -439.5t-429.5 -148.5q-104 0 -216.5 24.5t-176.5 59.5l27 217q68 -43 161 -67.5t189 -24.5q184 0 271 88t87 274v90q-113 -174 -362 -174q-139 0 -251 67.5t-176.5 192.5 t-64.5 289zM338 518q0 -150 87 -245t226 -95t226.5 95.5t87.5 244.5q0 150 -88.5 244t-225.5 94t-225 -94t-88 -244zM547 1249q2 94 39 185.5t98 160.5h172q-80 -145 -82 -346h-227z" />
<glyph unicode="&#x126;" horiz-adv-x="1800" d="M31 1124v185h198v247h256v-247h830v247h256v-247h198v-185h-198v-1124h-256v698h-830v-698h-256v1124h-198zM485 913h830v211h-830v-211z" />
<glyph unicode="&#x127;" horiz-adv-x="1259" d="M0 1251v168h166v240h235v-240h326v-168h-326v-338q45 74 126 114t188 40q186 0 285.5 -113.5t99.5 -326.5v-627h-236v584q0 139 -52 206.5t-161 67.5q-119 0 -184.5 -78t-65.5 -217v-563h-235v1251h-166z" />
<glyph unicode="&#x128;" horiz-adv-x="653" d="M-39 1708v14q2 141 57.5 215t159.5 74q55 0 95.5 -19.5t71 -44t58 -44t58.5 -19.5q35 0 50.5 29t15.5 94h170v-14q-4 -141 -59.5 -214t-157.5 -73q-55 0 -96.5 19.5t-72 44t-58 44t-56.5 19.5q-35 0 -51.5 -29.5t-16.5 -95.5h-168zM199 0v1556h256v-1556h-256z" />
<glyph unicode="&#x129;" horiz-adv-x="567" d="M-82 1266v22q2 133 57.5 205t153.5 72q59 0 101.5 -19.5t73 -43t57 -43t57.5 -19.5q35 0 50.5 28.5t15.5 94.5h166v-23q-2 -133 -57.5 -204.5t-153.5 -71.5q-59 0 -101.5 19.5t-73 43t-57 43t-57.5 19.5q-35 0 -50.5 -29t-15.5 -94h-166zM166 0v1034h235v-1034h-235z" />
<glyph unicode="&#x12a;" horiz-adv-x="653" d="M2 1741v180h652v-180h-652zM199 0v1556h256v-1556h-256z" />
<glyph unicode="&#x12b;" horiz-adv-x="567" d="M-41 1309v178h648v-178h-648zM166 0v1034h235v-1034h-235z" />
<glyph unicode="&#x12e;" horiz-adv-x="653" d="M58 -324q0 102 76.5 205t216.5 185l104 -66q-96 -72 -148.5 -141.5t-52.5 -126.5q0 -74 86 -74q55 0 111 27l18 -168q-72 -41 -174 -41q-113 0 -175 53t-62 147zM199 0v1556h256v-1556h-256z" />
<glyph unicode="&#x12f;" horiz-adv-x="567" d="M7 -324q0 104 77.5 208t214.5 182l103 -66q-98 -72 -150.5 -141.5t-52.5 -126.5q0 -76 88 -76q61 0 113 27l18 -166q-72 -41 -174 -41q-113 0 -175 53t-62 147zM135 1421q0 63 42 104.5t106 41.5q63 0 105 -41t42 -105q0 -63 -42 -105t-105 -42t-105.5 42t-42.5 105z M166 0v1034h235v-1034h-235z" />
<glyph unicode="&#x130;" horiz-adv-x="653" d="M183 1841q0 66 39.5 106t105.5 40t106.5 -40t40.5 -106q0 -63 -40.5 -103t-106.5 -40t-105.5 39t-39.5 104zM199 0v1556h256v-1556h-256z" />
<glyph unicode="&#x131;" horiz-adv-x="567" d="M166 0v1034h235v-1034h-235z" />
<glyph unicode="&#x132;" horiz-adv-x="1792" d="M199 0v1556h256v-1556h-256zM725 55l26 217q133 -82 308 -82q156 0 222 84t66 285v997h256v-1019q0 -291 -127 -430.5t-389 -139.5q-98 0 -197.5 24.5t-164.5 63.5z" />
<glyph unicode="&#x133;" horiz-adv-x="1132" d="M135 1421q0 63 42 104.5t106 41.5q63 0 105 -41t42 -105q0 -63 -42 -105t-105 -42t-105.5 42t-42.5 105zM166 0v1034h235v-1034h-235zM346 -473l25 201q88 -39 178 -39q94 0 138 54t44 171v1120h236v-1126q-1 -428 -392 -428q-68 0 -130 13t-99 34zM700 1421q0 63 42 105 q42 41 106 41q63 0 105 -41t42 -105q0 -63 -42 -105t-105 -42t-106 42q-42 42 -42 105z" />
<glyph unicode="&#x136;" horiz-adv-x="1556" d="M199 0v1556h250v-675l698 675h319l-778 -741l852 -815h-350l-741 719v-719h-250zM624 -504q41 74 64.5 172.5t23.5 200.5h230q-2 -59 -20.5 -129t-49.5 -135.5t-70 -108.5h-178z" />
<glyph unicode="&#x137;" horiz-adv-x="1206" d="M166 0v1659h235v-1022l418 397h295l-496 -456l574 -578h-311l-480 492v-492h-235zM433 -504q41 70 64.5 168t25.5 205h225q-2 -59 -20.5 -129t-49 -135.5t-69.5 -108.5h-176z" />
<glyph unicode="&#x138;" horiz-adv-x="1210" d="M166 0v1034h235v-424l420 424h293l-498 -477l580 -557h-322l-473 463v-463h-235z" />
<glyph unicode="&#x139;" horiz-adv-x="1257" d="M144 1710l229 281h295l-293 -281h-231zM199 0v1556h256v-1331h731v-225h-987z" />
<glyph unicode="&#x13a;" horiz-adv-x="567" d="M99 1741l229 281h295l-293 -281h-231zM166 0v1659h235v-1659h-235z" />
<glyph unicode="&#x13b;" horiz-adv-x="1257" d="M199 0v1556h256v-1331h731v-225h-987zM491 -504q41 74 64.5 172.5t23.5 200.5h230q-2 -59 -20.5 -129t-49.5 -135.5t-70 -108.5h-178z" />
<glyph unicode="&#x13c;" horiz-adv-x="567" d="M93 -504q41 70 64.5 168t25.5 205h225q-2 -59 -20.5 -129t-49 -135.5t-69.5 -108.5h-176zM166 0v1659h235v-1659h-235z" />
<glyph unicode="&#x13d;" horiz-adv-x="1257" d="M199 0v1556h256v-1331h731v-225h-987zM651 1178l25 481h233l-102 -481h-156z" />
<glyph unicode="&#x13e;" horiz-adv-x="567" d="M166 0v1659h235v-1659h-235zM539 1178l25 481h233l-102 -481h-156z" />
<glyph unicode="&#x141;" horiz-adv-x="1308" d="M51 608l199 131v817h256v-657l397 262l10 -215l-407 -268v-463h731v-215h-987v518l-189 -125z" />
<glyph unicode="&#x142;" horiz-adv-x="665" d="M18 737l197 105v817h236v-698l186 100l10 -205l-196 -106v-750h-236v633l-186 -101z" />
<glyph unicode="&#x143;" horiz-adv-x="1761" d="M199 0v1556h235l893 -1185v1185h236v-1556h-234l-895 1184v-1184h-235zM680 1710l229 281h295l-293 -281h-231z" />
<glyph unicode="&#x144;" horiz-adv-x="1259" d="M166 0v1034h225l2 -133q43 80 127 123t195 43q186 0 285.5 -113.5t99.5 -326.5v-627h-236v584q0 139 -52 206.5t-161 67.5q-119 0 -184.5 -78t-65.5 -217v-563h-235zM461 1249l217 338h268l-276 -338h-209z" />
<glyph unicode="&#x145;" horiz-adv-x="1761" d="M199 0v1556h235l893 -1185v1185h236v-1556h-234l-895 1184v-1184h-235zM676 -504q41 74 64.5 172.5t23.5 200.5h230q-2 -59 -20.5 -129t-49.5 -135.5t-70 -108.5h-178z" />
<glyph unicode="&#x146;" horiz-adv-x="1259" d="M166 0v1034h225l2 -133q43 80 127 123t195 43q186 0 285.5 -113.5t99.5 -326.5v-627h-236v584q0 139 -52 206.5t-161 67.5q-119 0 -184.5 -78t-65.5 -217v-563h-235zM420 -504q41 70 64.5 168t25.5 205h225q-2 -59 -20.5 -129t-49 -135.5t-69.5 -108.5h-176z" />
<glyph unicode="&#x147;" horiz-adv-x="1761" d="M199 0v1556h235l893 -1185v1185h236v-1556h-234l-895 1184v-1184h-235zM461 2011h245l158 -168l158 168h245l-288 -301h-230z" />
<glyph unicode="&#x148;" horiz-adv-x="1259" d="M166 0v1034h225l2 -133q43 80 127 123t195 43q186 0 285.5 -113.5t99.5 -326.5v-627h-236v584q0 139 -52 206.5t-161 67.5q-119 0 -184.5 -78t-65.5 -217v-563h-235zM248 1587h219l166 -198l166 198h219l-285 -338h-200z" />
<glyph unicode="&#x14c;" horiz-adv-x="1837" d="M106 778q0 217 102.5 401.5t289 297t420.5 112.5q223 0 407 -101.5t295 -287.5t111 -422q0 -217 -102.5 -401t-290 -297t-420.5 -113q-221 0 -405.5 101.5t-295.5 288t-111 421.5zM373 778q0 -162 67.5 -294t192.5 -209.5t285 -77.5q152 0 275.5 71.5t197 204.5t73.5 305 q0 162 -67.5 294t-193.5 210t-285 78q-152 0 -276 -73t-196.5 -206t-72.5 -303zM592 1741v180h652v-180h-652z" />
<glyph unicode="&#x14d;" horiz-adv-x="1302" d="M100 518q0 147 70 272t197 201t284 76q152 0 277 -68.5t199.5 -194.5t74.5 -286q0 -150 -69.5 -274.5t-196.5 -200.5t-285 -76q-152 0 -276.5 68.5t-199.5 195.5t-75 287zM327 1309v178h648v-178h-648zM338 518q0 -150 87 -245t226 -95t226.5 95.5t87.5 244.5 q0 150 -88.5 244t-225.5 94t-225 -94t-88 -244z" />
<glyph unicode="&#x150;" horiz-adv-x="1837" d="M106 778q0 217 102.5 401.5t289 297t420.5 112.5q223 0 407 -101.5t295 -287.5t111 -422q0 -217 -102.5 -401t-290 -297t-420.5 -113q-221 0 -405.5 101.5t-295.5 288t-111 421.5zM373 778q0 -162 67.5 -294t192.5 -209.5t285 -77.5q152 0 275.5 71.5t197 204.5t73.5 305 q0 162 -67.5 294t-193.5 210t-285 78q-152 0 -276 -73t-196.5 -206t-72.5 -303zM566 1710l176 279h270l-227 -279h-219zM967 1710l178 279h269l-226 -279h-221z" />
<glyph unicode="&#x151;" horiz-adv-x="1302" d="M100 518q0 147 70 272t197 201t284 76q152 0 277 -68.5t199.5 -194.5t74.5 -286q0 -150 -69.5 -274.5t-196.5 -200.5t-285 -76q-152 0 -276.5 68.5t-199.5 195.5t-75 287zM334 1249l180 338h248l-234 -338h-194zM338 518q0 -150 87 -245t226 -95t226.5 95.5t87.5 244.5 q0 150 -88.5 244t-225.5 94t-225 -94t-88 -244zM706 1249l183 338h245l-233 -338h-195z" />
<glyph unicode="&#x152;" horiz-adv-x="2611" d="M106 778q0 219 100.5 403.5t283 296t409.5 111.5q180 0 319.5 -67.5t225.5 -196.5v231h995v-215h-751v-440h669v-215h-669v-471h782v-215h-1026v225q-92 -125 -231.5 -191.5t-313.5 -66.5q-215 0 -395 102.5t-289 289t-109 419.5zM373 778q0 -162 67.5 -294t192.5 -209.5 t285 -77.5q152 0 275.5 71.5t197 204.5t73.5 305q0 162 -67.5 294t-193.5 210t-285 78q-152 0 -276 -73t-196.5 -206t-72.5 -303z" />
<glyph unicode="&#x153;" horiz-adv-x="2080" d="M100 518q0 147 70 271t196 201t283 77q133 0 248 -61.5t178 -165.5q57 106 165 166.5t241 60.5q141 0 250.5 -61.5t171 -178t61.5 -272.5q0 -78 -8 -117h-762q23 -133 120 -205.5t255 -72.5q184 0 348 80l25 -185q-76 -41 -180.5 -64.5t-213.5 -23.5q-168 0 -288.5 60.5 t-188.5 179.5q-66 -113 -178.5 -176.5t-247.5 -63.5q-109 0 -207 38t-174 110.5t-120 176t-44 226.5zM338 518q0 -150 87 -245t226 -95t226.5 95.5t87.5 244.5q0 150 -88.5 244t-225.5 94t-225 -94t-88 -244zM1192 616h543q-8 127 -76 197t-186 70q-117 0 -191 -70t-90 -197 z" />
<glyph unicode="&#x154;" horiz-adv-x="1460" d="M199 0v1556h479q256 0 406.5 -130t150.5 -353q0 -139 -74 -251.5t-203 -170.5l433 -651h-301l-367 592q-45 -6 -102 -6h-177v-586h-245zM444 795h191q350 0 350 276q0 137 -85 207t-253 70h-203v-553zM486 1710l229 281h295l-293 -281h-231z" />
<glyph unicode="&#x155;" horiz-adv-x="874" d="M166 0v1034h225l2 -174q43 92 120 141.5t177 49.5q27 0 61.5 -6.5t59.5 -16.5l-23 -221q-57 25 -122 24q-125 0 -195 -91t-70 -253v-487h-235zM293 1249l217 338h268l-276 -338h-209z" />
<glyph unicode="&#x158;" horiz-adv-x="1460" d="M199 0v1556h479q256 0 406.5 -130t150.5 -353q0 -139 -74 -251.5t-203 -170.5l433 -651h-301l-367 592q-45 -6 -102 -6h-177v-586h-245zM267 2011h245l158 -168l158 168h245l-288 -301h-230zM444 795h191q350 0 350 276q0 137 -85 207t-253 70h-203v-553z" />
<glyph unicode="&#x159;" horiz-adv-x="874" d="M80 1587h219l166 -198l166 198h219l-285 -338h-200zM166 0v1034h225l2 -174q43 92 120 141.5t177 49.5q27 0 61.5 -6.5t59.5 -16.5l-23 -221q-57 25 -122 24q-125 0 -195 -91t-70 -253v-487h-235z" />
<glyph unicode="&#x15a;" horiz-adv-x="1363" d="M127 94l29 230q100 -61 229 -98.5t244 -37.5q158 0 243.5 59.5t85.5 168.5q0 92 -70.5 148.5t-264.5 117.5q-254 80 -360.5 188.5t-106.5 290.5q0 125 64.5 222.5t186 151.5t285.5 54q119 0 240 -29.5t213 -80.5l-39 -224q-90 51 -199.5 82t-208.5 31q-143 0 -219 -53 t-76 -154q0 -66 29 -106.5t92.5 -73.5t180.5 -70q193 -61 303 -131.5t158 -159t48 -204.5q0 -133 -68.5 -234.5t-198.5 -158t-308 -56.5q-137 0 -281.5 36t-230.5 91zM488 1710l229 281h295l-293 -281h-231z" />
<glyph unicode="&#x15b;" horiz-adv-x="978" d="M86 66l31 198q66 -45 158 -74.5t174 -29.5q209 0 208 114q0 41 -19.5 64.5t-65.5 43t-136 46.5q-176 51 -254 128t-78 198q0 145 109 229t297 84q90 0 182 -22.5t150 -59.5l-31 -192q-63 37 -144 59t-153 22q-88 0 -135 -26.5t-47 -77.5q0 -39 18.5 -62.5t60.5 -43 t124 -41.5q193 -55 274.5 -133t81.5 -207q0 -145 -117.5 -230.5t-318.5 -85.5q-106 0 -208 26.5t-161 72.5zM328 1249l217 338h268l-276 -338h-209z" />
<glyph unicode="&#x15e;" horiz-adv-x="1363" d="M127 94l29 230q100 -61 229 -98.5t244 -37.5q158 0 243.5 59.5t85.5 168.5q0 92 -70.5 148.5t-264.5 117.5q-254 80 -360.5 188.5t-106.5 290.5q0 125 64.5 222.5t186 151.5t285.5 54q119 0 240 -29.5t213 -80.5l-39 -224q-90 51 -199.5 82t-208.5 31q-143 0 -219 -53 t-76 -154q0 -66 29 -106.5t92.5 -73.5t180.5 -70q193 -61 303 -131.5t158 -159t48 -204.5q0 -133 -68.5 -234.5t-198.5 -158t-308 -56.5q-137 0 -281.5 36t-230.5 91zM417 -492l31 142q57 -29 139 -29q115 0 115 72q0 68 -117 67q-57 0 -77 -6l71 266h154l-41 -139 q92 -6 148.5 -59t56.5 -135q0 -102 -79 -159.5t-218 -57.5q-45 0 -98.5 11t-84.5 27z" />
<glyph unicode="&#x15f;" horiz-adv-x="978" d="M86 66l31 198q66 -45 158 -74.5t174 -29.5q209 0 208 114q0 41 -19.5 64.5t-65.5 43t-136 46.5q-176 51 -254 128t-78 198q0 145 109 229t297 84q90 0 182 -22.5t150 -59.5l-31 -192q-63 37 -144 59t-153 22q-88 0 -135 -26.5t-47 -77.5q0 -39 18.5 -62.5t60.5 -43 t124 -41.5q193 -55 274.5 -133t81.5 -207q0 -145 -117.5 -230.5t-318.5 -85.5q-106 0 -208 26.5t-161 72.5zM243 -492l31 138q61 -31 143 -31q119 0 119 78q0 72 -123 71q-39 0 -75 -4l71 260h146l-41 -139q96 -8 151.5 -61t55.5 -135q0 -100 -78 -157.5t-211 -57.5 q-49 0 -105.5 11t-83.5 27z" />
<glyph unicode="&#x160;" horiz-adv-x="1363" d="M127 94l29 230q100 -61 229 -98.5t244 -37.5q158 0 243.5 59.5t85.5 168.5q0 92 -70.5 148.5t-264.5 117.5q-254 80 -360.5 188.5t-106.5 290.5q0 125 64.5 222.5t186 151.5t285.5 54q119 0 240 -29.5t213 -80.5l-39 -224q-90 51 -199.5 82t-208.5 31q-143 0 -219 -53 t-76 -154q0 -66 29 -106.5t92.5 -73.5t180.5 -70q193 -61 303 -131.5t158 -159t48 -204.5q0 -133 -68.5 -234.5t-198.5 -158t-308 -56.5q-137 0 -281.5 36t-230.5 91zM269 2011h245l158 -168l158 168h245l-288 -301h-230z" />
<glyph unicode="&#x161;" horiz-adv-x="978" d="M86 66l31 198q66 -45 158 -74.5t174 -29.5q209 0 208 114q0 41 -19.5 64.5t-65.5 43t-136 46.5q-176 51 -254 128t-78 198q0 145 109 229t297 84q90 0 182 -22.5t150 -59.5l-31 -192q-63 37 -144 59t-153 22q-88 0 -135 -26.5t-47 -77.5q0 -39 18.5 -62.5t60.5 -43 t124 -41.5q193 -55 274.5 -133t81.5 -207q0 -145 -117.5 -230.5t-318.5 -85.5q-106 0 -208 26.5t-161 72.5zM115 1587h219l166 -198l166 198h219l-285 -338h-200z" />
<glyph unicode="&#x162;" horiz-adv-x="1427" d="M72 1341v215h1284v-215h-514v-1341h-256v1341h-514zM477 -492l31 142q57 -29 139 -29q115 0 115 72q0 68 -117 67q-57 0 -77 -6l71 266h154l-41 -139q92 -6 148.5 -59t56.5 -135q0 -102 -79 -159.5t-218 -57.5q-45 0 -98.5 11t-84.5 27z" />
<glyph unicode="&#x163;" horiz-adv-x="923" d="M23 836v198h217v289h235v-289h340v-198h-340v-439q0 -117 40 -170t136 -53q100 0 193 49l26 -196q-45 -27 -114 -43q-70 -17 -146 -17q-190 0 -280 95t-90 300v474h-217zM301 -492l31 138q61 -31 143 -31q119 0 119 78q0 72 -123 71q-39 0 -75 -4l71 260h146l-41 -139 q96 -8 151.5 -61t55.5 -135q0 -100 -78 -157.5t-211 -57.5q-49 0 -105.5 11t-83.5 27z" />
<glyph unicode="&#x164;" horiz-adv-x="1427" d="M72 1341v215h1284v-215h-514v-1341h-256v1341h-514zM310 2011h245l158 -168l158 168h245l-288 -301h-230z" />
<glyph unicode="&#x165;" horiz-adv-x="923" d="M23 836v198h217v289h235v-289h340v-198h-340v-439q0 -117 40 -170t136 -53q100 0 193 49l26 -196q-45 -27 -114 -43q-70 -17 -146 -17q-190 0 -280 95t-90 300v474h-217zM620 1227l23 432h227l-96 -432h-154z" />
<glyph unicode="&#x168;" horiz-adv-x="1726" d="M188 649v907h256v-886q0 -236 105.5 -354.5t312.5 -118.5t313.5 118.5t106.5 354.5v886h256v-907q0 -324 -178 -503t-502 -179q-317 0 -493.5 179.5t-176.5 502.5zM495 1708v14q2 141 57.5 215t159.5 74q55 0 95.5 -19.5t71 -44t58 -44t58.5 -19.5q35 0 50.5 29t15.5 94 h170v-14q-4 -141 -59.5 -214t-157.5 -73q-55 0 -96.5 19.5t-72 44t-58 44t-56.5 19.5q-35 0 -51.5 -29.5t-16.5 -95.5h-168z" />
<glyph unicode="&#x169;" horiz-adv-x="1255" d="M160 385v649h235v-592q0 -141 50 -203t165 -63q115 0 180 78t64 217v563h236v-1034h-226l-4 131q-43 -78 -126 -121q-82 -43 -193 -43q-188 0 -285 107q-96 106 -96 311zM253 1266v22q2 133 57.5 205t153.5 72q59 0 101.5 -19.5t73 -43t57 -43t57.5 -19.5q35 0 50.5 28.5 t15.5 94.5h166v-23q-2 -133 -57.5 -204.5t-153.5 -71.5q-59 0 -101.5 19.5t-73 43t-57 43t-57.5 19.5q-35 0 -50.5 -29t-15.5 -94h-166z" />
<glyph unicode="&#x16a;" horiz-adv-x="1726" d="M188 649v907h256v-886q0 -236 105.5 -354.5t312.5 -118.5t313.5 118.5t106.5 354.5v886h256v-907q0 -324 -178 -503t-502 -179q-317 0 -493.5 179.5t-176.5 502.5zM536 1741v180h652v-180h-652z" />
<glyph unicode="&#x16b;" horiz-adv-x="1255" d="M160 385v649h235v-592q0 -141 50 -203t165 -63q115 0 180 78t64 217v563h236v-1034h-226l-4 131q-43 -78 -126 -121q-82 -43 -193 -43q-188 0 -285 107q-96 106 -96 311zM294 1309v178h648v-178h-648z" />
<glyph unicode="&#x16e;" horiz-adv-x="1726" d="M188 649v907h256v-886q0 -236 105.5 -354.5t312.5 -118.5t313.5 118.5t106.5 354.5v886h256v-907q0 -324 -178 -503t-502 -179q-317 0 -493.5 179.5t-176.5 502.5zM583 1939q0 113 80 189t199 76t199 -76t80 -189q0 -115 -80 -190.5t-199 -75.5t-199 76t-80 190z M731 1939q0 -59 36 -95t95 -36t95 36t36 95t-36 94t-95 35t-95 -34.5t-36 -94.5z" />
<glyph unicode="&#x16f;" horiz-adv-x="1255" d="M160 385v649h235v-592q0 -141 50 -203t165 -63q115 0 180 78t64 217v563h236v-1034h-226l-4 131q-43 -78 -126 -121q-82 -43 -193 -43q-188 0 -285 107q-96 106 -96 311zM337 1456q0 115 81 190.5t200 75.5t200 -75.5t81 -190.5t-81 -190.5t-200 -75.5t-200 75.5 t-81 190.5zM491 1456q0 -55 35 -91t92 -36t92 36t35 91q0 57 -35 92t-92 35t-92 -35t-35 -92z" />
<glyph unicode="&#x170;" horiz-adv-x="1726" d="M188 649v907h256v-886q0 -236 105.5 -354.5t312.5 -118.5t313.5 118.5t106.5 354.5v886h256v-907q0 -324 -178 -503t-502 -179q-317 0 -493.5 179.5t-176.5 502.5zM510 1710l176 279h270l-227 -279h-219zM911 1710l178 279h269l-226 -279h-221z" />
<glyph unicode="&#x171;" horiz-adv-x="1255" d="M160 385v649h235v-592q0 -141 50 -203t165 -63q115 0 180 78t64 217v563h236v-1034h-226l-4 131q-43 -78 -126 -121q-82 -43 -193 -43q-188 0 -285 107q-96 106 -96 311zM301 1249l180 338h248l-234 -338h-194zM673 1249l183 338h245l-233 -338h-195z" />
<glyph unicode="&#x172;" horiz-adv-x="1726" d="M188 649v907h256v-886q0 -236 105.5 -354.5t312.5 -118.5t313.5 118.5t106.5 354.5v886h256v-907q0 -324 -178 -503t-502 -179q-317 0 -493.5 179.5t-176.5 502.5zM791 -326q0 113 96 226.5t246 177.5l123 -12q-129 -88 -198 -173.5t-69 -156.5q0 -78 91 -78q63 0 114 29 l21 -168q-27 -20 -77.5 -31.5t-105.5 -11.5q-113 0 -177 53t-64 145z" />
<glyph unicode="&#x173;" horiz-adv-x="1255" d="M160 385v649h235v-592q0 -141 50 -203t165 -63q115 0 180 78t64 217v563h236v-1034h-226l-4 131q-43 -78 -126 -121q-82 -43 -193 -43q-188 0 -285 107q-96 106 -96 311zM695 -324q0 104 77.5 208t214.5 182l103 -66q-98 -72 -150.5 -141.5t-52.5 -126.5q0 -76 88 -76 q61 0 113 27l18 -166q-72 -41 -174 -41q-113 0 -175 53t-62 147z" />
<glyph unicode="&#x174;" horiz-adv-x="2283" d="M51 1556h266l340 -1249l367 1229h242l366 -1219l338 1239h262l-471 -1556h-256l-366 1208l-361 -1208h-258zM740 1710l288 301h230l288 -301h-245l-158 166l-158 -166h-245z" />
<glyph unicode="&#x175;" horiz-adv-x="1714" d="M47 1034h244l219 -764l242 764h200l252 -766l223 766h240l-352 -1034h-215l-250 735l-240 -735h-213zM471 1249l285 338h200l285 -338h-219l-166 197l-166 -197h-219z" />
<glyph unicode="&#x176;" horiz-adv-x="1464" d="M27 1556h284l426 -698l428 698h273l-580 -899v-657h-256v659zM328 1710l288 301h230l288 -301h-245l-158 166l-158 -166h-245z" />
<glyph unicode="&#x177;" horiz-adv-x="1173" d="M37 1034h254l303 -706l291 706h252l-699 -1536h-250l283 582zM211 1249l285 338h200l285 -338h-219l-166 197l-166 -197h-219z" />
<glyph unicode="&#x178;" horiz-adv-x="1464" d="M27 1556h284l426 -698l428 698h273l-580 -899v-657h-256v659zM383 1835q0 59 37 96t96 37q57 0 95 -37t38 -96q0 -55 -38 -92t-95 -37q-59 0 -96 36t-37 93zM813 1835q0 57 37 95t94 38q59 0 97 -37t38 -96q0 -55 -38 -92t-97 -37q-57 0 -94 36t-37 93z" />
<glyph unicode="&#x179;" horiz-adv-x="1468" d="M109 0v195l903 1146h-854v215h1169v-194l-905 -1147h919v-215h-1232zM539 1710l229 281h295l-293 -281h-231z" />
<glyph unicode="&#x17a;" horiz-adv-x="1093" d="M96 0v178l576 658h-553v198h850v-178l-580 -657h594v-199h-887zM363 1249l217 338h268l-276 -338h-209z" />
<glyph unicode="&#x17b;" horiz-adv-x="1468" d="M109 0v195l903 1146h-854v215h1169v-194l-905 -1147h919v-215h-1232zM578 1841q0 66 39.5 106t105.5 40t106.5 -40t40.5 -106q0 -63 -40.5 -103t-106.5 -40t-105.5 39t-39.5 104z" />
<glyph unicode="&#x17c;" horiz-adv-x="1093" d="M96 0v178l576 658h-553v198h850v-178l-580 -657h594v-199h-887zM394 1415q0 63 39 102t102 39t103 -38.5t40 -102.5q0 -61 -40 -100t-103 -39t-102 38t-39 101z" />
<glyph unicode="&#x17d;" horiz-adv-x="1468" d="M109 0v195l903 1146h-854v215h1169v-194l-905 -1147h919v-215h-1232zM320 2011h245l158 -168l158 168h245l-288 -301h-230z" />
<glyph unicode="&#x17e;" horiz-adv-x="1093" d="M96 0v178l576 658h-553v198h850v-178l-580 -657h594v-199h-887zM150 1587h219l166 -198l166 198h219l-285 -338h-200z" />
<glyph unicode="&#x192;" horiz-adv-x="851" d="M-139 -473l24 201q88 -39 178 -39q94 0 138.5 54t44.5 171v922h-199v198h199v146q0 236 109.5 362.5t316.5 126.5q59 0 121.5 -11t105.5 -32l-25 -196q-88 33 -178 32q-113 0 -164 -73.5t-51 -233.5v-121h299v-198h-299v-928q0 -428 -391 -428q-68 0 -130 13t-99 34z" />
<glyph unicode="&#x218;" horiz-adv-x="1363" d="M127 94l29 230q100 -61 229 -98.5t244 -37.5q158 0 243.5 59.5t85.5 168.5q0 92 -70.5 148.5t-264.5 117.5q-254 80 -360.5 188.5t-106.5 290.5q0 125 64.5 222.5t186 151.5t285.5 54q119 0 240 -29.5t213 -80.5l-39 -224q-90 51 -199.5 82t-208.5 31q-143 0 -219 -53 t-76 -154q0 -66 29 -106.5t92.5 -73.5t180.5 -70q193 -61 303 -131.5t158 -159t48 -204.5q0 -133 -68.5 -234.5t-198.5 -158t-308 -56.5q-137 0 -281.5 36t-230.5 91zM458 -504q41 74 64.5 172.5t23.5 200.5h230q-2 -59 -20.5 -129t-49.5 -135.5t-70 -108.5h-178z" />
<glyph unicode="&#x219;" horiz-adv-x="978" d="M86 66l31 198q66 -45 158 -74.5t174 -29.5q209 0 208 114q0 41 -19.5 64.5t-65.5 43t-136 46.5q-176 51 -254 128t-78 198q0 145 109 229t297 84q90 0 182 -22.5t150 -59.5l-31 -192q-63 37 -144 59t-153 22q-88 0 -135 -26.5t-47 -77.5q0 -39 18.5 -62.5t60.5 -43 t124 -41.5q193 -55 274.5 -133t81.5 -207q0 -145 -117.5 -230.5t-318.5 -85.5q-106 0 -208 26.5t-161 72.5zM279 -504q41 70 64.5 168t25.5 205h225q-2 -59 -20.5 -129t-49 -135.5t-69.5 -108.5h-176z" />
<glyph unicode="&#x21a;" horiz-adv-x="1427" d="M72 1341v215h1284v-215h-514v-1341h-256v1341h-514zM512 -504q41 74 64.5 172.5t23.5 200.5h230q-2 -59 -20.5 -129t-49.5 -135.5t-70 -108.5h-178z" />
<glyph unicode="&#x21b;" horiz-adv-x="923" d="M23 836v198h217v289h235v-289h340v-198h-340v-439q0 -117 40 -170t136 -53q100 0 193 49l26 -196q-45 -27 -114 -43q-70 -17 -146 -17q-190 0 -280 95t-90 300v474h-217zM332 -504q41 70 64.5 168t25.5 205h225q-2 -59 -20.5 -129t-49 -135.5t-69.5 -108.5h-176z" />
<glyph unicode="&#x237;" horiz-adv-x="567" d="M-219 -473l24 201q84 -39 179 -39q94 0 138 54t44 171v1120h235v-1126q0 -428 -391 -428q-68 0 -130 13t-99 34z" />
<glyph unicode="&#x2c6;" horiz-adv-x="1024" d="M127 1249l285 338h200l285 -338h-219l-166 197l-166 -197h-219z" />
<glyph unicode="&#x2c7;" horiz-adv-x="1024" d="M127 1587h219l166 -198l166 198h219l-285 -338h-200z" />
<glyph unicode="&#x2c9;" horiz-adv-x="1024" d="M188 1309v178h648v-178h-648z" />
<glyph unicode="&#x2cb;" horiz-adv-x="1024" d="M269 1587h268l219 -338h-209z" />
<glyph unicode="&#x2d8;" horiz-adv-x="1024" d="M178 1526q0 20 2 24h166q0 -178 166 -178t166 178h166q2 -4 2 -24q0 -143 -89 -225t-245 -82t-245 81.5t-89 225.5z" />
<glyph unicode="&#x2d9;" horiz-adv-x="1024" d="M369 1415q0 63 39 102t102 39t103 -38.5t40 -102.5q0 -61 -40 -100t-103 -39t-102 38t-39 101z" />
<glyph unicode="&#x2da;" horiz-adv-x="1024" d="M231 1456q0 115 81 190.5t200 75.5t200 -75.5t81 -190.5t-81 -190.5t-200 -75.5t-200 75.5t-81 190.5zM385 1456q0 -55 35 -91t92 -36t92 36t35 91q0 57 -35 92t-92 35t-92 -35t-35 -92z" />
<glyph unicode="&#x2db;" horiz-adv-x="1024" d="M332 -324q0 104 77.5 208t214.5 182l103 -66q-98 -72 -150.5 -141.5t-52.5 -126.5q0 -76 88 -76q61 0 113 27l18 -166q-72 -41 -174 -41q-113 0 -175 53t-62 147z" />
<glyph unicode="&#x2dc;" horiz-adv-x="1024" d="M147 1266v22q2 133 57.5 205t153.5 72q59 0 101.5 -19.5t73 -43t57 -43t57.5 -19.5q35 0 50.5 28.5t15.5 94.5h166v-23q-2 -133 -57.5 -204.5t-153.5 -71.5q-59 0 -101.5 19.5t-73 43t-57 43t-57.5 19.5q-35 0 -50.5 -29t-15.5 -94h-166z" />
<glyph unicode="&#x2dd;" horiz-adv-x="1024" d="M148 1249l180 338h248l-234 -338h-194zM520 1249l183 338h245l-233 -338h-195z" />
<glyph unicode="&#x300;" horiz-adv-x="0" d="M-313 1587h268l219 -338h-209z" />
<glyph unicode="&#x301;" horiz-adv-x="0" d="M-172 1249l217 338h268l-276 -338h-209z" />
<glyph unicode="&#x302;" horiz-adv-x="0" d="M-385 1249l285 338h200l285 -338h-219l-166 197l-166 -197h-219z" />
<glyph unicode="&#x303;" horiz-adv-x="0" d="M-365 1266v22q2 133 57.5 205t153.5 72q59 0 101.5 -19.5t73 -43t57 -43t57.5 -19.5q35 0 50.5 28.5t15.5 94.5h166v-23q-2 -133 -57.5 -204.5t-153.5 -71.5q-59 0 -101.5 19.5t-73 43t-57 43t-57.5 19.5q-35 0 -50.5 -29t-15.5 -94h-166z" />
<glyph unicode="&#x304;" horiz-adv-x="0" d="M-324 1309v178h648v-178h-648z" />
<glyph unicode="&#x306;" horiz-adv-x="0" d="M-334 1526q0 20 2 24h166q0 -178 166 -178t166 178h166q2 -4 2 -24q0 -143 -89 -225t-245 -82t-245 81.5t-89 225.5z" />
<glyph unicode="&#x307;" horiz-adv-x="0" d="M-141 1415q0 63 39 102t102 39t103 -38.5t40 -102.5q0 -61 -40 -100t-103 -39t-102 38t-39 101z" />
<glyph unicode="&#x308;" horiz-adv-x="0" d="M-342 1413q0 57 37 93t94 36t94 -36t37 -93t-37 -93t-94 -36q-59 0 -95 36t-36 93zM80 1413q0 57 37 93t94 36t94 -36t37 -93t-37 -93t-94 -36q-59 0 -95 36t-36 93z" />
<glyph unicode="&#x30a;" horiz-adv-x="0" d="M-281 1456q0 115 81 190.5t200 75.5t200 -75.5t81 -190.5t-81 -190.5t-200 -75.5t-200 75.5t-81 190.5zM-127 1456q0 -55 35 -91t92 -36t92 36t35 91q0 57 -35 92t-92 35t-92 -35t-35 -92z" />
<glyph unicode="&#x30b;" horiz-adv-x="0" d="M-317 1249l180 338h248l-234 -338h-194zM55 1249l183 338h245l-233 -338h-195z" />
<glyph unicode="&#x30c;" horiz-adv-x="0" d="M-385 1587h219l166 -198l166 198h219l-285 -338h-200z" />
<glyph unicode="&#x312;" horiz-adv-x="0" d="M-133 1249q2 94 39 185.5t98 160.5h172q-80 -145 -82 -346h-227z" />
<glyph unicode="&#x315;" horiz-adv-x="0" d="M-123 1178l25 481h233l-102 -481h-156z" />
<glyph unicode="&#x326;" horiz-adv-x="0" d="M-190 -504q41 70 64.5 168t25.5 205h225q-2 -59 -20.5 -129t-49 -135.5t-69.5 -108.5h-176z" />
<glyph unicode="&#x327;" horiz-adv-x="0" d="M-240 -492l31 138q61 -31 143 -31q119 0 119 78q0 72 -123 71q-39 0 -75 -4l71 260h146l-41 -139q96 -8 151.5 -61t55.5 -135q0 -100 -78 -157.5t-211 -57.5q-49 0 -105.5 11t-83.5 27z" />
<glyph unicode="&#x328;" horiz-adv-x="0" d="M-276 -324q0 104 77.5 208t214.5 182l103 -66q-98 -72 -150.5 -141.5t-52.5 -126.5q0 -76 88 -76q61 0 113 27l18 -166q-72 -41 -174 -41q-113 0 -175 53t-62 147z" />
<glyph unicode="&#x3c0;" horiz-adv-x="1376" d="M80 838v196h1196v-196h-176v-527q0 -70 18.5 -95.5t71.5 -25.5q27 0 63 11l11 -195q-68 -22 -142 -22q-143 0 -197.5 65.5t-54.5 237.5v551h-387v-838h-235v838h-168z" />
<glyph unicode="&#x1e80;" horiz-adv-x="2283" d="M51 1556h266l340 -1249l367 1229h242l366 -1219l338 1239h262l-471 -1556h-256l-366 1208l-361 -1208h-258zM801 1991h295l231 -281h-231z" />
<glyph unicode="&#x1e81;" horiz-adv-x="1714" d="M47 1034h244l219 -764l242 764h200l252 -766l223 766h240l-352 -1034h-215l-250 735l-240 -735h-213zM543 1587h268l219 -338h-209z" />
<glyph unicode="&#x1e82;" horiz-adv-x="2283" d="M51 1556h266l340 -1249l367 1229h242l366 -1219l338 1239h262l-471 -1556h-256l-366 1208l-361 -1208h-258zM959 1710l229 281h295l-293 -281h-231z" />
<glyph unicode="&#x1e83;" horiz-adv-x="1714" d="M47 1034h244l219 -764l242 764h200l252 -766l223 766h240l-352 -1034h-215l-250 735l-240 -735h-213zM684 1249l217 338h268l-276 -338h-209z" />
<glyph unicode="&#x1e84;" horiz-adv-x="2283" d="M51 1556h266l340 -1249l367 1229h242l366 -1219l338 1239h262l-471 -1556h-256l-366 1208l-361 -1208h-258zM795 1835q0 59 37 96t96 37q57 0 95 -37t38 -96q0 -55 -38 -92t-95 -37q-59 0 -96 36t-37 93zM1225 1835q0 57 37 95t94 38q59 0 97 -37t38 -96q0 -55 -38 -92 t-97 -37q-57 0 -94 36t-37 93z" />
<glyph unicode="&#x1e85;" horiz-adv-x="1714" d="M47 1034h244l219 -764l242 764h200l252 -766l223 766h240l-352 -1034h-215l-250 735l-240 -735h-213zM514 1413q0 57 37 93t94 36t94 -36t37 -93t-37 -93t-94 -36q-59 0 -95 36t-36 93zM936 1413q0 57 37 93t94 36t94 -36t37 -93t-37 -93t-94 -36q-59 0 -95 36t-36 93z " />
<glyph unicode="&#x1e9e;" horiz-adv-x="1634" d="M188 0v877q0 338 173.5 525t488.5 187q154 0 301 -54t244 -144v-170l-250 -322q170 -33 273.5 -157t103.5 -293q0 -141 -65.5 -250t-187.5 -170.5t-284 -61.5q-96 0 -195.5 24.5t-158.5 63.5l22 215q63 -41 144.5 -63.5t167.5 -22.5q145 0 226 73t81 206q0 119 -81 190.5 t-214 71.5q-55 0 -96 -12l-58 139l330 424q-63 43 -143 66.5t-160 23.5q-201 0 -303.5 -130t-102.5 -386v-850h-256z" />
<glyph unicode="&#x1ef2;" horiz-adv-x="1464" d="M27 1556h284l426 -698l428 698h273l-580 -899v-657h-256v659zM389 1991h295l231 -281h-231z" />
<glyph unicode="&#x1ef3;" horiz-adv-x="1173" d="M37 1034h254l303 -706l291 706h252l-699 -1536h-250l283 582zM283 1587h268l219 -338h-209z" />
<glyph unicode="&#x2000;" horiz-adv-x="1024" />
<glyph unicode="&#x2001;" horiz-adv-x="2048" />
<glyph unicode="&#x2002;" horiz-adv-x="1024" />
<glyph unicode="&#x2003;" horiz-adv-x="2048" />
<glyph unicode="&#x2004;" horiz-adv-x="681" />
<glyph unicode="&#x2005;" horiz-adv-x="512" />
<glyph unicode="&#x2006;" horiz-adv-x="339" />
<glyph unicode="&#x2007;" horiz-adv-x="1269" />
<glyph unicode="&#x2008;" horiz-adv-x="604" />
<glyph unicode="&#x2009;" horiz-adv-x="409" />
<glyph unicode="&#x200a;" horiz-adv-x="112" />
<glyph unicode="&#x200b;" horiz-adv-x="0" />
<glyph unicode="&#x2010;" horiz-adv-x="890" d="M137 481v215h617v-215h-617z" />
<glyph unicode="&#x2011;" horiz-adv-x="890" d="M137 481v215h617v-215h-617z" />
<glyph unicode="&#x2012;" horiz-adv-x="1024" d="M0 494v192h1024v-192h-1024z" />
<glyph unicode="&#x2013;" horiz-adv-x="1024" d="M0 494v192h1024v-192h-1024z" />
<glyph unicode="&#x2014;" horiz-adv-x="2048" d="M0 494v192h2048v-192h-2048z" />
<glyph unicode="&#x2015;" horiz-adv-x="2048" d="M0 494v192h2048v-192h-2048z" />
<glyph unicode="&#x2018;" horiz-adv-x="428" d="M72 1065q4 123 42 254t97 237h176q-86 -236 -86 -491h-229z" />
<glyph unicode="&#x2019;" horiz-adv-x="428" d="M41 1065q86 240 86 491h229q-4 -125 -42 -256t-97 -235h-176z" />
<glyph unicode="&#x201a;" horiz-adv-x="428" d="M41 -246q86 240 86 492h229q-4 -125 -42 -256t-97 -236h-176z" />
<glyph unicode="&#x201c;" horiz-adv-x="804" d="M72 1065q4 123 42 254t97 237h176q-86 -236 -86 -491h-229zM449 1065q4 123 42 254t97 237h176q-86 -236 -86 -491h-229z" />
<glyph unicode="&#x201d;" horiz-adv-x="804" d="M41 1065q86 240 86 491h229q-4 -125 -42 -256t-97 -235h-176zM418 1065q86 240 86 491h229q-4 -125 -42 -256t-97 -235h-176z" />
<glyph unicode="&#x201e;" horiz-adv-x="804" d="M41 -246q86 240 86 492h229q-4 -125 -42 -256t-97 -236h-176zM418 -246q86 240 86 492h229q-4 -125 -42 -256t-97 -236h-176z" />
<glyph unicode="&#x2020;" horiz-adv-x="1064" d="M82 889v198h334v469h233v-469h334v-198h-334v-1155h-233v1155h-334z" />
<glyph unicode="&#x2021;" horiz-adv-x="1064" d="M82 180v199h334v530h-334v199h334v448h233v-448h334v-199h-334v-530h334v-199h-334v-446h-233v446h-334z" />
<glyph unicode="&#x2022;" horiz-adv-x="720" d="M100 559q0 109 76 184.5t184 75.5q109 0 185 -75.5t76 -184.5t-76 -184.5t-185 -75.5q-106 0 -183 77t-77 183z" />
<glyph unicode="&#x2026;" horiz-adv-x="2048" d="M184 141q0 66 45.5 109t112.5 43q68 0 112 -43t44 -109t-44 -109.5t-112 -43.5q-70 0 -114 44t-44 109zM864 141q0 66 45.5 109t112.5 43q68 0 112 -43t44 -109t-44 -109.5t-112 -43.5q-70 0 -114 44t-44 109zM1548 141q0 66 45.5 109t112.5 43q68 0 112 -43t44 -109 t-44 -109.5t-112 -43.5q-70 0 -114 44t-44 109z" />
<glyph unicode="&#x202f;" horiz-adv-x="440" />
<glyph unicode="&#x2030;" horiz-adv-x="2871" d="M113 1163q0 106 50 195.5t141 143.5t204 54q106 0 196.5 -49t144.5 -140t54 -204q0 -106 -49 -194t-140 -142.5t-206 -54.5q-106 0 -196.5 49t-144.5 139.5t-54 202.5zM303 1163q0 -98 56.5 -159.5t148.5 -61.5t148.5 61.5t56.5 159.5q0 100 -56.5 160.5t-148.5 60.5 t-148.5 -60t-56.5 -161zM326 0l1106 1524h217l-1108 -1524h-215zM1075 369q0 106 50.5 195t141.5 143.5t203 54.5q106 0 196.5 -49t145 -140.5t54.5 -203.5q0 -106 -49.5 -194.5t-140.5 -143t-206 -54.5q-106 0 -196 49.5t-144.5 139.5t-54.5 203zM1266 369q0 -98 56 -160 t148 -62t148.5 61.5t56.5 160.5q0 100 -56 160.5t-149 60.5q-92 0 -148 -60.5t-56 -160.5zM1968 369q0 106 50 195t141.5 143.5t203.5 54.5q106 0 196.5 -49t145 -140.5t54.5 -203.5q0 -106 -49.5 -194.5t-140.5 -143t-206 -54.5q-106 0 -196 49.5t-144.5 139.5t-54.5 203z M2159 369q0 -98 56 -160t148 -62t148.5 61.5t56.5 160.5q0 100 -56 160.5t-149 60.5q-92 0 -148 -60.5t-56 -160.5z" />
<glyph unicode="&#x2032;" horiz-adv-x="415" d="M41 961l96 595h238l-142 -595h-192z" />
<glyph unicode="&#x2033;" horiz-adv-x="804" d="M41 961l96 595h238l-142 -595h-192zM430 961l96 595h238l-142 -595h-192z" />
<glyph unicode="&#x2039;" horiz-adv-x="706" d="M61 526l301 445h263l-306 -445l306 -444h-263z" />
<glyph unicode="&#x203a;" horiz-adv-x="706" d="M82 82l305 444l-305 445h262l301 -445l-301 -444h-262z" />
<glyph unicode="&#x2044;" horiz-adv-x="337" d="M-498 0l1112 1524h222l-1112 -1524h-222z" />
<glyph unicode="&#x205f;" horiz-adv-x="551" />
<glyph unicode="&#x2070;" d="M41 1352q0 201 96 319.5t258 118.5t257.5 -119t95.5 -319q0 -201 -95.5 -319.5t-257.5 -118.5t-258 118.5t-96 319.5zM229 1352q0 -133 43 -207t123 -74q78 0 121 73t43 208t-43 207.5t-121 72.5q-80 0 -123 -73.5t-43 -206.5z" />
<glyph unicode="&#x2074;" d="M51 1114v146l381 510h184v-508h105v-148h-105v-180h-165v180h-400zM227 1262h224v299z" />
<glyph unicode="&#x2075;" d="M106 971l17 153q82 -57 217 -57q86 0 132 34t46 97q0 59 -45 91t-133 32q-121 0 -197 -20l17 469h485v-154h-330l-6 -154q33 4 68 4q154 0 237.5 -69.5t83.5 -196.5q0 -133 -93 -209.5t-257 -76.5q-72 0 -140.5 16t-101.5 41z" />
<glyph unicode="&#x2076;" d="M72 1219q0 131 87 281.5t232 271.5l221 -7q-88 -63 -170 -150t-135 -173q49 37 131 37q119 0 198 -77t79 -194q0 -131 -90.5 -212.5t-233.5 -81.5q-141 0 -230 85t-89 220zM242 1200q0 -63 41.5 -101t109.5 -38q66 0 108 39t42 100t-43 102.5t-107 41.5q-66 0 -108.5 -40 t-42.5 -104z" />
<glyph unicode="&#x2077;" d="M92 1606v164h596v-154l-326 -684l-196 6l326 668h-400z" />
<glyph unicode="&#x2078;" d="M70 1170q0 70 35.5 123t99.5 79q-109 57 -109 183q0 104 83 169.5t216 65.5t216 -65.5t83 -169.5q0 -125 -110 -183q63 -27 100 -81t37 -121q0 -119 -88 -187.5t-238 -68.5t-237.5 68.5t-87.5 187.5zM248 1176q0 -57 39.5 -90t107.5 -33t108 32.5t40 90.5q0 57 -40 90 t-108 33t-107.5 -33t-39.5 -90zM266 1542q0 -49 35 -79.5t94 -30.5t94 30.5t35 79.5q0 51 -34.5 82t-94.5 31q-59 0 -94 -31t-35 -82z" />
<glyph unicode="&#x2079;" d="M72 1495q0 131 90 213t233 82q141 0 230.5 -85t89.5 -220q0 -131 -87 -281.5t-233 -271.5l-221 6q90 68 172 154t133 168q-47 -35 -131 -35q-119 0 -197.5 76.5t-78.5 193.5zM244 1503q0 -61 43 -102t106 -41q66 0 109 40t43 103t-42 101.5t-110 38.5q-66 0 -107.5 -39 t-41.5 -101z" />
<glyph unicode="&#x2080;" d="M41 162q0 201 96 319.5t258 118.5t257.5 -119t95.5 -319q0 -201 -95.5 -319.5t-257.5 -118.5t-258 118.5t-96 319.5zM229 162q0 -133 43 -207t123 -74q78 0 121 73t43 208t-43 207.5t-121 72.5q-80 0 -123 -73.5t-43 -206.5z" />
<glyph unicode="&#x2081;" d="M123 455l270 125h166v-836h-184v645l-225 -102z" />
<glyph unicode="&#x2082;" d="M94 -98q125 96 232 198q86 82 119.5 135.5t33.5 106.5q0 47 -35.5 74.5t-93.5 27.5q-111 0 -215 -104l-35 152q45 49 121 78.5t158 29.5q125 0 204 -66.5t79 -175.5q0 -170 -211 -354q-33 -29 -123 -102h362v-158h-596v158z" />
<glyph unicode="&#x2083;" d="M90 -221l16 153q45 -27 102.5 -41t117.5 -14q84 0 129 35t45 94q0 53 -44 84t-118 31q-39 0 -80 -12l-41 94l221 223h-327v154h538v-146l-192 -192q102 -12 161.5 -78t59.5 -164q0 -125 -96 -200.5t-254 -75.5q-70 0 -132.5 14t-105.5 41z" />
<glyph unicode="&#x2084;" d="M51 70l381 510h184v-508h105v-148h-105v-180h-165v180h-400v146zM227 72h224v299z" />
<glyph unicode="&#x2085;" d="M106 -219l17 153q82 -57 217 -57q86 0 132 34t46 97q0 59 -45 91t-133 32q-121 0 -197 -20l17 469h485v-154h-330l-6 -154q33 4 68 4q154 0 237.5 -69.5t83.5 -196.5q0 -133 -93 -209.5t-257 -76.5q-72 0 -140.5 16t-101.5 41z" />
<glyph unicode="&#x2086;" d="M72 29q0 131 87 281.5t232 271.5l221 -7q-88 -63 -170 -150t-135 -173q49 37 131 37q119 0 198 -77t79 -194q0 -131 -90.5 -212.5t-233.5 -81.5q-141 0 -230 85t-89 220zM242 10q0 -63 41.5 -101t109.5 -38q66 0 108 39t42 100t-43 102.5t-107 41.5q-66 0 -108.5 -40 t-42.5 -104z" />
<glyph unicode="&#x2087;" d="M92 416v164h596v-154l-326 -684l-196 6l326 668h-400z" />
<glyph unicode="&#x2088;" d="M70 -20q0 70 35.5 123t99.5 79q-109 57 -109 183q0 104 83 169.5t216 65.5t216 -65.5t83 -169.5q0 -125 -110 -183q63 -27 100 -81t37 -121q0 -119 -88 -187.5t-238 -68.5t-237.5 68.5t-87.5 187.5zM248 -14q0 -57 39.5 -90t107.5 -33t108 32.5t40 90.5q0 57 -40 90 t-108 33t-107.5 -33t-39.5 -90zM266 352q0 -49 35 -79.5t94 -30.5t94 30.5t35 79.5q0 51 -34.5 82t-94.5 31q-59 0 -94 -31t-35 -82z" />
<glyph unicode="&#x2089;" d="M72 305q0 131 90 213t233 82q141 0 230.5 -85t89.5 -220q0 -131 -87 -281.5t-233 -271.5l-221 6q90 68 172 154t133 168q-47 -35 -131 -35q-119 0 -197.5 76.5t-78.5 193.5zM244 313q0 -61 43 -102t106 -41q66 0 109 40t43 103t-42 101.5t-110 38.5q-66 0 -107.5 -39 t-41.5 -101z" />
<glyph unicode="&#x20ac;" horiz-adv-x="1269" d="M74 502v172h196q-4 33 -4 76q0 59 4 100h-196v172h221q53 252 218 393t402 141q193 0 334 -73l-39 -195q-133 66 -286 66q-143 0 -246 -86t-146 -246h529v-172h-557q-4 -37 -4 -92q0 -51 4 -84h557v-172h-529q43 -162 148.5 -247t261.5 -85q70 0 147.5 17.5t145.5 48.5 l27 -195q-135 -74 -344 -74q-254 0 -416 137.5t-213 397.5h-215z" />
<glyph unicode="&#x20ba;" horiz-adv-x="1269" d="M76 469v172l178 76v174l-178 -76v172l178 76v461h229v-363l394 170v-172l-394 -170v-174l394 170v-172l-394 -170v-469q6 -2 25 -2q195 0 321.5 134t151.5 366l209 -13q-20 -336 -213 -514t-533 -178q-98 0 -190 19v559z" />
<glyph unicode="&#x2122;" horiz-adv-x="1738" d="M27 1403v153h632v-153h-225v-604h-182v604h-225zM770 799l45 757h182l209 -434l211 434h182l46 -757h-170l-25 495l-176 -366h-135l-178 364l-21 -493h-170z" />
<glyph unicode="&#x2126;" horiz-adv-x="1904" d="M164 844q0 203 99 372.5t280.5 271t408.5 101.5q219 0 398.5 -92t285 -262t105.5 -391q0 -205 -86 -366t-250 -261h334v-217h-643v205q180 86 279.5 247.5t99.5 368.5q0 154 -63.5 276t-182.5 192.5t-277 70.5q-150 0 -267.5 -65.5t-186 -188.5t-68.5 -285 q0 -205 100.5 -367.5t278.5 -248.5v-205h-641v217h330q-162 98 -248 260t-86 367z" />
<glyph unicode="&#x2150;" horiz-adv-x="1918" d="M123 1399l270 125h166v-836h-184v645l-225 -102zM221 0l1112 1524h222l-1112 -1524h-222zM1220 672v164h596v-154l-326 -684l-196 6l326 668h-400z" />
<glyph unicode="&#x2151;" horiz-adv-x="1918" d="M123 1399l270 125h166v-836h-184v645l-225 -102zM243 0l1112 1524h222l-1112 -1524h-222zM1200 561q0 131 90 213t233 82q141 0 230.5 -85t89.5 -220q0 -131 -87 -281.5t-233 -271.5l-221 6q90 68 172 154t133 168q-47 -35 -131 -35q-119 0 -197.5 76.5t-78.5 193.5z M1372 569q0 -61 43 -102t106 -41q66 0 109 40t43 103t-42 101.5t-110 38.5q-66 0 -107.5 -39t-41.5 -101z" />
<glyph unicode="&#x2153;" horiz-adv-x="1918" d="M123 1399l270 125h166v-836h-184v645l-225 -102zM252 0l1112 1524h222l-1112 -1524h-222zM1218 35l16 153q45 -27 102.5 -41t117.5 -14q84 0 129 35t45 94q0 53 -44 84t-118 31q-39 0 -80 -12l-41 94l221 223h-327v154h538v-146l-192 -192q102 -12 161.5 -78t59.5 -164 q0 -125 -96 -200.5t-254 -75.5q-70 0 -132.5 14t-105.5 41z" />
<glyph unicode="&#x2154;" horiz-adv-x="1918" d="M94 688v158q125 96 232 198q86 82 119.5 135.5t33.5 106.5q0 47 -35.5 74.5t-93.5 27.5q-111 0 -215 -104l-35 152q45 49 121 78.5t158 29.5q125 0 204 -66.5t79 -175.5q0 -170 -211 -354q-33 -29 -123 -102h362v-158h-596zM305 0l1112 1524h222l-1112 -1524h-222z M1218 35l16 153q45 -27 102.5 -41t117.5 -14q84 0 129 35t45 94q0 53 -44 84t-118 31q-39 0 -80 -12l-41 94l221 223h-327v154h538v-146l-192 -192q102 -12 161.5 -78t59.5 -164q0 -125 -96 -200.5t-254 -75.5q-70 0 -132.5 14t-105.5 41z" />
<glyph unicode="&#x2155;" horiz-adv-x="1918" d="M123 1399l270 125h166v-836h-184v645l-225 -102zM245 0l1112 1524h222l-1112 -1524h-222zM1234 37l17 153q82 -57 217 -57q86 0 132 34t46 97q0 59 -45 91t-133 32q-121 0 -197 -20l17 469h485v-154h-330l-6 -154q33 4 68 4q154 0 237.5 -69.5t83.5 -196.5 q0 -133 -93 -209.5t-257 -76.5q-72 0 -140.5 16t-101.5 41z" />
<glyph unicode="&#x2156;" horiz-adv-x="1918" d="M94 688v158q125 96 232 198q86 82 119.5 135.5t33.5 106.5q0 47 -35.5 74.5t-93.5 27.5q-111 0 -215 -104l-35 152q45 49 121 78.5t158 29.5q125 0 204 -66.5t79 -175.5q0 -170 -211 -354q-33 -29 -123 -102h362v-158h-596zM319 0l1112 1524h222l-1112 -1524h-222z M1234 37l17 153q82 -57 217 -57q86 0 132 34t46 97q0 59 -45 91t-133 32q-121 0 -197 -20l17 469h485v-154h-330l-6 -154q33 4 68 4q154 0 237.5 -69.5t83.5 -196.5q0 -133 -93 -209.5t-257 -76.5q-72 0 -140.5 16t-101.5 41z" />
<glyph unicode="&#x2157;" horiz-adv-x="1918" d="M90 723l16 153q45 -27 102.5 -41t117.5 -14q84 0 129 35t45 94q0 53 -44 84t-118 31q-39 0 -80 -12l-41 94l221 223h-327v154h538v-146l-192 -192q102 -12 161.5 -78t59.5 -164q0 -125 -96 -200.5t-254 -75.5q-70 0 -132.5 14t-105.5 41zM262 0l1112 1524h222 l-1112 -1524h-222zM1234 37l17 153q82 -57 217 -57q86 0 132 34t46 97q0 59 -45 91t-133 32q-121 0 -197 -20l17 469h485v-154h-330l-6 -154q33 4 68 4q154 0 237.5 -69.5t83.5 -196.5q0 -133 -93 -209.5t-257 -76.5q-72 0 -140.5 16t-101.5 41z" />
<glyph unicode="&#x2158;" horiz-adv-x="1918" d="M51 868v146l381 510h184v-508h105v-148h-105v-180h-165v180h-400zM227 1016h224v299zM293 0l1112 1524h222l-1112 -1524h-222zM1234 37l17 153q82 -57 217 -57q86 0 132 34t46 97q0 59 -45 91t-133 32q-121 0 -197 -20l17 469h485v-154h-330l-6 -154q33 4 68 4 q154 0 237.5 -69.5t83.5 -196.5q0 -133 -93 -209.5t-257 -76.5q-72 0 -140.5 16t-101.5 41z" />
<glyph unicode="&#x2159;" horiz-adv-x="1918" d="M123 1399l270 125h166v-836h-184v645l-225 -102zM295 0l1112 1524h222l-1112 -1524h-222zM1200 285q0 131 87 281.5t232 271.5l221 -7q-88 -63 -170 -150t-135 -173q49 37 131 37q119 0 198 -77t79 -194q0 -131 -90.5 -212.5t-233.5 -81.5q-141 0 -230 85t-89 220z M1370 266q0 -63 41.5 -101t109.5 -38q66 0 108 39t42 100t-43 102.5t-107 41.5q-66 0 -108.5 -40t-42.5 -104z" />
<glyph unicode="&#x215a;" horiz-adv-x="1918" d="M106 725l17 153q82 -57 217 -57q86 0 132 34t46 97q0 59 -45 91t-133 32q-121 0 -197 -20l17 469h485v-154h-330l-6 -154q33 4 68 4q154 0 237.5 -69.5t83.5 -196.5q0 -133 -93 -209.5t-257 -76.5q-72 0 -140.5 16t-101.5 41zM319 0l1112 1524h222l-1112 -1524h-222z M1200 285q0 131 87 281.5t232 271.5l221 -7q-88 -63 -170 -150t-135 -173q49 37 131 37q119 0 198 -77t79 -194q0 -131 -90.5 -212.5t-233.5 -81.5q-141 0 -230 85t-89 220zM1370 266q0 -63 41.5 -101t109.5 -38q66 0 108 39t42 100t-43 102.5t-107 41.5q-66 0 -108.5 -40 t-42.5 -104z" />
<glyph unicode="&#x215b;" horiz-adv-x="1918" d="M123 1399l270 125h166v-836h-184v645l-225 -102zM243 0l1112 1524h222l-1112 -1524h-222zM1198 236q0 70 35.5 123t99.5 79q-109 57 -109 183q0 104 83 169.5t216 65.5t216 -65.5t83 -169.5q0 -125 -110 -183q63 -27 100 -81t37 -121q0 -119 -88 -187.5t-238 -68.5 t-237.5 68.5t-87.5 187.5zM1376 242q0 -57 39.5 -90t107.5 -33t108 32.5t40 90.5q0 57 -40 90t-108 33t-107.5 -33t-39.5 -90zM1394 608q0 -49 35 -79.5t94 -30.5t94 30.5t35 79.5q0 51 -34.5 82t-94.5 31q-59 0 -94 -31t-35 -82z" />
<glyph unicode="&#x215c;" horiz-adv-x="1918" d="M90 723l16 153q45 -27 102.5 -41t117.5 -14q84 0 129 35t45 94q0 53 -44 84t-118 31q-39 0 -80 -12l-41 94l221 223h-327v154h538v-146l-192 -192q102 -12 161.5 -78t59.5 -164q0 -125 -96 -200.5t-254 -75.5q-70 0 -132.5 14t-105.5 41zM260 0l1112 1524h222 l-1112 -1524h-222zM1198 236q0 70 35.5 123t99.5 79q-109 57 -109 183q0 104 83 169.5t216 65.5t216 -65.5t83 -169.5q0 -125 -110 -183q63 -27 100 -81t37 -121q0 -119 -88 -187.5t-238 -68.5t-237.5 68.5t-87.5 187.5zM1376 242q0 -57 39.5 -90t107.5 -33t108 32.5 t40 90.5q0 57 -40 90t-108 33t-107.5 -33t-39.5 -90zM1394 608q0 -49 35 -79.5t94 -30.5t94 30.5t35 79.5q0 51 -34.5 82t-94.5 31q-59 0 -94 -31t-35 -82z" />
<glyph unicode="&#x215d;" horiz-adv-x="1918" d="M106 725l17 153q82 -57 217 -57q86 0 132 34t46 97q0 59 -45 91t-133 32q-121 0 -197 -20l17 469h485v-154h-330l-6 -154q33 4 68 4q154 0 237.5 -69.5t83.5 -196.5q0 -133 -93 -209.5t-257 -76.5q-72 0 -140.5 16t-101.5 41zM256 0l1112 1524h222l-1112 -1524h-222z M1198 236q0 70 35.5 123t99.5 79q-109 57 -109 183q0 104 83 169.5t216 65.5t216 -65.5t83 -169.5q0 -125 -110 -183q63 -27 100 -81t37 -121q0 -119 -88 -187.5t-238 -68.5t-237.5 68.5t-87.5 187.5zM1376 242q0 -57 39.5 -90t107.5 -33t108 32.5t40 90.5q0 57 -40 90 t-108 33t-107.5 -33t-39.5 -90zM1394 608q0 -49 35 -79.5t94 -30.5t94 30.5t35 79.5q0 51 -34.5 82t-94.5 31q-59 0 -94 -31t-35 -82z" />
<glyph unicode="&#x215e;" horiz-adv-x="1918" d="M92 1360v164h596v-154l-326 -684l-196 6l326 668h-400zM176 0l1112 1524h222l-1112 -1524h-222zM1198 236q0 70 35.5 123t99.5 79q-109 57 -109 183q0 104 83 169.5t216 65.5t216 -65.5t83 -169.5q0 -125 -110 -183q63 -27 100 -81t37 -121q0 -119 -88 -187.5t-238 -68.5 t-237.5 68.5t-87.5 187.5zM1376 242q0 -57 39.5 -90t107.5 -33t108 32.5t40 90.5q0 57 -40 90t-108 33t-107.5 -33t-39.5 -90zM1394 608q0 -49 35 -79.5t94 -30.5t94 30.5t35 79.5q0 51 -34.5 82t-94.5 31q-59 0 -94 -31t-35 -82z" />
<glyph unicode="&#x2202;" horiz-adv-x="1269" d="M61 416q0 137 66 254.5t183.5 191.5t262.5 74q125 0 217.5 -48t135.5 -136q2 33 3 59.5t1 56.5q0 233 -92.5 357.5t-266.5 124.5q-88 0 -168.5 -33t-144.5 -92l-29 200q63 61 163 96t208 35q266 0 414.5 -182t148.5 -510q0 -262 -76.5 -464.5t-221 -317.5t-337.5 -115 q-135 0 -240.5 54.5t-166 156t-60.5 238.5zM295 428q0 -119 68.5 -187.5t187.5 -68.5q80 0 151.5 41t116.5 114.5t45 161.5q0 117 -70.5 186.5t-189.5 69.5q-133 0 -221 -90t-88 -227z" />
<glyph unicode="&#x2206;" horiz-adv-x="1622" d="M49 0l625 1556h274l625 -1556h-1524zM381 203h842l-420 1120z" />
<glyph unicode="&#x220f;" horiz-adv-x="1511" d="M199 -164v1720h1114v-1720h-256v1505h-602v-1505h-256z" />
<glyph unicode="&#x2211;" horiz-adv-x="1222" d="M72 25l465 686l-439 659v186h1024v-210h-721l412 -621l-457 -676h777v-211h-1061v187z" />
<glyph unicode="&#x2212;" horiz-adv-x="1269" d="M162 582v206h946v-206h-946z" />
<glyph unicode="&#x2215;" horiz-adv-x="337" d="M-498 0l1112 1524h222l-1112 -1524h-222z" />
<glyph unicode="&#x2219;" horiz-adv-x="604" d="M145 776q0 66 45.5 109t112.5 43q68 0 112 -43t44 -109t-44 -109.5t-112 -43.5q-70 0 -114 44t-44 109z" />
<glyph unicode="&#x221a;" horiz-adv-x="1429" d="M70 739v197h417l254 -674l529 1411h229l-651 -1673h-230l-309 739h-239z" />
<glyph unicode="&#x221e;" horiz-adv-x="1486" d="M74 711q0 168 96 270t252 102q215 0 321 -184q106 184 322 184q156 0 252 -102t96 -270t-96 -270.5t-252 -102.5q-217 0 -322 182q-51 -88 -134 -135t-187 -47q-156 0 -252 102.5t-96 270.5zM270 711q0 -86 45 -136.5t123 -50.5q63 0 118.5 48.5t92.5 138.5 q-37 90 -92 138t-119 48q-78 0 -123 -50t-45 -136zM838 711q37 -90 92.5 -138.5t118.5 -48.5q78 0 123 50.5t45 136.5t-45.5 136t-122.5 50q-63 0 -119 -48t-92 -138z" />
<glyph unicode="&#x222b;" horiz-adv-x="868" d="M-63 -477l22 194q29 -14 77 -23t85 -9q92 0 133 60t41 194q0 68 -2 92l-70 1106q-2 29 -2 100q0 217 97.5 330.5t283.5 113.5q51 0 110.5 -12t96.5 -31l-21 -194q-33 14 -79.5 23.5t-81.5 9.5q-92 0 -133 -60.5t-41 -193.5q0 -63 2 -93l69 -1105q2 -20 2 -101 q0 -217 -98.5 -330.5t-284.5 -113.5q-51 0 -109.5 12t-96.5 31z" />
<glyph unicode="&#x2248;" horiz-adv-x="1269" d="M100 246v28q0 182 82 285.5t226 103.5q68 0 130 -26.5t132 -83.5q68 -57 103.5 -78t72.5 -21q63 0 96 53.5t33 153.5h194v-28q0 -182 -82 -286t-225 -104q-68 0 -130 27t-132 84q-68 57 -103.5 77.5t-72.5 20.5q-63 0 -96 -53t-33 -153h-195zM100 781v28q0 182 82 285.5 t226 103.5q68 0 130 -26.5t132 -83.5q68 -57 103.5 -78t72.5 -21q63 0 96 53.5t33 153.5h194v-28q0 -182 -82 -286t-225 -104q-68 0 -130 27t-132 84q-68 57 -103.5 77.5t-72.5 20.5q-63 0 -96 -53t-33 -153h-195z" />
<glyph unicode="&#x2260;" horiz-adv-x="1269" d="M199 340v201h276l135 282h-411v201h506l112 233h182l-112 -233h184v-201h-278l-136 -282h414v-201h-510l-110 -234h-183l111 234h-180z" />
<glyph unicode="&#x2264;" horiz-adv-x="1269" d="M162 2v206h946v-206h-946zM193 699v227l884 377v-221l-639 -267l639 -266v-225z" />
<glyph unicode="&#x2265;" horiz-adv-x="1269" d="M162 2v206h946v-206h-946zM193 324v225l638 264l-638 267v223l884 -377v-227z" />
<glyph unicode="&#x25ca;" horiz-adv-x="1329" d="M90 829l473 832h207l469 -832l-469 -829h-207zM336 829l328 -587l331 587l-331 592z" />
<glyph unicode="&#x25fc;" horiz-adv-x="1034" d="M0 0v1034h1034v-1034h-1034z" />
<glyph unicode="&#xf507;" horiz-adv-x="1918" d="M94 688v158q125 96 232 198q86 82 119.5 135.5t33.5 106.5q0 47 -35.5 74.5t-93.5 27.5q-111 0 -215 -104l-35 152q45 49 121 78.5t158 29.5q125 0 204 -66.5t79 -175.5q0 -170 -211 -354q-33 -29 -123 -102h362v-158h-596zM286 0l1112 1524h222l-1112 -1524h-222z M1220 672v164h596v-154l-326 -684l-196 6l326 668h-400z" />
<glyph unicode="&#xf508;" horiz-adv-x="1918" d="M90 723l16 153q45 -27 102.5 -41t117.5 -14q84 0 129 35t45 94q0 53 -44 84t-118 31q-39 0 -80 -12l-41 94l221 223h-327v154h538v-146l-192 -192q102 -12 161.5 -78t59.5 -164q0 -125 -96 -200.5t-254 -75.5q-70 0 -132.5 14t-105.5 41zM233 0l1112 1524h222 l-1112 -1524h-222zM1220 672v164h596v-154l-326 -684l-196 6l326 668h-400z" />
<glyph unicode="&#xf509;" horiz-adv-x="1918" d="M51 868v146l381 510h184v-508h105v-148h-105v-180h-165v180h-400zM227 1016h224v299zM258 0l1112 1524h222l-1112 -1524h-222zM1220 672v164h596v-154l-326 -684l-196 6l326 668h-400z" />
<glyph unicode="&#xf50a;" horiz-adv-x="1918" d="M106 725l17 153q82 -57 217 -57q86 0 132 34t46 97q0 59 -45 91t-133 32q-121 0 -197 -20l17 469h485v-154h-330l-6 -154q33 4 68 4q154 0 237.5 -69.5t83.5 -196.5q0 -133 -93 -209.5t-257 -76.5q-72 0 -140.5 16t-101.5 41zM235 0l1112 1524h222l-1112 -1524h-222z M1220 672v164h596v-154l-326 -684l-196 6l326 668h-400z" />
<glyph unicode="&#xf50b;" horiz-adv-x="1918" d="M72 973q0 131 87 281.5t232 271.5l221 -7q-88 -63 -170 -150t-135 -173q49 37 131 37q119 0 198 -77t79 -194q0 -131 -90.5 -212.5t-233.5 -81.5q-141 0 -230 85t-89 220zM235 0l1112 1524h222l-1112 -1524h-222zM242 954q0 -63 41.5 -101t109.5 -38q66 0 108 39t42 100 t-43 102.5t-107 41.5q-66 0 -108.5 -40t-42.5 -104zM1220 672v164h596v-154l-326 -684l-196 6l326 668h-400z" />
<glyph unicode="&#xf50d;" horiz-adv-x="1918" d="M94 688v158q125 96 232 198q86 82 119.5 135.5t33.5 106.5q0 47 -35.5 74.5t-93.5 27.5q-111 0 -215 -104l-35 152q45 49 121 78.5t158 29.5q125 0 204 -66.5t79 -175.5q0 -170 -211 -354q-33 -29 -123 -102h362v-158h-596zM313 0l1112 1524h222l-1112 -1524h-222z M1200 561q0 131 90 213t233 82q141 0 230.5 -85t89.5 -220q0 -131 -87 -281.5t-233 -271.5l-221 6q90 68 172 154t133 168q-47 -35 -131 -35q-119 0 -197.5 76.5t-78.5 193.5zM1372 569q0 -61 43 -102t106 -41q66 0 109 40t43 103t-42 101.5t-110 38.5q-66 0 -107.5 -39 t-41.5 -101z" />
<glyph unicode="&#xf50e;" horiz-adv-x="1918" d="M51 868v146l381 510h184v-508h105v-148h-105v-180h-165v180h-400zM227 1016h224v299zM319 0l1112 1524h222l-1112 -1524h-222zM1200 561q0 131 90 213t233 82q141 0 230.5 -85t89.5 -220q0 -131 -87 -281.5t-233 -271.5l-221 6q90 68 172 154t133 168q-47 -35 -131 -35 q-119 0 -197.5 76.5t-78.5 193.5zM1372 569q0 -61 43 -102t106 -41q66 0 109 40t43 103t-42 101.5t-110 38.5q-66 0 -107.5 -39t-41.5 -101z" />
<glyph unicode="&#xf50f;" horiz-adv-x="1918" d="M106 725l17 153q82 -57 217 -57q86 0 132 34t46 97q0 59 -45 91t-133 32q-121 0 -197 -20l17 469h485v-154h-330l-6 -154q33 4 68 4q154 0 237.5 -69.5t83.5 -196.5q0 -133 -93 -209.5t-257 -76.5q-72 0 -140.5 16t-101.5 41zM282 0l1112 1524h222l-1112 -1524h-222z M1200 561q0 131 90 213t233 82q141 0 230.5 -85t89.5 -220q0 -131 -87 -281.5t-233 -271.5l-221 6q90 68 172 154t133 168q-47 -35 -131 -35q-119 0 -197.5 76.5t-78.5 193.5zM1372 569q0 -61 43 -102t106 -41q66 0 109 40t43 103t-42 101.5t-110 38.5q-66 0 -107.5 -39 t-41.5 -101z" />
<glyph unicode="&#xf510;" horiz-adv-x="1918" d="M92 1360v164h596v-154l-326 -684l-196 6l326 668h-400zM186 0l1112 1524h222l-1112 -1524h-222zM1200 561q0 131 90 213t233 82q141 0 230.5 -85t89.5 -220q0 -131 -87 -281.5t-233 -271.5l-221 6q90 68 172 154t133 168q-47 -35 -131 -35q-119 0 -197.5 76.5 t-78.5 193.5zM1372 569q0 -61 43 -102t106 -41q66 0 109 40t43 103t-42 101.5t-110 38.5q-66 0 -107.5 -39t-41.5 -101z" />
<glyph unicode="&#xf511;" horiz-adv-x="1918" d="M70 924q0 70 35.5 123t99.5 79q-109 57 -109 183q0 104 83 169.5t216 65.5t216 -65.5t83 -169.5q0 -125 -110 -183q63 -27 100 -81t37 -121q0 -119 -88 -187.5t-238 -68.5t-237.5 68.5t-87.5 187.5zM248 930q0 -57 39.5 -90t107.5 -33t108 32.5t40 90.5q0 57 -40 90 t-108 33t-107.5 -33t-39.5 -90zM266 1296q0 -49 35 -79.5t94 -30.5t94 30.5t35 79.5q0 51 -34.5 82t-94.5 31q-59 0 -94 -31t-35 -82zM293 0l1112 1524h222l-1112 -1524h-222zM1200 561q0 131 90 213t233 82q141 0 230.5 -85t89.5 -220q0 -131 -87 -281.5t-233 -271.5 l-221 6q90 68 172 154t133 168q-47 -35 -131 -35q-119 0 -197.5 76.5t-78.5 193.5zM1372 569q0 -61 43 -102t106 -41q66 0 109 40t43 103t-42 101.5t-110 38.5q-66 0 -107.5 -39t-41.5 -101z" />
<glyph unicode="&#xfb01;" horiz-adv-x="1411" d="M47 836v198h199v146q0 238 107.5 363.5t310.5 125.5q100 0 192 -33l-18 -198q-68 25 -140 24q-115 0 -166 -71.5t-51 -233.5v-123h299v-198h-299v-836h-235v836h-199zM979 1421q0 63 42 104.5t105 41.5t105.5 -41t42.5 -105q0 -63 -42.5 -105t-105.5 -42t-105 42t-42 105 zM1010 0v1034h235v-1034h-235z" />
<glyph unicode="&#xfb02;" horiz-adv-x="1411" d="M47 836v198h199v146q0 238 107.5 363.5t310.5 125.5q100 0 192 -33l-18 -198q-68 25 -140 24q-115 0 -166 -71.5t-51 -233.5v-123h299v-198h-299v-836h-235v836h-199zM1010 0v1659h235v-1659h-235z" />
<glyph unicode="&#xfeff;" horiz-adv-x="0" />
<glyph horiz-adv-x="1282" d="M80 762q0 373 149.5 583.5t411.5 210.5t411.5 -210.5t149.5 -583.5t-149.5 -584t-411.5 -211t-411.5 211t-149.5 584zM336 762q0 -283 77.5 -431.5t227.5 -148.5t227.5 148.5t77.5 431.5t-77.5 431t-227.5 148t-227.5 -148.5t-77.5 -430.5z" />
<glyph horiz-adv-x="1024" d="M84 1303l493 221h189v-1524h-240v1274l-405 -182z" />
<glyph horiz-adv-x="1239" d="M129 0v193q248 231 388 395q166 197 226 307.5t60 214.5q0 111 -65.5 174.5t-180.5 63.5q-102 0 -198 -47.5t-170 -135.5l-45 211q80 84 198.5 132t249.5 48q209 0 334 -112.5t125 -302.5q0 -147 -78 -298t-252 -341q-164 -176 -280 -285h653v-217h-965z" />
<glyph horiz-adv-x="1216" d="M102 66l21 210q174 -102 379 -102q152 0 238.5 74t86.5 203q0 127 -84 198.5t-233 71.5q-59 0 -135 -16l-62 139l420 463h-608v217h901v-189l-401 -440q133 -6 233 -61.5t156.5 -152.5t56.5 -228q0 -225 -150.5 -355.5t-412.5 -130.5q-117 0 -225.5 26.5t-180.5 72.5z " />
<glyph horiz-adv-x="1294" d="M84 360v201l672 963h247v-961h195v-203h-195v-360h-233v360h-686zM315 563h455v647z" />
<glyph horiz-adv-x="1228" d="M121 63l21 211q78 -47 176 -73.5t196 -26.5q162 0 254.5 79t92.5 218q0 133 -99.5 210t-273.5 77q-61 0 -146.5 -10.5t-154.5 -26.5l28 803h793v-217h-584l-14 -365q72 14 147 14q250 0 398.5 -130t148.5 -351q0 -231 -156.5 -369.5t-418.5 -138.5q-115 0 -228.5 26.5 t-179.5 69.5z" />
<glyph horiz-adv-x="1261" d="M119 489q0 160 68.5 343.5t197.5 364.5t303 331l293 -10q-399 -332 -551 -672q55 51 120.5 74.5t156.5 23.5q125 0 229 -59.5t167.5 -168t63.5 -245.5q0 -141 -65.5 -256t-186 -181.5t-278.5 -66.5q-236 0 -377 142.5t-141 379.5zM350 459q0 -127 82 -210t209 -83 q125 0 207 82t82 211q0 131 -80 213t-209 82q-82 0 -147.5 -37t-104.5 -104.5t-39 -153.5z" />
<glyph horiz-adv-x="1185" d="M104 1298v226h991v-205l-571 -1323l-250 10l567 1292h-737z" />
<glyph horiz-adv-x="1269" d="M94 410q0 131 66.5 235.5t179.5 151.5q-98 49 -152.5 141t-54.5 207q0 117 61.5 210t176 147t264.5 54q141 0 255 -50t180.5 -144t66.5 -217q0 -115 -54.5 -207t-152.5 -141q113 -47 179.5 -151.5t66.5 -235.5q0 -129 -66 -228.5t-188.5 -157t-286.5 -57.5 q-158 0 -280 54.5t-191.5 154.5t-69.5 234zM344 432q0 -119 79 -189.5t212 -70.5t212 70.5t79 189.5t-79 189.5t-212 70.5t-212 -70.5t-79 -189.5zM373 1122q0 -111 69.5 -173t192.5 -62t192.5 62.5t69.5 172.5q0 109 -71.5 173.5t-190.5 64.5t-190.5 -64.5t-71.5 -173.5z " />
<glyph horiz-adv-x="1261" d="M98 1053q0 141 65.5 255.5t186.5 181t279 66.5q236 0 377 -142t141 -380q0 -160 -68.5 -343t-197.5 -364.5t-303 -330.5l-293 10q403 340 551 670q-57 -51 -123 -73.5t-154 -22.5q-125 0 -229.5 59t-168 167.5t-63.5 246.5zM336 1065q0 -131 80 -213t209 -82 q82 0 147.5 37t104.5 104.5t39 153.5q0 127 -82 210t-209 83q-125 0 -207 -82t-82 -211z" />
<glyph d="M41 418q0 201 96 319.5t258 118.5t257.5 -119t95.5 -319q0 -201 -95.5 -319.5t-257.5 -118.5t-258 118.5t-96 319.5zM229 418q0 -133 43 -207t123 -74q78 0 121 73t43 208t-43 207.5t-121 72.5q-80 0 -123 -73.5t-43 -206.5z" />
<glyph d="M123 711l270 125h166v-836h-184v645l-225 -102z" />
<glyph d="M94 0v158q125 96 232 198q86 82 119.5 135.5t33.5 106.5q0 47 -35.5 74.5t-93.5 27.5q-111 0 -215 -104l-35 152q45 49 121 78.5t158 29.5q125 0 204 -66.5t79 -175.5q0 -170 -211 -354q-33 -29 -123 -102h362v-158h-596z" />
<glyph d="M90 35l16 153q45 -27 102.5 -41t117.5 -14q84 0 129 35t45 94q0 53 -44 84t-118 31q-39 0 -80 -12l-41 94l221 223h-327v154h538v-146l-192 -192q102 -12 161.5 -78t59.5 -164q0 -125 -96 -200.5t-254 -75.5q-70 0 -132.5 14t-105.5 41z" />
<glyph d="M51 180v146l381 510h184v-508h105v-148h-105v-180h-165v180h-400zM227 328h224v299z" />
<glyph d="M106 37l17 153q82 -57 217 -57q86 0 132 34t46 97q0 59 -45 91t-133 32q-121 0 -197 -20l17 469h485v-154h-330l-6 -154q33 4 68 4q154 0 237.5 -69.5t83.5 -196.5q0 -133 -93 -209.5t-257 -76.5q-72 0 -140.5 16t-101.5 41z" />
<glyph d="M72 285q0 131 87 281.5t232 271.5l221 -7q-88 -63 -170 -150t-135 -173q49 37 131 37q119 0 198 -77t79 -194q0 -131 -90.5 -212.5t-233.5 -81.5q-141 0 -230 85t-89 220zM242 266q0 -63 41.5 -101t109.5 -38q66 0 108 39t42 100t-43 102.5t-107 41.5q-66 0 -108.5 -40 t-42.5 -104z" />
<glyph d="M92 672v164h596v-154l-326 -684l-196 6l326 668h-400z" />
<glyph d="M70 236q0 70 35.5 123t99.5 79q-109 57 -109 183q0 104 83 169.5t216 65.5t216 -65.5t83 -169.5q0 -125 -110 -183q63 -27 100 -81t37 -121q0 -119 -88 -187.5t-238 -68.5t-237.5 68.5t-87.5 187.5zM248 242q0 -57 39.5 -90t107.5 -33t108 32.5t40 90.5q0 57 -40 90 t-108 33t-107.5 -33t-39.5 -90zM266 608q0 -49 35 -79.5t94 -30.5t94 30.5t35 79.5q0 51 -34.5 82t-94.5 31q-59 0 -94 -31t-35 -82z" />
<glyph d="M72 561q0 131 90 213t233 82q141 0 230.5 -85t89.5 -220q0 -131 -87 -281.5t-233 -271.5l-221 6q90 68 172 154t133 168q-47 -35 -131 -35q-119 0 -197.5 76.5t-78.5 193.5zM244 569q0 -61 43 -102t106 -41q66 0 109 40t43 103t-42 101.5t-110 38.5q-66 0 -107.5 -39 t-41.5 -101z" />
<glyph d="M41 1106q0 201 96 319.5t258 118.5t257.5 -119t95.5 -319q0 -201 -95.5 -319.5t-257.5 -118.5t-258 118.5t-96 319.5zM229 1106q0 -133 43 -207t123 -74q78 0 121 73t43 208t-43 207.5t-121 72.5q-80 0 -123 -73.5t-43 -206.5z" />
<glyph d="M123 1399l270 125h166v-836h-184v645l-225 -102z" />
<glyph d="M94 688v158q125 96 232 198q86 82 119.5 135.5t33.5 106.5q0 47 -35.5 74.5t-93.5 27.5q-111 0 -215 -104l-35 152q45 49 121 78.5t158 29.5q125 0 204 -66.5t79 -175.5q0 -170 -211 -354q-33 -29 -123 -102h362v-158h-596z" />
<glyph d="M90 723l16 153q45 -27 102.5 -41t117.5 -14q84 0 129 35t45 94q0 53 -44 84t-118 31q-39 0 -80 -12l-41 94l221 223h-327v154h538v-146l-192 -192q102 -12 161.5 -78t59.5 -164q0 -125 -96 -200.5t-254 -75.5q-70 0 -132.5 14t-105.5 41z" />
<glyph d="M51 868v146l381 510h184v-508h105v-148h-105v-180h-165v180h-400zM227 1016h224v299z" />
<glyph d="M106 725l17 153q82 -57 217 -57q86 0 132 34t46 97q0 59 -45 91t-133 32q-121 0 -197 -20l17 469h485v-154h-330l-6 -154q33 4 68 4q154 0 237.5 -69.5t83.5 -196.5q0 -133 -93 -209.5t-257 -76.5q-72 0 -140.5 16t-101.5 41z" />
<glyph d="M72 973q0 131 87 281.5t232 271.5l221 -7q-88 -63 -170 -150t-135 -173q49 37 131 37q119 0 198 -77t79 -194q0 -131 -90.5 -212.5t-233.5 -81.5q-141 0 -230 85t-89 220zM242 954q0 -63 41.5 -101t109.5 -38q66 0 108 39t42 100t-43 102.5t-107 41.5q-66 0 -108.5 -40 t-42.5 -104z" />
<glyph d="M92 1360v164h596v-154l-326 -684l-196 6l326 668h-400z" />
<glyph d="M70 924q0 70 35.5 123t99.5 79q-109 57 -109 183q0 104 83 169.5t216 65.5t216 -65.5t83 -169.5q0 -125 -110 -183q63 -27 100 -81t37 -121q0 -119 -88 -187.5t-238 -68.5t-237.5 68.5t-87.5 187.5zM248 930q0 -57 39.5 -90t107.5 -33t108 32.5t40 90.5q0 57 -40 90 t-108 33t-107.5 -33t-39.5 -90zM266 1296q0 -49 35 -79.5t94 -30.5t94 30.5t35 79.5q0 51 -34.5 82t-94.5 31q-59 0 -94 -31t-35 -82z" />
<glyph d="M72 1249q0 131 90 213t233 82q141 0 230.5 -85t89.5 -220q0 -131 -87 -281.5t-233 -271.5l-221 6q90 68 172 154t133 168q-47 -35 -131 -35q-119 0 -197.5 76.5t-78.5 193.5zM244 1257q0 -61 43 -102t106 -41q66 0 109 40t43 103t-42 101.5t-110 38.5q-66 0 -107.5 -39 t-41.5 -101z" />
<glyph horiz-adv-x="890" d="M137 669v215h617v-215h-617z" />
<glyph horiz-adv-x="1024" d="M0 682v192h1024v-192h-1024z" />
<glyph horiz-adv-x="2048" d="M0 682v192h2048v-192h-2048z" />
<glyph horiz-adv-x="849" d="M164 852q0 287 106.5 555.5t280.5 421.5h268q-207 -180 -317.5 -434t-110.5 -543q0 -291 111.5 -543.5t316.5 -430.5h-268q-174 156 -280.5 422t-106.5 552z" />
<glyph horiz-adv-x="849" d="M31 -122q207 180 317.5 434t110.5 543q0 291 -111.5 543.5t-316.5 430.5h268q174 -156 280.5 -422t106.5 -552q0 -287 -106.5 -555.5t-280.5 -421.5h-268z" />
<glyph horiz-adv-x="1091" d="M31 -188l796 1931h234l-797 -1931h-233z" />
<glyph horiz-adv-x="1091" d="M31 1743h233l797 -1931h-234z" />
<glyph horiz-adv-x="841" d="M225 -125v1951h541v-194h-320v-1563h320v-194h-541z" />
<glyph horiz-adv-x="841" d="M76 69h319v1563h-319v194h540v-1951h-540v194z" />
<glyph horiz-adv-x="888" d="M98 746v199h56q109 0 149.5 34.5t40.5 126.5q-2 72 -16.5 141.5t-28.5 136t-16 132.5q0 164 95 240.5t298 76.5q51 0 112 -4v-188q-25 2 -92 2q-98 0 -145 -38t-47 -116q2 -51 16.5 -116.5t27.5 -139t15 -145.5q0 -86 -40 -149.5t-111 -94.5q72 -27 111.5 -90t39.5 -151 q-2 -72 -16.5 -146t-27.5 -139.5t-15 -116.5q0 -78 47 -115.5t145 -37.5q68 0 92 2v-189q-61 -4 -112 -4q-203 0 -298 77t-95 241q2 66 16 132t28.5 135.5t16.5 141.5q0 92 -41 127t-149 35h-56z" />
<glyph horiz-adv-x="888" d="M100 50q25 -2 93 -2q98 0 145 37.5t47 115.5q-2 51 -15.5 116.5t-27.5 139.5t-16 146q0 86 40 149.5t111 93.5q-72 27 -111.5 90.5t-39.5 151.5q2 72 16 145.5t27.5 139t15.5 116.5q0 78 -47 116t-145 38q-68 0 -93 -2v188q61 4 113 4q203 0 298 -76.5t95 -240.5 q-2 -66 -16.5 -132.5t-28.5 -136t-16 -141.5q0 -92 41 -126.5t149 -34.5h56v-199h-56q-109 0 -149.5 -35t-40.5 -127q2 -72 16 -141.5t28.5 -136t16.5 -131.5q0 -164 -95 -241t-298 -77q-51 0 -113 4v189z" />
<glyph horiz-adv-x="720" d="M100 670q0 109 76 184.5t184 75.5q109 0 185 -75.5t76 -184.5t-76 -184.5t-185 -75.5q-106 0 -183 77t-77 183z" />
<glyph horiz-adv-x="706" d="M61 778l301 445h263l-306 -445l306 -444h-263z" />
<glyph horiz-adv-x="706" d="M82 334l305 444l-305 445h262l301 -445l-301 -444h-262z" />
<glyph horiz-adv-x="1157" d="M61 778l301 445h263l-306 -445l306 -444h-263zM512 778l301 445h263l-306 -445l306 -444h-263z" />
<glyph horiz-adv-x="1157" d="M82 334l305 444l-305 445h262l301 -445l-301 -444h-262zM533 334l305 444l-305 445h262l301 -445l-301 -444h-262z" />
<glyph horiz-adv-x="2076" d="M100 694q0 264 130 489.5t368 363.5t535 138q244 0 436 -95t304 -273.5t112 -413.5q0 -170 -59.5 -308.5t-169 -221t-251.5 -82.5q-102 0 -172.5 39.5t-97.5 111.5q-41 -70 -122 -109.5t-179 -39.5q-162 0 -262.5 113.5t-100.5 295.5q0 137 56.5 253t159 187.5 t229.5 71.5q96 0 170 -43t108 -119l31 129h191l-91 -538q-6 -39 -6 -72q0 -59 25.5 -87t81.5 -28q72 0 132 54.5t98 154t38 222.5q0 186 -80 326t-231.5 218t-360.5 78q-229 0 -417.5 -100.5t-301 -286.5t-112.5 -426q0 -203 87 -356.5t251 -239.5t389 -86q231 0 452 98 l17 -178q-223 -96 -475 -96q-264 0 -470 104.5t-324 299t-118 452.5zM778 721q0 -119 55.5 -181.5t159.5 -62.5q115 0 187.5 86t72.5 223q0 117 -55 179.5t-160 62.5q-115 0 -187.5 -86t-72.5 -221z" />
<glyph horiz-adv-x="604" d="M145 817q0 66 45.5 109t112.5 43q68 0 112 -43t44 -109t-44 -109.5t-112 -43.5q-70 0 -114 44t-44 109z" />
<glyph horiz-adv-x="1163" d="M96 293q0 162 116 261t306 99q152 0 273 -49v8q0 127 -74 193.5t-211 66.5q-174 0 -328 -106l-20 192q66 49 168 79t206 30q229 0 351.5 -119t122.5 -338v-610h-205l-4 117q-47 -72 -132.5 -111t-191.5 -39q-174 0 -275.5 88t-101.5 238zM313 307q0 -74 51.5 -115.5 t143.5 -41.5q125 0 198.5 74.5t81.5 209.5q-121 45 -237 45q-115 0 -176.5 -44t-61.5 -128z" />
<glyph horiz-adv-x="1185" d="M53 -213q0 96 49.5 161.5t143.5 92.5q-66 20 -99.5 64.5t-33.5 107.5q0 129 149 203q-145 98 -145 291q0 162 124 261t326 99q115 0 215 -41l367 29v-207l-176 12q51 -68 51 -166q0 -168 -122 -267t-329 -99q-102 0 -161 22q-82 -43 -82 -102q0 -47 46 -64.5t163 -17.5 h75q244 0 364 -81t120 -245q0 -176 -139.5 -268t-405.5 -92q-242 0 -371 80t-129 227zM272 -176q0 -78 77 -119t224 -41q301 0 301 168q0 76 -66.5 109.5t-215.5 33.5h-47q-272 0 -273 -151zM342 696q0 -90 60 -139t169 -49t168.5 49t59.5 139t-60.5 140.5t-169.5 50.5 t-168 -50.5t-59 -140.5z" />
<glyph horiz-adv-x="1177" d="M31 -477l30 205q53 -33 132 -33q80 0 134 57.5t122 216.5l30 72l-442 993h252l311 -753l287 753h254l-459 -1095q-74 -176 -142.5 -275.5t-145.5 -141.5t-181 -42q-57 0 -106.5 11t-75.5 32z" />
<glyph horiz-adv-x="604" d="M145 776q0 66 44 110t114 44q68 0 112 -44t44 -110t-44 -109.5t-112 -43.5q-70 0 -114 44t-44 109z" />
<glyph horiz-adv-x="604" d="M145 836q0 66 44 109.5t114 43.5q68 0 112 -44t44 -109q0 -66 -44 -110t-112 -44q-70 0 -114 44t-44 110z" />
<glyph horiz-adv-x="1892" d="M96 293q0 164 116 262t306 98q150 0 273 -49q0 131 -72 199.5t-213 68.5q-174 0 -328 -106l-20 192q66 49 168 79t206 30q139 0 237.5 -50t141.5 -145q51 88 157 141.5t228 53.5q139 0 248 -61.5t170.5 -178t61.5 -272.5q0 -74 -9 -117h-761q23 -133 120 -205.5 t254 -72.5q184 0 349 80l24 -185q-72 -41 -176 -64.5t-217 -23.5q-172 0 -301 61.5t-195 174.5q-47 -111 -150.5 -173.5t-240.5 -62.5q-172 0 -274.5 87t-102.5 239zM313 307q0 -74 51.5 -115.5t143.5 -41.5q125 0 198.5 74.5t81.5 209.5q-121 45 -237 45q-115 0 -176.5 -44 t-61.5 -128zM1004 616h542q-8 127 -75.5 197t-186.5 70q-117 0 -190.5 -70t-89.5 -197z" />
<glyph horiz-adv-x="0" d="M-236 -492l31 142q57 -29 139 -29q115 0 115 72q0 68 -117 67q-57 0 -77 -6l71 266h154l-41 -139q92 -6 148.5 -59t56.5 -135q0 -102 -79 -159.5t-218 -57.5q-45 0 -98.5 11t-84.5 27z" />
<glyph horiz-adv-x="0" d="M-201 -504q41 74 64.5 172.5t23.5 200.5h230q-2 -59 -20.5 -129t-49.5 -135.5t-70 -108.5h-178z" />
<glyph horiz-adv-x="0" d="M-270 -324q0 102 76.5 205t216.5 185l104 -66q-96 -72 -148.5 -141.5t-52.5 -126.5q0 -74 86 -74q55 0 111 27l18 -168q-72 -41 -174 -41q-113 0 -175 53t-62 147z" />
<glyph horiz-adv-x="0" d="M-221 -324q0 113 89 219.5t230 163.5l142 -4q-268 -180 -269 -323q0 -76 90 -76q66 0 111 27l21 -166q-66 -41 -175 -41q-115 0 -177 53t-62 147z" />
<glyph horiz-adv-x="0" d="M-223 -326q0 113 96 226.5t246 177.5l123 -12q-129 -88 -198 -173.5t-69 -156.5q0 -78 91 -78q63 0 114 29l21 -168q-27 -20 -77.5 -31.5t-105.5 -11.5q-113 0 -177 53t-64 145z" />
<glyph horiz-adv-x="1185" d="M53 -213q0 96 49.5 161.5t143.5 92.5q-66 20 -99.5 64.5t-33.5 107.5q0 129 149 203q-145 98 -145 291q0 162 124 261t326 99q115 0 215 -41l367 29v-207l-176 12q51 -68 51 -166q0 -168 -122 -267t-329 -99q-102 0 -161 22q-82 -43 -82 -102q0 -47 46 -64.5t163 -17.5 h75q244 0 364 -81t120 -245q0 -176 -139.5 -268t-405.5 -92q-242 0 -371 80t-129 227zM272 -176q0 -78 77 -119t224 -41q301 0 301 168q0 76 -66.5 109.5t-215.5 33.5h-47q-272 0 -273 -151zM342 696q0 -90 60 -139t169 -49t168.5 49t59.5 139t-60.5 140.5t-169.5 50.5 t-168 -50.5t-59 -140.5zM469 1249q2 94 39 185.5t98 160.5h172q-80 -145 -82 -346h-227z" />
<glyph horiz-adv-x="1163" d="M96 293q0 162 116 261t306 99q152 0 273 -49v8q0 127 -74 193.5t-211 66.5q-174 0 -328 -106l-20 192q66 49 168 79t206 30q229 0 351.5 -119t122.5 -338v-610h-205l-4 117q-47 -72 -132.5 -111t-191.5 -39q-174 0 -275.5 88t-101.5 238zM313 307q0 -74 51.5 -115.5 t143.5 -41.5q125 0 198.5 74.5t81.5 209.5q-121 45 -237 45q-115 0 -176.5 -44t-61.5 -128zM611 -324q0 104 77.5 208t214.5 182l103 -66q-98 -72 -150.5 -141.5t-52.5 -126.5q0 -76 88 -76q61 0 113 27l18 -166q-72 -41 -174 -41q-113 0 -175 53t-62 147z" />
<glyph horiz-adv-x="0" d="M-184 1710l229 281h295l-293 -281h-231z" />
<glyph horiz-adv-x="0" d="M-352 1710l176 279h270l-227 -279h-219zM49 1710l178 279h269l-226 -279h-221z" />
<glyph horiz-adv-x="1163" d="M96 293q0 162 116 261t306 99q152 0 273 -49v8q0 127 -74 193.5t-211 66.5q-174 0 -328 -106l-20 192q66 49 168 79t206 30q229 0 351.5 -119t122.5 -338v-610h-205l-4 117q-47 -72 -132.5 -111t-191.5 -39q-174 0 -275.5 88t-101.5 238zM313 307q0 -74 51.5 -115.5 t143.5 -41.5q125 0 198.5 74.5t81.5 209.5q-121 45 -237 45q-115 0 -176.5 -44t-61.5 -128zM375 1249l217 338h268l-276 -338h-209z" />
<glyph horiz-adv-x="1177" d="M31 -477l30 205q53 -33 132 -33q80 0 134 57.5t122 216.5l30 72l-442 993h252l311 -753l287 753h254l-459 -1095q-74 -176 -142.5 -275.5t-145.5 -141.5t-181 -42q-57 0 -106.5 11t-75.5 32zM420 1249l217 338h268l-276 -338h-209z" />
<glyph horiz-adv-x="0" d="M-342 1991h295l231 -281h-231z" />
<glyph horiz-adv-x="1163" d="M96 293q0 162 116 261t306 99q152 0 273 -49v8q0 127 -74 193.5t-211 66.5q-174 0 -328 -106l-20 192q66 49 168 79t206 30q229 0 351.5 -119t122.5 -338v-610h-205l-4 117q-47 -72 -132.5 -111t-191.5 -39q-174 0 -275.5 88t-101.5 238zM234 1587h268l219 -338h-209z M313 307q0 -74 51.5 -115.5t143.5 -41.5q125 0 198.5 74.5t81.5 209.5q-121 45 -237 45q-115 0 -176.5 -44t-61.5 -128z" />
<glyph horiz-adv-x="1177" d="M31 -477l30 205q53 -33 132 -33q80 0 134 57.5t122 216.5l30 72l-442 993h252l311 -753l287 753h254l-459 -1095q-74 -176 -142.5 -275.5t-145.5 -141.5t-181 -42q-57 0 -106.5 11t-75.5 32zM279 1587h268l219 -338h-209z" />
<glyph horiz-adv-x="0" d="M-403 1710l288 301h230l288 -301h-245l-158 166l-158 -166h-245z" />
<glyph horiz-adv-x="0" d="M-367 1708v14q2 141 57.5 215t159.5 74q55 0 95.5 -19.5t71 -44t58 -44t58.5 -19.5q35 0 50.5 29t15.5 94h170v-14q-4 -141 -59.5 -214t-157.5 -73q-55 0 -96.5 19.5t-72 44t-58 44t-56.5 19.5q-35 0 -51.5 -29.5t-16.5 -95.5h-168z" />
<glyph horiz-adv-x="1163" d="M96 293q0 162 116 261t306 99q152 0 273 -49v8q0 127 -74 193.5t-211 66.5q-174 0 -328 -106l-20 192q66 49 168 79t206 30q229 0 351.5 -119t122.5 -338v-610h-205l-4 117q-47 -72 -132.5 -111t-191.5 -39q-174 0 -275.5 88t-101.5 238zM162 1249l285 338h200l285 -338 h-219l-166 197l-166 -197h-219zM313 307q0 -74 51.5 -115.5t143.5 -41.5q125 0 198.5 74.5t81.5 209.5q-121 45 -237 45q-115 0 -176.5 -44t-61.5 -128z" />
<glyph horiz-adv-x="1177" d="M31 -477l30 205q53 -33 132 -33q80 0 134 57.5t122 216.5l30 72l-442 993h252l311 -753l287 753h254l-459 -1095q-74 -176 -142.5 -275.5t-145.5 -141.5t-181 -42q-57 0 -106.5 11t-75.5 32zM207 1249l285 338h200l285 -338h-219l-166 197l-166 -197h-219z" />
<glyph horiz-adv-x="1163" d="M96 293q0 162 116 261t306 99q152 0 273 -49v8q0 127 -74 193.5t-211 66.5q-174 0 -328 -106l-20 192q66 49 168 79t206 30q229 0 351.5 -119t122.5 -338v-610h-205l-4 117q-47 -72 -132.5 -111t-191.5 -39q-174 0 -275.5 88t-101.5 238zM182 1266v22q2 133 57.5 205 t153.5 72q59 0 101.5 -19.5t73 -43t57 -43t57.5 -19.5q35 0 50.5 28.5t15.5 94.5h166v-23q-2 -133 -57.5 -204.5t-153.5 -71.5q-59 0 -101.5 19.5t-73 43t-57 43t-57.5 19.5q-35 0 -50.5 -29t-15.5 -94h-166zM313 307q0 -74 51.5 -115.5t143.5 -41.5q125 0 198.5 74.5 t81.5 209.5q-121 45 -237 45q-115 0 -176.5 -44t-61.5 -128z" />
<glyph horiz-adv-x="0" d="M-403 2011h245l158 -168l158 168h245l-288 -301h-230z" />
<glyph horiz-adv-x="0" d="M-119 1227l23 432h227l-96 -432h-154z" />
<glyph horiz-adv-x="0" d="M-326 1741v180h652v-180h-652z" />
<glyph horiz-adv-x="1163" d="M96 293q0 162 116 261t306 99q152 0 273 -49v8q0 127 -74 193.5t-211 66.5q-174 0 -328 -106l-20 192q66 49 168 79t206 30q229 0 351.5 -119t122.5 -338v-610h-205l-4 117q-47 -72 -132.5 -111t-191.5 -39q-174 0 -275.5 88t-101.5 238zM223 1309v178h648v-178h-648z M313 307q0 -74 51.5 -115.5t143.5 -41.5q125 0 198.5 74.5t81.5 209.5q-121 45 -237 45q-115 0 -176.5 -44t-61.5 -128z" />
<glyph horiz-adv-x="0" d="M-348 1835q0 59 37 96t96 37q57 0 95 -37t38 -96q0 -55 -38 -92t-95 -37q-59 0 -96 36t-37 93zM82 1835q0 57 37 95t94 38q59 0 97 -37t38 -96q0 -55 -38 -92t-97 -37q-57 0 -94 36t-37 93z" />
<glyph horiz-adv-x="0" d="M-346 1978q0 18 2 25h176q0 -78 43 -120t125 -42t125 42t43 120h176q2 -6 2 -25q0 -137 -92 -216t-254 -79t-254 79t-92 216z" />
<glyph horiz-adv-x="1163" d="M96 293q0 162 116 261t306 99q152 0 273 -49v8q0 127 -74 193.5t-211 66.5q-174 0 -328 -106l-20 192q66 49 168 79t206 30q229 0 351.5 -119t122.5 -338v-610h-205l-4 117q-47 -72 -132.5 -111t-191.5 -39q-174 0 -275.5 88t-101.5 238zM205 1413q0 57 37 93t94 36 t94 -36t37 -93t-37 -93t-94 -36q-59 0 -95 36t-36 93zM313 307q0 -74 51.5 -115.5t143.5 -41.5q125 0 198.5 74.5t81.5 209.5q-121 45 -237 45q-115 0 -176.5 -44t-61.5 -128zM627 1413q0 57 37 93t94 36t94 -36t37 -93t-37 -93t-94 -36q-59 0 -95 36t-36 93z" />
<glyph horiz-adv-x="1177" d="M31 -477l30 205q53 -33 132 -33q80 0 134 57.5t122 216.5l30 72l-442 993h252l311 -753l287 753h254l-459 -1095q-74 -176 -142.5 -275.5t-145.5 -141.5t-181 -42q-57 0 -106.5 11t-75.5 32zM250 1413q0 57 37 93t94 36t94 -36t37 -93t-37 -93t-94 -36q-59 0 -95 36 t-36 93zM672 1413q0 57 37 93t94 36t94 -36t37 -93t-37 -93t-94 -36q-59 0 -95 36t-36 93z" />
<glyph horiz-adv-x="1163" d="M96 293q0 162 116 261t306 99q152 0 273 -49v8q0 127 -74 193.5t-211 66.5q-174 0 -328 -106l-20 192q66 49 168 79t206 30q229 0 351.5 -119t122.5 -338v-610h-205l-4 117q-47 -72 -132.5 -111t-191.5 -39q-174 0 -275.5 88t-101.5 238zM213 1526q0 20 2 24h166 q0 -178 166 -178t166 178h166q2 -4 2 -24q0 -143 -89 -225t-245 -82t-245 81.5t-89 225.5zM313 307q0 -74 51.5 -115.5t143.5 -41.5q125 0 198.5 74.5t81.5 209.5q-121 45 -237 45q-115 0 -176.5 -44t-61.5 -128z" />
<glyph horiz-adv-x="1185" d="M53 -213q0 96 49.5 161.5t143.5 92.5q-66 20 -99.5 64.5t-33.5 107.5q0 129 149 203q-145 98 -145 291q0 162 124 261t326 99q115 0 215 -41l367 29v-207l-176 12q51 -68 51 -166q0 -168 -122 -267t-329 -99q-102 0 -161 22q-82 -43 -82 -102q0 -47 46 -64.5t163 -17.5 h75q244 0 364 -81t120 -245q0 -176 -139.5 -268t-405.5 -92q-242 0 -371 80t-129 227zM268 1526q0 20 2 24h166q0 -178 166 -178t166 178h166q2 -4 2 -24q0 -143 -89 -225t-245 -82t-245 81.5t-89 225.5zM272 -176q0 -78 77 -119t224 -41q301 0 301 168q0 76 -66.5 109.5 t-215.5 33.5h-47q-272 0 -273 -151zM342 696q0 -90 60 -139t169 -49t168.5 49t59.5 139t-60.5 140.5t-169.5 50.5t-168 -50.5t-59 -140.5z" />
<glyph horiz-adv-x="0" d="M-145 1841q0 66 39.5 106t105.5 40t106.5 -40t40.5 -106q0 -63 -40.5 -103t-106.5 -40t-105.5 39t-39.5 104z" />
<glyph horiz-adv-x="1185" d="M53 -213q0 96 49.5 161.5t143.5 92.5q-66 20 -99.5 64.5t-33.5 107.5q0 129 149 203q-145 98 -145 291q0 162 124 261t326 99q115 0 215 -41l367 29v-207l-176 12q51 -68 51 -166q0 -168 -122 -267t-329 -99q-102 0 -161 22q-82 -43 -82 -102q0 -47 46 -64.5t163 -17.5 h75q244 0 364 -81t120 -245q0 -176 -139.5 -268t-405.5 -92q-242 0 -371 80t-129 227zM272 -176q0 -78 77 -119t224 -41q301 0 301 168q0 76 -66.5 109.5t-215.5 33.5h-47q-272 0 -273 -151zM342 696q0 -90 60 -139t169 -49t168.5 49t59.5 139t-60.5 140.5t-169.5 50.5 t-168 -50.5t-59 -140.5zM461 1415q0 63 39 102t102 39t103 -38.5t40 -102.5q0 -61 -40 -100t-103 -39t-102 38t-39 101z" />
<glyph horiz-adv-x="0" d="M-279 1939q0 113 80 189t199 76t199 -76t80 -189q0 -115 -80 -190.5t-199 -75.5t-199 76t-80 190zM-131 1939q0 -59 36 -95t95 -36t95 36t36 95t-36 94t-95 35t-95 -34.5t-36 -94.5z" />
<glyph horiz-adv-x="1163" d="M96 293q0 162 116 261t306 99q152 0 273 -49v8q0 127 -74 193.5t-211 66.5q-174 0 -328 -106l-20 192q66 49 168 79t206 30q229 0 351.5 -119t122.5 -338v-610h-205l-4 117q-47 -72 -132.5 -111t-191.5 -39q-174 0 -275.5 88t-101.5 238zM266 1456q0 115 81 190.5 t200 75.5t200 -75.5t81 -190.5t-81 -190.5t-200 -75.5t-200 75.5t-81 190.5zM313 307q0 -74 51.5 -115.5t143.5 -41.5q125 0 198.5 74.5t81.5 209.5q-121 45 -237 45q-115 0 -176.5 -44t-61.5 -128zM420 1456q0 -55 35 -91t92 -36t92 36t35 91q0 57 -35 92t-92 35t-92 -35 t-35 -92z" />
</font>
</defs>
</svg>
