<?xml version="1.0" standalone="no"?>
<!DOCTYPE svg PUBLIC "-//W3C//DTD SVG 1.1//EN" "http://www.w3.org/Graphics/SVG/1.1/DTD/svg11.dtd" >
<svg xmlns="http://www.w3.org/2000/svg" xmlns:xlink="http://www.w3.org/1999/xlink" version="1.1">
<metadata></metadata>
<defs>
<font id="objektiv_mk1light" horiz-adv-x="778" >
<font-face units-per-em="2048" ascent="1638" descent="-410" />
<missing-glyph horiz-adv-x="460" />
<glyph unicode=" "  horiz-adv-x="460" />
<glyph unicode="&#x09;" horiz-adv-x="460" />
<glyph unicode="&#xa0;" horiz-adv-x="460" />
<glyph unicode="!" horiz-adv-x="561" d="M184 80q0 41 28 68.5t69 27.5t68.5 -27.5t27.5 -68.5q0 -39 -27.5 -67.5t-68.5 -28.5q-39 0 -68 28.5t-29 67.5zM219 1616h125l-10 -1167h-105z" />
<glyph unicode="&#x22;" horiz-adv-x="673" d="M102 1556h127l-14 -598h-98zM444 1556h127l-14 -598h-98z" />
<glyph unicode="#" horiz-adv-x="1392" d="M121 379v94h231l99 440h-254v95h276l86 378h100l-86 -378h375l86 378h101l-86 -378h217v-95h-238l-98 -440h260v-94h-283l-82 -379h-100l82 379h-375l-82 -379h-102l84 379h-211zM455 473h374l99 440h-375z" />
<glyph unicode="$" horiz-adv-x="1269" d="M176 88l17 109q168 -111 385 -113v659q-213 86 -304.5 182.5t-91.5 235.5q0 162 106.5 264.5t289.5 116.5v252h94v-252q180 -10 329 -92l-18 -102q-74 41 -149.5 64.5t-161.5 27.5v-617q215 -82 312 -186.5t97 -251.5q0 -162 -110.5 -269.5t-298.5 -129.5v-252h-94v246 q-115 2 -219.5 30.5t-182.5 77.5zM295 1169q0 -111 63.5 -180t219.5 -131v582q-133 -10 -208 -82t-75 -189zM672 88q139 18 217 95t78 198q0 115 -66.5 187.5t-228.5 138.5v-619z" />
<glyph unicode="%" horiz-adv-x="1853" d="M106 1194q0 98 45.5 180t128 132t185.5 50q96 0 177 -46t130 -129t49 -187q0 -152 -103 -256t-253 -104q-96 0 -178 46t-131.5 129t-49.5 185zM215 1194q0 -111 70.5 -185.5t179.5 -74.5q106 0 177 73.5t71 186.5q0 115 -70 188.5t-178 73.5q-109 0 -179.5 -73.5 t-70.5 -188.5zM266 0l1184 1524h129l-1184 -1524h-129zM1030 340q0 98 45 180t128 132t186 50q96 0 177 -46t130 -129t49 -187q0 -152 -103 -256t-253 -104q-96 0 -178.5 46t-131.5 129t-49 185zM1139 340q0 -111 70.5 -185.5t179.5 -74.5q106 0 176.5 73.5t70.5 186.5 q0 115 -69.5 188.5t-177.5 73.5q-109 0 -179.5 -73.5t-70.5 -188.5z" />
<glyph unicode="&#x26;" horiz-adv-x="1513" d="M145 389q0 137 87 249t272 208q-119 139 -162 224t-43 181q0 150 102.5 246t264.5 96q156 0 255 -93t99 -240q0 -123 -85 -228.5t-267 -206.5l452 -503q111 174 115 456l106 -12q-4 -309 -149 -524l217 -242h-149l-142 156q-88 -92 -206 -140.5t-257 -48.5 q-147 0 -263 51.5t-181.5 147.5t-65.5 223zM264 391q0 -92 48 -163.5t137 -113.5t208 -42q242 0 394 161l-488 543q-160 -90 -229.5 -179t-69.5 -206zM414 1255q0 -78 37.5 -150.5t152.5 -207.5q160 88 231.5 172t71.5 186q0 109 -66.5 175.5t-174.5 66.5 q-113 0 -182.5 -66.5t-69.5 -175.5z" />
<glyph unicode="'" horiz-adv-x="331" d="M102 1556h127l-14 -598h-98z" />
<glyph unicode="(" horiz-adv-x="784" d="M182 702q0 283 101.5 548.5t273.5 428.5h137q-188 -186 -291.5 -441t-103.5 -536t103.5 -534.5t291.5 -439.5h-137q-172 166 -273.5 430t-101.5 544z" />
<glyph unicode=")" horiz-adv-x="784" d="M90 -272q188 186 291.5 441t103.5 536t-103 534.5t-292 439.5h137q172 -166 273.5 -430t101.5 -544q0 -283 -101.5 -548.5t-273.5 -428.5h-137z" />
<glyph unicode="*" horiz-adv-x="1003" d="M104 1235l41 102l310 -123l-15 342h117l-14 -342l311 123l39 -102l-322 -105l226 -274l-92 -65l-205 288l-205 -288l-92 65l225 274z" />
<glyph unicode="+" horiz-adv-x="1269" d="M180 633v108h398v406h114v-406h398v-108h-398v-404h-114v404h-398z" />
<glyph unicode="," horiz-adv-x="593" d="M57 -371q74 106 121 250t58 289h133q-12 -150 -69.5 -299.5t-137.5 -239.5h-105z" />
<glyph unicode="-" horiz-adv-x="903" d="M160 524v117h583v-117h-583z" />
<glyph unicode="." horiz-adv-x="593" d="M201 80q0 41 27.5 68.5t68.5 27.5t68.5 -27.5t27.5 -68.5q0 -39 -27.5 -67.5t-68.5 -28.5q-39 0 -67.5 28.5t-28.5 67.5z" />
<glyph unicode="/" horiz-adv-x="1034" d="M33 -272l846 1931h125l-846 -1931h-125z" />
<glyph unicode="0" horiz-adv-x="1269" d="M119 764q0 242 60.5 420t177 275t276.5 97q115 0 210 -52t163.5 -153.5t105.5 -250t37 -336.5q0 -369 -139 -583t-377 -214q-156 0 -271.5 94.5t-179 274.5t-63.5 428zM244 764q0 -326 103.5 -508t285.5 -182q184 0 287.5 182t103.5 508q0 324 -103.5 505t-287.5 181 t-286.5 -181.5t-102.5 -504.5z" />
<glyph unicode="1" horiz-adv-x="1269" d="M199 1305l485 219h94v-1524h-119v1393l-444 -199z" />
<glyph unicode="2" horiz-adv-x="1269" d="M176 0v102q154 150 375 404q199 229 276.5 368.5t77.5 264.5q0 143 -82 226t-225 83q-213 0 -371 -182l-24 112q74 84 180 131t223 47q193 0 306.5 -110.5t113.5 -294.5q0 -147 -77 -295.5t-263 -359.5q-207 -233 -356 -383h747v-113h-901z" />
<glyph unicode="3" horiz-adv-x="1269" d="M174 70l14 110q166 -109 367 -108q186 0 293.5 98t107.5 266q0 160 -101 251t-282 91q-74 0 -139 -16l-33 74l498 579h-696v109h829v-107l-469 -545q10 2 43 2q137 0 242.5 -52t166 -151.5t60.5 -234.5q0 -215 -142 -342t-380 -127q-106 0 -207.5 28t-171.5 75z" />
<glyph unicode="4" horiz-adv-x="1269" d="M104 410v98l713 1016h113v-1014h209v-100h-209v-410h-113v410h-713zM223 510h594v844z" />
<glyph unicode="5" horiz-adv-x="1269" d="M176 72l12 112q164 -111 367 -110q186 0 296 106.5t110 284.5q0 170 -116 269.5t-317 99.5q-141 0 -282 -48l24 738h717v-113h-614l-17 -500q86 25 203 25q154 0 271.5 -56.5t183 -163t65.5 -249.5t-63.5 -256t-181 -178.5t-275.5 -65.5q-109 0 -212 29t-171 76z" />
<glyph unicode="6" horiz-adv-x="1269" d="M168 459q0 168 69.5 357.5t200.5 374.5t307 335l148 -10q-205 -166 -355.5 -371t-215.5 -408q61 84 152 128t202 44q123 0 223 -57t160.5 -161.5t60.5 -239.5t-60.5 -245t-172 -174.5t-254.5 -64.5q-131 0 -236.5 60.5t-167 173t-61.5 258.5zM283 436q0 -164 99 -265 t259 -101q158 0 260.5 104.5t102.5 263.5q0 172 -97.5 270.5t-265.5 98.5q-152 0 -255 -106.5t-103 -264.5z" />
<glyph unicode="7" horiz-adv-x="1269" d="M168 1409v115h913v-101l-598 -1427l-127 8l602 1405h-790z" />
<glyph unicode="8" horiz-adv-x="1269" d="M135 399q0 145 84 253t227 149q-125 39 -195.5 134t-70.5 226q0 113 56.5 202t160 141t238.5 52q127 0 229.5 -48t162.5 -138t60 -209q0 -131 -71.5 -226t-196.5 -134q143 -39 228.5 -147.5t85.5 -254.5q0 -125 -60.5 -222t-174 -153.5t-265.5 -56.5q-143 0 -256 53.5 t-177.5 151.5t-64.5 227zM252 410q0 -152 105.5 -245t275.5 -93t276.5 93t106.5 245q0 150 -106.5 242.5t-276.5 92.5q-109 0 -195 -40.5t-136 -117.5t-50 -177zM293 1151q0 -133 95 -216t245 -83q152 0 247 83t95 216q0 135 -94.5 219t-247.5 84q-152 0 -246 -84t-94 -219z " />
<glyph unicode="9" horiz-adv-x="1269" d="M145 1073q0 135 60.5 244.5t172 174t255.5 64.5q131 0 236.5 -60t167 -173t61.5 -258q0 -168 -70 -357.5t-201 -375t-307 -334.5l-147 10q205 166 355.5 371t213.5 405q-61 -82 -153.5 -126t-198.5 -44q-123 0 -223.5 57.5t-161 162t-60.5 239.5zM262 1085 q0 -172 97.5 -270t265.5 -98q152 0 255 106.5t103 263.5q0 164 -99.5 265.5t-258.5 101.5q-158 0 -260.5 -104.5t-102.5 -264.5z" />
<glyph unicode=":" horiz-adv-x="593" d="M201 80q0 41 27.5 68.5t68.5 27.5t68.5 -27.5t27.5 -68.5q0 -39 -27.5 -67.5t-68.5 -28.5q-39 0 -67.5 28.5t-28.5 67.5zM201 920q0 41 27.5 68.5t68.5 27.5t68.5 -27.5t27.5 -68.5q0 -39 -27.5 -67.5t-68.5 -28.5q-39 0 -67.5 28.5t-28.5 67.5z" />
<glyph unicode=";" horiz-adv-x="593" d="M57 -371q74 106 121 250t58 289h133q-12 -150 -69.5 -299.5t-137.5 -239.5h-105zM201 920q0 41 27.5 68.5t68.5 27.5t68.5 -27.5t27.5 -68.5q0 -39 -27.5 -67.5t-68.5 -28.5q-39 0 -67.5 28.5t-28.5 67.5z" />
<glyph unicode="&#x3c;" horiz-adv-x="1269" d="M211 637v115l844 397v-119l-711 -332l711 -333v-123z" />
<glyph unicode="=" horiz-adv-x="1269" d="M203 397v109h841v-109h-841zM203 866v109h841v-109h-841z" />
<glyph unicode="&#x3e;" horiz-adv-x="1269" d="M211 242v118l711 332l-711 334v123l844 -395v-115z" />
<glyph unicode="?" horiz-adv-x="962" d="M45 1456q66 82 177.5 131t234.5 49q180 0 292.5 -100t112.5 -260q0 -88 -29.5 -152.5t-75.5 -116t-97.5 -98.5t-97.5 -99t-75.5 -119.5t-29.5 -162.5q0 -39 4 -79h-105q-6 37 -6 98q0 100 29 174t74 129t94 102t94 93.5t73.5 101.5t28.5 129q0 115 -81.5 184.5 t-217.5 69.5q-205 0 -368 -178zM315 80q0 41 28 68.5t69 27.5t68.5 -27.5t27.5 -68.5q0 -39 -27.5 -67.5t-68.5 -28.5q-39 0 -68 28.5t-29 67.5z" />
<glyph unicode="@" horiz-adv-x="2013" d="M109 375q0 256 125.5 476t353 356t506.5 136q236 0 420 -95t290.5 -271t106.5 -412q0 -160 -52.5 -290t-149.5 -207.5t-222 -77.5q-203 0 -238 176q-57 -84 -143 -129t-191 -45q-156 0 -256 111.5t-100 285.5q0 129 56.5 241.5t157.5 182.5t226 70q117 0 201 -59.5 t119 -166.5l43 193h98l-104 -539q-10 -49 -10 -88q0 -143 145 -143q86 0 157.5 60.5t114.5 169t43 245.5q0 205 -86 360.5t-247.5 243.5t-382.5 88q-236 0 -434.5 -110.5t-320.5 -310t-122 -449.5q0 -221 92 -387t265 -259t409 -93q225 0 434 96l8 -99q-200 -94 -444 -94 q-256 0 -451.5 100.5t-306 289t-110.5 444.5zM664 397q0 -143 74.5 -226t203.5 -83q145 0 242.5 110.5t97.5 276.5q0 145 -73.5 228t-202.5 83q-92 0 -170 -49t-125 -139t-47 -201z" />
<glyph unicode="A" horiz-adv-x="1538" d="M61 0l637 1556h140l639 -1556h-138l-200 498h-750l-199 -498h-129zM432 604h664l-330 830z" />
<glyph unicode="B" horiz-adv-x="1458" d="M250 0v1556h498q227 0 352 -101t125 -286q0 -119 -60.5 -210t-171.5 -134q145 -31 228.5 -135t83.5 -254q0 -211 -133.5 -323.5t-380.5 -112.5h-541zM371 109h415q193 0 292.5 83.5t99.5 243.5q0 324 -406 324h-401v-651zM371 868h372q354 0 355 297q0 283 -367 283h-360 v-580z" />
<glyph unicode="C" horiz-adv-x="1581" d="M141 774q0 229 99.5 411.5t286 288t431.5 105.5q119 0 241 -31.5t220 -87.5l-26 -114q-225 116 -443 116h-4q-193 0 -345 -83t-240.5 -238.5t-88.5 -360.5q0 -199 82 -354.5t235.5 -243.5t356.5 -88q117 0 241 30t226 81l19 -113q-106 -55 -233.5 -85t-256.5 -30 q-225 0 -406.5 98.5t-288 280t-106.5 418.5z" />
<glyph unicode="D" horiz-adv-x="1734" d="M250 0v1556h518q393 0 609 -203.5t216 -574.5q0 -377 -218 -577.5t-627 -200.5h-498zM377 113h375q352 0 531 168t179 495q0 330 -179 499t-529 169h-377v-1331z" />
<glyph unicode="E" horiz-adv-x="1339" d="M250 0v1556h901v-110h-774v-590h692v-108h-692v-637h805v-111h-932z" />
<glyph unicode="F" horiz-adv-x="1236" d="M250 0v1556h868v-110h-741v-625h639v-110h-639v-711h-127z" />
<glyph unicode="G" horiz-adv-x="1693" d="M141 770q0 229 101.5 412.5t289 290t433.5 106.5q135 0 270 -31.5t238 -87.5l-27 -112q-98 53 -230.5 83.5t-261.5 30.5q-190 0 -344.5 -84t-246 -240.5t-91.5 -359.5q0 -201 82 -355.5t239 -241.5t368 -87q229 0 421 80v508h-397v113h522v-699q-242 -119 -551 -119 q-233 0 -417.5 96.5t-291 276.5t-106.5 420z" />
<glyph unicode="H" horiz-adv-x="1759" d="M250 0v1556h127v-688h1005v688h127v-1556h-127v760h-1005v-760h-127z" />
<glyph unicode="I" horiz-adv-x="626" d="M250 0v1556h127v-1556h-127z" />
<glyph unicode="J" horiz-adv-x="1114" d="M98 49l17 117q135 -82 307 -82q174 0 253 90t79 291v1091h125v-1091q0 -250 -112 -374t-341 -124q-180 0 -328 82z" />
<glyph unicode="K" horiz-adv-x="1527" d="M250 0v1556h127v-714l840 714h172l-881 -745l962 -811h-188l-905 766v-766h-127z" />
<glyph unicode="L" horiz-adv-x="1234" d="M250 0v1556h127v-1445h764v-111h-891z" />
<glyph unicode="M" horiz-adv-x="2125" d="M229 0l72 1556h129l635 -1161l631 1161h129l71 -1556h-120l-66 1358l-594 -1094h-106l-596 1084l-64 -1348h-121z" />
<glyph unicode="N" horiz-adv-x="1796" d="M250 0v1556h125l1052 -1376v1376h119v-1556h-125l-1052 1376v-1376h-119z" />
<glyph unicode="O" horiz-adv-x="1859" d="M141 776q0 221 99.5 405.5t282 296t409.5 111.5q215 0 393 -102.5t285.5 -288.5t107.5 -420q0 -219 -99 -403.5t-280.5 -296t-408.5 -111.5q-215 0 -394.5 101.5t-287 288t-107.5 419.5zM272 780q0 -193 82 -350.5t232.5 -251.5t343.5 -94q180 0 329.5 86t238.5 244.5 t89 361.5q0 193 -82 350.5t-232.5 252t-342.5 94.5q-180 0 -329.5 -86.5t-239 -245t-89.5 -361.5z" />
<glyph unicode="P" horiz-adv-x="1304" d="M250 0v1556h422q152 0 268.5 -55t182 -159.5t65.5 -245.5q0 -217 -144.5 -345t-392.5 -128h-278v-623h-123zM373 733h258q209 0 318.5 92.5t109.5 266.5q0 168 -106.5 261t-299.5 93h-280v-713z" />
<glyph unicode="Q" horiz-adv-x="1859" d="M141 776q0 221 99.5 405.5t282 296t409.5 111.5q215 0 393 -102.5t285.5 -288.5t107.5 -420q0 -168 -59.5 -318.5t-173 -266t-268.5 -175.5l348 -391h-168l-312 357q-88 -16 -155 -17q-215 0 -394.5 101.5t-287 288t-107.5 419.5zM272 780q0 -193 82 -350.5t232.5 -251.5 t343.5 -94q180 0 329.5 86t238.5 244.5t89 361.5q0 193 -82 350.5t-232.5 252t-342.5 94.5q-180 0 -329.5 -86.5t-239 -245t-89.5 -361.5z" />
<glyph unicode="R" horiz-adv-x="1427" d="M250 0v1556h426q233 0 373.5 -122.5t140.5 -327.5q0 -152 -79 -262.5t-224 -161.5l452 -682h-151l-424 653q-43 -6 -107 -6h-284v-647h-123zM373 758h262q207 0 315.5 88t108.5 256q0 166 -103.5 255t-293.5 89h-289v-688z" />
<glyph unicode="S" horiz-adv-x="1343" d="M154 94l18 117q96 -61 217 -97t238 -36q190 0 300.5 84t110.5 227q0 92 -38.5 150.5t-128 105.5t-250.5 103q-238 80 -337.5 179t-99.5 259q0 184 132.5 293.5t355.5 109.5q111 0 221.5 -26.5t202.5 -75.5l-25 -111q-205 102 -399 103q-170 0 -267.5 -76t-97.5 -209 q0 -84 34 -140.5t111.5 -100.5t217.5 -91q188 -63 294.5 -128.5t152.5 -145.5t46 -189q0 -199 -144 -315.5t-388 -116.5q-133 0 -262 35t-215 92z" />
<glyph unicode="T" horiz-adv-x="1376" d="M92 1446v110h1192v-110h-532v-1446h-127v1446h-533z" />
<glyph unicode="U" horiz-adv-x="1740" d="M236 621v935h124v-919q0 -274 129 -413.5t381 -139.5t381 139t129 414v919h125v-935q0 -313 -166 -483.5t-471 -170.5q-303 0 -467.5 170t-164.5 484z" />
<glyph unicode="V" horiz-adv-x="1517" d="M72 1556h139l551 -1423l553 1423h131l-615 -1556h-143z" />
<glyph unicode="W" horiz-adv-x="2252" d="M76 1556h137l420 -1404l430 1384h131l428 -1384l424 1404h131l-483 -1556h-135l-435 1376l-428 -1376h-139z" />
<glyph unicode="X" horiz-adv-x="1472" d="M66 0l598 815l-541 741h151l467 -651l471 651h142l-543 -741l596 -815h-152l-522 725l-524 -725h-143z" />
<glyph unicode="Y" horiz-adv-x="1390" d="M59 1556h146l491 -761l500 761h135l-573 -868v-688h-127v690z" />
<glyph unicode="Z" horiz-adv-x="1433" d="M127 0v109l997 1337h-946v110h1092v-108l-998 -1337h1014v-111h-1159z" />
<glyph unicode="[" horiz-adv-x="765" d="M221 -272v1951h461v-100h-348v-1751h348v-100h-461z" />
<glyph unicode="\" horiz-adv-x="1034" d="M31 1659h127l843 -1931h-124z" />
<glyph unicode="]" horiz-adv-x="765" d="M84 -172h348v1751h-348v100h461v-1951h-461v100z" />
<glyph unicode="^" horiz-adv-x="1269" d="M164 670l424 755h106l412 -755h-125l-342 641l-354 -641h-121z" />
<glyph unicode="_" horiz-adv-x="1024" d="M0 -131h1024v-109h-1024v109z" />
<glyph unicode="`" horiz-adv-x="1024" d="M315 1583h142l252 -356h-117z" />
<glyph unicode="a" horiz-adv-x="1339" d="M121 500q0 143 64.5 264t181 195.5t262.5 74.5q127 0 232.5 -59.5t162.5 -161.5l4 188h115v-1001h-115l-4 188q-57 -104 -163 -162.5t-243 -58.5q-139 0 -251.5 66.5t-179 188.5t-66.5 278zM244 500q0 -119 48 -215.5t138 -153.5t209 -57q111 0 200 52t142 149.5 t53 224.5q0 119 -49 216t-139 154.5t-207 57.5q-109 0 -199 -52.5t-143 -150.5t-53 -225z" />
<glyph unicode="b" horiz-adv-x="1339" d="M197 0v1659h118v-846q57 104 163 162.5t243 58.5q139 0 251.5 -66.5t179.5 -188.5t67 -277q0 -143 -64.5 -264t-181.5 -196t-262 -75q-129 0 -234.5 59.5t-163.5 161.5l-2 -188h-114zM305 502q0 -119 49 -216.5t139 -154.5t207 -57q109 0 199 52t143.5 150.5t53.5 225.5 q0 119 -48.5 215t-138.5 153.5t-209 57.5q-111 0 -199.5 -52.5t-142 -149.5t-53.5 -224z" />
<glyph unicode="c" horiz-adv-x="1085" d="M121 498q0 150 65.5 270.5t187.5 191t279 70.5q182 0 305 -74l-18 -104q-61 35 -136 53.5t-151 18.5q-119 0 -211 -51.5t-145 -147.5t-53 -223q0 -193 114.5 -309.5t305.5 -116.5q160 0 303 78l14 -101q-61 -39 -147.5 -61.5t-174.5 -22.5q-156 0 -277.5 64.5t-191 184.5 t-69.5 280z" />
<glyph unicode="d" horiz-adv-x="1339" d="M121 500q0 143 64.5 264t181 195.5t262.5 74.5q127 0 233.5 -59.5t161.5 -159.5v844h119v-1659h-115l-4 188q-57 -104 -163 -162.5t-243 -58.5q-139 0 -251.5 66.5t-179 188.5t-66.5 278zM244 500q0 -119 48 -215.5t138 -153.5t209 -57q111 0 200 52t142 149.5t53 224.5 q0 119 -49 216t-139 154.5t-207 57.5q-109 0 -199 -52.5t-143 -150.5t-53 -225z" />
<glyph unicode="e" horiz-adv-x="1181" d="M121 496q0 150 60.5 271.5t173 194t255.5 72.5q127 0 227.5 -59.5t158 -169t57.5 -254.5q0 -35 -6 -84h-809q8 -182 123.5 -287.5t312.5 -105.5q188 0 340 84l16 -103q-63 -41 -160.5 -64.5t-201.5 -23.5q-248 0 -397.5 144.5t-149.5 384.5zM240 569h698 q-4 166 -94 263.5t-240 97.5q-145 0 -244.5 -98.5t-119.5 -262.5z" />
<glyph unicode="f" horiz-adv-x="794" d="M61 897v104h211v191q0 236 98.5 356.5t286.5 120.5q115 0 201 -41l-14 -102q-96 39 -180 39q-139 0 -206 -94.5t-67 -294.5v-175h340v-104h-340v-897h-119v897h-211z" />
<glyph unicode="g" horiz-adv-x="1339" d="M121 500q0 143 64.5 264t181 195.5t262.5 74.5q127 0 232.5 -59.5t162.5 -161.5l4 188h115v-929q0 -301 -133.5 -447.5t-405.5 -146.5q-94 0 -200.5 27.5t-170.5 70.5l19 107q68 -45 165 -72t187 -27q219 0 320.5 114t101.5 361v131q-55 -104 -163.5 -163.5t-244.5 -59.5 q-139 0 -251.5 66.5t-179 188.5t-66.5 278zM244 500q0 -119 48 -215.5t138 -153.5t209 -57q111 0 200 52t142 149.5t53 224.5q0 119 -49 216t-139 154.5t-207 57.5q-109 0 -199 -52.5t-143 -150.5t-53 -225z" />
<glyph unicode="h" horiz-adv-x="1234" d="M197 0v1659h118v-817q53 94 144.5 143t210.5 49q178 0 276 -112.5t98 -317.5v-604h-118v586q0 342 -281 342q-152 0 -241 -103.5t-89 -279.5v-545h-118z" />
<glyph unicode="i" horiz-adv-x="512" d="M166 1399q0 39 25.5 63.5t64.5 24.5t63.5 -24.5t24.5 -63.5t-24.5 -64.5t-63.5 -25.5t-64.5 25.5t-25.5 64.5zM197 0v1001h118v-1001h-118z" />
<glyph unicode="j" horiz-adv-x="512" d="M-209 -475l12 102q88 -45 195 -45q102 0 150.5 61.5t48.5 194.5v1163h118v-1161q0 -182 -79.5 -272t-243.5 -90q-111 0 -201 47zM166 1399q0 39 25.5 63.5t64.5 24.5t63.5 -24.5t24.5 -63.5t-24.5 -64.5t-63.5 -25.5t-64.5 25.5t-25.5 64.5z" />
<glyph unicode="k" horiz-adv-x="1124" d="M197 0v1659h118v-1069l510 411h164l-555 -442l637 -559h-168l-588 518v-518h-118z" />
<glyph unicode="l" horiz-adv-x="512" d="M197 0v1659h118v-1659h-118z" />
<glyph unicode="m" horiz-adv-x="1916" d="M197 0v1001h110l2 -172q51 96 143.5 150.5t206.5 54.5q123 0 209 -61.5t123 -177.5q45 113 143.5 176t227.5 63q174 0 269 -112.5t95 -317.5v-604h-118v586q0 342 -271 342q-145 0 -231 -104.5t-86 -280.5v-543h-119v586q0 342 -268 342q-145 0 -231.5 -103.5 t-86.5 -279.5v-545h-118z" />
<glyph unicode="n" horiz-adv-x="1234" d="M197 0v1001h110l2 -170q53 98 146.5 150.5t214.5 52.5q178 0 276 -112.5t98 -317.5v-604h-118v586q0 342 -281 342q-152 0 -241 -103.5t-89 -279.5v-545h-118z" />
<glyph unicode="o" horiz-adv-x="1277" d="M121 500q0 143 65.5 264t184 195.5t268.5 74.5q143 0 260 -66.5t187.5 -188.5t70.5 -277q0 -143 -65.5 -264t-184 -196t-268.5 -75q-143 0 -260 66.5t-187.5 188.5t-70.5 278zM244 500q0 -119 48 -215.5t138 -153.5t209 -57q109 0 199 52t143 150.5t53 225.5 q0 119 -48 215t-138 153.5t-209 57.5q-109 0 -199 -52.5t-143 -150.5t-53 -225z" />
<glyph unicode="p" horiz-adv-x="1343" d="M201 -502v1503h114l2 -188q57 104 164 162.5t244 58.5q139 0 252 -66.5t179.5 -188.5t66.5 -277q0 -143 -64.5 -264t-181.5 -196t-262 -75q-129 0 -235.5 59.5t-160.5 159.5v-688h-118zM309 502q0 -119 49.5 -216.5t139.5 -154.5t207 -57q109 0 198.5 52t143 150.5 t53.5 225.5q0 119 -48 215t-138.5 153.5t-208.5 57.5q-111 0 -200 -52.5t-142.5 -149.5t-53.5 -224z" />
<glyph unicode="q" horiz-adv-x="1339" d="M121 500q0 143 64.5 264t181 195.5t262.5 74.5q127 0 232.5 -59.5t162.5 -161.5l4 188h115v-1503h-119v688q-57 -104 -163.5 -161.5t-242.5 -57.5q-139 0 -251.5 66.5t-179 188.5t-66.5 278zM244 500q0 -119 48 -215.5t138 -153.5t209 -57q111 0 200 52t142 149.5 t53 224.5q0 119 -49 216t-139 154.5t-207 57.5q-109 0 -199 -52.5t-143 -150.5t-53 -225z" />
<glyph unicode="r" horiz-adv-x="823" d="M197 0v1001h112v-198q121 213 330 213q72 0 113 -21l-13 -110q-61 20 -116 20q-143 0 -225.5 -114.5t-82.5 -317.5v-473h-118z" />
<glyph unicode="s" horiz-adv-x="940" d="M102 63l17 109q66 -47 153.5 -74.5t167.5 -27.5q125 0 198 47t73 131q0 57 -26 90t-86 60.5t-175 64.5q-162 51 -230.5 119.5t-68.5 177.5q0 125 95 199.5t257 74.5q78 0 161 -21.5t144 -58.5l-18 -104q-61 39 -137 60.5t-152 21.5q-113 0 -174 -43t-61 -119 q0 -74 52 -119t181 -82q197 -55 276.5 -125.5t79.5 -189.5q0 -131 -105.5 -209t-283.5 -78q-96 0 -188 26.5t-150 69.5z" />
<glyph unicode="t" horiz-adv-x="874" d="M33 897v104h233v318h119v-318h369v-104h-369v-539q0 -156 48 -221t163 -65q104 0 203 55l16 -100q-45 -29 -108 -44.5t-129 -15.5q-160 0 -236 88t-76 277v565h-233z" />
<glyph unicode="u" horiz-adv-x="1230" d="M190 397v604h119v-585q0 -342 279 -342q150 0 238.5 103.5t88.5 279.5v544h119v-1001h-110l-2 170q-53 -100 -145.5 -151.5t-213.5 -51.5q-178 0 -275.5 113t-97.5 317z" />
<glyph unicode="v" horiz-adv-x="1081" d="M59 1001h129l359 -868l354 868h121l-420 -1001h-119z" />
<glyph unicode="w" horiz-adv-x="1632" d="M59 1001h127l295 -866l279 854h106l285 -854l301 866h121l-363 -1001h-114l-285 852l-279 -852h-114z" />
<glyph unicode="x" horiz-adv-x="1097" d="M72 0l405 516l-373 485h144l303 -403l303 403h133l-371 -481l410 -520h-143l-340 438l-336 -438h-135z" />
<glyph unicode="y" horiz-adv-x="1107" d="M59 1001h131l379 -802l355 802h125l-687 -1503h-124l268 570z" />
<glyph unicode="z" horiz-adv-x="1038" d="M113 0v98l645 799h-623v104h764v-98l-649 -801h663v-102h-800z" />
<glyph unicode="{" horiz-adv-x="866" d="M121 639v109h45q121 0 172 41.5t51 138.5q-2 76 -18.5 156.5t-34 160.5t-19.5 152q0 147 79 215.5t247 68.5q33 0 94 -4v-94q-16 2 -96 2q-113 0 -163 -44t-50 -140q0 -47 11.5 -104.5t24.5 -121t24.5 -125t11.5 -116.5q0 -94 -44 -156.5t-128 -85.5q84 -23 128 -84 t44 -157q0 -53 -11.5 -116t-24.5 -125.5t-24.5 -120.5t-11.5 -105q0 -96 50 -140.5t163 -44.5q80 0 96 2v-94q-61 -4 -94 -4q-168 0 -247 68.5t-79 216.5q2 72 18.5 151.5t34 160.5t19.5 157q0 98 -52 140t-171 42h-45z" />
<glyph unicode="|" horiz-adv-x="555" d="M217 -465v2239h119v-2239h-119z" />
<glyph unicode="}" horiz-adv-x="866" d="M129 -199q16 -2 96 -2q113 0 163 44t50 141q0 47 -11 104t-24.5 120.5t-24.5 125t-11 117.5q0 94 44 156.5t128 84.5q-84 23 -128 84.5t-44 157.5q0 53 11 115.5t24.5 125t24.5 121t11 105.5q0 96 -50 140t-163 44q-80 0 -96 -2v94q61 4 94 4q168 0 247 -68.5t79 -215.5 q-2 -72 -18.5 -152t-34 -160.5t-19.5 -156.5q0 -98 52.5 -140.5t170.5 -42.5h45v-108h-45q-121 0 -172 -42t-51 -138q2 -76 19.5 -157t34 -161t18.5 -151q0 -147 -79 -216t-247 -69q-33 0 -94 4v94z" />
<glyph unicode="~" horiz-adv-x="1269" d="M150 522v17q2 158 67.5 245.5t179.5 87.5q59 0 120 -28.5t138 -93.5q76 -68 122 -93.5t89 -25.5q72 0 108 58.5t40 182.5h104v-16q-2 -158 -67.5 -246t-182.5 -88q-59 0 -118.5 29t-137.5 96q-82 70 -125 93.5t-86 23.5q-72 0 -108.5 -58.5t-38.5 -183.5h-104z" />
<glyph unicode="&#xa1;" horiz-adv-x="561" d="M184 938q0 41 29 68.5t68 27.5q41 0 68.5 -27.5t27.5 -68.5t-27.5 -68.5t-68.5 -27.5t-69 27.5t-28 68.5zM217 -598l10 1167h105l10 -1167h-125z" />
<glyph unicode="&#xa2;" horiz-adv-x="1269" d="M221 506q0 199 112.5 341t301.5 179v264h94v-256q170 -4 289 -73l-19 -105q-125 70 -270 74v-838q156 0 299 78l14 -100q-57 -37 -140 -58.5t-173 -23.5v-254h-94v260q-125 23 -218 91.5t-144.5 177t-51.5 243.5zM342 510q0 -156 78 -264.5t215 -143.5v818 q-135 -35 -214 -145.5t-79 -264.5z" />
<glyph unicode="&#xa3;" horiz-adv-x="1269" d="M168 0v104h201v592h-193v103h193v174q0 285 119.5 434t349.5 149q152 0 282 -65l-22 -105q-127 63 -264 64q-176 0 -263.5 -120t-87.5 -367v-164h449v-103h-449v-592h654v-104h-969z" />
<glyph unicode="&#xa4;" horiz-adv-x="1269" d="M139 451l154 155q-74 109 -74 248q0 143 74 250l-154 156l72 65l145 -149q55 51 128 79.5t151 28.5t150.5 -28.5t127.5 -79.5l146 149l71 -65l-155 -158q76 -104 76 -248q0 -139 -74 -248l153 -155l-71 -66l-146 147q-119 -106 -278 -106q-78 0 -151.5 27.5t-129.5 78.5 l-143 -147zM324 854q0 -147 87 -242.5t224 -95.5q88 0 158.5 42t112.5 120t42 176q0 147 -88 242.5t-225 95.5t-224 -95.5t-87 -242.5z" />
<glyph unicode="&#xa5;" horiz-adv-x="1269" d="M74 1524h135l428 -742l428 742h131l-446 -748h362v-100h-418v-234h418v-100h-418v-342h-114v342h-420v100h420v234h-420v100h362z" />
<glyph unicode="&#xa6;" horiz-adv-x="552" d="M217 446h119v-911h-119v911zM217 862v912h119v-912h-119z" />
<glyph unicode="&#xa7;" horiz-adv-x="985" d="M121 653q0 119 72.5 206t191.5 114q-113 45 -168 113.5t-55 166.5q0 125 98 203t258 78q82 0 161 -20.5t138 -57.5l-18 -102q-127 80 -283 80q-115 0 -180.5 -47.5t-65.5 -129.5q0 -76 61.5 -128t205.5 -101q178 -61 253.5 -142t75.5 -208q0 -115 -66.5 -200t-181.5 -118 q113 -45 168.5 -113.5t55.5 -166.5q0 -150 -107.5 -239t-283.5 -89q-90 0 -179.5 25.5t-148.5 70.5l18 107q63 -49 145.5 -75.5t166.5 -26.5q125 0 198.5 60t73.5 163q0 86 -64.5 139t-224.5 100t-237.5 130t-77.5 208zM229 657q0 -102 75 -167.5t194 -65.5 q115 0 186.5 68.5t71.5 175.5q0 104 -75 172.5t-187 68.5q-117 0 -191 -70.5t-74 -181.5z" />
<glyph unicode="&#xa8;" horiz-adv-x="1024" d="M246 1399q0 39 23.5 62.5t58.5 23.5q37 0 61.5 -24.5t24.5 -61.5t-24.5 -60.5t-61.5 -23.5t-59.5 23.5t-22.5 60.5zM610 1399q0 37 23.5 61.5t60.5 24.5t60.5 -24.5t23.5 -61.5t-23.5 -60.5t-60.5 -23.5t-60.5 23.5t-23.5 60.5z" />
<glyph unicode="&#xa9;" horiz-adv-x="1632" d="M104 778q0 195 89.5 356.5t252 258t371.5 96.5q197 0 357.5 -88t257 -251t96.5 -372q0 -197 -89 -357.5t-252 -256.5t-370 -96q-197 0 -358.5 89t-258 251.5t-96.5 369.5zM207 778q0 -172 74.5 -311t215 -221t320.5 -82q172 0 309.5 75.5t218 216t80.5 322.5 q0 172 -74.5 311.5t-214 221.5t-319.5 82q-172 0 -310 -76t-219 -216t-81 -323zM463 784q0 106 47 193.5t134 138.5t200 51q121 0 215 -49l-17 -102q-94 49 -200 49q-117 0 -190.5 -78t-73.5 -201q0 -125 74.5 -201.5t197.5 -76.5q98 0 211 55l16 -100q-94 -55 -227 -55 q-176 0 -281.5 103t-105.5 273z" />
<glyph unicode="&#xaa;" horiz-adv-x="942" d="M111 1196q0 94 44 176t123.5 133t176.5 51q78 0 143.5 -33.5t110.5 -97.5l2 111h94v-680h-94l-2 109q-94 -129 -260 -129q-90 0 -167 46t-124 129t-47 185zM156 584v88h657v-88h-657zM215 1196q0 -115 71 -192.5t177 -77.5t178 76.5t72 193.5t-71 193.5t-177 76.5 t-178 -76.5t-72 -193.5z" />
<glyph unicode="&#xab;" horiz-adv-x="964" d="M72 526l288 426h136l-289 -426l289 -426h-136zM449 526l288 426h136l-289 -426l289 -426h-136z" />
<glyph unicode="&#xac;" horiz-adv-x="1269" d="M211 684v109h850v-437h-115v328h-735z" />
<glyph unicode="&#xad;" horiz-adv-x="903" d="M160 524v117h583v-117h-583z" />
<glyph unicode="&#xae;" horiz-adv-x="1040" d="M88 1241q0 117 54.5 214t154.5 157.5t223 60.5q117 0 215.5 -55t157.5 -154.5t59 -222.5q0 -115 -55 -213t-154.5 -158.5t-222.5 -60.5q-115 0 -213 55.5t-158.5 154.5t-60.5 222zM168 1241q0 -96 45 -177t126 -130t181 -49q94 0 174 45t129 127t49 184q0 96 -45 177 t-125.5 130t-181.5 49q-94 0 -174 -45t-129 -127t-49 -184zM375 1044v414h139q76 0 119 -34.5t43 -96.5q0 -86 -74 -119l103 -164h-87l-90 150h-79v-150h-74zM449 1260h57q49 0 70.5 15t21.5 52q0 66 -90 66h-59v-133z" />
<glyph unicode="&#xaf;" horiz-adv-x="1024" d="M211 1337v105h602v-105h-602z" />
<glyph unicode="&#xb0;" horiz-adv-x="1024" d="M170 1239q0 92 44 172t123 128t175 48q92 0 170 -44t124 -124t46 -180q0 -94 -43 -173t-121 -128t-176 -49q-92 0 -170 44t-125 124t-47 182zM274 1239q0 -111 68 -182.5t170 -71.5q100 0 168 71.5t68 182.5q0 109 -68 180.5t-168 71.5q-102 0 -170 -72.5t-68 -179.5z " />
<glyph unicode="&#xb1;" horiz-adv-x="1269" d="M180 2v108h910v-108h-910zM180 739v108h398v406h114v-406h398v-108h-398v-404h-114v404h-398z" />
<glyph unicode="&#xb2;" d="M117 1682q43 49 113.5 78.5t142.5 29.5q115 0 187.5 -64.5t72.5 -168.5q0 -88 -48 -174.5t-161 -194.5q-37 -37 -178 -162h418v-92h-545v92q127 111 241 225q94 92 133 160t39 137q0 68 -46 109t-121 41q-125 0 -224 -105z" />
<glyph unicode="&#xb3;" d="M111 971l10 90q96 -61 213 -61q100 0 156.5 49t56.5 135q0 76 -54.5 119t-150.5 43q-45 0 -80 -13l-26 60l270 286h-375v91h487v-88l-237 -256q119 -4 191.5 -72t72.5 -172q0 -121 -85 -194.5t-226 -73.5q-61 0 -122.5 15t-100.5 42z" />
<glyph unicode="&#xb4;" horiz-adv-x="1024" d="M351 1227l251 356h144l-279 -356h-116z" />
<glyph unicode="&#xb5;" horiz-adv-x="1234" d="M195 -502v1503h118v-585q0 -342 279 -342q150 0 239 103.5t89 279.5v544h118v-1001h-110l-2 170q-51 -94 -141.5 -148.5t-196.5 -54.5q-94 0 -164 33t-111 96v-598h-118z" />
<glyph unicode="&#xb6;" horiz-adv-x="1269" d="M117 1151q0 193 131 299t366 106h439v-1822h-115v1714h-272v-1714h-115v1014q-207 14 -320.5 119.5t-113.5 283.5z" />
<glyph unicode="&#xb7;" horiz-adv-x="593" d="M201 776q0 41 27.5 68.5t68.5 27.5t68.5 -27.5t27.5 -68.5q0 -39 -27.5 -67.5t-68.5 -28.5q-39 0 -67.5 28.5t-28.5 67.5z" />
<glyph unicode="&#xb8;" horiz-adv-x="1024" d="M315 -483l21 86q31 -16 71.5 -25.5t79.5 -9.5q68 0 107 28.5t39 77.5q0 47 -36 75t-99 28q-55 0 -86 -8l65 251h86l-43 -167h10q90 0 146.5 -49.5t56.5 -127.5q0 -90 -66.5 -144t-179.5 -54q-45 0 -93 11t-79 28z" />
<glyph unicode="&#xb9;" d="M145 1639l283 131h88v-836h-100v729l-254 -117z" />
<glyph unicode="&#xba;" horiz-adv-x="923" d="M109 1196q0 154 101 257t251 103q98 0 178 -45t128 -128t48 -187q0 -154 -101 -257t-253 -103q-98 0 -178 45t-127 128t-47 187zM131 584v88h660v-88h-660zM213 1196q0 -117 71 -193.5t177 -76.5t178 76.5t72 193.5t-71 193.5t-177 76.5t-178 -76.5t-72 -193.5z" />
<glyph unicode="&#xbb;" horiz-adv-x="964" d="M92 100l289 426l-289 426h135l289 -426l-289 -426h-135zM469 100l289 426l-289 426h135l289 -426l-289 -426h-135z" />
<glyph unicode="&#xbc;" horiz-adv-x="1906" d="M145 1393l283 131h88v-836h-100v729l-254 -117zM347 0l1183 1524h129l-1183 -1524h-129zM1202 213v84l403 539h103v-539h114v-84h-114v-213h-93v213h-413zM1302 297h313v416z" />
<glyph unicode="&#xbd;" horiz-adv-x="1906" d="M145 1393l283 131h88v-836h-100v729l-254 -117zM267 0l1183 1524h129l-1183 -1524h-129zM1245 748q43 49 113.5 78.5t142.5 29.5q115 0 187.5 -64.5t72.5 -168.5q0 -88 -48 -174.5t-161 -194.5q-37 -37 -178 -162h418v-92h-545v92q127 111 241 225q94 92 133 160t39 137 q0 68 -46 109t-121 41q-125 0 -224 -105z" />
<glyph unicode="&#xbe;" horiz-adv-x="1906" d="M111 725l10 90q96 -61 213 -61q100 0 156.5 49t56.5 135q0 76 -54.5 119t-150.5 43q-45 0 -80 -13l-26 60l270 286h-375v91h487v-88l-237 -256q119 -4 191.5 -72t72.5 -172q0 -121 -85 -194.5t-226 -73.5q-61 0 -122.5 15t-100.5 42zM353 0l1183 1524h129l-1183 -1524 h-129zM1202 213v84l403 539h103v-539h114v-84h-114v-213h-93v213h-413zM1302 297h313v416z" />
<glyph unicode="&#xbf;" horiz-adv-x="962" d="M100 -258q0 88 30 152.5t76 115.5t97 98.5t97 99.5t76 119.5t30 161.5q0 39 -4 80h104q6 -37 6 -98q0 -100 -28.5 -174t-73.5 -129t-94 -102.5t-94.5 -93.5t-74 -101t-28.5 -129q0 -115 82 -184.5t217 -69.5q207 0 369 178l31 -104q-66 -82 -177.5 -131t-234.5 -49 q-180 0 -293 100t-113 260zM455 938q0 41 28.5 68.5t67.5 27.5q41 0 68.5 -27.5t27.5 -68.5t-27.5 -68.5t-68.5 -27.5t-68.5 27.5t-27.5 68.5z" />
<glyph unicode="&#xc0;" horiz-adv-x="1538" d="M61 0l637 1556h140l639 -1556h-138l-200 498h-750l-199 -498h-129zM432 604h664l-330 830zM469 1974h162l278 -264h-133z" />
<glyph unicode="&#xc1;" horiz-adv-x="1538" d="M61 0l637 1556h140l639 -1556h-138l-200 498h-750l-199 -498h-129zM432 604h664l-330 830zM627 1710l278 264h162l-305 -264h-135z" />
<glyph unicode="&#xc2;" horiz-adv-x="1538" d="M61 0l637 1556h140l639 -1556h-138l-200 498h-750l-199 -498h-129zM420 1710l295 291h108l293 -291h-133l-215 211l-213 -211h-135zM432 604h664l-330 830z" />
<glyph unicode="&#xc3;" horiz-adv-x="1538" d="M61 0l637 1556h140l639 -1556h-138l-200 498h-750l-199 -498h-129zM432 604h664l-330 830zM438 1710q0 125 47 190.5t138 65.5q53 -2 92 -25.5t70.5 -55.5t60 -55.5t61.5 -25.5q98 0 99 160h92q0 -123 -48.5 -189.5t-138.5 -66.5q-51 2 -90 25.5t-70.5 54.5t-61.5 54.5 t-62 25.5q-96 0 -97 -158h-92z" />
<glyph unicode="&#xc4;" horiz-adv-x="1538" d="M61 0l637 1556h140l639 -1556h-138l-200 498h-750l-199 -498h-129zM432 604h664l-330 830zM492 1821q0 37 23.5 60.5t59.5 23.5q35 0 59.5 -23.5t24.5 -60.5t-24.5 -61.5t-59.5 -24.5q-37 0 -60 24.5t-23 61.5zM877 1821q0 37 23.5 60.5t60.5 23.5t60 -23.5t23 -60.5 t-24 -61.5t-59 -24.5q-37 0 -60.5 24.5t-23.5 61.5z" />
<glyph unicode="&#xc5;" horiz-adv-x="1538" d="M61 0l637 1556h140l639 -1556h-138l-200 498h-750l-199 -498h-129zM432 604h664l-330 830zM510 1923q0 109 72.5 178.5t185.5 69.5t186.5 -70.5t73.5 -177.5q0 -106 -73.5 -177t-186.5 -71q-111 0 -184.5 71t-73.5 177zM600 1923q0 -74 46 -120t122 -46t123 46t47 120 t-47 120t-123 46t-122 -45t-46 -121z" />
<glyph unicode="&#xc6;" horiz-adv-x="2199" d="M43 0l1014 1556h956v-110h-774v-590h692v-108h-692v-637h805v-111h-932v498h-606l-322 -498h-141zM573 604h539v832z" />
<glyph unicode="&#xc7;" horiz-adv-x="1581" d="M141 774q0 229 99.5 411.5t286 288t431.5 105.5q119 0 241 -31.5t220 -87.5l-26 -114q-227 117 -447 116q-193 0 -345 -83t-240.5 -238.5t-88.5 -360.5q0 -199 82 -354.5t235.5 -243.5t356.5 -88q117 0 241 30t226 81l19 -113q-106 -55 -233.5 -85t-256.5 -30 q-225 0 -406.5 98.5t-288 280t-106.5 418.5zM651 -483l21 88q68 -37 151 -37q66 0 104 28.5t38 77.5q0 47 -34 74t-97 27q-61 0 -89 -8l68 253h88l-45 -167h10q90 0 146.5 -49.5t56.5 -127.5q0 -90 -66.5 -144t-179.5 -54q-45 0 -93 11t-79 28z" />
<glyph unicode="&#xc8;" horiz-adv-x="1339" d="M250 0v1556h901v-110h-774v-590h692v-108h-692v-637h805v-111h-932zM418 1974h162l278 -264h-133z" />
<glyph unicode="&#xc9;" horiz-adv-x="1339" d="M250 0v1556h901v-110h-774v-590h692v-108h-692v-637h805v-111h-932zM576 1710l278 264h162l-305 -264h-135z" />
<glyph unicode="&#xca;" horiz-adv-x="1339" d="M250 0v1556h901v-110h-774v-590h692v-108h-692v-637h805v-111h-932zM369 1710l295 291h108l293 -291h-133l-215 211l-213 -211h-135z" />
<glyph unicode="&#xcb;" horiz-adv-x="1339" d="M250 0v1556h901v-110h-774v-590h692v-108h-692v-637h805v-111h-932zM441 1821q0 37 23.5 60.5t59.5 23.5q35 0 59.5 -23.5t24.5 -60.5t-24.5 -61.5t-59.5 -24.5q-37 0 -60 24.5t-23 61.5zM826 1821q0 37 23.5 60.5t60.5 23.5t60 -23.5t23 -60.5t-24 -61.5t-59 -24.5 q-37 0 -60.5 24.5t-23.5 61.5z" />
<glyph unicode="&#xcc;" horiz-adv-x="626" d="M14 1974h162l278 -264h-133zM250 0v1556h127v-1556h-127z" />
<glyph unicode="&#xcd;" horiz-adv-x="626" d="M172 1710l278 264h162l-305 -264h-135zM250 0v1556h127v-1556h-127z" />
<glyph unicode="&#xce;" horiz-adv-x="626" d="M-35 1710l295 291h108l293 -291h-133l-215 211l-213 -211h-135zM250 0v1556h127v-1556h-127z" />
<glyph unicode="&#xcf;" horiz-adv-x="626" d="M37 1821q0 37 23.5 60.5t59.5 23.5q35 0 59.5 -23.5t24.5 -60.5t-24.5 -61.5t-59.5 -24.5q-37 0 -60 24.5t-23 61.5zM250 0v1556h127v-1556h-127zM422 1821q0 37 23.5 60.5t60.5 23.5t60 -23.5t23 -60.5t-24 -61.5t-59 -24.5q-37 0 -60.5 24.5t-23.5 61.5z" />
<glyph unicode="&#xd0;" horiz-adv-x="1755" d="M55 733v103h215v720h518q393 0 609.5 -203.5t216.5 -574.5q0 -377 -218 -577.5t-628 -200.5h-498v733h-215zM397 113h375q352 0 531.5 168t179.5 495q0 330 -179.5 499t-529.5 169h-377v-608h400v-103h-400v-620z" />
<glyph unicode="&#xd1;" horiz-adv-x="1796" d="M250 0v1556h125l1052 -1376v1376h119v-1556h-125l-1052 1376v-1376h-119zM557 1710q0 125 47 190.5t138 65.5q53 -2 92 -25.5t70.5 -55.5t60 -55.5t61.5 -25.5q98 0 99 160h92q0 -123 -48.5 -189.5t-138.5 -66.5q-51 2 -90 25.5t-70.5 54.5t-61.5 54.5t-62 25.5 q-96 0 -97 -158h-92z" />
<glyph unicode="&#xd2;" horiz-adv-x="1859" d="M141 776q0 221 99.5 405.5t282 296t409.5 111.5q215 0 393 -102.5t285.5 -288.5t107.5 -420q0 -219 -99 -403.5t-280.5 -296t-408.5 -111.5q-215 0 -394.5 101.5t-287 288t-107.5 419.5zM272 780q0 -193 82 -350.5t232.5 -251.5t343.5 -94q180 0 329.5 86t238.5 244.5 t89 361.5q0 193 -82 350.5t-232.5 252t-342.5 94.5q-180 0 -329.5 -86.5t-239 -245t-89.5 -361.5zM631 1974h162l278 -264h-133z" />
<glyph unicode="&#xd3;" horiz-adv-x="1859" d="M141 776q0 221 99.5 405.5t282 296t409.5 111.5q215 0 393 -102.5t285.5 -288.5t107.5 -420q0 -219 -99 -403.5t-280.5 -296t-408.5 -111.5q-215 0 -394.5 101.5t-287 288t-107.5 419.5zM272 780q0 -193 82 -350.5t232.5 -251.5t343.5 -94q180 0 329.5 86t238.5 244.5 t89 361.5q0 193 -82 350.5t-232.5 252t-342.5 94.5q-180 0 -329.5 -86.5t-239 -245t-89.5 -361.5zM789 1710l278 264h162l-305 -264h-135z" />
<glyph unicode="&#xd4;" horiz-adv-x="1859" d="M141 776q0 221 99.5 405.5t282 296t409.5 111.5q215 0 393 -102.5t285.5 -288.5t107.5 -420q0 -219 -99 -403.5t-280.5 -296t-408.5 -111.5q-215 0 -394.5 101.5t-287 288t-107.5 419.5zM272 780q0 -193 82 -350.5t232.5 -251.5t343.5 -94q180 0 329.5 86t238.5 244.5 t89 361.5q0 193 -82 350.5t-232.5 252t-342.5 94.5q-180 0 -329.5 -86.5t-239 -245t-89.5 -361.5zM582 1710l295 291h108l293 -291h-133l-215 211l-213 -211h-135z" />
<glyph unicode="&#xd5;" horiz-adv-x="1859" d="M141 776q0 221 99.5 405.5t282 296t409.5 111.5q215 0 393 -102.5t285.5 -288.5t107.5 -420q0 -219 -99 -403.5t-280.5 -296t-408.5 -111.5q-215 0 -394.5 101.5t-287 288t-107.5 419.5zM272 780q0 -193 82 -350.5t232.5 -251.5t343.5 -94q180 0 329.5 86t238.5 244.5 t89 361.5q0 193 -82 350.5t-232.5 252t-342.5 94.5q-180 0 -329.5 -86.5t-239 -245t-89.5 -361.5zM600 1710q0 125 47 190.5t138 65.5q53 -2 92 -25.5t70.5 -55.5t60 -55.5t61.5 -25.5q98 0 99 160h92q0 -123 -48.5 -189.5t-138.5 -66.5q-51 2 -90 25.5t-70.5 54.5 t-61.5 54.5t-62 25.5q-96 0 -97 -158h-92z" />
<glyph unicode="&#xd6;" horiz-adv-x="1859" d="M141 776q0 221 99.5 405.5t282 296t409.5 111.5q215 0 393 -102.5t285.5 -288.5t107.5 -420q0 -219 -99 -403.5t-280.5 -296t-408.5 -111.5q-215 0 -394.5 101.5t-287 288t-107.5 419.5zM272 780q0 -193 82 -350.5t232.5 -251.5t343.5 -94q180 0 329.5 86t238.5 244.5 t89 361.5q0 193 -82 350.5t-232.5 252t-342.5 94.5q-180 0 -329.5 -86.5t-239 -245t-89.5 -361.5zM654 1821q0 37 23.5 60.5t59.5 23.5q35 0 59.5 -23.5t24.5 -60.5t-24.5 -61.5t-59.5 -24.5q-37 0 -60 24.5t-23 61.5zM1039 1821q0 37 23.5 60.5t60.5 23.5t60 -23.5 t23 -60.5t-24 -61.5t-59 -24.5q-37 0 -60.5 24.5t-23.5 61.5z" />
<glyph unicode="&#xd7;" horiz-adv-x="1269" d="M248 379l309 307l-309 311l76 76l311 -309l311 309l74 -76l-311 -309l311 -309l-76 -78l-311 311l-311 -309z" />
<glyph unicode="&#xd8;" horiz-adv-x="1859" d="M141 776q0 221 99.5 405.5t282 296t409.5 111.5q147 0 282.5 -52t243.5 -148l182 186l74 -76l-182 -186q90 -111 138 -248t48 -287q0 -219 -99 -403.5t-280.5 -296t-408.5 -111.5q-150 0 -285 51.5t-244 147.5l-182 -186l-74 75l183 187q-90 106 -138.5 243.5 t-48.5 290.5zM272 780q0 -262 144 -448l956 971q-88 82 -201.5 126t-240.5 44q-180 0 -329.5 -86.5t-239 -245t-89.5 -361.5zM487 252q88 -82 202 -125t241 -43q180 0 329.5 86t238.5 244.5t89 361.5q0 127 -37 240.5t-106 206.5z" />
<glyph unicode="&#xd9;" horiz-adv-x="1740" d="M236 621v935h124v-919q0 -274 129 -413.5t381 -139.5t381 139t129 414v919h125v-935q0 -313 -166 -483.5t-471 -170.5q-303 0 -467.5 170t-164.5 484zM571 1974h162l278 -264h-133z" />
<glyph unicode="&#xda;" horiz-adv-x="1740" d="M236 621v935h124v-919q0 -274 129 -413.5t381 -139.5t381 139t129 414v919h125v-935q0 -313 -166 -483.5t-471 -170.5q-303 0 -467.5 170t-164.5 484zM729 1710l278 264h162l-305 -264h-135z" />
<glyph unicode="&#xdb;" horiz-adv-x="1740" d="M236 621v935h124v-919q0 -274 129 -413.5t381 -139.5t381 139t129 414v919h125v-935q0 -313 -166 -483.5t-471 -170.5q-303 0 -467.5 170t-164.5 484zM522 1710l295 291h108l293 -291h-133l-215 211l-213 -211h-135z" />
<glyph unicode="&#xdc;" horiz-adv-x="1740" d="M236 621v935h124v-919q0 -274 129 -413.5t381 -139.5t381 139t129 414v919h125v-935q0 -313 -166 -483.5t-471 -170.5q-303 0 -467.5 170t-164.5 484zM594 1821q0 37 23.5 60.5t59.5 23.5q35 0 59.5 -23.5t24.5 -60.5t-24.5 -61.5t-59.5 -24.5q-37 0 -60 24.5t-23 61.5z M979 1821q0 37 23.5 60.5t60.5 23.5t60 -23.5t23 -60.5t-24 -61.5t-59 -24.5q-37 0 -60.5 24.5t-23.5 61.5z" />
<glyph unicode="&#xdd;" horiz-adv-x="1390" d="M59 1556h146l491 -761l500 761h135l-573 -868v-688h-127v690zM553 1710l278 264h162l-305 -264h-135z" />
<glyph unicode="&#xde;" horiz-adv-x="1308" d="M250 0v1556h123v-292h299q152 0 268.5 -55.5t182 -160t65.5 -245.5q0 -217 -144.5 -345t-392.5 -128h-278v-330h-123zM373 440h258q209 0 318.5 92.5t109.5 266.5q0 168 -106.5 261t-299.5 93h-280v-713z" />
<glyph unicode="&#xdf;" horiz-adv-x="1314" d="M197 0v1163q0 231 123.5 368.5t334.5 137.5q125 0 222.5 -50t153.5 -144.5t56 -217.5q0 -131 -62 -232t-171 -144q156 -35 248 -154t92 -287q0 -133 -57.5 -240.5t-164 -170t-245.5 -62.5q-160 0 -264 68l22 100q47 -31 109.5 -48t124.5 -17q158 0 256 106.5t98 278.5 q0 166 -108.5 264t-290.5 98h-90v105h73q141 0 225.5 91t84.5 240q0 141 -85 225.5t-229 84.5q-160 0 -249 -113t-89 -315v-1135h-118z" />
<glyph unicode="&#xe0;" horiz-adv-x="1339" d="M121 500q0 143 64.5 264t181 195.5t262.5 74.5q127 0 232.5 -59.5t162.5 -161.5l4 188h115v-1001h-115l-4 188q-57 -104 -163 -162.5t-243 -58.5q-139 0 -251.5 66.5t-179 188.5t-66.5 278zM244 500q0 -119 48 -215.5t138 -153.5t209 -57q111 0 200 52t142 149.5 t53 224.5q0 119 -49 216t-139 154.5t-207 57.5q-109 0 -199 -52.5t-143 -150.5t-53 -225zM418 1583h142l252 -356h-117z" />
<glyph unicode="&#xe1;" horiz-adv-x="1339" d="M121 500q0 143 64.5 264t181 195.5t262.5 74.5q127 0 232.5 -59.5t162.5 -161.5l4 188h115v-1001h-115l-4 188q-57 -104 -163 -162.5t-243 -58.5q-139 0 -251.5 66.5t-179 188.5t-66.5 278zM244 500q0 -119 48 -215.5t138 -153.5t209 -57q111 0 200 52t142 149.5 t53 224.5q0 119 -49 216t-139 154.5t-207 57.5q-109 0 -199 -52.5t-143 -150.5t-53 -225zM515 1227l251 356h144l-279 -356h-116z" />
<glyph unicode="&#xe2;" horiz-adv-x="1339" d="M121 500q0 143 64.5 264t181 195.5t262.5 74.5q127 0 232.5 -59.5t162.5 -161.5l4 188h115v-1001h-115l-4 188q-57 -104 -163 -162.5t-243 -58.5q-139 0 -251.5 66.5t-179 188.5t-66.5 278zM244 500q0 -119 48 -215.5t138 -153.5t209 -57q111 0 200 52t142 149.5 t53 224.5q0 119 -49 216t-139 154.5t-207 57.5q-109 0 -199 -52.5t-143 -150.5t-53 -225zM318 1227l295 356h96l299 -356h-123l-223 268l-221 -268h-123z" />
<glyph unicode="&#xe3;" horiz-adv-x="1339" d="M121 500q0 143 64.5 264t181 195.5t262.5 74.5q127 0 232.5 -59.5t162.5 -161.5l4 188h115v-1001h-115l-4 188q-57 -104 -163 -162.5t-243 -58.5q-139 0 -251.5 66.5t-179 188.5t-66.5 278zM244 500q0 -119 48 -215.5t138 -153.5t209 -57q111 0 200 52t142 149.5 t53 224.5q0 119 -49 216t-139 154.5t-207 57.5q-109 0 -199 -52.5t-143 -150.5t-53 -225zM332 1274q0 125 47 190.5t138 65.5q53 -2 92 -25.5t70.5 -55.5t60 -55.5t61.5 -25.5q98 0 99 160h92q0 -123 -48.5 -189.5t-138.5 -66.5q-51 2 -90 25.5t-70.5 54t-61.5 54.5t-62 26 q-96 0 -97 -158h-92z" />
<glyph unicode="&#xe4;" horiz-adv-x="1339" d="M121 500q0 143 64.5 264t181 195.5t262.5 74.5q127 0 232.5 -59.5t162.5 -161.5l4 188h115v-1001h-115l-4 188q-57 -104 -163 -162.5t-243 -58.5q-139 0 -251.5 66.5t-179 188.5t-66.5 278zM244 500q0 -119 48 -215.5t138 -153.5t209 -57q111 0 200 52t142 149.5 t53 224.5q0 119 -49 216t-139 154.5t-207 57.5q-109 0 -199 -52.5t-143 -150.5t-53 -225zM396 1399q0 39 23.5 62.5t58.5 23.5q37 0 61.5 -24.5t24.5 -61.5t-24.5 -60.5t-61.5 -23.5t-59.5 23.5t-22.5 60.5zM760 1399q0 37 23.5 61.5t60.5 24.5t60.5 -24.5t23.5 -61.5 t-23.5 -60.5t-60.5 -23.5t-60.5 23.5t-23.5 60.5z" />
<glyph unicode="&#xe5;" horiz-adv-x="1339" d="M121 500q0 143 64.5 264t181 195.5t262.5 74.5q127 0 232.5 -59.5t162.5 -161.5l4 188h115v-1001h-115l-4 188q-57 -104 -163 -162.5t-243 -58.5q-139 0 -251.5 66.5t-179 188.5t-66.5 278zM244 500q0 -119 48 -215.5t138 -153.5t209 -57q111 0 200 52t142 149.5 t53 224.5q0 119 -49 216t-139 154.5t-207 57.5q-109 0 -199 -52.5t-143 -150.5t-53 -225zM404 1452q0 109 72.5 178.5t185.5 69.5t186.5 -70.5t73.5 -177.5q0 -106 -73.5 -177t-186.5 -71q-111 0 -184.5 71t-73.5 177zM494 1452q0 -74 46 -120t122 -46t123 46t47 120 t-47 120t-123 46t-122 -45t-46 -121z" />
<glyph unicode="&#xe6;" horiz-adv-x="2068" d="M121 500q0 143 64.5 264t181 195.5t262.5 74.5q119 0 222 -59.5t167 -163.5l2 190h100l2 -194q57 109 155.5 168t219.5 59q127 0 227.5 -59.5t157.5 -169t57 -254.5q0 -29 -6 -84h-809q10 -186 125 -289.5t312 -103.5q188 0 340 84l16 -103q-63 -41 -160.5 -64.5 t-202.5 -23.5q-143 0 -255.5 57.5t-176.5 161.5l-2 -186h-102l-2 184q-66 -102 -169.5 -159.5t-228.5 -57.5q-139 0 -251.5 66.5t-179 188.5t-66.5 278zM244 500q0 -119 48 -215.5t138 -153.5t209 -57q109 0 197 52t140 149.5t52 224.5q0 119 -48 216t-137 154.5t-204 57.5 q-109 0 -199 -52.5t-143 -150.5t-53 -225zM1126 569h699q-4 166 -94.5 263.5t-239.5 97.5q-145 0 -244.5 -98.5t-120.5 -262.5z" />
<glyph unicode="&#xe7;" horiz-adv-x="1085" d="M121 498q0 150 65.5 270.5t187.5 191t279 70.5q182 0 305 -74l-18 -104q-61 35 -136 53.5t-151 18.5q-119 0 -211 -51.5t-145 -147.5t-53 -223q0 -193 114.5 -309.5t305.5 -116.5q160 0 303 78l14 -101q-61 -39 -147.5 -61.5t-174.5 -22.5q-156 0 -277.5 64.5t-191 184.5 t-69.5 280zM418 -483l21 86q31 -16 71.5 -25.5t79.5 -9.5q68 0 107 28.5t39 77.5q0 47 -36 75t-99 28q-55 0 -86 -8l65 251h86l-43 -167h10q90 0 146.5 -49.5t56.5 -127.5q0 -90 -66.5 -144t-179.5 -54q-45 0 -93 11t-79 28z" />
<glyph unicode="&#xe8;" horiz-adv-x="1181" d="M121 496q0 150 60.5 271.5t173 194t255.5 72.5q127 0 227.5 -59.5t158 -169t57.5 -254.5q0 -35 -6 -84h-809q8 -182 123.5 -287.5t312.5 -105.5q188 0 340 84l16 -103q-63 -41 -160.5 -64.5t-201.5 -23.5q-248 0 -397.5 144.5t-149.5 384.5zM240 569h698 q-4 166 -94 263.5t-240 97.5q-145 0 -244.5 -98.5t-119.5 -262.5zM354 1583h142l252 -356h-117z" />
<glyph unicode="&#xe9;" horiz-adv-x="1181" d="M121 496q0 150 60.5 271.5t173 194t255.5 72.5q127 0 227.5 -59.5t158 -169t57.5 -254.5q0 -35 -6 -84h-809q8 -182 123.5 -287.5t312.5 -105.5q188 0 340 84l16 -103q-63 -41 -160.5 -64.5t-201.5 -23.5q-248 0 -397.5 144.5t-149.5 384.5zM240 569h698 q-4 166 -94 263.5t-240 97.5q-145 0 -244.5 -98.5t-119.5 -262.5zM451 1227l251 356h144l-279 -356h-116z" />
<glyph unicode="&#xea;" horiz-adv-x="1181" d="M121 496q0 150 60.5 271.5t173 194t255.5 72.5q127 0 227.5 -59.5t158 -169t57.5 -254.5q0 -35 -6 -84h-809q8 -182 123.5 -287.5t312.5 -105.5q188 0 340 84l16 -103q-63 -41 -160.5 -64.5t-201.5 -23.5q-248 0 -397.5 144.5t-149.5 384.5zM240 569h698 q-4 166 -94 263.5t-240 97.5q-145 0 -244.5 -98.5t-119.5 -262.5zM254 1227l295 356h96l299 -356h-123l-223 268l-221 -268h-123z" />
<glyph unicode="&#xeb;" horiz-adv-x="1181" d="M121 496q0 150 60.5 271.5t173 194t255.5 72.5q127 0 227.5 -59.5t158 -169t57.5 -254.5q0 -35 -6 -84h-809q8 -182 123.5 -287.5t312.5 -105.5q188 0 340 84l16 -103q-63 -41 -160.5 -64.5t-201.5 -23.5q-248 0 -397.5 144.5t-149.5 384.5zM240 569h698 q-4 166 -94 263.5t-240 97.5q-145 0 -244.5 -98.5t-119.5 -262.5zM332 1399q0 39 23.5 62.5t58.5 23.5q37 0 61.5 -24.5t24.5 -61.5t-24.5 -60.5t-61.5 -23.5t-59.5 23.5t-22.5 60.5zM696 1399q0 37 23.5 61.5t60.5 24.5t60.5 -24.5t23.5 -61.5t-23.5 -60.5t-60.5 -23.5 t-60.5 23.5t-23.5 60.5z" />
<glyph unicode="&#xec;" horiz-adv-x="512" d="M12 1583h142l252 -356h-117zM197 0v1001h118v-1001h-118z" />
<glyph unicode="&#xed;" horiz-adv-x="512" d="M109 1227l251 356h144l-279 -356h-116zM197 0v1001h118v-1001h-118z" />
<glyph unicode="&#xee;" horiz-adv-x="512" d="M-88 1227l295 356h96l299 -356h-123l-223 268l-221 -268h-123zM197 0v1001h118v-1001h-118z" />
<glyph unicode="&#xef;" horiz-adv-x="512" d="M-10 1399q0 39 23.5 62.5t58.5 23.5q37 0 61.5 -24.5t24.5 -61.5t-24.5 -60.5t-61.5 -23.5t-59.5 23.5t-22.5 60.5zM197 0v1001h118v-1001h-118zM354 1399q0 37 23.5 61.5t60.5 24.5t60.5 -24.5t23.5 -61.5t-23.5 -60.5t-60.5 -23.5t-60.5 23.5t-23.5 60.5z" />
<glyph unicode="&#xf0;" horiz-adv-x="1275" d="M121 500q0 141 64.5 263t180 196.5t259.5 74.5q109 0 202 -47t154 -131q-94 258 -281 479l-299 -161l-45 81l281 154q-127 133 -256 229l154 11q115 -86 202 -185l234 127l45 -86l-213 -116q170 -205 259 -426.5t89 -436.5q0 -156 -62.5 -282.5t-180 -201.5t-267.5 -75 q-145 0 -263 66.5t-187.5 188.5t-69.5 278zM244 500q0 -119 49 -215.5t138 -153.5t206 -57q111 0 201 52t142 150.5t52 225.5q0 119 -48 215t-138 153.5t-207 57.5q-172 0 -283.5 -121t-111.5 -307z" />
<glyph unicode="&#xf1;" horiz-adv-x="1234" d="M197 0v1001h110l2 -170q53 98 146.5 150.5t214.5 52.5q178 0 276 -112.5t98 -317.5v-604h-118v586q0 342 -281 342q-152 0 -241 -103.5t-89 -279.5v-545h-118zM291 1274q0 125 47 190.5t138 65.5q53 -2 92 -25.5t70.5 -55.5t60 -55.5t61.5 -25.5q98 0 99 160h92 q0 -123 -48.5 -189.5t-138.5 -66.5q-51 2 -90 25.5t-70.5 54t-61.5 54.5t-62 26q-96 0 -97 -158h-92z" />
<glyph unicode="&#xf2;" horiz-adv-x="1277" d="M121 500q0 143 65.5 264t184 195.5t268.5 74.5q143 0 260 -66.5t187.5 -188.5t70.5 -277q0 -143 -65.5 -264t-184 -196t-268.5 -75q-143 0 -260 66.5t-187.5 188.5t-70.5 278zM244 500q0 -119 48 -215.5t138 -153.5t209 -57q109 0 199 52t143 150.5t53 225.5 q0 119 -48 215t-138 153.5t-209 57.5q-109 0 -199 -52.5t-143 -150.5t-53 -225zM395 1583h142l252 -356h-117z" />
<glyph unicode="&#xf3;" horiz-adv-x="1277" d="M121 500q0 143 65.5 264t184 195.5t268.5 74.5q143 0 260 -66.5t187.5 -188.5t70.5 -277q0 -143 -65.5 -264t-184 -196t-268.5 -75q-143 0 -260 66.5t-187.5 188.5t-70.5 278zM244 500q0 -119 48 -215.5t138 -153.5t209 -57q109 0 199 52t143 150.5t53 225.5 q0 119 -48 215t-138 153.5t-209 57.5q-109 0 -199 -52.5t-143 -150.5t-53 -225zM492 1227l251 356h144l-279 -356h-116z" />
<glyph unicode="&#xf4;" horiz-adv-x="1277" d="M121 500q0 143 65.5 264t184 195.5t268.5 74.5q143 0 260 -66.5t187.5 -188.5t70.5 -277q0 -143 -65.5 -264t-184 -196t-268.5 -75q-143 0 -260 66.5t-187.5 188.5t-70.5 278zM244 500q0 -119 48 -215.5t138 -153.5t209 -57q109 0 199 52t143 150.5t53 225.5 q0 119 -48 215t-138 153.5t-209 57.5q-109 0 -199 -52.5t-143 -150.5t-53 -225zM295 1227l295 356h96l299 -356h-123l-223 268l-221 -268h-123z" />
<glyph unicode="&#xf5;" horiz-adv-x="1277" d="M121 500q0 143 65.5 264t184 195.5t268.5 74.5q143 0 260 -66.5t187.5 -188.5t70.5 -277q0 -143 -65.5 -264t-184 -196t-268.5 -75q-143 0 -260 66.5t-187.5 188.5t-70.5 278zM244 500q0 -119 48 -215.5t138 -153.5t209 -57q109 0 199 52t143 150.5t53 225.5 q0 119 -48 215t-138 153.5t-209 57.5q-109 0 -199 -52.5t-143 -150.5t-53 -225zM309 1274q0 125 47 190.5t138 65.5q53 -2 92 -25.5t70.5 -55.5t60 -55.5t61.5 -25.5q98 0 99 160h92q0 -123 -48.5 -189.5t-138.5 -66.5q-51 2 -90 25.5t-70.5 54t-61.5 54.5t-62 26 q-96 0 -97 -158h-92z" />
<glyph unicode="&#xf6;" horiz-adv-x="1277" d="M121 500q0 143 65.5 264t184 195.5t268.5 74.5q143 0 260 -66.5t187.5 -188.5t70.5 -277q0 -143 -65.5 -264t-184 -196t-268.5 -75q-143 0 -260 66.5t-187.5 188.5t-70.5 278zM244 500q0 -119 48 -215.5t138 -153.5t209 -57q109 0 199 52t143 150.5t53 225.5 q0 119 -48 215t-138 153.5t-209 57.5q-109 0 -199 -52.5t-143 -150.5t-53 -225zM373 1399q0 39 23.5 62.5t58.5 23.5q37 0 61.5 -24.5t24.5 -61.5t-24.5 -60.5t-61.5 -23.5t-59.5 23.5t-22.5 60.5zM737 1399q0 37 23.5 61.5t60.5 24.5t60.5 -24.5t23.5 -61.5t-23.5 -60.5 t-60.5 -23.5t-60.5 23.5t-23.5 60.5z" />
<glyph unicode="&#xf7;" horiz-adv-x="1269" d="M180 633v108h910v-108h-910zM543 324q0 39 26.5 65.5t65.5 26.5t66.5 -27t27.5 -65q0 -39 -27.5 -67t-66.5 -28t-65.5 28t-26.5 67zM543 1044q0 39 26.5 66t65.5 27t66.5 -27t27.5 -66t-27.5 -66.5t-66.5 -27.5t-65.5 28t-26.5 66z" />
<glyph unicode="&#xf8;" horiz-adv-x="1277" d="M119 45l112 115q-53 68 -81.5 155.5t-28.5 184.5q0 143 65.5 264t184 195.5t268.5 74.5q188 0 334 -119l127 127l63 -63l-127 -129q121 -150 121 -348q0 -143 -65.5 -264t-184 -196t-268.5 -75q-98 0 -187.5 33t-158.5 94l-111 -112zM244 500q0 -147 71 -256l580 590 q-106 94 -256 94q-109 0 -199 -52.5t-143 -150.5t-53 -225zM373 174q106 -100 266 -100q109 0 199 52t143 150.5t53 225.5q0 152 -80 266z" />
<glyph unicode="&#xf9;" horiz-adv-x="1230" d="M190 397v604h119v-585q0 -342 279 -342q150 0 238 103q89 103 89 280v544h119v-1001h-110l-2 170q-53 -100 -146 -152q-92 -51 -213 -51q-178 0 -275 113t-98 317zM366 1583h142l252 -356h-117z" />
<glyph unicode="&#xfa;" horiz-adv-x="1230" d="M190 397v604h119v-585q0 -342 279 -342q150 0 238 103q89 103 89 280v544h119v-1001h-110l-2 170q-53 -100 -146 -152q-92 -51 -213 -51q-178 0 -275 113t-98 317zM463 1227l251 356h144l-279 -356h-116z" />
<glyph unicode="&#xfb;" horiz-adv-x="1230" d="M190 397v604h119v-585q0 -342 279 -342q150 0 238 103q89 103 89 280v544h119v-1001h-110l-2 170q-53 -100 -146 -152q-92 -51 -213 -51q-178 0 -275 113t-98 317zM266 1227l295 356h96l299 -356h-123l-223 268l-221 -268h-123z" />
<glyph unicode="&#xfc;" horiz-adv-x="1230" d="M190 397v604h119v-585q0 -342 279 -342q150 0 238 103q89 103 89 280v544h119v-1001h-110l-2 170q-53 -100 -146 -152q-92 -51 -213 -51q-178 0 -275 113t-98 317zM344 1399q0 39 23.5 62.5t58.5 23.5q37 0 61.5 -24.5t24.5 -61.5t-24.5 -60.5t-61.5 -23.5t-59.5 23.5 t-22.5 60.5zM708 1399q0 37 23.5 61.5t60.5 24.5t60.5 -24.5t23.5 -61.5t-23.5 -60.5t-60.5 -23.5t-60.5 23.5t-23.5 60.5z" />
<glyph unicode="&#xfd;" horiz-adv-x="1107" d="M59 1001h131l379 -802l355 802h125l-687 -1503h-124l268 570zM420 1227l251 356h144l-279 -356h-116z" />
<glyph unicode="&#xfe;" horiz-adv-x="1343" d="M201 -502v2161h118v-844q57 104 164 161.5t242 57.5q139 0 252 -66.5t179.5 -188.5t66.5 -277q0 -143 -64.5 -264t-181.5 -196t-262 -75q-129 0 -235.5 59.5t-160.5 159.5v-688h-118zM309 502q0 -119 49.5 -216.5t139.5 -154.5t207 -57q109 0 198.5 52t143 150.5 t53.5 225.5q0 119 -48 215t-138.5 153.5t-208.5 57.5q-111 0 -200 -52.5t-142.5 -149.5t-53.5 -224z" />
<glyph unicode="&#xff;" horiz-adv-x="1107" d="M59 1001h131l379 -802l355 802h125l-687 -1503h-124l268 570zM301 1399q0 39 23.5 62.5t58.5 23.5q37 0 61.5 -24.5t24.5 -61.5t-24.5 -60.5t-61.5 -23.5t-59.5 23.5t-22.5 60.5zM665 1399q0 37 23.5 61.5t60.5 24.5t60.5 -24.5t23.5 -61.5t-23.5 -60.5t-60.5 -23.5 t-60.5 23.5t-23.5 60.5z" />
<glyph unicode="&#x100;" horiz-adv-x="1538" d="M61 0l637 1556h140l639 -1556h-138l-200 498h-750l-199 -498h-129zM432 604h664l-330 830zM467 1772v104h602v-104h-602z" />
<glyph unicode="&#x101;" horiz-adv-x="1339" d="M121 500q0 143 64.5 264t181 195.5t262.5 74.5q127 0 232.5 -59.5t162.5 -161.5l4 188h115v-1001h-115l-4 188q-57 -104 -163 -162.5t-243 -58.5q-139 0 -251.5 66.5t-179 188.5t-66.5 278zM244 500q0 -119 48 -215.5t138 -153.5t209 -57q111 0 200 52t142 149.5 t53 224.5q0 119 -49 216t-139 154.5t-207 57.5q-109 0 -199 -52.5t-143 -150.5t-53 -225zM361 1337v105h602v-105h-602z" />
<glyph unicode="&#x102;" horiz-adv-x="1538" d="M61 0l637 1556h140l639 -1556h-138l-200 498h-750l-199 -498h-129zM432 604h664l-330 830zM467 1952q0 20 2 28h96q0 -98 51.5 -149t151.5 -51q203 0 203 200h96q2 -8 2 -28q0 -119 -82 -190.5t-219 -71.5q-135 0 -218 71.5t-83 190.5z" />
<glyph unicode="&#x103;" horiz-adv-x="1339" d="M121 500q0 143 64.5 264t181 195.5t262.5 74.5q127 0 232.5 -59.5t162.5 -161.5l4 188h115v-1001h-115l-4 188q-57 -104 -163 -162.5t-243 -58.5q-139 0 -251.5 66.5t-179 188.5t-66.5 278zM244 500q0 -119 48 -215.5t138 -153.5t209 -57q111 0 200 52t142 149.5 t53 224.5q0 119 -49 216t-139 154.5t-207 57.5q-109 0 -199 -52.5t-143 -150.5t-53 -225zM367 1509q0 20 2 29h92q0 -221 201 -221t201 221h92q2 -8 2 -29q0 -127 -81 -203.5t-214 -76.5t-214 76.5t-81 203.5z" />
<glyph unicode="&#x104;" horiz-adv-x="1538" d="M61 0l637 1556h140l639 -1556h-138l-200 498h-750l-199 -498h-129zM432 604h664l-330 830zM1135 -332q0 94 71.5 189.5t209.5 183.5l61 -41q-236 -164 -236 -309q0 -53 30 -82t83 -29q63 0 131 37l14 -90q-31 -20 -74.5 -31.5t-86.5 -11.5q-92 0 -147.5 51t-55.5 133z " />
<glyph unicode="&#x105;" horiz-adv-x="1339" d="M121 500q0 143 64.5 264t181 195.5t262.5 74.5q127 0 232.5 -59.5t162.5 -161.5l4 188h115v-1001h-115l-4 188q-57 -104 -163 -162.5t-243 -58.5q-139 0 -251.5 66.5t-179 188.5t-66.5 278zM244 500q0 -119 48 -215.5t138 -153.5t209 -57q111 0 200 52t142 149.5 t53 224.5q0 119 -49 216t-139 154.5t-207 57.5q-109 0 -199 -52.5t-143 -150.5t-53 -225zM803 -332q0 190 278 373l62 -41q-233 -162 -234 -309q0 -53 30 -82t83 -29q63 0 131 37l14 -90q-31 -20 -74.5 -31.5t-86.5 -11.5q-92 0 -147.5 51t-55.5 133z" />
<glyph unicode="&#x106;" horiz-adv-x="1581" d="M141 774q0 229 99.5 411.5t286 288t431.5 105.5q119 0 241 -31.5t220 -87.5l-26 -114q-227 117 -447 116q-193 0 -345 -83t-240.5 -238.5t-88.5 -360.5q0 -199 82 -354.5t235.5 -243.5t356.5 -88q117 0 241 30t226 81l19 -113q-106 -55 -233.5 -85t-256.5 -30 q-225 0 -406.5 98.5t-288 280t-106.5 418.5zM764 1710l278 264h162l-305 -264h-135z" />
<glyph unicode="&#x107;" horiz-adv-x="1085" d="M121 498q0 150 65.5 270.5t187.5 191t279 70.5q182 0 305 -74l-18 -104q-61 35 -136 53.5t-151 18.5q-119 0 -211 -51.5t-145 -147.5t-53 -223q0 -193 114.5 -309.5t305.5 -116.5q160 0 303 78l14 -101q-61 -39 -147.5 -61.5t-174.5 -22.5q-156 0 -277.5 64.5t-191 184.5 t-69.5 280zM459 1227l251 356h144l-279 -356h-116z" />
<glyph unicode="&#x10a;" horiz-adv-x="1581" d="M141 774q0 229 99.5 411.5t286 288t431.5 105.5q119 0 241 -31.5t220 -87.5l-26 -114q-227 117 -447 116q-193 0 -345 -83t-240.5 -238.5t-88.5 -360.5q0 -199 82 -354.5t235.5 -243.5t356.5 -88q117 0 241 30t226 81l19 -113q-106 -55 -233.5 -85t-256.5 -30 q-225 0 -406.5 98.5t-288 280t-106.5 418.5zM817 1821q0 41 24.5 65.5t63.5 24.5q41 0 65.5 -24.5t24.5 -65.5q0 -39 -24.5 -63.5t-65.5 -24.5t-64.5 23.5t-23.5 64.5z" />
<glyph unicode="&#x10b;" horiz-adv-x="1085" d="M121 498q0 150 65.5 270.5t187.5 191t279 70.5q182 0 305 -74l-18 -104q-61 35 -136 53.5t-151 18.5q-119 0 -211 -51.5t-145 -147.5t-53 -223q0 -193 114.5 -309.5t305.5 -116.5q160 0 303 78l14 -101q-61 -39 -147.5 -61.5t-174.5 -22.5q-156 0 -277.5 64.5t-191 184.5 t-69.5 280zM518 1399q0 39 24.5 63.5t63.5 24.5q41 0 65.5 -24.5t24.5 -63.5t-24.5 -64.5t-65.5 -25.5t-64.5 24.5t-23.5 65.5z" />
<glyph unicode="&#x10c;" horiz-adv-x="1581" d="M141 774q0 229 99.5 411.5t286 288t431.5 105.5q119 0 241 -31.5t220 -87.5l-26 -114q-227 117 -447 116q-193 0 -345 -83t-240.5 -238.5t-88.5 -360.5q0 -199 82 -354.5t235.5 -243.5t356.5 -88q117 0 241 30t226 81l19 -113q-106 -55 -233.5 -85t-256.5 -30 q-225 0 -406.5 98.5t-288 280t-106.5 418.5zM557 2001h133l215 -213l213 213h135l-295 -291h-108z" />
<glyph unicode="&#x10d;" horiz-adv-x="1085" d="M121 498q0 150 65.5 270.5t187.5 191t279 70.5q182 0 305 -74l-18 -104q-61 35 -136 53.5t-151 18.5q-119 0 -211 -51.5t-145 -147.5t-53 -223q0 -193 114.5 -309.5t305.5 -116.5q160 0 303 78l14 -101q-61 -39 -147.5 -61.5t-174.5 -22.5q-156 0 -277.5 64.5t-191 184.5 t-69.5 280zM258 1583h125l223 -270l219 270h123l-295 -356h-96z" />
<glyph unicode="&#x10e;" horiz-adv-x="1734" d="M250 0v1556h518q393 0 609 -203.5t216 -574.5q0 -377 -218 -577.5t-627 -200.5h-498zM377 113h375q352 0 531 168t179 495q0 330 -179 499t-529 169h-377v-1331zM469 2001h133l215 -213l213 213h135l-295 -291h-108z" />
<glyph unicode="&#x10f;" horiz-adv-x="1339" d="M121 500q0 143 64.5 264t181 195.5t262.5 74.5q127 0 233.5 -59.5t161.5 -159.5v844h119v-1659h-115l-4 188q-57 -104 -163 -162.5t-243 -58.5q-139 0 -251.5 66.5t-179 188.5t-66.5 278zM244 500q0 -119 48 -215.5t138 -153.5t209 -57q111 0 200 52t142 149.5t53 224.5 q0 119 -49 216t-139 154.5t-207 57.5q-109 0 -199 -52.5t-143 -150.5t-53 -225zM1284 1188l27 471h119l-64 -471h-82z" />
<glyph unicode="&#x110;" horiz-adv-x="1755" d="M55 733v103h215v720h518q393 0 609.5 -203.5t216.5 -574.5q0 -377 -218 -577.5t-628 -200.5h-498v733h-215zM397 113h375q352 0 531.5 168t179.5 495q0 330 -179.5 499t-529.5 169h-377v-608h400v-103h-400v-620z" />
<glyph unicode="&#x111;" horiz-adv-x="1339" d="M121 500q0 143 64.5 264t181 195.5t262.5 74.5q127 0 233.5 -59.5t161.5 -159.5v463h-360v94h360v287h119v-287h157v-94h-157v-1278h-115l-4 188q-57 -104 -163 -162.5t-243 -58.5q-139 0 -251.5 66.5t-179 188.5t-66.5 278zM244 500q0 -119 48 -215.5t138 -153.5 t209 -57q111 0 200 52t142 149.5t53 224.5q0 119 -49 216t-139 154.5t-207 57.5q-109 0 -199 -52.5t-143 -150.5t-53 -225z" />
<glyph unicode="&#x112;" horiz-adv-x="1339" d="M250 0v1556h901v-110h-774v-590h692v-108h-692v-637h805v-111h-932zM416 1772v104h602v-104h-602z" />
<glyph unicode="&#x113;" horiz-adv-x="1181" d="M121 496q0 150 60.5 271.5t173 194t255.5 72.5q127 0 227.5 -59.5t158 -169t57.5 -254.5q0 -35 -6 -84h-809q8 -182 123.5 -287.5t312.5 -105.5q188 0 340 84l16 -103q-63 -41 -160.5 -64.5t-201.5 -23.5q-248 0 -397.5 144.5t-149.5 384.5zM240 569h698 q-4 166 -94 263.5t-240 97.5q-145 0 -244.5 -98.5t-119.5 -262.5zM297 1337v105h602v-105h-602z" />
<glyph unicode="&#x116;" horiz-adv-x="1339" d="M250 0v1556h901v-110h-774v-590h692v-108h-692v-637h805v-111h-932zM629 1821q0 41 24.5 65.5t63.5 24.5q41 0 65.5 -24.5t24.5 -65.5q0 -39 -24.5 -63.5t-65.5 -24.5t-64.5 23.5t-23.5 64.5z" />
<glyph unicode="&#x117;" horiz-adv-x="1181" d="M121 496q0 150 60.5 271.5t173 194t255.5 72.5q127 0 227.5 -59.5t158 -169t57.5 -254.5q0 -35 -6 -84h-809q8 -182 123.5 -287.5t312.5 -105.5q188 0 340 84l16 -103q-63 -41 -160.5 -64.5t-201.5 -23.5q-248 0 -397.5 144.5t-149.5 384.5zM240 569h698 q-4 166 -94 263.5t-240 97.5q-145 0 -244.5 -98.5t-119.5 -262.5zM510 1399q0 39 24.5 63.5t63.5 24.5q41 0 65.5 -24.5t24.5 -63.5t-24.5 -64.5t-65.5 -25.5t-64.5 24.5t-23.5 65.5z" />
<glyph unicode="&#x118;" horiz-adv-x="1339" d="M250 0v1556h901v-110h-774v-590h692v-108h-692v-637h805v-111h-932zM840 -332q0 94 71.5 189.5t209.5 183.5l61 -41q-236 -164 -236 -309q0 -53 30 -82t83 -29q63 0 131 37l14 -90q-31 -20 -74.5 -31.5t-86.5 -11.5q-92 0 -147.5 51t-55.5 133z" />
<glyph unicode="&#x119;" horiz-adv-x="1181" d="M121 496q0 150 60.5 271.5t173 194t255.5 72.5q127 0 227.5 -59.5t158 -169t57.5 -254.5q0 -35 -6 -84h-809q8 -182 123.5 -287.5t312.5 -105.5q188 0 340 84l16 -103q-63 -41 -160.5 -64.5t-201.5 -23.5q-248 0 -397.5 144.5t-149.5 384.5zM240 569h698 q-4 166 -94 263.5t-240 97.5q-145 0 -244.5 -98.5t-119.5 -262.5zM606 -332q0 102 86.5 205.5t227.5 169.5l90 2q-297 -193 -297 -354q0 -53 29.5 -82t85.5 -29q61 0 129 37l14 -90q-31 -20 -75 -31.5t-87 -11.5q-92 0 -147.5 51t-55.5 133z" />
<glyph unicode="&#x11a;" horiz-adv-x="1339" d="M250 0v1556h901v-110h-774v-590h692v-108h-692v-637h805v-111h-932zM369 2001h133l215 -213l213 213h135l-295 -291h-108z" />
<glyph unicode="&#x11b;" horiz-adv-x="1181" d="M121 496q0 150 60.5 271.5t173 194t255.5 72.5q127 0 227.5 -59.5t158 -169t57.5 -254.5q0 -35 -6 -84h-809q8 -182 123.5 -287.5t312.5 -105.5q188 0 340 84l16 -103q-63 -41 -160.5 -64.5t-201.5 -23.5q-248 0 -397.5 144.5t-149.5 384.5zM240 569h698 q-4 166 -94 263.5t-240 97.5q-145 0 -244.5 -98.5t-119.5 -262.5zM250 1583h125l223 -270l219 270h123l-295 -356h-96z" />
<glyph unicode="&#x11e;" horiz-adv-x="1693" d="M141 770q0 229 101.5 412.5t289 290t433.5 106.5q135 0 270 -31.5t238 -87.5l-27 -112q-98 53 -230.5 83.5t-261.5 30.5q-190 0 -344.5 -84t-246 -240.5t-91.5 -359.5q0 -201 82 -355.5t239 -241.5t368 -87q229 0 421 80v508h-397v113h522v-699q-242 -119 -551 -119 q-233 0 -417.5 96.5t-291 276.5t-106.5 420zM610 1952q0 20 2 28h96q0 -98 51.5 -149t151.5 -51q203 0 203 200h96q2 -8 2 -28q0 -119 -82 -190.5t-219 -71.5q-135 0 -218 71.5t-83 190.5z" />
<glyph unicode="&#x11f;" horiz-adv-x="1339" d="M121 500q0 143 64.5 264t181 195.5t262.5 74.5q127 0 232.5 -59.5t162.5 -161.5l4 188h115v-929q0 -301 -133.5 -447.5t-405.5 -146.5q-94 0 -200.5 27.5t-170.5 70.5l19 107q68 -45 165 -72t187 -27q219 0 320.5 114t101.5 361v131q-55 -104 -163.5 -163.5t-244.5 -59.5 q-139 0 -251.5 66.5t-179 188.5t-66.5 278zM244 500q0 -119 48 -215.5t138 -153.5t209 -57q111 0 200 52t142 149.5t53 224.5q0 119 -49 216t-139 154.5t-207 57.5q-109 0 -199 -52.5t-143 -150.5t-53 -225zM364 1509q0 20 2 29h92q0 -221 201 -221t201 221h92q2 -8 2 -29 q0 -127 -81 -203.5t-214 -76.5t-214 76.5t-81 203.5z" />
<glyph unicode="&#x120;" horiz-adv-x="1693" d="M141 770q0 229 101.5 412.5t289 290t433.5 106.5q135 0 270 -31.5t238 -87.5l-27 -112q-98 53 -230.5 83.5t-261.5 30.5q-190 0 -344.5 -84t-246 -240.5t-91.5 -359.5q0 -201 82 -355.5t239 -241.5t368 -87q229 0 421 80v508h-397v113h522v-699q-242 -119 -551 -119 q-233 0 -417.5 96.5t-291 276.5t-106.5 420zM823 1821q0 41 24.5 65.5t63.5 24.5q41 0 65.5 -24.5t24.5 -65.5q0 -39 -24.5 -63.5t-65.5 -24.5t-64.5 23.5t-23.5 64.5z" />
<glyph unicode="&#x121;" horiz-adv-x="1339" d="M121 500q0 143 64.5 264t181 195.5t262.5 74.5q127 0 232.5 -59.5t162.5 -161.5l4 188h115v-929q0 -301 -133.5 -447.5t-405.5 -146.5q-94 0 -200.5 27.5t-170.5 70.5l19 107q68 -45 165 -72t187 -27q219 0 320.5 114t101.5 361v131q-55 -104 -163.5 -163.5t-244.5 -59.5 q-139 0 -251.5 66.5t-179 188.5t-66.5 278zM244 500q0 -119 48 -215.5t138 -153.5t209 -57q111 0 200 52t142 149.5t53 224.5q0 119 -49 216t-139 154.5t-207 57.5q-109 0 -199 -52.5t-143 -150.5t-53 -225zM571 1399q0 39 24.5 63.5t63.5 24.5q41 0 65.5 -24.5t24.5 -63.5 t-24.5 -64.5t-65.5 -25.5t-64.5 24.5t-23.5 65.5z" />
<glyph unicode="&#x122;" horiz-adv-x="1693" d="M141 770q0 229 101.5 412.5t289 290t433.5 106.5q135 0 270 -31.5t238 -87.5l-27 -112q-98 53 -230.5 83.5t-261.5 30.5q-190 0 -344.5 -84t-246 -240.5t-91.5 -359.5q0 -201 82 -355.5t239 -241.5t368 -87q229 0 421 80v508h-397v113h522v-699q-242 -119 -551 -119 q-233 0 -417.5 96.5t-291 276.5t-106.5 420zM737 -502q86 156 97 369h116q-8 -98 -41.5 -200.5t-78.5 -168.5h-93z" />
<glyph unicode="&#x123;" horiz-adv-x="1339" d="M121 500q0 143 64.5 264t181 195.5t262.5 74.5q127 0 232.5 -59.5t162.5 -161.5l4 188h115v-929q0 -301 -133.5 -447.5t-405.5 -146.5q-94 0 -200.5 27.5t-170.5 70.5l19 107q68 -45 165 -72t187 -27q219 0 320.5 114t101.5 361v131q-55 -104 -163.5 -163.5t-244.5 -59.5 q-139 0 -251.5 66.5t-179 188.5t-66.5 278zM244 500q0 -119 48 -215.5t138 -153.5t209 -57q111 0 200 52t142 149.5t53 224.5q0 119 -49 216t-139 154.5t-207 57.5q-109 0 -199 -52.5t-143 -150.5t-53 -225zM589 1249q4 88 35 176t82 158h92q-82 -141 -90 -334h-119z" />
<glyph unicode="&#x126;" horiz-adv-x="1800" d="M55 1165v103h215v288h127v-288h1006v288h127v-288h213v-103h-213v-1165h-127v760h-1006v-760h-127v1165h-215zM397 868h1006v297h-1006v-297z" />
<glyph unicode="&#x127;" horiz-adv-x="1234" d="M12 1278v94h185v287h118v-287h326v-94h-326v-436q53 94 144.5 143t210.5 49q178 0 276 -112.5t98 -317.5v-604h-118v586q0 342 -281 342q-152 0 -241 -103.5t-89 -279.5v-545h-118v1278h-185z" />
<glyph unicode="&#x128;" horiz-adv-x="626" d="M-17 1710q0 125 47 190.5t138 65.5q53 -2 92 -25.5t70.5 -55.5t60 -55.5t61.5 -25.5q98 0 99 160h92q0 -123 -48.5 -189.5t-138.5 -66.5q-51 2 -90 25.5t-70.5 54.5t-61.5 54.5t-62 25.5q-96 0 -97 -158h-92zM250 0v1556h127v-1556h-127z" />
<glyph unicode="&#x129;" horiz-adv-x="512" d="M-74 1274q0 125 47 190.5t138 65.5q53 -2 92 -25.5t70.5 -55.5t60 -55.5t61.5 -25.5q98 0 99 160h92q0 -123 -48.5 -189.5t-138.5 -66.5q-51 2 -90 25.5t-70.5 54t-61.5 54.5t-62 26q-96 0 -97 -158h-92zM197 0v1001h118v-1001h-118z" />
<glyph unicode="&#x12a;" horiz-adv-x="626" d="M12 1772v104h602v-104h-602zM250 0v1556h127v-1556h-127z" />
<glyph unicode="&#x12b;" horiz-adv-x="512" d="M-45 1337v105h602v-105h-602zM197 0v1001h118v-1001h-118z" />
<glyph unicode="&#x12e;" horiz-adv-x="626" d="M35 -332q0 94 71.5 189.5t209.5 183.5l61 -41q-236 -164 -236 -309q0 -53 30 -82t83 -29q63 0 131 37l14 -90q-31 -20 -74.5 -31.5t-86.5 -11.5q-92 0 -147.5 51t-55.5 133zM250 0v1556h127v-1556h-127z" />
<glyph unicode="&#x12f;" horiz-adv-x="512" d="M-25 -332q0 190 278 373l62 -41q-233 -162 -234 -309q0 -53 30 -82t83 -29q63 0 131 37l14 -90q-31 -20 -74.5 -31.5t-86.5 -11.5q-92 0 -147.5 51t-55.5 133zM166 1399q0 39 25.5 63.5t64.5 24.5t63.5 -24.5t24.5 -63.5t-24.5 -64.5t-63.5 -25.5t-64.5 25.5t-25.5 64.5z M197 0v1001h118v-1001h-118z" />
<glyph unicode="&#x130;" horiz-adv-x="626" d="M225 1821q0 41 24.5 65.5t63.5 24.5q41 0 65.5 -24.5t24.5 -65.5q0 -39 -24.5 -63.5t-65.5 -24.5t-64.5 23.5t-23.5 64.5zM250 0v1556h127v-1556h-127z" />
<glyph unicode="&#x131;" horiz-adv-x="512" d="M197 0v1001h118v-1001h-118z" />
<glyph unicode="&#x132;" horiz-adv-x="1740" d="M250 0v1556h127v-1556h-127zM725 49l17 117q135 -82 307 -82q174 0 253 90t79 291v1091h125v-1091q0 -250 -112 -374t-341 -124q-180 0 -328 82z" />
<glyph unicode="&#x133;" horiz-adv-x="1024" d="M166 1399q0 39 25.5 63.5t64.5 24.5t63.5 -24.5t24.5 -63.5t-24.5 -64.5t-63.5 -25.5t-64.5 25.5t-25.5 64.5zM197 0v1001h118v-1001h-118zM303 -475l12 102q88 -45 195 -45q102 0 150 62q48 61 49 194v1163h118v-1161q0 -182 -79 -272q-80 -90 -244 -90q-111 0 -201 47z M678 1399q0 39 25 63q26 25 65 25t63 -25q25 -25 25 -63q0 -39 -25 -65q-24 -25 -63 -25t-65 25q-26 26 -25 65z" />
<glyph unicode="&#x136;" horiz-adv-x="1527" d="M250 0v1556h127v-714l840 714h172l-881 -745l962 -811h-188l-905 766v-766h-127zM669 -502q86 156 97 369h116q-8 -98 -41.5 -200.5t-78.5 -168.5h-93z" />
<glyph unicode="&#x137;" horiz-adv-x="1124" d="M197 0v1659h118v-1069l510 411h164l-555 -442l637 -559h-168l-588 518v-518h-118zM476 -502q86 160 96 369h117q-8 -96 -42 -198.5t-81 -170.5h-90z" />
<glyph unicode="&#x138;" horiz-adv-x="1124" d="M197 0v1001h118v-426l514 426h160l-559 -456l641 -545h-168l-588 498v-498h-118z" />
<glyph unicode="&#x139;" horiz-adv-x="1234" d="M172 1710l278 264h162l-305 -264h-135zM250 0v1556h127v-1445h764v-111h-891z" />
<glyph unicode="&#x13a;" horiz-adv-x="512" d="M115 1741l278 264h162l-305 -264h-135zM197 0v1659h118v-1659h-118z" />
<glyph unicode="&#x13b;" horiz-adv-x="1234" d="M250 0v1556h127v-1445h764v-111h-891zM534 -502q86 156 97 369h116q-8 -98 -41.5 -200.5t-78.5 -168.5h-93z" />
<glyph unicode="&#x13c;" horiz-adv-x="512" d="M111 -502q86 160 96 369h117q-8 -96 -42 -198.5t-81 -170.5h-90zM197 0v1659h118v-1659h-118z" />
<glyph unicode="&#x13d;" horiz-adv-x="1234" d="M250 0v1556h127v-1445h764v-111h-891zM645 1188l27 471h119l-64 -471h-82z" />
<glyph unicode="&#x13e;" horiz-adv-x="512" d="M197 0v1659h118v-1659h-118zM456 1188l27 471h119l-64 -471h-82z" />
<glyph unicode="&#x141;" horiz-adv-x="1255" d="M86 565l184 127v864h127v-776l426 297l13 -114l-439 -306v-546h764v-111h-891v569l-172 -118z" />
<glyph unicode="&#x142;" horiz-adv-x="552" d="M10 702l207 123v834h119v-764l194 117l15 -109l-209 -123v-780h-119v711l-194 -115z" />
<glyph unicode="&#x143;" horiz-adv-x="1796" d="M250 0v1556h125l1052 -1376v1376h119v-1556h-125l-1052 1376v-1376h-119zM746 1710l278 264h162l-305 -264h-135z" />
<glyph unicode="&#x144;" horiz-adv-x="1234" d="M197 0v1001h110l2 -170q53 98 146.5 150.5t214.5 52.5q178 0 276 -112.5t98 -317.5v-604h-118v586q0 342 -281 342q-152 0 -241 -103.5t-89 -279.5v-545h-118zM474 1227l251 356h144l-279 -356h-116z" />
<glyph unicode="&#x145;" horiz-adv-x="1796" d="M250 0v1556h125l1052 -1376v1376h119v-1556h-125l-1052 1376v-1376h-119zM725 -502q86 156 97 369h116q-8 -98 -41.5 -200.5t-78.5 -168.5h-93z" />
<glyph unicode="&#x146;" horiz-adv-x="1234" d="M197 0v1001h110l2 -170q53 98 146.5 150.5t214.5 52.5q178 0 276 -112.5t98 -317.5v-604h-118v586q0 342 -281 342q-152 0 -241 -103.5t-89 -279.5v-545h-118zM465 -502q86 160 96 369h117q-8 -96 -42 -198.5t-81 -170.5h-90z" />
<glyph unicode="&#x147;" horiz-adv-x="1796" d="M250 0v1556h125l1052 -1376v1376h119v-1556h-125l-1052 1376v-1376h-119zM539 2001h133l215 -213l213 213h135l-295 -291h-108z" />
<glyph unicode="&#x148;" horiz-adv-x="1234" d="M197 0v1001h110l2 -170q53 98 146.5 150.5t214.5 52.5q178 0 276 -112.5t98 -317.5v-604h-118v586q0 342 -281 342q-152 0 -241 -103.5t-89 -279.5v-545h-118zM273 1583h125l223 -270l219 270h123l-295 -356h-96z" />
<glyph unicode="&#x14c;" horiz-adv-x="1859" d="M141 776q0 221 99.5 405.5t282 296t409.5 111.5q215 0 393 -102.5t285.5 -288.5t107.5 -420q0 -219 -99 -403.5t-280.5 -296t-408.5 -111.5q-215 0 -394.5 101.5t-287 288t-107.5 419.5zM272 780q0 -193 82 -350.5t232.5 -251.5t343.5 -94q180 0 329.5 86t238.5 244.5 t89 361.5q0 193 -82 350.5t-232.5 252t-342.5 94.5q-180 0 -329.5 -86.5t-239 -245t-89.5 -361.5zM629 1772v104h602v-104h-602z" />
<glyph unicode="&#x14d;" horiz-adv-x="1277" d="M121 500q0 143 65.5 264t184 195.5t268.5 74.5q143 0 260 -66.5t187.5 -188.5t70.5 -277q0 -143 -65.5 -264t-184 -196t-268.5 -75q-143 0 -260 66.5t-187.5 188.5t-70.5 278zM244 500q0 -119 48 -215.5t138 -153.5t209 -57q109 0 199 52t143 150.5t53 225.5 q0 119 -48 215t-138 153.5t-209 57.5q-109 0 -199 -52.5t-143 -150.5t-53 -225zM338 1337v105h602v-105h-602z" />
<glyph unicode="&#x150;" horiz-adv-x="1859" d="M141 776q0 221 99.5 405.5t282 296t409.5 111.5q215 0 393 -102.5t285.5 -288.5t107.5 -420q0 -219 -99 -403.5t-280.5 -296t-408.5 -111.5q-215 0 -394.5 101.5t-287 288t-107.5 419.5zM272 780q0 -193 82 -350.5t232.5 -251.5t343.5 -94q180 0 329.5 86t238.5 244.5 t89 361.5q0 193 -82 350.5t-232.5 252t-342.5 94.5q-180 0 -329.5 -86.5t-239 -245t-89.5 -361.5zM670 1710l219 264h143l-245 -264h-117zM979 1710l221 264h144l-246 -264h-119z" />
<glyph unicode="&#x151;" horiz-adv-x="1277" d="M121 500q0 143 65.5 264t184 195.5t268.5 74.5q143 0 260 -66.5t187.5 -188.5t70.5 -277q0 -143 -65.5 -264t-184 -196t-268.5 -75q-143 0 -260 66.5t-187.5 188.5t-70.5 278zM244 500q0 -119 48 -215.5t138 -153.5t209 -57q109 0 199 52t143 150.5t53 225.5 q0 119 -48 215t-138 153.5t-209 57.5q-109 0 -199 -52.5t-143 -150.5t-53 -225zM367 1223l241 360h135l-266 -360h-110zM684 1223l242 360h135l-266 -360h-111z" />
<glyph unicode="&#x152;" horiz-adv-x="2646" d="M141 776q0 221 97.5 405.5t276.5 296t405 111.5q209 0 376.5 -104.5t257.5 -288.5v360h902v-110h-775v-590h693v-108h-693v-637h805v-111h-932v360q-88 -184 -256.5 -288.5t-379.5 -104.5t-387.5 101.5t-283 288t-106.5 419.5zM272 780q0 -193 80 -350.5t229 -251.5 t337 -94q180 0 326.5 87t233.5 244.5t87 360.5q0 193 -81 350.5t-228.5 252t-337.5 94.5q-176 0 -322.5 -86.5t-235 -245t-88.5 -361.5z" />
<glyph unicode="&#x153;" horiz-adv-x="2088" d="M121 500q0 143 65.5 264t184 195.5t268.5 74.5q96 0 185 -35.5t158 -104.5t105 -161q53 141 167 221t264 80q127 0 227 -59.5t157.5 -169t57.5 -254.5q0 -31 -6 -84h-809q10 -186 125.5 -289.5t310.5 -103.5q184 0 340 84l16 -103q-66 -41 -163 -64.5t-199 -23.5 q-182 0 -309 78t-185 225q-57 -139 -177 -221t-265 -82q-143 0 -260 66.5t-187.5 188.5t-70.5 278zM244 500q0 -119 48 -215.5t138 -153.5t209 -57q111 0 200 53t142 150.5t53 222.5q0 186 -111.5 307t-283.5 121q-109 0 -199 -52.5t-143 -150.5t-53 -225zM1147 569h698 q-4 166 -94 263.5t-240 97.5q-145 0 -244.5 -98.5t-119.5 -262.5z" />
<glyph unicode="&#x154;" horiz-adv-x="1427" d="M250 0v1556h426q233 0 373.5 -122.5t140.5 -327.5q0 -152 -79 -262.5t-224 -161.5l452 -682h-151l-424 653q-43 -6 -107 -6h-284v-647h-123zM373 758h262q207 0 315.5 88t108.5 256q0 166 -103.5 255t-293.5 89h-289v-688zM514 1710l278 264h162l-305 -264h-135z" />
<glyph unicode="&#x155;" horiz-adv-x="823" d="M197 0v1001h112v-198q121 213 330 213q72 0 113 -21l-13 -110q-61 20 -116 20q-143 0 -225.5 -114.5t-82.5 -317.5v-473h-118zM304 1227l251 356h144l-279 -356h-116z" />
<glyph unicode="&#x158;" horiz-adv-x="1427" d="M250 0v1556h426q233 0 373.5 -122.5t140.5 -327.5q0 -152 -79 -262.5t-224 -161.5l452 -682h-151l-424 653q-43 -6 -107 -6h-284v-647h-123zM307 2001h133l215 -213l213 213h135l-295 -291h-108zM373 758h262q207 0 315.5 88t108.5 256q0 166 -103.5 255t-293.5 89h-289 v-688z" />
<glyph unicode="&#x159;" horiz-adv-x="823" d="M103 1583h125l223 -270l219 270h123l-295 -356h-96zM197 0v1001h112v-198q121 213 330 213q72 0 113 -21l-13 -110q-61 20 -116 20q-143 0 -225.5 -114.5t-82.5 -317.5v-473h-118z" />
<glyph unicode="&#x15a;" horiz-adv-x="1343" d="M154 94l18 117q96 -61 217 -97t238 -36q190 0 300.5 84t110.5 227q0 92 -38.5 150.5t-128 105.5t-250.5 103q-238 80 -337.5 179t-99.5 259q0 184 132.5 293.5t355.5 109.5q111 0 221.5 -26.5t202.5 -75.5l-25 -111q-205 102 -399 103q-170 0 -267.5 -76t-97.5 -209 q0 -84 34 -140.5t111.5 -100.5t217.5 -91q188 -63 294.5 -128.5t152.5 -145.5t46 -189q0 -199 -144 -315.5t-388 -116.5q-133 0 -262 35t-215 92zM521 1710l278 264h162l-305 -264h-135z" />
<glyph unicode="&#x15b;" horiz-adv-x="940" d="M102 63l17 109q66 -47 153.5 -74.5t167.5 -27.5q125 0 198 47t73 131q0 57 -26 90t-86 60.5t-175 64.5q-162 51 -230.5 119.5t-68.5 177.5q0 125 95 199.5t257 74.5q78 0 161 -21.5t144 -58.5l-18 -104q-61 39 -137 60.5t-152 21.5q-113 0 -174 -43t-61 -119 q0 -74 52 -119t181 -82q197 -55 276.5 -125.5t79.5 -189.5q0 -131 -105.5 -209t-283.5 -78q-96 0 -188 26.5t-150 69.5zM322 1227l251 356h144l-279 -356h-116z" />
<glyph unicode="&#x15e;" horiz-adv-x="1343" d="M154 94l18 117q96 -61 217 -97t238 -36q190 0 300.5 84t110.5 227q0 92 -38.5 150.5t-128 105.5t-250.5 103q-238 80 -337.5 179t-99.5 259q0 184 132.5 293.5t355.5 109.5q111 0 221.5 -26.5t202.5 -75.5l-25 -111q-205 102 -399 103q-170 0 -267.5 -76t-97.5 -209 q0 -84 34 -140.5t111.5 -100.5t217.5 -91q188 -63 294.5 -128.5t152.5 -145.5t46 -189q0 -199 -144 -315.5t-388 -116.5q-133 0 -262 35t-215 92zM436 -483l21 88q68 -37 151 -37q66 0 104 28.5t38 77.5q0 47 -34 74t-97 27q-61 0 -89 -8l68 253h88l-45 -167h10 q90 0 146.5 -49.5t56.5 -127.5q0 -90 -66.5 -144t-179.5 -54q-45 0 -93 11t-79 28z" />
<glyph unicode="&#x15f;" horiz-adv-x="940" d="M102 63l17 109q66 -47 153.5 -74.5t167.5 -27.5q125 0 198 47t73 131q0 57 -26 90t-86 60.5t-175 64.5q-162 51 -230.5 119.5t-68.5 177.5q0 125 95 199.5t257 74.5q78 0 161 -21.5t144 -58.5l-18 -104q-61 39 -137 60.5t-152 21.5q-113 0 -174 -43t-61 -119 q0 -74 52 -119t181 -82q197 -55 276.5 -125.5t79.5 -189.5q0 -131 -105.5 -209t-283.5 -78q-96 0 -188 26.5t-150 69.5zM250 -483l21 86q31 -16 71.5 -25.5t79.5 -9.5q68 0 107 28.5t39 77.5q0 47 -36 75t-99 28q-55 0 -86 -8l65 251h86l-43 -167h10q90 0 146.5 -49.5 t56.5 -127.5q0 -90 -66.5 -144t-179.5 -54q-45 0 -93 11t-79 28z" />
<glyph unicode="&#x160;" horiz-adv-x="1343" d="M154 94l18 117q96 -61 217 -97t238 -36q190 0 300.5 84t110.5 227q0 92 -38.5 150.5t-128 105.5t-250.5 103q-238 80 -337.5 179t-99.5 259q0 184 132.5 293.5t355.5 109.5q111 0 221.5 -26.5t202.5 -75.5l-25 -111q-205 102 -399 103q-170 0 -267.5 -76t-97.5 -209 q0 -84 34 -140.5t111.5 -100.5t217.5 -91q188 -63 294.5 -128.5t152.5 -145.5t46 -189q0 -199 -144 -315.5t-388 -116.5q-133 0 -262 35t-215 92zM314 2001h133l215 -213l213 213h135l-295 -291h-108z" />
<glyph unicode="&#x161;" horiz-adv-x="940" d="M102 63l17 109q66 -47 153.5 -74.5t167.5 -27.5q125 0 198 47t73 131q0 57 -26 90t-86 60.5t-175 64.5q-162 51 -230.5 119.5t-68.5 177.5q0 125 95 199.5t257 74.5q78 0 161 -21.5t144 -58.5l-18 -104q-61 39 -137 60.5t-152 21.5q-113 0 -174 -43t-61 -119 q0 -74 52 -119t181 -82q197 -55 276.5 -125.5t79.5 -189.5q0 -131 -105.5 -209t-283.5 -78q-96 0 -188 26.5t-150 69.5zM121 1583h125l223 -270l219 270h123l-295 -356h-96z" />
<glyph unicode="&#x162;" horiz-adv-x="1376" d="M92 1446v110h1192v-110h-532v-1446h-127v1446h-533zM489 -483l21 88q68 -37 151 -37q66 0 104 28.5t38 77.5q0 47 -34 74t-97 27q-61 0 -89 -8l68 253h88l-45 -167h10q90 0 146.5 -49.5t56.5 -127.5q0 -90 -66.5 -144t-179.5 -54q-45 0 -93 11t-79 28z" />
<glyph unicode="&#x163;" horiz-adv-x="874" d="M33 897v104h233v318h119v-318h369v-104h-369v-539q0 -156 48 -221q48 -66 163 -65q104 0 203 55l16 -100q-45 -29 -108 -44q-63 -16 -129 -16q-160 0 -236 88t-76 277v565h-233zM332 -483l21 86q31 -16 71.5 -25.5t79.5 -9.5q68 0 107 28.5t39 77.5q0 47 -36 75t-99 28 q-55 0 -86 -8l65 251h86l-43 -167h10q90 0 146.5 -49.5t56.5 -127.5q0 -90 -66.5 -144t-179.5 -54q-45 0 -93 11t-79 28z" />
<glyph unicode="&#x164;" horiz-adv-x="1376" d="M92 1446v110h1192v-110h-532v-1446h-127v1446h-533zM340 2001h133l215 -213l213 213h135l-295 -291h-108z" />
<glyph unicode="&#x165;" horiz-adv-x="874" d="M33 897v104h233v318h119v-318h369v-104h-369v-539q0 -156 48 -221q48 -66 163 -65q104 0 203 55l16 -100q-45 -29 -108 -44q-63 -16 -129 -16q-160 0 -236 88t-76 277v565h-233zM534 1239l25 420h119l-62 -420h-82z" />
<glyph unicode="&#x168;" horiz-adv-x="1740" d="M236 621v935h124v-919q0 -274 129 -413.5t381 -139.5t381 139t129 414v919h125v-935q0 -313 -166 -483.5t-471 -170.5q-303 0 -467.5 170t-164.5 484zM540 1710q0 125 47 190.5t138 65.5q53 -2 92 -25.5t70.5 -55.5t60 -55.5t61.5 -25.5q98 0 99 160h92 q0 -123 -48.5 -189.5t-138.5 -66.5q-51 2 -90 25.5t-70.5 54.5t-61.5 54.5t-62 25.5q-96 0 -97 -158h-92z" />
<glyph unicode="&#x169;" horiz-adv-x="1230" d="M190 397v604h119v-585q0 -342 279 -342q150 0 238 103q89 103 89 280v544h119v-1001h-110l-2 170q-53 -100 -146 -152q-92 -51 -213 -51q-178 0 -275 113t-98 317zM280 1274q0 125 47 190.5t138 65.5q53 -2 92 -25.5t70.5 -55.5t60 -55.5t61.5 -25.5q98 0 99 160h92 q0 -123 -48.5 -189.5t-138.5 -66.5q-51 2 -90 25.5t-70.5 54t-61.5 54.5t-62 26q-96 0 -97 -158h-92z" />
<glyph unicode="&#x16a;" horiz-adv-x="1740" d="M236 621v935h124v-919q0 -274 129 -413.5t381 -139.5t381 139t129 414v919h125v-935q0 -313 -166 -483.5t-471 -170.5q-303 0 -467.5 170t-164.5 484zM569 1772v104h602v-104h-602z" />
<glyph unicode="&#x16b;" horiz-adv-x="1230" d="M190 397v604h119v-585q0 -342 279 -342q150 0 238 103q89 103 89 280v544h119v-1001h-110l-2 170q-53 -100 -146 -152q-92 -51 -213 -51q-178 0 -275 113t-98 317zM309 1337v105h602v-105h-602z" />
<glyph unicode="&#x16e;" horiz-adv-x="1740" d="M236 621v935h124v-919q0 -274 129 -413.5t381 -139.5t381 139t129 414v919h125v-935q0 -313 -166 -483.5t-471 -170.5q-303 0 -467.5 170t-164.5 484zM612 1923q0 109 72.5 178.5t185.5 69.5t186.5 -70.5t73.5 -177.5q0 -106 -73.5 -177t-186.5 -71q-111 0 -184.5 71 t-73.5 177zM702 1923q0 -74 46 -120t122 -46t123 46t47 120t-47 120t-123 46t-122 -45t-46 -121z" />
<glyph unicode="&#x16f;" horiz-adv-x="1230" d="M190 397v604h119v-585q0 -342 279 -342q150 0 238 103q89 103 89 280v544h119v-1001h-110l-2 170q-53 -100 -146 -152q-92 -51 -213 -51q-178 0 -275 113t-98 317zM352 1452q0 109 72.5 178.5t185.5 69.5t186.5 -70.5t73.5 -177.5q0 -106 -73.5 -177t-186.5 -71 q-111 0 -184.5 71t-73.5 177zM442 1452q0 -74 46 -120t122 -46t123 46t47 120t-47 120t-123 46t-122 -45t-46 -121z" />
<glyph unicode="&#x170;" horiz-adv-x="1740" d="M236 621v935h124v-919q0 -274 129 -413.5t381 -139.5t381 139t129 414v919h125v-935q0 -313 -166 -483.5t-471 -170.5q-303 0 -467.5 170t-164.5 484zM610 1710l219 264h143l-245 -264h-117zM919 1710l221 264h144l-246 -264h-119z" />
<glyph unicode="&#x171;" horiz-adv-x="1230" d="M190 397v604h119v-585q0 -342 279 -342q150 0 238 103q89 103 89 280v544h119v-1001h-110l-2 170q-53 -100 -146 -152q-92 -51 -213 -51q-178 0 -275 113t-98 317zM338 1223l241 360h135l-266 -360h-110zM655 1223l242 360h135l-266 -360h-111z" />
<glyph unicode="&#x172;" horiz-adv-x="1740" d="M236 621v935h124v-919q0 -274 129 -413.5t381 -139.5t381 139t129 414v919h125v-935q0 -313 -166 -483.5t-471 -170.5q-303 0 -467.5 170t-164.5 484zM811 -332q0 102 87.5 207t226.5 172l90 -2q-297 -193 -297 -354q0 -111 115 -111q68 0 129 37l14 -90 q-29 -20 -73 -31.5t-89 -11.5q-94 0 -148.5 50t-54.5 134z" />
<glyph unicode="&#x173;" horiz-adv-x="1230" d="M190 397v604h119v-585q0 -342 279 -342q150 0 238 103q89 103 89 280v544h119v-1001h-110l-2 170q-53 -100 -146 -152q-92 -51 -213 -51q-178 0 -275 113t-98 317zM694 -332q0 190 278 373l62 -41q-233 -162 -234 -309q0 -53 30 -82t83 -29q63 0 131 37l14 -90 q-31 -20 -74.5 -31.5t-86.5 -11.5q-92 0 -147.5 51t-55.5 133z" />
<glyph unicode="&#x174;" horiz-adv-x="2252" d="M76 1556h137l420 -1404l430 1384h131l428 -1384l424 1404h131l-483 -1556h-135l-435 1376l-428 -1376h-139zM782 1710l295 291h108l293 -291h-133l-215 211l-213 -211h-135z" />
<glyph unicode="&#x175;" horiz-adv-x="1632" d="M59 1001h127l295 -866l279 854h106l285 -854l301 866h121l-363 -1001h-114l-285 852l-279 -852h-114zM467 1227l295 356h96l299 -356h-123l-223 268l-221 -268h-123z" />
<glyph unicode="&#x176;" horiz-adv-x="1390" d="M59 1556h146l491 -761l500 761h135l-573 -868v-688h-127v690zM346 1710l295 291h108l293 -291h-133l-215 211l-213 -211h-135z" />
<glyph unicode="&#x177;" horiz-adv-x="1107" d="M59 1001h131l379 -802l355 802h125l-687 -1503h-124l268 570zM223 1227l295 356h96l299 -356h-123l-223 268l-221 -268h-123z" />
<glyph unicode="&#x178;" horiz-adv-x="1390" d="M59 1556h146l491 -761l500 761h135l-573 -868v-688h-127v690zM418 1821q0 37 23.5 60.5t59.5 23.5q35 0 59.5 -23.5t24.5 -60.5t-24.5 -61.5t-59.5 -24.5q-37 0 -60 24.5t-23 61.5zM803 1821q0 37 23.5 60.5t60.5 23.5t60 -23.5t23 -60.5t-24 -61.5t-59 -24.5 q-37 0 -60.5 24.5t-23.5 61.5z" />
<glyph unicode="&#x179;" horiz-adv-x="1433" d="M127 0v109l997 1337h-946v110h1092v-108l-998 -1337h1014v-111h-1159zM572 1710l278 264h162l-305 -264h-135z" />
<glyph unicode="&#x17a;" horiz-adv-x="1038" d="M113 0v98l645 799h-623v104h764v-98l-649 -801h663v-102h-800zM363 1227l251 356h144l-279 -356h-116z" />
<glyph unicode="&#x17b;" horiz-adv-x="1433" d="M127 0v109l997 1337h-946v110h1092v-108l-998 -1337h1014v-111h-1159zM625 1821q0 41 24.5 65.5t63.5 24.5q41 0 65.5 -24.5t24.5 -65.5q0 -39 -24.5 -63.5t-65.5 -24.5t-64.5 23.5t-23.5 64.5z" />
<glyph unicode="&#x17c;" horiz-adv-x="1038" d="M113 0v98l645 799h-623v104h764v-98l-649 -801h663v-102h-800zM422 1399q0 39 24.5 63.5t63.5 24.5q41 0 65.5 -24.5t24.5 -63.5t-24.5 -64.5t-65.5 -25.5t-64.5 24.5t-23.5 65.5z" />
<glyph unicode="&#x17d;" horiz-adv-x="1433" d="M127 0v109l997 1337h-946v110h1092v-108l-998 -1337h1014v-111h-1159zM365 2001h133l215 -213l213 213h135l-295 -291h-108z" />
<glyph unicode="&#x17e;" horiz-adv-x="1038" d="M113 0v98l645 799h-623v104h764v-98l-649 -801h663v-102h-800zM162 1583h125l223 -270l219 270h123l-295 -356h-96z" />
<glyph unicode="&#x192;" horiz-adv-x="794" d="M-133 -475l12 102q88 -45 195 -45q102 0 150 61.5t48 194.5v1059h-211v104h211v191q0 236 98.5 356.5t286.5 120.5q115 0 201 -41l-14 -102q-96 39 -180 39q-139 0 -206 -94.5t-67 -294.5v-175h340v-104h-340v-1057q0 -182 -79.5 -272t-243.5 -90q-111 0 -201 47z" />
<glyph unicode="&#x218;" horiz-adv-x="1343" d="M154 94l18 117q96 -61 217 -97t238 -36q190 0 300.5 84t110.5 227q0 92 -38.5 150.5t-128 105.5t-250.5 103q-238 80 -337.5 179t-99.5 259q0 184 132.5 293.5t355.5 109.5q111 0 221.5 -26.5t202.5 -75.5l-25 -111q-205 102 -399 103q-170 0 -267.5 -76t-97.5 -209 q0 -84 34 -140.5t111.5 -100.5t217.5 -91q188 -63 294.5 -128.5t152.5 -145.5t46 -189q0 -199 -144 -315.5t-388 -116.5q-133 0 -262 35t-215 92zM503 -502q86 156 97 369h116q-8 -98 -41.5 -200.5t-78.5 -168.5h-93z" />
<glyph unicode="&#x219;" horiz-adv-x="940" d="M102 63l17 109q66 -47 153.5 -74.5t167.5 -27.5q125 0 198 47t73 131q0 57 -26 90t-86 60.5t-175 64.5q-162 51 -230.5 119.5t-68.5 177.5q0 125 95 199.5t257 74.5q78 0 161 -21.5t144 -58.5l-18 -104q-61 39 -137 60.5t-152 21.5q-113 0 -174 -43t-61 -119 q0 -74 52 -119t181 -82q197 -55 276.5 -125.5t79.5 -189.5q0 -131 -105.5 -209t-283.5 -78q-96 0 -188 26.5t-150 69.5zM299 -502q86 160 96 369h117q-8 -96 -42 -198.5t-81 -170.5h-90z" />
<glyph unicode="&#x21a;" horiz-adv-x="1376" d="M92 1446v110h1192v-110h-532v-1446h-127v1446h-533zM536 -502q86 156 97 369h116q-8 -98 -41.5 -200.5t-78.5 -168.5h-93z" />
<glyph unicode="&#x21b;" horiz-adv-x="874" d="M33 897v104h233v318h119v-318h369v-104h-369v-539q0 -156 48 -221q48 -66 163 -65q104 0 203 55l16 -100q-45 -29 -108 -44q-63 -16 -129 -16q-160 0 -236 88t-76 277v565h-233zM371 -502q86 160 96 369h117q-8 -96 -42 -198.5t-81 -170.5h-90z" />
<glyph unicode="&#x237;" horiz-adv-x="512" d="M-209 -475l12 102q88 -45 195 -45q102 0 150.5 61.5t48.5 194.5v1163h118v-1161q0 -182 -79.5 -272t-243.5 -90q-111 0 -201 47z" />
<glyph unicode="&#x2c6;" horiz-adv-x="1024" d="M168 1227l295 356h96l299 -356h-123l-223 268l-221 -268h-123z" />
<glyph unicode="&#x2c7;" horiz-adv-x="1024" d="M164 1583h125l223 -270l219 270h123l-295 -356h-96z" />
<glyph unicode="&#x2c9;" horiz-adv-x="1024" d="M211 1337v105h602v-105h-602z" />
<glyph unicode="&#x2cb;" horiz-adv-x="1024" d="M315 1583h142l252 -356h-117z" />
<glyph unicode="&#x2d8;" horiz-adv-x="1024" d="M217 1509q0 20 2 29h92q0 -221 201 -221t201 221h92q2 -8 2 -29q0 -127 -81 -203.5t-214 -76.5t-214 76.5t-81 203.5z" />
<glyph unicode="&#x2d9;" horiz-adv-x="1024" d="M422 1399q0 39 24.5 63.5t63.5 24.5q41 0 65.5 -24.5t24.5 -63.5t-24.5 -64.5t-65.5 -25.5t-64.5 24.5t-23.5 65.5z" />
<glyph unicode="&#x2da;" horiz-adv-x="1024" d="M254 1452q0 109 72.5 178.5t185.5 69.5t186.5 -70.5t73.5 -177.5q0 -106 -73.5 -177t-186.5 -71q-111 0 -184.5 71t-73.5 177zM344 1452q0 -74 46 -120t122 -46t123 46t47 120t-47 120t-123 46t-122 -45t-46 -121z" />
<glyph unicode="&#x2db;" horiz-adv-x="1024" d="M350 -332q0 190 278 373l62 -41q-233 -162 -234 -309q0 -53 30 -82t83 -29q63 0 131 37l14 -90q-31 -20 -74.5 -31.5t-86.5 -11.5q-92 0 -147.5 51t-55.5 133z" />
<glyph unicode="&#x2dc;" horiz-adv-x="1024" d="M182 1274q0 125 47 190.5t138 65.5q53 -2 92 -25.5t70.5 -55.5t60 -55.5t61.5 -25.5q98 0 99 160h92q0 -123 -48.5 -189.5t-138.5 -66.5q-51 2 -90 25.5t-70.5 54t-61.5 54.5t-62 26q-96 0 -97 -158h-92z" />
<glyph unicode="&#x2dd;" horiz-adv-x="1024" d="M199 1223l241 360h135l-266 -360h-110zM516 1223l242 360h135l-266 -360h-111z" />
<glyph unicode="&#x300;" horiz-adv-x="0" d="M-244 1583h142l252 -356h-117z" />
<glyph unicode="&#x301;" horiz-adv-x="0" d="M-147 1227l251 356h144l-279 -356h-116z" />
<glyph unicode="&#x302;" horiz-adv-x="0" d="M-344 1227l295 356h96l299 -356h-123l-223 268l-221 -268h-123z" />
<glyph unicode="&#x303;" horiz-adv-x="0" d="M-330 1274q0 125 47 190.5t138 65.5q53 -2 92 -25.5t70.5 -55.5t60 -55.5t61.5 -25.5q98 0 99 160h92q0 -123 -48.5 -189.5t-138.5 -66.5q-51 2 -90 25.5t-70.5 54t-61.5 54.5t-62 26q-96 0 -97 -158h-92z" />
<glyph unicode="&#x304;" horiz-adv-x="0" d="M-301 1337v105h602v-105h-602z" />
<glyph unicode="&#x306;" horiz-adv-x="0" d="M-295 1509q0 20 2 29h92q0 -221 201 -221t201 221h92q2 -8 2 -29q0 -127 -81 -203.5t-214 -76.5t-214 76.5t-81 203.5z" />
<glyph unicode="&#x307;" horiz-adv-x="0" d="M-88 1399q0 39 24.5 63.5t63.5 24.5q41 0 65.5 -24.5t24.5 -63.5t-24.5 -64.5t-65.5 -25.5t-64.5 24.5t-23.5 65.5z" />
<glyph unicode="&#x308;" horiz-adv-x="0" d="M-266 1399q0 39 23.5 62.5t58.5 23.5q37 0 61.5 -24.5t24.5 -61.5t-24.5 -60.5t-61.5 -23.5t-59.5 23.5t-22.5 60.5zM98 1399q0 37 23.5 61.5t60.5 24.5t60.5 -24.5t23.5 -61.5t-23.5 -60.5t-60.5 -23.5t-60.5 23.5t-23.5 60.5z" />
<glyph unicode="&#x30a;" horiz-adv-x="0" d="M-258 1452q0 109 72.5 178.5t185.5 69.5t186.5 -70.5t73.5 -177.5q0 -106 -73.5 -177t-186.5 -71q-111 0 -184.5 71t-73.5 177zM-168 1452q0 -74 46 -120t122 -46t123 46t47 120t-47 120t-123 46t-122 -45t-46 -121z" />
<glyph unicode="&#x30b;" horiz-adv-x="0" d="M-272 1223l241 360h135l-266 -360h-110zM45 1223l242 360h135l-266 -360h-111z" />
<glyph unicode="&#x30c;" horiz-adv-x="0" d="M-348 1583h125l223 -270l219 270h123l-295 -356h-96z" />
<glyph unicode="&#x312;" horiz-adv-x="0" d="M-70 1249q4 88 35 176t82 158h92q-82 -141 -90 -334h-119z" />
<glyph unicode="&#x315;" horiz-adv-x="0" d="M-74 1188l27 471h119l-64 -471h-82z" />
<glyph unicode="&#x326;" horiz-adv-x="0" d="M-145 -502q86 160 96 369h117q-8 -96 -42 -198.5t-81 -170.5h-90z" />
<glyph unicode="&#x327;" horiz-adv-x="0" d="M-203 -483l21 86q31 -16 71.5 -25.5t79.5 -9.5q68 0 107 28.5t39 77.5q0 47 -36 75t-99 28q-55 0 -86 -8l65 251h86l-43 -167h10q90 0 146.5 -49.5t56.5 -127.5q0 -90 -66.5 -144t-179.5 -54q-45 0 -93 11t-79 28z" />
<glyph unicode="&#x328;" horiz-adv-x="0" d="M-258 -332q0 190 278 373l62 -41q-233 -162 -234 -309q0 -53 30 -82t83 -29q63 0 131 37l14 -90q-31 -20 -74.5 -31.5t-86.5 -11.5q-92 0 -147.5 51t-55.5 133z" />
<glyph unicode="&#x3c0;" horiz-adv-x="1308" d="M104 897v104h1098v-104h-172v-657q0 -84 18.5 -115t67.5 -31q41 0 72 12l12 -96q-45 -20 -106 -20q-100 0 -141.5 56t-41.5 192v659h-520v-897h-119v897h-168z" />
<glyph unicode="&#x1e80;" horiz-adv-x="2252" d="M76 1556h137l420 -1404l430 1384h131l428 -1384l424 1404h131l-483 -1556h-135l-435 1376l-428 -1376h-139zM831 1974h162l278 -264h-133z" />
<glyph unicode="&#x1e81;" horiz-adv-x="1632" d="M59 1001h127l295 -866l279 854h106l285 -854l301 866h121l-363 -1001h-114l-285 852l-279 -852h-114zM567 1583h142l252 -356h-117z" />
<glyph unicode="&#x1e82;" horiz-adv-x="2252" d="M76 1556h137l420 -1404l430 1384h131l428 -1384l424 1404h131l-483 -1556h-135l-435 1376l-428 -1376h-139zM989 1710l278 264h162l-305 -264h-135z" />
<glyph unicode="&#x1e83;" horiz-adv-x="1632" d="M59 1001h127l295 -866l279 854h106l285 -854l301 866h121l-363 -1001h-114l-285 852l-279 -852h-114zM664 1227l251 356h144l-279 -356h-116z" />
<glyph unicode="&#x1e84;" horiz-adv-x="2252" d="M76 1556h137l420 -1404l430 1384h131l428 -1384l424 1404h131l-483 -1556h-135l-435 1376l-428 -1376h-139zM854 1821q0 37 23.5 60.5t59.5 23.5q35 0 59.5 -23.5t24.5 -60.5t-24.5 -61.5t-59.5 -24.5q-37 0 -60 24.5t-23 61.5zM1239 1821q0 37 23.5 60.5t60.5 23.5 t60 -23.5t23 -60.5t-24 -61.5t-59 -24.5q-37 0 -60.5 24.5t-23.5 61.5z" />
<glyph unicode="&#x1e85;" horiz-adv-x="1632" d="M59 1001h127l295 -866l279 854h106l285 -854l301 866h121l-363 -1001h-114l-285 852l-279 -852h-114zM545 1399q0 39 23.5 62.5t58.5 23.5q37 0 61.5 -24.5t24.5 -61.5t-24.5 -60.5t-61.5 -23.5t-59.5 23.5t-22.5 60.5zM909 1399q0 37 23.5 61.5t60.5 24.5t60.5 -24.5 t23.5 -61.5t-23.5 -60.5t-60.5 -23.5t-60.5 23.5t-23.5 60.5z" />
<glyph unicode="&#x1e9e;" horiz-adv-x="1617" d="M236 0v874q0 346 157.5 530.5t450.5 184.5q145 0 283.5 -54t232.5 -151v-84l-326 -417q125 -2 225.5 -58.5t160 -158t59.5 -230.5q0 -131 -62.5 -237.5t-179 -169t-268.5 -62.5q-96 0 -188.5 24.5t-147.5 63.5l12 113q145 -90 320 -90q178 0 285.5 99t107.5 263 q0 154 -99.5 247t-265.5 93q-55 0 -108 -16l-27 72l385 495q-82 68 -186.5 106t-216.5 38q-477 0 -478 -613v-862h-126z" />
<glyph unicode="&#x1ef2;" horiz-adv-x="1390" d="M59 1556h146l491 -761l500 761h135l-573 -868v-688h-127v690zM395 1974h162l278 -264h-133z" />
<glyph unicode="&#x1ef3;" horiz-adv-x="1107" d="M59 1001h131l379 -802l355 802h125l-687 -1503h-124l268 570zM323 1583h142l252 -356h-117z" />
<glyph unicode="&#x2000;" horiz-adv-x="1024" />
<glyph unicode="&#x2001;" horiz-adv-x="2048" />
<glyph unicode="&#x2002;" horiz-adv-x="1024" />
<glyph unicode="&#x2003;" horiz-adv-x="2048" />
<glyph unicode="&#x2004;" horiz-adv-x="681" />
<glyph unicode="&#x2005;" horiz-adv-x="512" />
<glyph unicode="&#x2006;" horiz-adv-x="339" />
<glyph unicode="&#x2007;" horiz-adv-x="1269" />
<glyph unicode="&#x2008;" horiz-adv-x="593" />
<glyph unicode="&#x2009;" horiz-adv-x="409" />
<glyph unicode="&#x200a;" horiz-adv-x="112" />
<glyph unicode="&#x200b;" horiz-adv-x="0" />
<glyph unicode="&#x2010;" horiz-adv-x="903" d="M160 524v117h583v-117h-583z" />
<glyph unicode="&#x2011;" horiz-adv-x="903" d="M160 524v117h583v-117h-583z" />
<glyph unicode="&#x2012;" horiz-adv-x="1024" d="M0 539v108h1024v-108h-1024z" />
<glyph unicode="&#x2013;" horiz-adv-x="1024" d="M0 539v108h1024v-108h-1024z" />
<glyph unicode="&#x2014;" horiz-adv-x="2048" d="M0 539v108h2048v-108h-2048z" />
<glyph unicode="&#x2015;" horiz-adv-x="2048" d="M0 539v108h2048v-108h-2048z" />
<glyph unicode="&#x2018;" horiz-adv-x="378" d="M94 1085q10 121 44 248t85 223h92q-90 -211 -100 -471h-121z" />
<glyph unicode="&#x2019;" horiz-adv-x="378" d="M63 1085q90 211 101 471h121q-10 -121 -44 -247.5t-85 -223.5h-93z" />
<glyph unicode="&#x201a;" horiz-adv-x="378" d="M63 -229q90 211 101 471h121q-10 -121 -44 -248t-85 -223h-93z" />
<glyph unicode="&#x201c;" horiz-adv-x="673" d="M94 1085q10 121 44 248t85 223h92q-90 -211 -100 -471h-121zM389 1085q10 121 44 248t85 223h92q-90 -211 -100 -471h-121z" />
<glyph unicode="&#x201d;" horiz-adv-x="673" d="M63 1085q90 211 101 471h121q-10 -121 -44 -247.5t-85 -223.5h-93zM358 1085q90 211 101 471h121q-10 -121 -44 -247.5t-85 -223.5h-93z" />
<glyph unicode="&#x201e;" horiz-adv-x="673" d="M63 -229q90 211 101 471h121q-10 -121 -44 -248t-85 -223h-93zM358 -229q90 211 101 471h121q-10 -121 -44 -248t-85 -223h-93z" />
<glyph unicode="&#x2020;" horiz-adv-x="1024" d="M98 930v110h355v516h116v-516h357v-110h-357v-1196h-116v1196h-355z" />
<glyph unicode="&#x2021;" horiz-adv-x="1024" d="M98 231v109h355v610h-355v111h355v495h116v-495h357v-111h-357v-610h357v-109h-357v-497h-116v497h-355z" />
<glyph unicode="&#x2022;" horiz-adv-x="694" d="M121 561q0 94 66.5 160.5t160.5 66.5t160.5 -66.5t66.5 -160.5t-66.5 -160.5t-160.5 -66.5t-160.5 66.5t-66.5 160.5z" />
<glyph unicode="&#x2026;" horiz-adv-x="2048" d="M246 80q0 41 27.5 68.5t68.5 27.5t68.5 -27.5t27.5 -68.5q0 -39 -27.5 -67.5t-68.5 -28.5q-39 0 -67.5 28.5t-28.5 67.5zM928 80q0 41 27.5 68.5t68.5 27.5t68.5 -27.5t27.5 -68.5q0 -39 -27.5 -67.5t-68.5 -28.5q-39 0 -67.5 28.5t-28.5 67.5zM1610 80q0 41 27.5 68.5 t68.5 27.5t68.5 -27.5t27.5 -68.5q0 -39 -27.5 -67.5t-68.5 -28.5q-39 0 -67.5 28.5t-28.5 67.5z" />
<glyph unicode="&#x202f;" horiz-adv-x="434" />
<glyph unicode="&#x2030;" horiz-adv-x="2711" d="M106 1194q0 98 45.5 180t128 132t185.5 50q96 0 177 -46t130 -129t49 -187q0 -152 -103 -256t-253 -104q-96 0 -178 46t-131.5 129t-49.5 185zM215 1194q0 -111 70.5 -185.5t179.5 -74.5q106 0 177 73.5t71 186.5q0 115 -70 188.5t-178 73.5q-109 0 -179.5 -73.5 t-70.5 -188.5zM266 0l1184 1524h129l-1184 -1524h-129zM1030 340q0 98 45 180t128 132t186 50q96 0 177 -46t130 -129t49 -187q0 -152 -103 -256t-253 -104q-96 0 -178.5 46t-131.5 129t-49 185zM1139 340q0 -111 70.5 -185.5t179.5 -74.5q106 0 176.5 73.5t70.5 186.5 q0 115 -69.5 188.5t-177.5 73.5q-109 0 -179.5 -73.5t-70.5 -188.5zM1888 340q0 98 45 180t128 132t186 50q96 0 177 -46t130 -129t49 -187q0 -152 -103 -256t-253 -104q-96 0 -178 46t-131.5 129t-49.5 185zM1997 340q0 -111 70.5 -185.5t179.5 -74.5q106 0 176.5 73.5 t70.5 186.5q0 115 -69.5 188.5t-177.5 73.5q-109 0 -179.5 -73.5t-70.5 -188.5z" />
<glyph unicode="&#x2032;" horiz-adv-x="516" d="M141 961l107 595h127l-133 -595h-101z" />
<glyph unicode="&#x2033;" horiz-adv-x="825" d="M141 961l107 595h127l-133 -595h-101zM452 961l107 595h127l-133 -595h-101z" />
<glyph unicode="&#x2039;" horiz-adv-x="587" d="M72 526l288 426h136l-289 -426l289 -426h-136z" />
<glyph unicode="&#x203a;" horiz-adv-x="587" d="M92 100l289 426l-289 426h135l289 -426l-289 -426h-135z" />
<glyph unicode="&#x2044;" horiz-adv-x="337" d="M-487 0l1183 1524h129l-1183 -1524h-129z" />
<glyph unicode="&#x205f;" horiz-adv-x="542" />
<glyph unicode="&#x2070;" d="M61 1350q0 199 90.5 319.5t235.5 120.5q147 0 237.5 -121t90.5 -319q0 -195 -91.5 -315.5t-236.5 -120.5q-92 0 -166 53t-117 152.5t-43 230.5zM166 1350q0 -158 60.5 -253t160.5 -95t161.5 96t61.5 252q0 160 -61.5 256t-161.5 96t-160.5 -96.5t-60.5 -255.5z" />
<glyph unicode="&#x2074;" d="M74 1147v84l403 539h103v-539h114v-84h-114v-213h-93v213h-413zM174 1231h313v416z" />
<glyph unicode="&#x2075;" d="M131 973l10 90q100 -61 219 -61q100 0 154.5 50t54.5 140q0 82 -58 128t-163 46q-104 0 -178 -29l14 433h434v-95h-348l-6 -233q51 10 94 10q141 0 226.5 -69.5t85.5 -188.5q0 -129 -84.5 -204.5t-227.5 -75.5q-63 0 -126.5 16t-100.5 43z" />
<glyph unicode="&#x2076;" d="M98 1200q0 143 92.5 301t241.5 273l123 -6q-109 -78 -197 -181.5t-133 -206.5q72 76 185 76q117 0 193.5 -74.5t76.5 -187.5q0 -125 -83 -202.5t-214 -77.5q-125 0 -205 80.5t-80 205.5zM190 1190q0 -84 55.5 -137t143.5 -53q86 0 141.5 52t55.5 132q0 86 -53.5 137 t-143.5 51q-86 0 -142.5 -52t-56.5 -130z" />
<glyph unicode="&#x2077;" d="M115 1673v97h542v-91l-348 -749l-108 6l350 737h-436z" />
<glyph unicode="&#x2078;" d="M96 1159q0 72 46 131.5t124 85.5q-70 27 -106.5 77t-36.5 118q0 96 75.5 157.5t194.5 61.5q115 0 189.5 -61.5t74.5 -157.5q0 -68 -36.5 -118t-102.5 -77q76 -27 120 -85t44 -132q0 -109 -80 -177t-209 -68q-131 0 -214 68.5t-83 176.5zM197 1161q0 -74 54 -119t142 -45 q86 0 138.5 45.5t52.5 118.5q0 76 -53.5 124t-137.5 48q-86 0 -141 -48t-55 -124zM219 1565q0 -66 48 -108t126 -42q76 0 122 42t46 108t-46 105.5t-122 39.5q-78 0 -126 -40t-48 -105z" />
<glyph unicode="&#x2079;" d="M98 1509q0 123 83 202t214 79q125 0 205 -81t80 -206q0 -145 -92 -302.5t-242 -270.5l-123 6q106 76 196.5 180.5t133.5 204.5q-35 -35 -82 -54.5t-100 -19.5q-117 0 -195 75t-78 187zM195 1520q0 -86 53 -137.5t143 -51.5q86 0 141.5 52.5t55.5 130.5q0 84 -55.5 137 t-141.5 53t-141 -52t-55 -132z" />
<glyph unicode="&#x2080;" d="M61 160q0 199 90.5 319.5t235.5 120.5q147 0 237.5 -121t90.5 -319q0 -195 -91.5 -315.5t-236.5 -120.5q-92 0 -166 53t-117 152.5t-43 230.5zM166 160q0 -158 60.5 -253t160.5 -95t161.5 96t61.5 252q0 160 -61.5 256t-161.5 96t-160.5 -96.5t-60.5 -255.5z" />
<glyph unicode="&#x2081;" d="M145 449l283 131h88v-836h-100v729l-254 -117z" />
<glyph unicode="&#x2082;" d="M117 492q43 49 113.5 78.5t142.5 29.5q115 0 187.5 -64.5t72.5 -168.5q0 -88 -48 -174.5t-161 -194.5q-37 -37 -178 -162h418v-92h-545v92q127 111 241 225q94 92 133 160t39 137q0 68 -46 109t-121 41q-125 0 -224 -105z" />
<glyph unicode="&#x2083;" d="M111 -219l10 90q96 -61 213 -61q100 0 156.5 49t56.5 135q0 76 -54.5 119t-150.5 43q-45 0 -80 -13l-26 60l270 286h-375v91h487v-88l-237 -256q119 -4 191.5 -72t72.5 -172q0 -121 -85 -194.5t-226 -73.5q-61 0 -122.5 15t-100.5 42z" />
<glyph unicode="&#x2084;" d="M74 41l403 539h103v-539h114v-84h-114v-213h-93v213h-413v84zM174 41h313v416z" />
<glyph unicode="&#x2085;" d="M131 -217l10 90q100 -61 219 -61q100 0 154.5 50t54.5 140q0 82 -58 128t-163 46q-104 0 -178 -29l14 433h434v-95h-348l-6 -233q51 10 94 10q141 0 226.5 -69.5t85.5 -188.5q0 -129 -84.5 -204.5t-227.5 -75.5q-63 0 -126.5 16t-100.5 43z" />
<glyph unicode="&#x2086;" d="M98 10q0 143 92.5 301t241.5 273l123 -6q-109 -78 -197 -181.5t-133 -206.5q72 76 185 76q117 0 193.5 -74.5t76.5 -187.5q0 -125 -83 -202.5t-214 -77.5q-125 0 -205 80.5t-80 205.5zM190 0q0 -84 55.5 -137t143.5 -53q86 0 141.5 52t55.5 132q0 86 -53.5 137t-143.5 51 q-86 0 -142.5 -52t-56.5 -130z" />
<glyph unicode="&#x2087;" d="M115 483v97h542v-91l-348 -749l-108 6l350 737h-436z" />
<glyph unicode="&#x2088;" d="M96 -31q0 72 46 131.5t124 85.5q-70 27 -106.5 77t-36.5 118q0 96 75.5 157.5t194.5 61.5q115 0 189.5 -61.5t74.5 -157.5q0 -68 -36.5 -118t-102.5 -77q76 -27 120 -85t44 -132q0 -109 -80 -177t-209 -68q-131 0 -214 68.5t-83 176.5zM197 -29q0 -74 54 -119t142 -45 q86 0 138.5 45.5t52.5 118.5q0 76 -53.5 124t-137.5 48q-86 0 -141 -48t-55 -124zM219 375q0 -66 48 -108t126 -42q76 0 122 42t46 108t-46 105.5t-122 39.5q-78 0 -126 -40t-48 -105z" />
<glyph unicode="&#x2089;" d="M98 319q0 123 83 202t214 79q125 0 205 -81t80 -206q0 -145 -92 -302.5t-242 -270.5l-123 6q106 76 196.5 180.5t133.5 204.5q-35 -35 -82 -54.5t-100 -19.5q-117 0 -195 75t-78 187zM195 330q0 -86 53 -137.5t143 -51.5q86 0 141.5 52.5t55.5 130.5q0 84 -55.5 137 t-141.5 53t-141 -52t-55 -132z" />
<glyph unicode="&#x20ac;" horiz-adv-x="1269" d="M96 532v101h213q-6 66 -6 135q0 31 2 61.5t4 61.5h-213v100h228q49 266 204.5 415.5t386.5 149.5q164 0 293 -73l-24 -105q-125 70 -273 70q-178 0 -302 -120t-169 -337h578v-100h-592q-2 -29 -4 -57.5t-2 -57.5q0 -86 8 -143h590v-101h-574q45 -217 168 -333.5 t308 -116.5q150 0 284 70l13 -109q-130 -70 -302 -70q-233 0 -386.5 145.5t-204.5 413.5h-228z" />
<glyph unicode="&#x20ba;" horiz-adv-x="1269" d="M100 506v100l203 90v236l-203 -88v100l203 90v490h115v-441l463 207v-102l-463 -207v-236l463 207v-102l-463 -207v-555q29 -4 65 -4q238 0 385.5 150.5t167.5 410.5l109 -10q-10 -195 -95 -344.5t-235.5 -233.5t-349.5 -84q-74 0 -162 21v600z" />
<glyph unicode="&#x2122;" horiz-adv-x="1726" d="M55 1466v90h588v-90h-242v-667h-102v667h-244zM788 799l37 757h109l254 -526l252 526h108l39 -757h-96l-27 618l-233 -487h-86l-236 487l-26 -618h-95z" />
<glyph unicode="&#x2126;" horiz-adv-x="1908" d="M199 0v113h407q-195 117 -300 304t-105 417q0 209 94 379.5t266 273t391 102.5q211 0 382 -93t272.5 -266t101.5 -396q0 -227 -105.5 -417t-297.5 -304h405v-113h-606v98q219 100 346 295t127 432q0 184 -77 331t-219 232t-329 85q-176 0 -316 -80t-222 -227.5 t-82 -340.5q0 -238 127 -432t346 -295v-98h-606z" />
<glyph unicode="&#x2150;" horiz-adv-x="1906" d="M145 1393l283 131h88v-836h-100v729l-254 -117zM222 0l1183 1524h129l-1183 -1524h-129zM1243 739v97h542v-91l-348 -749l-108 6l350 737h-436z" />
<glyph unicode="&#x2151;" horiz-adv-x="1906" d="M145 1393l283 131h88v-836h-100v729l-254 -117zM269 0l1183 1524h129l-1183 -1524h-129zM1226 575q0 123 83 202t214 79q125 0 205 -81t80 -206q0 -145 -92 -302.5t-242 -270.5l-123 6q106 76 196.5 180.5t133.5 204.5q-35 -35 -82 -54.5t-100 -19.5q-117 0 -195 75 t-78 187zM1323 586q0 -86 53 -137.5t143 -51.5q86 0 141.5 52.5t55.5 130.5q0 84 -55.5 137t-141.5 53t-141 -52t-55 -132z" />
<glyph unicode="&#x2153;" horiz-adv-x="1906" d="M145 1393l283 131h88v-836h-100v729l-254 -117zM236 0l1183 1524h129l-1183 -1524h-129zM1239 37l10 90q96 -61 213 -61q100 0 156.5 49t56.5 135q0 76 -54.5 119t-150.5 43q-45 0 -80 -13l-26 60l270 286h-375v91h487v-88l-237 -256q119 -4 191.5 -72t72.5 -172 q0 -121 -85 -194.5t-226 -73.5q-61 0 -122.5 15t-100.5 42z" />
<glyph unicode="&#x2154;" horiz-adv-x="1906" d="M117 1436q43 49 113.5 78.5t142.5 29.5q115 0 187.5 -64.5t72.5 -168.5q0 -88 -48 -174.5t-161 -194.5q-37 -37 -178 -162h418v-92h-545v92q127 111 241 225q94 92 133 160t39 137q0 68 -46 109t-121 41q-125 0 -224 -105zM306 0l1183 1524h129l-1183 -1524h-129z M1239 37l10 90q96 -61 213 -61q100 0 156.5 49t56.5 135q0 76 -54.5 119t-150.5 43q-45 0 -80 -13l-26 60l270 286h-375v91h487v-88l-237 -256q119 -4 191.5 -72t72.5 -172q0 -121 -85 -194.5t-226 -73.5q-61 0 -122.5 15t-100.5 42z" />
<glyph unicode="&#x2155;" horiz-adv-x="1906" d="M145 1393l283 131h88v-836h-100v729l-254 -117zM269 0l1183 1524h129l-1183 -1524h-129zM1259 39l10 90q100 -61 219 -61q100 0 154.5 50t54.5 140q0 82 -58 128t-163 46q-104 0 -178 -29l14 433h434v-95h-348l-6 -233q51 10 94 10q141 0 226.5 -69.5t85.5 -188.5 q0 -129 -84.5 -204.5t-227.5 -75.5q-63 0 -126.5 16t-100.5 43z" />
<glyph unicode="&#x2156;" horiz-adv-x="1906" d="M117 1436q43 49 113.5 78.5t142.5 29.5q115 0 187.5 -64.5t72.5 -168.5q0 -88 -48 -174.5t-161 -194.5q-37 -37 -178 -162h418v-92h-545v92q127 111 241 225q94 92 133 160t39 137q0 68 -46 109t-121 41q-125 0 -224 -105zM322 0l1183 1524h129l-1183 -1524h-129z M1259 39l10 90q100 -61 219 -61q100 0 154.5 50t54.5 140q0 82 -58 128t-163 46q-104 0 -178 -29l14 433h434v-95h-348l-6 -233q51 10 94 10q141 0 226.5 -69.5t85.5 -188.5q0 -129 -84.5 -204.5t-227.5 -75.5q-63 0 -126.5 16t-100.5 43z" />
<glyph unicode="&#x2157;" horiz-adv-x="1906" d="M111 725l10 90q96 -61 213 -61q100 0 156.5 49t56.5 135q0 76 -54.5 119t-150.5 43q-45 0 -80 -13l-26 60l270 286h-375v91h487v-88l-237 -256q119 -4 191.5 -72t72.5 -172q0 -121 -85 -194.5t-226 -73.5q-61 0 -122.5 15t-100.5 42zM267 0l1183 1524h129l-1183 -1524 h-129zM1259 39l10 90q100 -61 219 -61q100 0 154.5 50t54.5 140q0 82 -58 128t-163 46q-104 0 -178 -29l14 433h434v-95h-348l-6 -233q51 10 94 10q141 0 226.5 -69.5t85.5 -188.5q0 -129 -84.5 -204.5t-227.5 -75.5q-63 0 -126.5 16t-100.5 43z" />
<glyph unicode="&#x2158;" horiz-adv-x="1906" d="M74 901v84l403 539h103v-539h114v-84h-114v-213h-93v213h-413zM174 985h313v416zM297 0l1183 1524h129l-1183 -1524h-129zM1259 39l10 90q100 -61 219 -61q100 0 154.5 50t54.5 140q0 82 -58 128t-163 46q-104 0 -178 -29l14 433h434v-95h-348l-6 -233q51 10 94 10 q141 0 226.5 -69.5t85.5 -188.5q0 -129 -84.5 -204.5t-227.5 -75.5q-63 0 -126.5 16t-100.5 43z" />
<glyph unicode="&#x2159;" horiz-adv-x="1906" d="M145 1393l283 131h88v-836h-100v729l-254 -117zM320 0l1183 1524h129l-1183 -1524h-129zM1226 266q0 143 92.5 301t241.5 273l123 -6q-109 -78 -197 -181.5t-133 -206.5q72 76 185 76q117 0 193.5 -74.5t76.5 -187.5q0 -125 -83 -202.5t-214 -77.5q-125 0 -205 80.5 t-80 205.5zM1318 256q0 -84 55.5 -137t143.5 -53q86 0 141.5 52t55.5 132q0 86 -53.5 137t-143.5 51q-86 0 -142.5 -52t-56.5 -130z" />
<glyph unicode="&#x215a;" horiz-adv-x="1906" d="M131 727l10 90q100 -61 219 -61q100 0 154.5 50t54.5 140q0 82 -58 128t-163 46q-104 0 -178 -29l14 433h434v-95h-348l-6 -233q51 10 94 10q141 0 226.5 -69.5t85.5 -188.5q0 -129 -84.5 -204.5t-227.5 -75.5q-63 0 -126.5 16t-100.5 43zM338 0l1183 1524h129 l-1183 -1524h-129zM1226 266q0 143 92.5 301t241.5 273l123 -6q-109 -78 -197 -181.5t-133 -206.5q72 76 185 76q117 0 193.5 -74.5t76.5 -187.5q0 -125 -83 -202.5t-214 -77.5q-125 0 -205 80.5t-80 205.5zM1318 256q0 -84 55.5 -137t143.5 -53q86 0 141.5 52t55.5 132 q0 86 -53.5 137t-143.5 51q-86 0 -142.5 -52t-56.5 -130z" />
<glyph unicode="&#x215b;" horiz-adv-x="1906" d="M145 1393l283 131h88v-836h-100v729l-254 -117zM265 0l1183 1524h129l-1183 -1524h-129zM1224 225q0 72 46 131.5t124 85.5q-70 27 -106.5 77t-36.5 118q0 96 75.5 157.5t194.5 61.5q115 0 189.5 -61.5t74.5 -157.5q0 -68 -36.5 -118t-102.5 -77q76 -27 120 -85t44 -132 q0 -109 -80 -177t-209 -68q-131 0 -214 68.5t-83 176.5zM1325 227q0 -74 54 -119t142 -45q86 0 138.5 45.5t52.5 118.5q0 76 -53.5 124t-137.5 48q-86 0 -141 -48t-55 -124zM1347 631q0 -66 48 -108t126 -42q76 0 122 42t46 108t-46 105.5t-122 39.5q-78 0 -126 -40 t-48 -105z" />
<glyph unicode="&#x215c;" horiz-adv-x="1906" d="M111 725l10 90q96 -61 213 -61q100 0 156.5 49t56.5 135q0 76 -54.5 119t-150.5 43q-45 0 -80 -13l-26 60l270 286h-375v91h487v-88l-237 -256q119 -4 191.5 -72t72.5 -172q0 -121 -85 -194.5t-226 -73.5q-61 0 -122.5 15t-100.5 42zM265 0l1183 1524h129l-1183 -1524 h-129zM1224 225q0 72 46 131.5t124 85.5q-70 27 -106.5 77t-36.5 118q0 96 75.5 157.5t194.5 61.5q115 0 189.5 -61.5t74.5 -157.5q0 -68 -36.5 -118t-102.5 -77q76 -27 120 -85t44 -132q0 -109 -80 -177t-209 -68q-131 0 -214 68.5t-83 176.5zM1325 227q0 -74 54 -119 t142 -45q86 0 138.5 45.5t52.5 118.5q0 76 -53.5 124t-137.5 48q-86 0 -141 -48t-55 -124zM1347 631q0 -66 48 -108t126 -42q76 0 122 42t46 108t-46 105.5t-122 39.5q-78 0 -126 -40t-48 -105z" />
<glyph unicode="&#x215d;" horiz-adv-x="1906" d="M131 727l10 90q100 -61 219 -61q100 0 154.5 50t54.5 140q0 82 -58 128t-163 46q-104 0 -178 -29l14 433h434v-95h-348l-6 -233q51 10 94 10q141 0 226.5 -69.5t85.5 -188.5q0 -129 -84.5 -204.5t-227.5 -75.5q-63 0 -126.5 16t-100.5 43zM285 0l1183 1524h129 l-1183 -1524h-129zM1224 225q0 72 46 131.5t124 85.5q-70 27 -106.5 77t-36.5 118q0 96 75.5 157.5t194.5 61.5q115 0 189.5 -61.5t74.5 -157.5q0 -68 -36.5 -118t-102.5 -77q76 -27 120 -85t44 -132q0 -109 -80 -177t-209 -68q-131 0 -214 68.5t-83 176.5zM1325 227 q0 -74 54 -119t142 -45q86 0 138.5 45.5t52.5 118.5q0 76 -53.5 124t-137.5 48q-86 0 -141 -48t-55 -124zM1347 631q0 -66 48 -108t126 -42q76 0 122 42t46 108t-46 105.5t-122 39.5q-78 0 -126 -40t-48 -105z" />
<glyph unicode="&#x215e;" horiz-adv-x="1906" d="M115 1427v97h542v-91l-348 -749l-108 6l350 737h-436zM185 0l1183 1524h129l-1183 -1524h-129zM1224 225q0 72 46 131.5t124 85.5q-70 27 -106.5 77t-36.5 118q0 96 75.5 157.5t194.5 61.5q115 0 189.5 -61.5t74.5 -157.5q0 -68 -36.5 -118t-102.5 -77q76 -27 120 -85 t44 -132q0 -109 -80 -177t-209 -68q-131 0 -214 68.5t-83 176.5zM1325 227q0 -74 54 -119t142 -45q86 0 138.5 45.5t52.5 118.5q0 76 -53.5 124t-137.5 48q-86 0 -141 -48t-55 -124zM1347 631q0 -66 48 -108t126 -42q76 0 122 42t46 108t-46 105.5t-122 39.5q-78 0 -126 -40 t-48 -105z" />
<glyph unicode="&#x2202;" horiz-adv-x="1239" d="M72 408q0 135 64.5 251.5t181 189.5t262.5 73q145 0 249.5 -71t147.5 -198q10 117 10 203q0 289 -108.5 441.5t-313.5 152.5q-84 0 -165 -35t-146 -100l-16 108q66 63 155.5 98t184.5 35q248 0 385 -181t137 -507q0 -268 -71 -471.5t-204 -316.5t-317 -113 q-125 0 -224.5 54.5t-155.5 154.5t-56 232zM193 412q0 -154 89 -247t234 -93q100 0 191.5 55t151 152.5t59.5 209.5q0 147 -92.5 237.5t-241.5 90.5q-104 0 -193.5 -51t-143.5 -144.5t-54 -209.5z" />
<glyph unicode="&#x2206;" horiz-adv-x="1538" d="M61 0l637 1556h140l639 -1556h-1416zM231 104h1065l-530 1330z" />
<glyph unicode="&#x220f;" horiz-adv-x="1497" d="M250 -164v1720h997v-1720h-127v1610h-743v-1610h-127z" />
<glyph unicode="&#x2211;" horiz-adv-x="1157" d="M84 -57l534 772l-499 735v106h925v-108h-780l494 -725l-539 -776h838v-109h-973v105z" />
<glyph unicode="&#x2212;" horiz-adv-x="1269" d="M180 633v108h910v-108h-910z" />
<glyph unicode="&#x2215;" horiz-adv-x="337" d="M-487 0l1183 1524h129l-1183 -1524h-129z" />
<glyph unicode="&#x2219;" horiz-adv-x="593" d="M201 778q0 41 27.5 68.5t68.5 27.5t68.5 -27.5t27.5 -68.5q0 -39 -27.5 -67.5t-68.5 -28.5q-39 0 -67.5 28.5t-28.5 67.5z" />
<glyph unicode="&#x221a;" horiz-adv-x="1343" d="M78 807v106h303l313 -788l584 1534h117l-641 -1659h-123l-334 807h-219z" />
<glyph unicode="&#x221e;" horiz-adv-x="1482" d="M94 711q0 150 90 245t230 95q109 0 193.5 -57.5t133.5 -166.5q51 109 135.5 166.5t192.5 57.5q139 0 229.5 -95.5t90.5 -244.5q0 -150 -90.5 -245t-229.5 -95q-111 0 -194.5 56t-135.5 167q-49 -109 -131.5 -166t-193.5 -57q-139 0 -229.5 95t-90.5 245zM203 711 q0 -106 60.5 -172t158.5 -66q88 0 158.5 62.5t109.5 173.5q-39 117 -108.5 178t-159.5 61q-98 0 -158.5 -65.5t-60.5 -171.5zM793 713q41 -119 109.5 -179.5t158.5 -60.5q98 0 158.5 65.5t60.5 172.5q0 106 -60.5 171.5t-158.5 65.5q-88 0 -157.5 -61.5t-110.5 -173.5z" />
<glyph unicode="&#x222b;" horiz-adv-x="765" d="M-72 -481l15 104q37 -14 85 -24.5t87 -10.5q98 0 143 68t45 215q0 61 -2 84l-84 1257q-2 25 -2 84q0 190 79 287.5t230 97.5q47 0 98.5 -10t86.5 -29l-15 -104q-37 14 -85 24.5t-87 10.5q-98 0 -143 -67.5t-45 -215.5q0 -59 2 -84l84 -1257q2 -20 2 -84 q0 -190 -78.5 -287.5t-230.5 -97.5q-47 0 -98.5 10t-86.5 29z" />
<glyph unicode="&#x2248;" horiz-adv-x="1269" d="M150 284v17q2 158 67.5 245.5t179.5 87.5q59 0 120 -28.5t138 -93.5q76 -68 122 -93.5t89 -25.5q72 0 108 58.5t40 182.5h104v-16q-2 -158 -67.5 -246t-182.5 -88q-59 0 -118.5 29t-137.5 96q-82 70 -125 93.5t-86 23.5q-72 0 -108.5 -58.5t-38.5 -183.5h-104zM150 807 v17q2 158 67.5 245.5t179.5 87.5q59 0 120 -28.5t138 -93.5q76 -68 122 -93.5t89 -25.5q72 0 108 58.5t40 182.5h104v-16q-2 -158 -67.5 -246t-182.5 -88q-59 0 -118.5 29t-137.5 96q-82 70 -125 93.5t-86 23.5q-72 0 -108.5 -58.5t-38.5 -183.5h-104z" />
<glyph unicode="&#x2260;" horiz-adv-x="1269" d="M215 397v109h270l197 360h-467v109h522l144 262h110l-143 -262h209v-109h-264l-197 -360h461v-109h-518l-144 -266h-110l143 266h-213z" />
<glyph unicode="&#x2264;" horiz-adv-x="1269" d="M180 2v108h910v-108h-910zM213 737v115l844 397v-119l-711 -332l711 -333v-123z" />
<glyph unicode="&#x2265;" horiz-adv-x="1269" d="M180 2v108h910v-108h-910zM213 342v118l711 332l-711 334v123l844 -395v-115z" />
<glyph unicode="&#x25ca;" horiz-adv-x="1241" d="M92 829l473 832h115l469 -832l-469 -829h-115zM221 829l397 -708l408 708l-408 713z" />
<glyph unicode="&#x25fc;" horiz-adv-x="1003" d="M0 0v1004h1004v-1004h-1004z" />
<glyph unicode="&#xf507;" horiz-adv-x="1906" d="M117 1436q43 49 113.5 78.5t142.5 29.5q115 0 187.5 -64.5t72.5 -168.5q0 -88 -48 -174.5t-161 -194.5q-37 -37 -178 -162h418v-92h-545v92q127 111 241 225q94 92 133 160t39 137q0 68 -46 109t-121 41q-125 0 -224 -105zM295 0l1183 1524h129l-1183 -1524h-129z M1243 739v97h542v-91l-348 -749l-108 6l350 737h-436z" />
<glyph unicode="&#xf508;" horiz-adv-x="1906" d="M111 725l10 90q96 -61 213 -61q100 0 156.5 49t56.5 135q0 76 -54.5 119t-150.5 43q-45 0 -80 -13l-26 60l270 286h-375v91h487v-88l-237 -256q119 -4 191.5 -72t72.5 -172q0 -121 -85 -194.5t-226 -73.5q-61 0 -122.5 15t-100.5 42zM224 0l1183 1524h129l-1183 -1524 h-129zM1243 739v97h542v-91l-348 -749l-108 6l350 737h-436z" />
<glyph unicode="&#xf509;" horiz-adv-x="1906" d="M74 901v84l403 539h103v-539h114v-84h-114v-213h-93v213h-413zM174 985h313v416zM256 0l1183 1524h129l-1183 -1524h-129zM1243 739v97h542v-91l-348 -749l-108 6l350 737h-436z" />
<glyph unicode="&#xf50a;" horiz-adv-x="1906" d="M131 727l10 90q100 -61 219 -61q100 0 154.5 50t54.5 140q0 82 -58 128t-163 46q-104 0 -178 -29l14 433h434v-95h-348l-6 -233q51 10 94 10q141 0 226.5 -69.5t85.5 -188.5q0 -129 -84.5 -204.5t-227.5 -75.5q-63 0 -126.5 16t-100.5 43zM246 0l1183 1524h129 l-1183 -1524h-129zM1243 739v97h542v-91l-348 -749l-108 6l350 737h-436z" />
<glyph unicode="&#xf50b;" horiz-adv-x="1906" d="M98 954q0 143 92.5 301t241.5 273l123 -6q-109 -78 -197 -181.5t-133 -206.5q72 76 185 76q117 0 193.5 -74.5t76.5 -187.5q0 -125 -83 -202.5t-214 -77.5q-125 0 -205 80.5t-80 205.5zM190 944q0 -84 55.5 -137t143.5 -53q86 0 141.5 52t55.5 132q0 86 -53.5 137 t-143.5 51q-86 0 -142.5 -52t-56.5 -130zM238 0l1183 1524h129l-1183 -1524h-129zM1243 739v97h542v-91l-348 -749l-108 6l350 737h-436z" />
<glyph unicode="&#xf50d;" horiz-adv-x="1906" d="M117 1436q43 49 113.5 78.5t142.5 29.5q115 0 187.5 -64.5t72.5 -168.5q0 -88 -48 -174.5t-161 -194.5q-37 -37 -178 -162h418v-92h-545v92q127 111 241 225q94 92 133 160t39 137q0 68 -46 109t-121 41q-125 0 -224 -105zM318 0l1183 1524h129l-1183 -1524h-129z M1226 575q0 123 83 202t214 79q125 0 205 -81t80 -206q0 -145 -92 -302.5t-242 -270.5l-123 6q106 76 196.5 180.5t133.5 204.5q-35 -35 -82 -54.5t-100 -19.5q-117 0 -195 75t-78 187zM1323 586q0 -86 53 -137.5t143 -51.5q86 0 141.5 52.5t55.5 130.5q0 84 -55.5 137 t-141.5 53t-141 -52t-55 -132z" />
<glyph unicode="&#xf50e;" horiz-adv-x="1906" d="M74 901v84l403 539h103v-539h114v-84h-114v-213h-93v213h-413zM174 985h313v416zM299 0l1183 1524h129l-1183 -1524h-129zM1226 575q0 123 83 202t214 79q125 0 205 -81t80 -206q0 -145 -92 -302.5t-242 -270.5l-123 6q106 76 196.5 180.5t133.5 204.5q-35 -35 -82 -54.5 t-100 -19.5q-117 0 -195 75t-78 187zM1323 586q0 -86 53 -137.5t143 -51.5q86 0 141.5 52.5t55.5 130.5q0 84 -55.5 137t-141.5 53t-141 -52t-55 -132z" />
<glyph unicode="&#xf50f;" horiz-adv-x="1906" d="M131 727l10 90q100 -61 219 -61q100 0 154.5 50t54.5 140q0 82 -58 128t-163 46q-104 0 -178 -29l14 433h434v-95h-348l-6 -233q51 10 94 10q141 0 226.5 -69.5t85.5 -188.5q0 -129 -84.5 -204.5t-227.5 -75.5q-63 0 -126.5 16t-100.5 43zM285 0l1183 1524h129 l-1183 -1524h-129zM1226 575q0 123 83 202t214 79q125 0 205 -81t80 -206q0 -145 -92 -302.5t-242 -270.5l-123 6q106 76 196.5 180.5t133.5 204.5q-35 -35 -82 -54.5t-100 -19.5q-117 0 -195 75t-78 187zM1323 586q0 -86 53 -137.5t143 -51.5q86 0 141.5 52.5t55.5 130.5 q0 84 -55.5 137t-141.5 53t-141 -52t-55 -132z" />
<glyph unicode="&#xf510;" horiz-adv-x="1906" d="M115 1427v97h542v-91l-348 -749l-108 6l350 737h-436zM193 0l1183 1524h129l-1183 -1524h-129zM1226 575q0 123 83 202t214 79q125 0 205 -81t80 -206q0 -145 -92 -302.5t-242 -270.5l-123 6q106 76 196.5 180.5t133.5 204.5q-35 -35 -82 -54.5t-100 -19.5 q-117 0 -195 75t-78 187zM1323 586q0 -86 53 -137.5t143 -51.5q86 0 141.5 52.5t55.5 130.5q0 84 -55.5 137t-141.5 53t-141 -52t-55 -132z" />
<glyph unicode="&#xf511;" horiz-adv-x="1906" d="M96 913q0 72 46 131.5t124 85.5q-70 27 -106.5 77t-36.5 118q0 96 75.5 157.5t194.5 61.5q115 0 189.5 -61.5t74.5 -157.5q0 -68 -36.5 -118t-102.5 -77q76 -27 120 -85t44 -132q0 -109 -80 -177t-209 -68q-131 0 -214 68.5t-83 176.5zM197 915q0 -74 54 -119t142 -45 q86 0 138.5 45.5t52.5 118.5q0 76 -53.5 124t-137.5 48q-86 0 -141 -48t-55 -124zM219 1319q0 -66 48 -108t126 -42q76 0 122 42t46 108t-46 105.5t-122 39.5q-78 0 -126 -40t-48 -105zM285 0l1183 1524h129l-1183 -1524h-129zM1226 575q0 123 83 202t214 79q125 0 205 -81 t80 -206q0 -145 -92 -302.5t-242 -270.5l-123 6q106 76 196.5 180.5t133.5 204.5q-35 -35 -82 -54.5t-100 -19.5q-117 0 -195 75t-78 187zM1323 586q0 -86 53 -137.5t143 -51.5q86 0 141.5 52.5t55.5 130.5q0 84 -55.5 137t-141.5 53t-141 -52t-55 -132z" />
<glyph unicode="&#xfb01;" horiz-adv-x="1347" d="M61 897v104h211v191q0 233 94.5 355t276.5 122q92 0 172 -35l-14 -100q-76 31 -152 31q-133 0 -195.5 -94.5t-62.5 -294.5v-175h320v-104h-320v-897h-119v897h-211zM1001 1399q0 39 26 63.5t65 24.5t63.5 -24.5t24.5 -63.5t-24.5 -64.5t-63.5 -25.5t-65 25.5t-26 64.5z M1032 0v1001h119v-1001h-119z" />
<glyph unicode="&#xfb02;" horiz-adv-x="1347" d="M61 897v104h211v191q0 233 94.5 355t276.5 122q92 0 172 -35l-14 -100q-76 31 -152 31q-133 0 -195.5 -94.5t-62.5 -294.5v-175h320v-104h-320v-897h-119v897h-211zM1032 0v1659h119v-1659h-119z" />
<glyph unicode="&#xfeff;" horiz-adv-x="0" />
<glyph horiz-adv-x="1226" d="M98 764q0 242 60.5 420t177.5 275t276 97q115 0 210.5 -52t164 -153.5t105 -250t36.5 -336.5q0 -369 -139 -583t-377 -214q-156 0 -271.5 94.5t-179 274.5t-63.5 428zM223 764q0 -326 103.5 -508t285.5 -182q184 0 288 182t104 508q0 324 -103.5 505t-288.5 181 q-184 0 -286.5 -181.5t-102.5 -504.5z" />
<glyph horiz-adv-x="976" d="M113 1305l485 219h94v-1524h-119v1393l-444 -199z" />
<glyph horiz-adv-x="1196" d="M151 0v102q154 150 375 404q199 229 276.5 368.5t77.5 264.5q0 143 -82 226t-225 83q-213 0 -371 -182l-24 112q74 84 180 131t223 47q193 0 306.5 -110.5t113.5 -294.5q0 -147 -77 -295.5t-263 -359.5q-207 -233 -356 -383h747v-113h-901z" />
<glyph horiz-adv-x="1196" d="M133 70l14 110q166 -109 367 -108q186 0 293.5 98t107.5 266q0 160 -101 251t-282 91q-74 0 -139 -16l-33 74l498 579h-696v109h829v-107l-469 -545q10 2 43 2q137 0 242.5 -52t166 -151.5t60.5 -234.5q0 -215 -142 -342t-380 -127q-106 0 -207.5 28t-171.5 75z" />
<glyph horiz-adv-x="1249" d="M114 410v98l713 1016h113v-1014h209v-100h-209v-410h-113v410h-713zM233 510h594v844z" />
<glyph horiz-adv-x="1200" d="M156 72l12 112q164 -111 367 -110q186 0 296 106.5t110 284.5q0 170 -116 269.5t-317 99.5q-141 0 -282 -48l24 738h717v-113h-614l-17 -500q86 25 203 25q154 0 271.5 -56.5t183 -163t65.5 -249.5t-63.5 -256t-181 -178.5t-275.5 -65.5q-109 0 -212 29t-171 76z" />
<glyph horiz-adv-x="1200" d="M148 459q0 168 69.5 357.5t200.5 374.5t307 335l148 -10q-205 -166 -355.5 -371t-215.5 -408q61 84 152 128t202 44q123 0 223 -57t160.5 -161.5t60.5 -239.5t-60.5 -245t-172 -174.5t-254.5 -64.5q-131 0 -236.5 60.5t-167 173t-61.5 258.5zM263 436q0 -164 99 -265 t259 -101q158 0 260.5 104.5t102.5 263.5q0 172 -97.5 270.5t-265.5 98.5q-152 0 -255 -106.5t-103 -264.5z" />
<glyph horiz-adv-x="1148" d="M135 1409v115h913v-101l-598 -1427l-127 8l602 1405h-790z" />
<glyph horiz-adv-x="1247" d="M127 399q0 145 84 253t227 149q-125 39 -195.5 134t-70.5 226q0 113 56.5 202t160 141t238.5 52q127 0 229.5 -48t162.5 -138t60 -209q0 -131 -71.5 -226t-196.5 -134q143 -39 228.5 -147.5t85.5 -254.5q0 -125 -60.5 -222t-174 -153.5t-265.5 -56.5q-143 0 -256 53.5 t-177.5 151.5t-64.5 227zM244 410q0 -152 105.5 -245t275.5 -93t276.5 93t106.5 245q0 150 -106.5 242.5t-276.5 92.5q-109 0 -195 -40.5t-136 -117.5t-50 -177zM285 1151q0 -133 95 -216t245 -83q152 0 247 83t95 216q0 135 -94.5 219t-247.5 84q-152 0 -246 -84t-94 -219z " />
<glyph horiz-adv-x="1200" d="M122 1073q0 135 60.5 244.5t172 174t255.5 64.5q131 0 236.5 -60t167 -173t61.5 -258q0 -168 -70 -357.5t-201 -375t-307 -334.5l-147 10q205 166 355.5 371t213.5 405q-61 -82 -153.5 -126t-198.5 -44q-123 0 -223.5 57.5t-161 162t-60.5 239.5zM239 1085 q0 -172 97.5 -270t265.5 -98q152 0 255 106.5t103 263.5q0 164 -99.5 265.5t-258.5 101.5q-158 0 -260.5 -104.5t-102.5 -264.5z" />
<glyph d="M61 416q0 199 90.5 319.5t235.5 120.5q147 0 237.5 -121t90.5 -319q0 -195 -91.5 -315.5t-236.5 -120.5q-92 0 -166 53t-117 152.5t-43 230.5zM166 416q0 -158 60.5 -253t160.5 -95t161.5 96t61.5 252q0 160 -61.5 256t-161.5 96t-160.5 -96.5t-60.5 -255.5z" />
<glyph d="M145 705l283 131h88v-836h-100v729l-254 -117z" />
<glyph d="M117 748q43 49 113.5 78.5t142.5 29.5q115 0 187.5 -64.5t72.5 -168.5q0 -88 -48 -174.5t-161 -194.5q-37 -37 -178 -162h418v-92h-545v92q127 111 241 225q94 92 133 160t39 137q0 68 -46 109t-121 41q-125 0 -224 -105z" />
<glyph d="M111 37l10 90q96 -61 213 -61q100 0 156.5 49t56.5 135q0 76 -54.5 119t-150.5 43q-45 0 -80 -13l-26 60l270 286h-375v91h487v-88l-237 -256q119 -4 191.5 -72t72.5 -172q0 -121 -85 -194.5t-226 -73.5q-61 0 -122.5 15t-100.5 42z" />
<glyph d="M74 213v84l403 539h103v-539h114v-84h-114v-213h-93v213h-413zM174 297h313v416z" />
<glyph d="M131 39l10 90q100 -61 219 -61q100 0 154.5 50t54.5 140q0 82 -58 128t-163 46q-104 0 -178 -29l14 433h434v-95h-348l-6 -233q51 10 94 10q141 0 226.5 -69.5t85.5 -188.5q0 -129 -84.5 -204.5t-227.5 -75.5q-63 0 -126.5 16t-100.5 43z" />
<glyph d="M98 266q0 143 92.5 301t241.5 273l123 -6q-109 -78 -197 -181.5t-133 -206.5q72 76 185 76q117 0 193.5 -74.5t76.5 -187.5q0 -125 -83 -202.5t-214 -77.5q-125 0 -205 80.5t-80 205.5zM190 256q0 -84 55.5 -137t143.5 -53q86 0 141.5 52t55.5 132q0 86 -53.5 137 t-143.5 51q-86 0 -142.5 -52t-56.5 -130z" />
<glyph d="M115 739v97h542v-91l-348 -749l-108 6l350 737h-436z" />
<glyph d="M96 225q0 72 46 131.5t124 85.5q-70 27 -106.5 77t-36.5 118q0 96 75.5 157.5t194.5 61.5q115 0 189.5 -61.5t74.5 -157.5q0 -68 -36.5 -118t-102.5 -77q76 -27 120 -85t44 -132q0 -109 -80 -177t-209 -68q-131 0 -214 68.5t-83 176.5zM197 227q0 -74 54 -119t142 -45 q86 0 138.5 45.5t52.5 118.5q0 76 -53.5 124t-137.5 48q-86 0 -141 -48t-55 -124zM219 631q0 -66 48 -108t126 -42q76 0 122 42t46 108t-46 105.5t-122 39.5q-78 0 -126 -40t-48 -105z" />
<glyph d="M98 575q0 123 83 202t214 79q125 0 205 -81t80 -206q0 -145 -92 -302.5t-242 -270.5l-123 6q106 76 196.5 180.5t133.5 204.5q-35 -35 -82 -54.5t-100 -19.5q-117 0 -195 75t-78 187zM195 586q0 -86 53 -137.5t143 -51.5q86 0 141.5 52.5t55.5 130.5q0 84 -55.5 137 t-141.5 53t-141 -52t-55 -132z" />
<glyph d="M61 1104q0 199 90.5 319.5t235.5 120.5q147 0 237.5 -121t90.5 -319q0 -195 -91.5 -315.5t-236.5 -120.5q-92 0 -166 53t-117 152.5t-43 230.5zM166 1104q0 -158 60.5 -253t160.5 -95t161.5 96t61.5 252q0 160 -61.5 256t-161.5 96t-160.5 -96.5t-60.5 -255.5z" />
<glyph d="M145 1393l283 131h88v-836h-100v729l-254 -117z" />
<glyph d="M117 1436q43 49 113.5 78.5t142.5 29.5q115 0 187.5 -64.5t72.5 -168.5q0 -88 -48 -174.5t-161 -194.5q-37 -37 -178 -162h418v-92h-545v92q127 111 241 225q94 92 133 160t39 137q0 68 -46 109t-121 41q-125 0 -224 -105z" />
<glyph d="M111 725l10 90q96 -61 213 -61q100 0 156.5 49t56.5 135q0 76 -54.5 119t-150.5 43q-45 0 -80 -13l-26 60l270 286h-375v91h487v-88l-237 -256q119 -4 191.5 -72t72.5 -172q0 -121 -85 -194.5t-226 -73.5q-61 0 -122.5 15t-100.5 42z" />
<glyph d="M74 901v84l403 539h103v-539h114v-84h-114v-213h-93v213h-413zM174 985h313v416z" />
<glyph d="M131 727l10 90q100 -61 219 -61q100 0 154.5 50t54.5 140q0 82 -58 128t-163 46q-104 0 -178 -29l14 433h434v-95h-348l-6 -233q51 10 94 10q141 0 226.5 -69.5t85.5 -188.5q0 -129 -84.5 -204.5t-227.5 -75.5q-63 0 -126.5 16t-100.5 43z" />
<glyph d="M98 954q0 143 92.5 301t241.5 273l123 -6q-109 -78 -197 -181.5t-133 -206.5q72 76 185 76q117 0 193.5 -74.5t76.5 -187.5q0 -125 -83 -202.5t-214 -77.5q-125 0 -205 80.5t-80 205.5zM190 944q0 -84 55.5 -137t143.5 -53q86 0 141.5 52t55.5 132q0 86 -53.5 137 t-143.5 51q-86 0 -142.5 -52t-56.5 -130z" />
<glyph d="M115 1427v97h542v-91l-348 -749l-108 6l350 737h-436z" />
<glyph d="M96 913q0 72 46 131.5t124 85.5q-70 27 -106.5 77t-36.5 118q0 96 75.5 157.5t194.5 61.5q115 0 189.5 -61.5t74.5 -157.5q0 -68 -36.5 -118t-102.5 -77q76 -27 120 -85t44 -132q0 -109 -80 -177t-209 -68q-131 0 -214 68.5t-83 176.5zM197 915q0 -74 54 -119t142 -45 q86 0 138.5 45.5t52.5 118.5q0 76 -53.5 124t-137.5 48q-86 0 -141 -48t-55 -124zM219 1319q0 -66 48 -108t126 -42q76 0 122 42t46 108t-46 105.5t-122 39.5q-78 0 -126 -40t-48 -105z" />
<glyph d="M98 1263q0 123 83 202t214 79q125 0 205 -81t80 -206q0 -145 -92 -302.5t-242 -270.5l-123 6q106 76 196.5 180.5t133.5 204.5q-35 -35 -82 -54.5t-100 -19.5q-117 0 -195 75t-78 187zM195 1274q0 -86 53 -137.5t143 -51.5q86 0 141.5 52.5t55.5 130.5q0 84 -55.5 137 t-141.5 53t-141 -52t-55 -132z" />
<glyph horiz-adv-x="903" d="M160 712v117h583v-117h-583z" />
<glyph horiz-adv-x="1024" d="M0 727v108h1024v-108h-1024z" />
<glyph horiz-adv-x="2048" d="M0 727v108h2048v-108h-2048z" />
<glyph horiz-adv-x="784" d="M182 849q0 283 101.5 548.5t273.5 428.5h137q-188 -186 -291.5 -441t-103.5 -536t103.5 -534.5t291.5 -439.5h-137q-172 166 -273.5 430t-101.5 544z" />
<glyph horiz-adv-x="784" d="M90 -125q188 186 291.5 441t103.5 536t-103 534.5t-292 439.5h137q172 -166 273.5 -430t101.5 -544q0 -283 -101.5 -548.5t-273.5 -428.5h-137z" />
<glyph horiz-adv-x="1034" d="M33 -188l846 1931h125l-846 -1931h-125z" />
<glyph horiz-adv-x="1034" d="M31 1743h127l843 -1931h-124z" />
<glyph horiz-adv-x="765" d="M221 -125v1951h461v-100h-348v-1751h348v-100h-461z" />
<glyph horiz-adv-x="765" d="M84 -25h348v1751h-348v100h461v-1951h-461v100z" />
<glyph horiz-adv-x="866" d="M121 797v109h45q121 0 172 41.5t51 138.5q-2 76 -18.5 156.5t-34 160.5t-19.5 152q0 147 79 215.5t247 68.5q33 0 94 -4v-94q-16 2 -96 2q-113 0 -163 -44t-50 -140q0 -47 11.5 -104.5t24.5 -121t24.5 -125t11.5 -116.5q0 -94 -44 -156.5t-128 -85.5q84 -23 128 -84 t44 -157q0 -53 -11.5 -116t-24.5 -125.5t-24.5 -120.5t-11.5 -105q0 -96 50 -140.5t163 -44.5q80 0 96 2v-94q-61 -4 -94 -4q-168 0 -247 68.5t-79 216.5q2 72 18.5 151.5t34 160.5t19.5 157q0 98 -52 140t-171 42h-45z" />
<glyph horiz-adv-x="866" d="M129 -41q16 -2 96 -2q113 0 163 44t50 141q0 47 -11 104t-24.5 120.5t-24.5 125t-11 117.5q0 94 44 156.5t128 84.5q-84 23 -128 84.5t-44 157.5q0 53 11 115.5t24.5 125t24.5 121t11 105.5q0 96 -50 140t-163 44q-80 0 -96 -2v94q61 4 94 4q168 0 247 -68.5t79 -215.5 q-2 -72 -18.5 -152t-34 -160.5t-19.5 -156.5q0 -98 52.5 -140.5t170.5 -42.5h45v-108h-45q-121 0 -172 -42t-51 -138q2 -76 19.5 -157t34 -161t18.5 -151q0 -147 -79 -216t-247 -69q-33 0 -94 4v94z" />
<glyph horiz-adv-x="694" d="M121 672q0 94 66.5 160.5t160.5 66.5t160.5 -66.5t66.5 -160.5t-66.5 -160.5t-160.5 -66.5t-160.5 66.5t-66.5 160.5z" />
<glyph horiz-adv-x="587" d="M72 778l288 426h136l-289 -426l289 -426h-136z" />
<glyph horiz-adv-x="587" d="M92 352l289 426l-289 426h135l289 -426l-289 -426h-135z" />
<glyph horiz-adv-x="964" d="M72 778l288 426h136l-289 -426l289 -426h-136zM449 778l288 426h136l-289 -426l289 -426h-136z" />
<glyph horiz-adv-x="964" d="M92 352l289 426l-289 426h135l289 -426l-289 -426h-135zM469 352l289 426l-289 426h135l289 -426l-289 -426h-135z" />
<glyph horiz-adv-x="2013" d="M109 684q0 256 125.5 476t353 356t506.5 136q236 0 420 -95t290.5 -271t106.5 -412q0 -160 -52.5 -290t-149.5 -207.5t-222 -77.5q-203 0 -238 176q-57 -84 -143 -129t-191 -45q-156 0 -256 111.5t-100 285.5q0 129 56.5 241.5t157.5 182.5t226 70q117 0 201 -59.5 t119 -166.5l43 193h98l-104 -539q-10 -49 -10 -88q0 -143 145 -143q86 0 157.5 60.5t114.5 169t43 245.5q0 205 -86 360.5t-247.5 243.5t-382.5 88q-236 0 -434.5 -110.5t-320.5 -310t-122 -449.5q0 -221 92 -387t265 -259t409 -93q225 0 434 96l8 -99q-200 -94 -444 -94 q-256 0 -451.5 100.5t-306 289t-110.5 444.5zM664 706q0 -143 74.5 -226t203.5 -83q145 0 242.5 110.5t97.5 276.5q0 145 -73.5 228t-202.5 83q-92 0 -170 -49t-125 -139t-47 -201z" />
<glyph horiz-adv-x="593" d="M201 815q0 41 27.5 68.5t68.5 27.5t68.5 -27.5t27.5 -68.5q0 -39 -27.5 -67.5t-68.5 -28.5q-39 0 -67.5 28.5t-28.5 67.5z" />
<glyph horiz-adv-x="1142" d="M115 276q0 156 110.5 246t300.5 90q82 0 165 -17t147 -46v41q0 168 -83 254t-245 86q-180 0 -326 -111l-14 103q63 51 158.5 81.5t193.5 30.5q205 0 317.5 -112.5t112.5 -315.5v-606h-110l-2 164q-51 -94 -146.5 -145.5t-218.5 -51.5q-160 0 -260 86t-100 223zM229 285 q0 -98 71 -156.5t192 -58.5q96 0 174.5 47t125 134t46.5 200q-131 61 -303 61q-143 0 -224.5 -59.5t-81.5 -167.5z" />
<glyph horiz-adv-x="1163" d="M92 -223q0 96 53.5 165.5t149.5 100.5q-70 14 -110 59t-40 107q0 59 39 109.5t113 84.5q-72 47 -108.5 118t-36.5 161q0 158 114.5 255t300.5 97q55 0 114.5 -13t98.5 -34l322 17v-105l-219 8q100 -92 100 -225q0 -160 -113.5 -256t-302.5 -96q-109 0 -194 35 q-55 -27 -84 -62t-29 -74q0 -63 52.5 -89.5t183.5 -26.5h102q455 0 455 -303q0 -156 -129.5 -244t-356.5 -88q-225 0 -350 78.5t-125 220.5zM207 -209q0 -104 96.5 -159.5t276.5 -55.5q168 0 261 59.5t93 167.5q0 111 -82 160t-262 49h-51q-162 0 -247 -56t-85 -165z M268 682q0 -115 81 -183.5t218 -68.5q139 0 219 67.5t80 184.5q0 115 -80.5 183.5t-218.5 68.5q-137 0 -218 -67.5t-81 -184.5z" />
<glyph horiz-adv-x="1107" d="M29 -487l16 106q20 -14 52 -23.5t63 -9.5q68 0 118 36t96 114t97 207l29 73l-445 985h129l379 -860l344 860h131l-450 -1073q-74 -174 -137.5 -272t-130 -138t-158.5 -40q-37 0 -74 9t-59 26z" />
<glyph horiz-adv-x="593" d="M201 776q0 41 27.5 68.5t68.5 27.5t68.5 -27.5t27.5 -68.5q0 -39 -27.5 -67.5t-68.5 -28.5q-39 0 -67.5 28.5t-28.5 67.5z" />
<glyph horiz-adv-x="593" d="M201 834q0 43 27.5 69.5t68.5 26.5t68.5 -28t27.5 -68q0 -39 -27.5 -67t-68.5 -28t-68.5 28t-27.5 67z" />
<glyph horiz-adv-x="1873" d="M109 276q0 156 110.5 246t300.5 90q82 0 165 -17t146 -46v41q0 168 -82.5 254t-244.5 86q-180 0 -326 -111l-14 103q63 51 158.5 81.5t193.5 30.5q152 0 251 -70.5t134 -203.5q51 127 160.5 200.5t247.5 73.5q127 0 227 -59.5t157.5 -169t57.5 -254.5q0 -29 -6 -84h-809 q8 -182 124 -287.5t312 -105.5q190 0 340 84l17 -103q-63 -41 -161 -64.5t-202 -23.5q-174 0 -302 73t-185 204q-47 -129 -156 -203t-254 -74q-160 0 -260 86t-100 223zM223 285q0 -98 70.5 -156.5t191.5 -58.5q154 0 250 105.5t96 275.5q-129 61 -303 61q-143 0 -224 -59.5 t-81 -167.5zM938 569h698q-4 166 -94 263.5t-239 97.5q-145 0 -245 -98.5t-120 -262.5z" />
<glyph horiz-adv-x="0" d="M-203 -483l21 88q68 -37 151 -37q66 0 104 28.5t38 77.5q0 47 -34 74t-97 27q-61 0 -89 -8l68 253h88l-45 -167h10q90 0 146.5 -49.5t56.5 -127.5q0 -90 -66.5 -144t-179.5 -54q-45 0 -93 11t-79 28z" />
<glyph horiz-adv-x="0" d="M-152 -502q86 156 97 369h116q-8 -98 -41.5 -200.5t-78.5 -168.5h-93z" />
<glyph horiz-adv-x="0" d="M-258 -332q0 94 71.5 189.5t209.5 183.5l61 -41q-236 -164 -236 -309q0 -53 30 -82t83 -29q63 0 131 37l14 -90q-31 -20 -74.5 -31.5t-86.5 -11.5q-92 0 -147.5 51t-55.5 133z" />
<glyph horiz-adv-x="0" d="M-193 -332q0 102 86.5 205.5t227.5 169.5l90 2q-297 -193 -297 -354q0 -53 29.5 -82t85.5 -29q61 0 129 37l14 -90q-31 -20 -75 -31.5t-87 -11.5q-92 0 -147.5 51t-55.5 133z" />
<glyph horiz-adv-x="0" d="M-193 -332q0 102 87.5 207t226.5 172l90 -2q-297 -193 -297 -354q0 -111 115 -111q68 0 129 37l14 -90q-29 -20 -73 -31.5t-89 -11.5q-94 0 -148.5 50t-54.5 134z" />
<glyph horiz-adv-x="1163" d="M92 -223q0 96 53.5 165.5t149.5 100.5q-70 14 -110 59t-40 107q0 59 39 109.5t113 84.5q-72 47 -108.5 118t-36.5 161q0 158 114.5 255t300.5 97q55 0 114.5 -13t98.5 -34l322 17v-105l-219 8q100 -92 100 -225q0 -160 -113.5 -256t-302.5 -96q-109 0 -194 35 q-55 -27 -84 -62t-29 -74q0 -63 52.5 -89.5t183.5 -26.5h102q455 0 455 -303q0 -156 -129.5 -244t-356.5 -88q-225 0 -350 78.5t-125 220.5zM207 -209q0 -104 96.5 -159.5t276.5 -55.5q168 0 261 59.5t93 167.5q0 111 -82 160t-262 49h-51q-162 0 -247 -56t-85 -165z M268 682q0 -115 81 -183.5t218 -68.5q139 0 219 67.5t80 184.5q0 115 -80.5 183.5t-218.5 68.5q-137 0 -218 -67.5t-81 -184.5zM522 1249q4 88 35 176t82 158h92q-82 -141 -90 -334h-119z" />
<glyph horiz-adv-x="1142" d="M115 276q0 156 110.5 246t300.5 90q82 0 165 -17t147 -46v41q0 168 -83 254t-245 86q-180 0 -326 -111l-14 103q63 51 158.5 81.5t193.5 30.5q205 0 317.5 -112.5t112.5 -315.5v-606h-110l-2 164q-51 -94 -146.5 -145.5t-218.5 -51.5q-160 0 -260 86t-100 223zM229 285 q0 -98 71 -156.5t192 -58.5q96 0 174.5 47t125 134t46.5 200q-131 61 -303 61q-143 0 -224.5 -59.5t-81.5 -167.5zM612 -332q0 190 278 373l62 -41q-233 -162 -234 -309q0 -53 30 -82t83 -29q63 0 131 37l14 -90q-31 -20 -74.5 -31.5t-86.5 -11.5q-92 0 -147.5 51t-55.5 133 z" />
<glyph horiz-adv-x="0" d="M-141 1710l278 264h162l-305 -264h-135z" />
<glyph horiz-adv-x="0" d="M-260 1710l219 264h143l-245 -264h-117zM49 1710l221 264h144l-246 -264h-119z" />
<glyph horiz-adv-x="1142" d="M115 276q0 156 110.5 246t300.5 90q82 0 165 -17t147 -46v41q0 168 -83 254t-245 86q-180 0 -326 -111l-14 103q63 51 158.5 81.5t193.5 30.5q205 0 317.5 -112.5t112.5 -315.5v-606h-110l-2 164q-51 -94 -146.5 -145.5t-218.5 -51.5q-160 0 -260 86t-100 223zM229 285 q0 -98 71 -156.5t192 -58.5q96 0 174.5 47t125 134t46.5 200q-131 61 -303 61q-143 0 -224.5 -59.5t-81.5 -167.5zM383 1227l251 356h144l-279 -356h-116z" />
<glyph horiz-adv-x="1107" d="M29 -487l16 106q20 -14 52 -23.5t63 -9.5q68 0 118 36t96 114t97 207l29 73l-445 985h129l379 -860l344 860h131l-450 -1073q-74 -174 -137.5 -272t-130 -138t-158.5 -40q-37 0 -74 9t-59 26zM406 1227l251 356h144l-279 -356h-116z" />
<glyph horiz-adv-x="0" d="M-299 1974h162l278 -264h-133z" />
<glyph horiz-adv-x="1142" d="M115 276q0 156 110.5 246t300.5 90q82 0 165 -17t147 -46v41q0 168 -83 254t-245 86q-180 0 -326 -111l-14 103q63 51 158.5 81.5t193.5 30.5q205 0 317.5 -112.5t112.5 -315.5v-606h-110l-2 164q-51 -94 -146.5 -145.5t-218.5 -51.5q-160 0 -260 86t-100 223zM229 285 q0 -98 71 -156.5t192 -58.5q96 0 174.5 47t125 134t46.5 200q-131 61 -303 61q-143 0 -224.5 -59.5t-81.5 -167.5zM286 1583h142l252 -356h-117z" />
<glyph horiz-adv-x="1107" d="M29 -487l16 106q20 -14 52 -23.5t63 -9.5q68 0 118 36t96 114t97 207l29 73l-445 985h129l379 -860l344 860h131l-450 -1073q-74 -174 -137.5 -272t-130 -138t-158.5 -40q-37 0 -74 9t-59 26zM309 1583h142l252 -356h-117z" />
<glyph horiz-adv-x="0" d="M-348 1710l295 291h108l293 -291h-133l-215 211l-213 -211h-135z" />
<glyph horiz-adv-x="0" d="M-330 1710q0 125 47 190.5t138 65.5q53 -2 92 -25.5t70.5 -55.5t60 -55.5t61.5 -25.5q98 0 99 160h92q0 -123 -48.5 -189.5t-138.5 -66.5q-51 2 -90 25.5t-70.5 54.5t-61.5 54.5t-62 25.5q-96 0 -97 -158h-92z" />
<glyph horiz-adv-x="1142" d="M115 276q0 156 110.5 246t300.5 90q82 0 165 -17t147 -46v41q0 168 -83 254t-245 86q-180 0 -326 -111l-14 103q63 51 158.5 81.5t193.5 30.5q205 0 317.5 -112.5t112.5 -315.5v-606h-110l-2 164q-51 -94 -146.5 -145.5t-218.5 -51.5q-160 0 -260 86t-100 223zM186 1227 l295 356h96l299 -356h-123l-223 268l-221 -268h-123zM229 285q0 -98 71 -156.5t192 -58.5q96 0 174.5 47t125 134t46.5 200q-131 61 -303 61q-143 0 -224.5 -59.5t-81.5 -167.5z" />
<glyph horiz-adv-x="1107" d="M29 -487l16 106q20 -14 52 -23.5t63 -9.5q68 0 118 36t96 114t97 207l29 73l-445 985h129l379 -860l344 860h131l-450 -1073q-74 -174 -137.5 -272t-130 -138t-158.5 -40q-37 0 -74 9t-59 26zM209 1227l295 356h96l299 -356h-123l-223 268l-221 -268h-123z" />
<glyph horiz-adv-x="1142" d="M115 276q0 156 110.5 246t300.5 90q82 0 165 -17t147 -46v41q0 168 -83 254t-245 86q-180 0 -326 -111l-14 103q63 51 158.5 81.5t193.5 30.5q205 0 317.5 -112.5t112.5 -315.5v-606h-110l-2 164q-51 -94 -146.5 -145.5t-218.5 -51.5q-160 0 -260 86t-100 223zM200 1274 q0 125 47 190.5t138 65.5q53 -2 92 -25.5t70.5 -55.5t60 -55.5t61.5 -25.5q98 0 99 160h92q0 -123 -48.5 -189.5t-138.5 -66.5q-51 2 -90 25.5t-70.5 54t-61.5 54.5t-62 26q-96 0 -97 -158h-92zM229 285q0 -98 71 -156.5t192 -58.5q96 0 174.5 47t125 134t46.5 200 q-131 61 -303 61q-143 0 -224.5 -59.5t-81.5 -167.5z" />
<glyph horiz-adv-x="0" d="M-348 2001h133l215 -213l213 213h135l-295 -291h-108z" />
<glyph horiz-adv-x="0" d="M-72 1239l25 420h119l-62 -420h-82z" />
<glyph horiz-adv-x="0" d="M-301 1772v104h602v-104h-602z" />
<glyph horiz-adv-x="1142" d="M115 276q0 156 110.5 246t300.5 90q82 0 165 -17t147 -46v41q0 168 -83 254t-245 86q-180 0 -326 -111l-14 103q63 51 158.5 81.5t193.5 30.5q205 0 317.5 -112.5t112.5 -315.5v-606h-110l-2 164q-51 -94 -146.5 -145.5t-218.5 -51.5q-160 0 -260 86t-100 223zM229 285 q0 -98 71 -156.5t192 -58.5q96 0 174.5 47t125 134t46.5 200q-131 61 -303 61q-143 0 -224.5 -59.5t-81.5 -167.5zM229 1337v105h602v-105h-602z" />
<glyph horiz-adv-x="0" d="M-276 1821q0 37 23.5 60.5t59.5 23.5q35 0 59.5 -23.5t24.5 -60.5t-24.5 -61.5t-59.5 -24.5q-37 0 -60 24.5t-23 61.5zM109 1821q0 37 23.5 60.5t60.5 23.5t60 -23.5t23 -60.5t-24 -61.5t-59 -24.5q-37 0 -60.5 24.5t-23.5 61.5z" />
<glyph horiz-adv-x="0" d="M-301 1952q0 20 2 28h96q0 -98 51.5 -149t151.5 -51q203 0 203 200h96q2 -8 2 -28q0 -119 -82 -190.5t-219 -71.5q-135 0 -218 71.5t-83 190.5z" />
<glyph horiz-adv-x="1142" d="M115 276q0 156 110.5 246t300.5 90q82 0 165 -17t147 -46v41q0 168 -83 254t-245 86q-180 0 -326 -111l-14 103q63 51 158.5 81.5t193.5 30.5q205 0 317.5 -112.5t112.5 -315.5v-606h-110l-2 164q-51 -94 -146.5 -145.5t-218.5 -51.5q-160 0 -260 86t-100 223zM229 285 q0 -98 71 -156.5t192 -58.5q96 0 174.5 47t125 134t46.5 200q-131 61 -303 61q-143 0 -224.5 -59.5t-81.5 -167.5zM264 1399q0 39 23.5 62.5t58.5 23.5q37 0 61.5 -24.5t24.5 -61.5t-24.5 -60.5t-61.5 -23.5t-59.5 23.5t-22.5 60.5zM628 1399q0 37 23.5 61.5t60.5 24.5 t60.5 -24.5t23.5 -61.5t-23.5 -60.5t-60.5 -23.5t-60.5 23.5t-23.5 60.5z" />
<glyph horiz-adv-x="1107" d="M29 -487l16 106q20 -14 52 -23.5t63 -9.5q68 0 118 36t96 114t97 207l29 73l-445 985h129l379 -860l344 860h131l-450 -1073q-74 -174 -137.5 -272t-130 -138t-158.5 -40q-37 0 -74 9t-59 26zM287 1399q0 39 23.5 62.5t58.5 23.5q37 0 61.5 -24.5t24.5 -61.5t-24.5 -60.5 t-61.5 -23.5t-59.5 23.5t-22.5 60.5zM651 1399q0 37 23.5 61.5t60.5 24.5t60.5 -24.5t23.5 -61.5t-23.5 -60.5t-60.5 -23.5t-60.5 23.5t-23.5 60.5z" />
<glyph horiz-adv-x="1142" d="M115 276q0 156 110.5 246t300.5 90q82 0 165 -17t147 -46v41q0 168 -83 254t-245 86q-180 0 -326 -111l-14 103q63 51 158.5 81.5t193.5 30.5q205 0 317.5 -112.5t112.5 -315.5v-606h-110l-2 164q-51 -94 -146.5 -145.5t-218.5 -51.5q-160 0 -260 86t-100 223zM229 285 q0 -98 71 -156.5t192 -58.5q96 0 174.5 47t125 134t46.5 200q-131 61 -303 61q-143 0 -224.5 -59.5t-81.5 -167.5zM235 1509q0 20 2 29h92q0 -221 201 -221t201 221h92q2 -8 2 -29q0 -127 -81 -203.5t-214 -76.5t-214 76.5t-81 203.5z" />
<glyph horiz-adv-x="1163" d="M92 -223q0 96 53.5 165.5t149.5 100.5q-70 14 -110 59t-40 107q0 59 39 109.5t113 84.5q-72 47 -108.5 118t-36.5 161q0 158 114.5 255t300.5 97q55 0 114.5 -13t98.5 -34l322 17v-105l-219 8q100 -92 100 -225q0 -160 -113.5 -256t-302.5 -96q-109 0 -194 35 q-55 -27 -84 -62t-29 -74q0 -63 52.5 -89.5t183.5 -26.5h102q455 0 455 -303q0 -156 -129.5 -244t-356.5 -88q-225 0 -350 78.5t-125 220.5zM207 -209q0 -104 96.5 -159.5t276.5 -55.5q168 0 261 59.5t93 167.5q0 111 -82 160t-262 49h-51q-162 0 -247 -56t-85 -165z M268 682q0 -115 81 -183.5t218 -68.5q139 0 219 67.5t80 184.5q0 115 -80.5 183.5t-218.5 68.5q-137 0 -218 -67.5t-81 -184.5zM297 1509q0 20 2 29h92q0 -221 201 -221t201 221h92q2 -8 2 -29q0 -127 -81 -203.5t-214 -76.5t-214 76.5t-81 203.5z" />
<glyph horiz-adv-x="0" d="M-88 1821q0 41 24.5 65.5t63.5 24.5q41 0 65.5 -24.5t24.5 -65.5q0 -39 -24.5 -63.5t-65.5 -24.5t-64.5 23.5t-23.5 64.5z" />
<glyph horiz-adv-x="1163" d="M92 -223q0 96 53.5 165.5t149.5 100.5q-70 14 -110 59t-40 107q0 59 39 109.5t113 84.5q-72 47 -108.5 118t-36.5 161q0 158 114.5 255t300.5 97q55 0 114.5 -13t98.5 -34l322 17v-105l-219 8q100 -92 100 -225q0 -160 -113.5 -256t-302.5 -96q-109 0 -194 35 q-55 -27 -84 -62t-29 -74q0 -63 52.5 -89.5t183.5 -26.5h102q455 0 455 -303q0 -156 -129.5 -244t-356.5 -88q-225 0 -350 78.5t-125 220.5zM207 -209q0 -104 96.5 -159.5t276.5 -55.5q168 0 261 59.5t93 167.5q0 111 -82 160t-262 49h-51q-162 0 -247 -56t-85 -165z M268 682q0 -115 81 -183.5t218 -68.5q139 0 219 67.5t80 184.5q0 115 -80.5 183.5t-218.5 68.5q-137 0 -218 -67.5t-81 -184.5zM504 1399q0 39 24.5 63.5t63.5 24.5q41 0 65.5 -24.5t24.5 -63.5t-24.5 -64.5t-65.5 -25.5t-64.5 24.5t-23.5 65.5z" />
<glyph horiz-adv-x="0" d="M-258 1923q0 109 72.5 178.5t185.5 69.5t186.5 -70.5t73.5 -177.5q0 -106 -73.5 -177t-186.5 -71q-111 0 -184.5 71t-73.5 177zM-168 1923q0 -74 46 -120t122 -46t123 46t47 120t-47 120t-123 46t-122 -45t-46 -121z" />
<glyph horiz-adv-x="1142" d="M115 276q0 156 110.5 246t300.5 90q82 0 165 -17t147 -46v41q0 168 -83 254t-245 86q-180 0 -326 -111l-14 103q63 51 158.5 81.5t193.5 30.5q205 0 317.5 -112.5t112.5 -315.5v-606h-110l-2 164q-51 -94 -146.5 -145.5t-218.5 -51.5q-160 0 -260 86t-100 223zM229 285 q0 -98 71 -156.5t192 -58.5q96 0 174.5 47t125 134t46.5 200q-131 61 -303 61q-143 0 -224.5 -59.5t-81.5 -167.5zM272 1452q0 109 72.5 178.5t185.5 69.5t186.5 -70.5t73.5 -177.5q0 -106 -73.5 -177t-186.5 -71q-111 0 -184.5 71t-73.5 177zM362 1452q0 -74 46 -120 t122 -46t123 46t47 120t-47 120t-123 46t-122 -45t-46 -121z" />
</font>
</defs>
</svg>
