<?xml version="1.0" standalone="no"?>
<!DOCTYPE svg PUBLIC "-//W3C//DTD SVG 1.1//EN" "http://www.w3.org/Graphics/SVG/1.1/DTD/svg11.dtd" >
<svg xmlns="http://www.w3.org/2000/svg" xmlns:xlink="http://www.w3.org/1999/xlink" version="1.1">
<metadata></metadata>
<defs>
<font id="objektiv_mk1italic" horiz-adv-x="782" >
<font-face units-per-em="2048" ascent="1638" descent="-410" />
<missing-glyph horiz-adv-x="450" />
<glyph unicode=" "  horiz-adv-x="450" />
<glyph unicode="&#x09;" horiz-adv-x="450" />
<glyph unicode="&#xa0;" horiz-adv-x="450" />
<glyph unicode="!" horiz-adv-x="636" d="M109 109q0 63 42 104t103 41q53 0 88 -35t35 -86q0 -63 -42.5 -104t-105.5 -41q-51 0 -85.5 34.5t-34.5 86.5zM229 498l220 1120h172l-220 -1120h-172z" />
<glyph unicode="&#x22;" horiz-adv-x="727" d="M197 961l98 595h186l-135 -595h-149zM553 961l98 595h186l-135 -595h-149z" />
<glyph unicode="#" horiz-adv-x="1392" d="M76 352l28 146h236l164 391h-248l29 145h280l148 352h149l-147 -352h317l148 352h151l-147 -352h202l-28 -145h-236l-164 -391h248l-28 -146h-281l-147 -352h-150l148 352h-318l-147 -352h-152l148 352h-203zM489 498h318l164 391h-318z" />
<glyph unicode="$" horiz-adv-x="1269" d="M86 106l39 154q147 -117 356 -139l119 606q-125 70 -193.5 130.5t-97 127t-28.5 156.5q0 174 132 287.5t347 123.5l47 242h129l-49 -250q156 -25 293 -119l-37 -149q-129 92 -285 121l-106 -553q188 -102 264 -198.5t76 -227.5q0 -119 -61.5 -217.5t-178.5 -158.5 t-270 -69l-45 -239h-129l47 243q-111 10 -208 45t-161 84zM442 1153q0 -82 44 -141.5t147 -116.5l98 510q-123 -6 -206 -79t-83 -173zM610 121q141 16 226.5 97t85.5 196q0 80 -47.5 140t-155.5 122z" />
<glyph unicode="%" horiz-adv-x="2066" d="M240 1122q0 109 52 208.5t147.5 162.5t207.5 63q100 0 182 -43t130.5 -122.5t48.5 -182.5q0 -109 -52.5 -208t-147.5 -162.5t-208 -63.5q-100 0 -182 43t-130 123t-48 182zM270 0l1416 1524h198l-1415 -1524h-199zM393 1135q0 -100 56.5 -158.5t154.5 -58.5 q104 0 177 81.5t73 196.5q0 100 -56.5 158.5t-154.5 58.5q-104 0 -177 -82t-73 -196zM1157 328q0 109 52.5 208t147.5 162.5t208 63.5q100 0 182 -43t130 -123t48 -182q0 -109 -52 -208.5t-147 -162.5t-208 -63q-100 0 -182.5 43t-130.5 122.5t-48 182.5zM1311 340 q0 -100 56.5 -158.5t154.5 -58.5q104 0 177 82t73 196q0 100 -56.5 158.5t-154.5 58.5q-104 0 -177 -81.5t-73 -196.5z" />
<glyph unicode="&#x26;" horiz-adv-x="1486" d="M100 371q0 152 104.5 270.5t325.5 216.5q-61 100 -88.5 180t-27.5 162q0 176 111.5 284.5t293.5 108.5q164 0 264.5 -90t100.5 -237q0 -276 -412 -469l311 -428q119 166 150 428l147 -21q-10 -147 -64 -284.5t-145 -245.5l181 -246h-203l-94 127q-197 -160 -453 -160 q-236 0 -369 107.5t-133 296.5zM270 385q0 -121 91 -192.5t247 -71.5q207 0 361 125l-363 497q-176 -78 -256 -163.5t-80 -194.5zM580 1221q0 -76 25.5 -146t88.5 -166q326 152 326 357q0 84 -57.5 136t-149.5 52q-100 0 -166.5 -66.5t-66.5 -166.5z" />
<glyph unicode="'" horiz-adv-x="370" d="M197 961l98 595h186l-135 -595h-149z" />
<glyph unicode="(" horiz-adv-x="823" d="M180 457q0 227 74 456.5t213 430t326 335.5h215q-309 -227 -481.5 -544.5t-172.5 -661.5q0 -211 61.5 -400.5t182.5 -344.5h-197q-104 145 -162.5 339.5t-58.5 389.5z" />
<glyph unicode=")" horiz-adv-x="823" d="M-111 -272q309 227 481.5 544.5t172.5 661.5q0 211 -61.5 400.5t-182.5 344.5h197q104 -145 162.5 -339.5t58.5 -389.5q0 -227 -74 -456.5t-213 -430t-326 -335.5h-215z" />
<glyph unicode="*" horiz-adv-x="940" d="M205 1219l65 147l273 -123l35 313h170l-84 -315l280 125l47 -156l-305 -88l193 -266l-138 -82l-166 285l-217 -285l-116 98l237 263z" />
<glyph unicode="+" horiz-adv-x="1269" d="M199 604l30 160h371l80 405h168l-80 -405h371l-31 -160h-371l-80 -405h-168l80 405h-370z" />
<glyph unicode="," horiz-adv-x="593" d="M-133 -371q111 123 185.5 289t90.5 324h197q-16 -170 -100 -336t-209 -277h-164z" />
<glyph unicode="-" horiz-adv-x="899" d="M152 502l34 174h590l-35 -174h-589z" />
<glyph unicode="." horiz-adv-x="593" d="M86 109q0 63 42 104t103 41q53 0 88 -35t35 -86q0 -63 -42 -104t-105 -41q-51 0 -86 34.5t-35 86.5z" />
<glyph unicode="/" horiz-adv-x="1038" d="M-117 -272l1145 1931h199l-1145 -1931h-199z" />
<glyph unicode="0" horiz-adv-x="1269" d="M135 532q0 139 33 310q39 203 129 364.5t217 255.5t268 94q215 0 331 -145t116 -420q0 -139 -33 -309q-39 -203 -129 -364.5t-217 -256t-268 -94.5q-215 0 -331 145.5t-116 419.5zM319 537q0 -201 66 -306.5t193 -105.5q143 0 264 154.5t170 404.5q33 166 32 303 q0 201 -65.5 306.5t-192.5 105.5q-143 0 -264 -154.5t-170 -404.5q-33 -166 -33 -303z" />
<glyph unicode="1" horiz-adv-x="1269" d="M342 1157l8 174l488 193h159l-297 -1524h-178l258 1329z" />
<glyph unicode="2" horiz-adv-x="1269" d="M90 0l27 152q106 86 260.5 226t261.5 247q184 186 257 306t73 232q0 111 -69 173.5t-191 62.5q-96 0 -193.5 -47t-177.5 -135l-31 155q66 80 184.5 132t235.5 52q188 0 305 -105t117 -277q0 -139 -78 -273.5t-270 -327.5q-225 -225 -455 -407h703l-33 -166h-926z" />
<glyph unicode="3" horiz-adv-x="1269" d="M94 90l39 154q70 -55 170 -89t195 -34q176 0 288.5 102.5t112.5 261.5q0 125 -80 196t-219 71q-59 0 -108 -17l-46 99l531 528h-633l33 162h833l-28 -154l-494 -489q180 -10 283.5 -116t103.5 -280q0 -143 -72.5 -261t-205.5 -187.5t-303 -69.5q-111 0 -223.5 35 t-176.5 88z" />
<glyph unicode="4" horiz-adv-x="1269" d="M98 389l25 148l856 987h182l-192 -985h217l-29 -150h-217l-76 -389h-170l76 389h-672zM303 539h496l143 735z" />
<glyph unicode="5" horiz-adv-x="1269" d="M90 94l41 154q76 -59 172 -93t193 -34q182 0 294.5 105.5t112.5 273.5q0 133 -93 213t-249 80q-150 0 -276 -37l172 768h717l-33 -166h-563l-95 -422q57 10 117 10q215 0 347 -119.5t132 -314.5q0 -154 -71.5 -276.5t-205.5 -195.5t-308 -73q-119 0 -226.5 34t-177.5 93z " />
<glyph unicode="6" horiz-adv-x="1269" d="M150 420q0 168 91 367.5t258 396t382 344.5l225 -10q-227 -154 -416.5 -352.5t-281.5 -381.5q53 68 142 108t189 40q113 0 205 -52.5t147.5 -148.5t55.5 -221q0 -145 -69.5 -268t-195.5 -199t-284 -76q-209 0 -328.5 120t-119.5 333zM317 408q0 -133 79 -213t210 -80 q100 0 183 48t133.5 135t50.5 196q0 133 -79 211.5t-212 78.5q-98 0 -181 -47t-133.5 -134t-50.5 -195z" />
<glyph unicode="7" horiz-adv-x="1269" d="M213 6l788 1348h-747l35 170h930l-31 -160l-789 -1368z" />
<glyph unicode="8" horiz-adv-x="1269" d="M104 362q0 164 104.5 288t274.5 161q-88 35 -139 115t-51 178q0 121 63.5 223.5t179 165.5t261.5 63q195 0 312.5 -101t117.5 -267q0 -145 -90 -258t-236 -150q102 -39 162.5 -125t60.5 -192q0 -135 -67.5 -248t-191 -180.5t-279.5 -67.5q-223 0 -352.5 106.5 t-129.5 288.5zM281 385q0 -125 82 -195.5t225 -70.5q158 0 259 94t101 240q0 125 -80 195.5t-223 70.5q-100 0 -183 -41t-132 -118t-49 -175zM463 1110q0 -113 72.5 -178.5t199.5 -65.5q63 0 120.5 21.5t103 61.5t72 97.5t26.5 124.5q0 113 -75 177.5t-202 64.5 q-86 0 -158.5 -38t-115.5 -107.5t-43 -157.5z" />
<glyph unicode="9" horiz-adv-x="1269" d="M203 1014q0 145 69.5 268t195.5 198.5t284 75.5q209 0 328.5 -119.5t119.5 -332.5q0 -168 -91 -367.5t-258 -396.5t-382 -344l-225 10q227 154 416.5 352.5t281.5 380.5q-53 -68 -142 -107.5t-190 -39.5q-113 0 -205 52t-147 148.5t-55 221.5zM377 1030q0 -131 80 -211 t211 -80q98 0 181 47.5t133 134.5t50 195q0 133 -79 213t-210 80q-100 0 -183 -48t-133 -135t-50 -196z" />
<glyph unicode=":" horiz-adv-x="593" d="M86 109q0 63 42 104t103 41q53 0 88 -35t35 -86q0 -63 -42 -104t-105 -41q-51 0 -86 34.5t-35 86.5zM240 891q0 63 42 104t103 41q53 0 88 -35t35 -86q0 -63 -42 -104t-105 -41q-51 0 -86 34.5t-35 86.5z" />
<glyph unicode=";" horiz-adv-x="593" d="M-133 -371q111 123 185.5 289t90.5 324h197q-16 -170 -100 -336t-209 -277h-164zM240 891q0 63 42 104t103 41q53 0 88 -35t35 -86q0 -63 -42 -104t-105 -41q-51 0 -86 34.5t-35 86.5z" />
<glyph unicode="&#x3c;" horiz-adv-x="1269" d="M223 614l35 174l936 383l-35 -182l-737 -295l622 -295l-32 -168z" />
<glyph unicode="=" horiz-adv-x="1269" d="M186 362l31 160h840l-31 -160h-840zM281 844l30 160h840l-31 -160h-839z" />
<glyph unicode="&#x3e;" horiz-adv-x="1269" d="M150 231l34 183l738 293l-623 297l33 167l788 -383l-35 -174z" />
<glyph unicode="?" horiz-adv-x="954" d="M213 1450q63 82 180 134t236 52q111 0 202 -42t143 -117.5t52 -178.5q-2 -106 -39 -183t-95 -135t-126 -108.5t-129.5 -102.5t-102 -117.5t-49.5 -153.5h-159q8 111 49 191.5t100.5 141t124 110.5t121.5 99.5t92 108.5t37 137q0 88 -64.5 139.5t-169.5 51.5 q-100 0 -200.5 -49.5t-173.5 -133.5zM215 109q0 63 42 104t103 41q53 0 88 -35t35 -86q0 -63 -43 -104t-104 -41q-51 0 -86 33.5t-35 87.5z" />
<glyph unicode="@" horiz-adv-x="2052" d="M102 303q0 272 141.5 512t395.5 390.5t559 150.5q213 0 388 -89t279.5 -254t104.5 -374q0 -176 -65.5 -327.5t-184 -245t-266.5 -93.5q-96 0 -159.5 49.5t-80.5 135.5q-45 -82 -135 -133.5t-188 -51.5q-150 0 -239 99.5t-89 265.5q0 139 66.5 264t183.5 206t254 81 q100 0 171 -56.5t95 -156.5l60 180h145l-164 -539q-16 -59 -16 -92q0 -57 30.5 -89t88.5 -32q86 0 163.5 70t128 192.5t50.5 268.5q0 170 -78 300t-223.5 203.5t-339.5 73.5q-238 0 -448 -116.5t-343 -324.5t-133 -460q0 -301 174 -470t483 -169q102 0 221 24.5t199 63.5 l4 -145q-84 -39 -198.5 -62.5t-227.5 -23.5q-242 0 -424 92t-282.5 267t-100.5 415zM723 338q0 -102 57.5 -161.5t157.5 -59.5q84 0 161 53t127 148.5t50 203.5q0 104 -57.5 163.5t-157.5 59.5q-84 0 -161 -53t-127 -148t-50 -206z" />
<glyph unicode="A" horiz-adv-x="1531" d="M-49 0l913 1556h203l313 -1556h-192l-86 471h-686l-269 -471h-196zM504 625h569l-139 753z" />
<glyph unicode="B" horiz-adv-x="1417" d="M115 0l303 1556h448q213 0 330 -94t117 -264q0 -137 -77 -238.5t-210 -142.5q115 -35 181.5 -122t66.5 -201q0 -236 -161 -365t-451 -129h-547zM319 152h381q182 0 283.5 89t101.5 251q0 121 -87 184t-250 63h-314zM463 887h340q154 0 242 81t88 218q0 109 -75 164 t-218 55h-277z" />
<glyph unicode="C" horiz-adv-x="1538" d="M166 696q0 233 110.5 434t312.5 325t449 124q137 0 269.5 -38t230.5 -105l-43 -160q-229 135 -471 135q-174 0 -325.5 -90t-246 -253t-94.5 -359q0 -162 68 -289t193.5 -201t291.5 -74q227 0 439 117l4 -174q-207 -111 -451 -111q-211 0 -378 87.5t-263 251t-96 380.5z " />
<glyph unicode="D" horiz-adv-x="1697" d="M115 0l303 1556h500q217 0 379.5 -79.5t252.5 -231t90 -362.5q0 -250 -116.5 -450t-332.5 -316.5t-497 -116.5h-579zM330 158h377q215 0 382.5 87t263 250.5t95.5 378.5q0 250 -144.5 387.5t-406.5 137.5h-326z" />
<glyph unicode="E" horiz-adv-x="1347" d="M115 0l303 1556h917l-30 -157h-734l-102 -520h651l-30 -158h-652l-108 -563h794l-30 -158h-979z" />
<glyph unicode="F" horiz-adv-x="1212" d="M115 0l303 1556h885l-31 -157h-701l-106 -549h612l-30 -158h-613l-135 -692h-184z" />
<glyph unicode="G" horiz-adv-x="1662" d="M164 688q0 242 111.5 444.5t315.5 324.5t460 122q147 0 285.5 -40t244.5 -112l-43 -159q-104 66 -234 104.5t-253 38.5q-190 0 -348 -88t-252.5 -249t-94.5 -365q0 -166 70 -293t201 -199t307 -72q178 0 326 60l88 454h-351l31 158h531l-144 -727q-236 -113 -500 -113 q-215 0 -385 87.5t-268 249t-98 374.5z" />
<glyph unicode="H" horiz-adv-x="1705" d="M115 0l303 1556h184l-131 -669h907l131 669h185l-303 -1556h-185l142 733h-908l-141 -733h-184z" />
<glyph unicode="I" horiz-adv-x="614" d="M115 0l303 1556h184l-303 -1556h-184z" />
<glyph unicode="J" horiz-adv-x="1089" d="M-14 63l39 160q61 -43 141 -66.5t164 -23.5q158 0 247 100.5t134 325.5l194 997h185l-201 -1028q-57 -295 -193.5 -428t-384.5 -133q-84 0 -180 29t-145 67z" />
<glyph unicode="K" horiz-adv-x="1482" d="M115 0l303 1556h184l-135 -696l858 696h260l-944 -759l721 -797h-250l-668 750l-145 -750h-184z" />
<glyph unicode="L" horiz-adv-x="1216" d="M115 0l303 1556h184l-272 -1398h745l-31 -158h-929z" />
<glyph unicode="M" horiz-adv-x="2086" d="M106 0l373 1556h193l356 -1105l799 1105h180l-223 -1556h-178l182 1247l-715 -983h-160l-329 1012l-299 -1276h-179z" />
<glyph unicode="N" horiz-adv-x="1734" d="M115 0l303 1556h174l706 -1304l254 1304h170l-303 -1556h-174l-706 1305l-254 -1305h-170z" />
<glyph unicode="O" horiz-adv-x="1798" d="M162 672q0 238 111.5 446.5t312 339.5t444.5 131q199 0 359.5 -88t256 -248.5t95.5 -367.5q0 -238 -111.5 -447t-312.5 -340t-445 -131q-199 0 -359.5 88t-255.5 249t-95 368zM354 690q0 -166 64.5 -291t185.5 -194.5t287 -69.5q170 0 319.5 94.5t243.5 263.5t94 373 q0 166 -64.5 291t-185 194.5t-286.5 69.5q-170 0 -319.5 -94t-244 -263t-94.5 -374z" />
<glyph unicode="P" horiz-adv-x="1265" d="M115 0l303 1556h366q236 0 369 -108.5t133 -300.5q0 -162 -72.5 -287t-210 -195.5t-321.5 -70.5h-274l-115 -594h-178zM438 748h254q193 0 301.5 102t108.5 283q0 131 -89 200.5t-255 69.5h-193z" />
<glyph unicode="Q" horiz-adv-x="1798" d="M162 672q0 238 111.5 446.5t312 339.5t444.5 131q199 0 359.5 -88t256 -248.5t95.5 -367.5q0 -186 -69.5 -358.5t-201 -305.5t-305.5 -198l285 -396h-221l-238 350q-61 -10 -119 -10q-199 0 -359.5 88t-255.5 249t-95 368zM354 690q0 -166 64.5 -291t185.5 -194.5 t287 -69.5q170 0 319.5 94.5t243.5 263.5t94 373q0 166 -64.5 291t-185 194.5t-286.5 69.5q-170 0 -319.5 -94t-244 -263t-94.5 -374z" />
<glyph unicode="R" horiz-adv-x="1415" d="M115 0l303 1556h377q231 0 363 -112.5t132 -308.5q0 -164 -102.5 -295t-272.5 -185l320 -655h-207l-289 623q-14 -2 -63 -2h-262l-121 -621h-178zM442 774h258q113 0 205 44t146.5 124t54.5 182q0 133 -88 206t-250 73h-203z" />
<glyph unicode="S" horiz-adv-x="1316" d="M82 123l41 168q106 -78 227 -120t234 -42q164 0 268 79t104 204q0 88 -70.5 159.5t-238.5 153.5q-193 94 -270.5 190.5t-77.5 237.5q0 90 36 169t104.5 138.5t168 94t219.5 34.5q113 0 227.5 -33.5t205.5 -93.5l-43 -159q-94 59 -196.5 91.5t-197.5 32.5 q-152 0 -248 -74.5t-96 -193.5q0 -82 60.5 -146.5t199.5 -129.5q164 -78 249 -145.5t120 -143.5t35 -180q0 -129 -68.5 -229.5t-195.5 -159t-295 -58.5q-137 0 -271.5 42t-230.5 114z" />
<glyph unicode="T" horiz-adv-x="1363" d="M244 1399l30 157h1221l-31 -157h-518l-272 -1399h-185l273 1399h-518z" />
<glyph unicode="U" horiz-adv-x="1693" d="M219 500q0 84 21 192l168 864h184l-166 -851q-18 -100 -18 -181q0 -190 102 -289.5t297 -99.5q154 0 257 58.5t169.5 180.5t105.5 318l168 864h185l-179 -915q-66 -340 -244.5 -507t-475.5 -167q-272 0 -423 139.5t-151 393.5z" />
<glyph unicode="V" horiz-adv-x="1519" d="M268 1556h195l242 -1368l751 1368h201l-883 -1556h-207z" />
<glyph unicode="W" horiz-adv-x="2232" d="M264 1556h187l118 -1347l652 1327h192l127 -1319l645 1339h189l-768 -1556h-201l-129 1323l-647 -1323h-201z" />
<glyph unicode="X" horiz-adv-x="1390" d="M-68 0l719 825l-366 731h200l299 -618l527 618h215l-666 -761l402 -795h-201l-332 684l-582 -684h-215z" />
<glyph unicode="Y" horiz-adv-x="1396" d="M233 1556h195l324 -741l614 741h203l-754 -892l-129 -664h-184l131 676z" />
<glyph unicode="Z" horiz-adv-x="1409" d="M10 0l27 156l1161 1243h-883l31 157h1106l-29 -155l-1161 -1243h950l-30 -158h-1172z" />
<glyph unicode="[" horiz-adv-x="800" d="M84 -272l379 1951h491l-26 -145h-330l-324 -1661h330l-29 -145h-491z" />
<glyph unicode="\" horiz-adv-x="1038" d="M266 1659h180l396 -1931h-180z" />
<glyph unicode="]" horiz-adv-x="800" d="M-78 -272l27 145h327l324 1661h-328l29 145h492l-379 -1951h-492z" />
<glyph unicode="^" horiz-adv-x="1269" d="M197 647l538 778h150l241 -778h-174l-172 592l-395 -592h-188z" />
<glyph unicode="_" horiz-adv-x="1024" d="M-152 -266l31 155h1024l-31 -155h-1024z" />
<glyph unicode="`" horiz-adv-x="1024" d="M518 1583h188l152 -334h-152z" />
<glyph unicode="a" horiz-adv-x="1320" d="M111 440q0 156 73.5 296.5t204.5 230.5t285 90q125 0 216 -62.5t134 -175.5l43 205h170l-199 -1024h-170l29 162q-57 -88 -159 -141.5t-208 -53.5q-190 0 -304.5 130t-114.5 343zM287 444q0 -150 79 -235.5t216 -85.5q104 0 194 58.5t146.5 164t56.5 234.5 q0 150 -79 235.5t-216 85.5q-104 0 -194.5 -58.5t-146.5 -164t-56 -234.5z" />
<glyph unicode="b" horiz-adv-x="1323" d="M86 0l322 1659h174l-154 -795q59 86 159.5 139.5t205.5 53.5q190 0 304.5 -130t114.5 -343q0 -156 -73.5 -296.5t-204.5 -230.5t-285 -90q-125 0 -216 60.5t-136 175.5l-41 -203h-170zM344 444q0 -150 79 -235.5t216 -85.5q104 0 194.5 58.5t146.5 164t56 234.5 q0 150 -78.5 235.5t-216.5 85.5q-104 0 -194 -58.5t-146.5 -164t-56.5 -234.5z" />
<glyph unicode="c" horiz-adv-x="1089" d="M111 442q0 162 76.5 300.5t215 223.5t308.5 85q88 0 173 -25t146 -65l-33 -154q-59 41 -139 64.5t-151 23.5q-115 0 -210.5 -55.5t-152.5 -156.5t-57 -228q0 -154 94 -240t262 -86q57 0 128 18.5t122 47.5l4 -152q-45 -29 -128 -49.5t-159 -20.5q-231 0 -365 126 t-134 343z" />
<glyph unicode="d" horiz-adv-x="1320" d="M111 440q0 156 73.5 296.5t204.5 230.5t285 90q125 0 215 -60.5t135 -173.5l162 836h174l-322 -1659h-170l29 162q-57 -88 -159 -141.5t-208 -53.5q-190 0 -304.5 130t-114.5 343zM287 444q0 -150 79 -235.5t216 -85.5q104 0 194 58.5t146.5 164t56.5 234.5 q0 150 -79 235.5t-216 85.5q-104 0 -194.5 -58.5t-146.5 -164t-56 -234.5z" />
<glyph unicode="e" horiz-adv-x="1208" d="M113 438q0 164 72.5 304.5t205.5 227.5t297 87q117 0 210 -50.5t147.5 -143.5t54.5 -216q0 -90 -27 -190h-790q0 -334 376 -334q154 0 310 76l4 -154q-57 -35 -152.5 -56.5t-187.5 -21.5q-244 0 -382 125t-138 346zM301 594h623q4 29 4 55q0 123 -66.5 190.5t-187.5 67.5 q-129 0 -231.5 -87t-141.5 -226z" />
<glyph unicode="f" horiz-adv-x="798" d="M111 874l28 150h203l39 199q43 221 162 333.5t305 112.5q57 0 114.5 -14.5t100.5 -40.5l-33 -146q-88 47 -182 48q-121 0 -193.5 -77t-105.5 -245l-33 -170h309l-28 -150h-310l-170 -874h-174l170 874h-202z" />
<glyph unicode="g" horiz-adv-x="1323" d="M61 -412l37 154q160 -109 357 -109q125 0 206.5 46.5t134 143.5t83.5 251l16 86q-57 -86 -156.5 -139.5t-208.5 -53.5q-121 0 -216 56.5t-149 163t-54 253.5q0 160 73.5 299.5t205.5 228.5t284 89q125 0 216 -62.5t134 -175.5l43 205h170l-186 -963q-57 -301 -198.5 -441 t-397.5 -140q-115 0 -217.5 28.5t-176.5 79.5zM287 444q0 -150 79 -235.5t216 -85.5q104 0 194 58.5t146.5 165t56.5 233.5q0 150 -79 235.5t-216 85.5q-104 0 -194.5 -58.5t-146.5 -165t-56 -233.5z" />
<glyph unicode="h" horiz-adv-x="1236" d="M86 0l322 1659h174l-152 -780q59 84 147.5 131t188.5 47q143 0 233.5 -93.5t90.5 -240.5q0 -53 -11 -100l-121 -623h-174l115 592q12 59 12 106q0 205 -206 205q-123 0 -214.5 -92t-121.5 -250l-109 -561h-174z" />
<glyph unicode="i" horiz-adv-x="542" d="M86 0l199 1024h174l-199 -1024h-174zM326 1411q0 57 36.5 95t94.5 38q47 0 77.5 -30.5t30.5 -81.5q0 -57 -37 -95.5t-94 -38.5q-47 0 -77.5 31t-30.5 82z" />
<glyph unicode="j" horiz-adv-x="542" d="M-391 -471l33 143q35 -18 83 -29.5t93 -11.5q199 0 254 295l213 1098h174l-211 -1087q-45 -236 -148.5 -346.5t-281.5 -110.5q-59 0 -117.5 13t-91.5 36zM326 1411q0 57 36.5 95t94.5 38q47 0 77.5 -30.5t30.5 -81.5q0 -57 -37 -95.5t-94 -38.5q-47 0 -77.5 31t-30.5 82z " />
<glyph unicode="k" horiz-adv-x="1140" d="M86 0l322 1659h174l-203 -1049l516 414h240l-596 -467l481 -557h-225l-435 516l-100 -516h-174z" />
<glyph unicode="l" horiz-adv-x="542" d="M86 0l322 1659h174l-322 -1659h-174z" />
<glyph unicode="m" horiz-adv-x="1906" d="M86 0l199 1024h164l-29 -162q57 90 145 142.5t187 52.5q111 0 193.5 -60.5t111.5 -160.5q66 104 166 162.5t213 58.5q143 0 233 -93.5t90 -240.5q0 -51 -10 -100l-121 -623h-174l115 592q12 59 12 106q0 205 -207 205q-115 0 -204 -95t-117 -247l-109 -561h-174l115 592 q10 55 10 104q0 100 -51 153.5t-146 53.5q-119 0 -210 -94t-119 -248l-109 -561h-174z" />
<glyph unicode="n" horiz-adv-x="1236" d="M86 0l199 1024h164l-29 -162q57 90 149.5 142.5t196.5 52.5q143 0 233.5 -93.5t90.5 -240.5q0 -51 -11 -100l-121 -623h-174l115 592q12 59 12 106q0 205 -206 205q-123 0 -214.5 -92t-121.5 -250l-109 -561h-174z" />
<glyph unicode="o" horiz-adv-x="1265" d="M111 432q0 164 74.5 305.5t210.5 230.5t302 89q127 0 230.5 -57.5t165 -164t61.5 -243.5q0 -164 -74.5 -305.5t-211 -230.5t-302.5 -89q-127 0 -230.5 57.5t-164.5 164t-61 243.5zM287 444q0 -150 79 -235.5t216 -85.5q104 0 194 58.5t146.5 164t56.5 234.5 q0 150 -79 235.5t-216 85.5q-104 0 -194.5 -58.5t-146.5 -164t-56 -234.5z" />
<glyph unicode="p" horiz-adv-x="1323" d="M-12 -502l297 1526h170l-29 -164q59 88 160.5 142.5t206.5 54.5q190 0 304.5 -130t114.5 -343q0 -156 -73.5 -296.5t-204.5 -230.5t-285 -90q-125 0 -216 60.5t-136 175.5l-135 -705h-174zM344 444q0 -150 79 -235.5t216 -85.5q104 0 194.5 58.5t146.5 164t56 234.5 q0 150 -78.5 235.5t-216.5 85.5q-104 0 -194 -58.5t-146.5 -164t-56.5 -234.5z" />
<glyph unicode="q" horiz-adv-x="1320" d="M111 440q0 156 73.5 296.5t204.5 230.5t285 90q125 0 216 -62.5t134 -175.5l43 205h170l-297 -1526h-174l129 662q-57 -88 -156.5 -140.5t-208.5 -52.5q-190 0 -304.5 130t-114.5 343zM287 444q0 -150 79 -235.5t216 -85.5q104 0 194 58.5t146.5 164t56.5 234.5 q0 150 -79 235.5t-216 85.5q-104 0 -194.5 -58.5t-146.5 -164t-56 -234.5z" />
<glyph unicode="r" horiz-adv-x="835" d="M86 0l199 1024h164l-37 -211q55 106 138 165.5t173 59.5q82 0 137 -32l-35 -158q-57 29 -133 29q-121 0 -213 -112t-129 -300l-90 -465h-174z" />
<glyph unicode="s" horiz-adv-x="917" d="M35 86l37 147q149 -120 328 -120h3q94 0 149.5 40t55.5 109q0 55 -44 95t-161 92q-137 61 -195 129.5t-58 166.5q0 137 103 224.5t267 87.5q84 0 171 -26.5t151 -72.5l-33 -145q-150 98 -289 98q-92 0 -147.5 -41t-55.5 -106q0 -51 37 -87t127 -77q170 -78 236.5 -148.5 t66.5 -172.5q0 -141 -105.5 -226.5t-279.5 -85.5q-102 0 -203.5 33t-160.5 86z" />
<glyph unicode="t" horiz-adv-x="888" d="M90 874l29 150h229l58 295h174l-58 -295h324l-29 -150h-323l-99 -507q-10 -55 -10 -99q0 -76 37 -112.5t113 -36.5q53 0 98 10t102 37l8 -146q-100 -53 -235 -53q-145 0 -222 72t-77 207q0 57 12 121l98 507h-229z" />
<glyph unicode="u" horiz-adv-x="1228" d="M145 287q0 53 13 114l121 623h174l-119 -610q-10 -55 -10 -103q0 -190 188 -190q133 0 226 91t124 251l109 561h174l-199 -1024h-164l29 162q-59 -94 -150 -144.5t-202 -50.5q-143 0 -228.5 87t-85.5 233z" />
<glyph unicode="v" horiz-adv-x="1073" d="M139 1024h183l153 -827l467 827h188l-610 -1024h-170z" />
<glyph unicode="w" horiz-adv-x="1634" d="M150 1024h169l101 -831l407 831h152l106 -829l420 829h176l-548 -1024h-162l-109 817l-401 -817h-162z" />
<glyph unicode="x" horiz-adv-x="1064" d="M-47 0l481 543l-272 481h190l203 -391l330 391h192l-452 -508l290 -516h-190l-219 424l-361 -424h-192z" />
<glyph unicode="y" horiz-adv-x="1107" d="M-10 -502l395 604l-246 922h183l188 -750l467 750h188l-991 -1526h-184z" />
<glyph unicode="z" horiz-adv-x="1050" d="M6 0l25 147l717 727h-558l29 150h764l-25 -147l-718 -727h618l-29 -150h-823z" />
<glyph unicode="{" horiz-adv-x="856" d="M127 631l29 153h49q98 0 145 38t72 136q18 78 26.5 161t15.5 164t25.5 152.5t56.5 127t106.5 87t178.5 31.5q68 0 136 -14l-29 -143q-57 12 -98 12q-84 0 -128 -35t-62.5 -93t-23.5 -133t-10.5 -158t-25.5 -165q-47 -195 -213 -245q59 -14 94 -62.5t35 -116.5 q-2 -59 -22.5 -132.5t-47 -151.5t-47 -147.5t-22.5 -121.5q0 -66 37.5 -93t138.5 -32q45 0 63 3l-28 -146q-15 -2 -58 -2q-160 0 -240.5 63.5t-80.5 188.5q2 66 22.5 143.5t49 157.5t49 150.5t22.5 121.5q0 57 -33 79t-119 22h-63z" />
<glyph unicode="|" horiz-adv-x="645" d="M45 -465l434 2239h174l-434 -2239h-174z" />
<glyph unicode="}" horiz-adv-x="856" d="M-41 -281l29 144q57 -12 98 -13q84 0 128 35t62.5 93.5t23.5 133t10 157.5t26 165q47 195 213 246q-59 14 -94 62.5t-35 115.5q2 59 22.5 133t47 152t47 147.5t22.5 120.5q0 66 -38 93.5t-138 31.5q-45 0 -64 -2l29 145q14 2 58 2q160 0 240.5 -63.5t80.5 -187.5 q-2 -66 -22.5 -144t-49 -157.5t-49 -150.5t-22.5 -122q0 -57 32.5 -78.5t118.5 -21.5h64l-29 -154h-49q-98 0 -145.5 -38t-71.5 -136q-18 -78 -26.5 -161t-15.5 -163.5t-25.5 -152.5t-56.5 -127t-106.5 -87t-179.5 -32q-68 0 -135 14z" />
<glyph unicode="~" horiz-adv-x="1269" d="M127 510q29 178 117 280.5t215 102.5q59 0 109 -23.5t94.5 -56.5t83 -66.5t75.5 -57t74 -23.5q59 0 102 59t64 168h158q-29 -178 -117 -280.5t-215 -102.5q-59 0 -109.5 23.5t-94.5 57.5t-83 66.5t-76 56t-73 23.5q-59 0 -102.5 -59.5t-63.5 -167.5h-158z" />
<glyph unicode="&#xa1;" horiz-adv-x="636" d="M16 -594l220 1120h172l-220 -1120h-172zM260 891q0 63 42.5 104t105.5 41q51 0 85.5 -34.5t34.5 -86.5q0 -63 -42 -104t-103 -41q-53 0 -88 35t-35 86z" />
<glyph unicode="&#xa2;" horiz-adv-x="1269" d="M217 442q0 147 65.5 278.5t186.5 219.5t272 107l47 243h130l-48 -246q70 -8 137.5 -32.5t108.5 -55.5l-33 -149q-106 70 -243 86l-148 -764h37q57 0 128 18.5t122 47.5l4 -152q-45 -29 -128 -49.5t-159 -20.5h-34l-46 -239h-129l52 264q-154 43 -238 158.5t-84 285.5z M393 455q0 -217 176 -293l140 721q-141 -35 -228.5 -154t-87.5 -274z" />
<glyph unicode="&#xa3;" horiz-adv-x="1269" d="M70 0l30 154h195l102 516h-196l28 149h197l39 199q53 266 191.5 402t359.5 136q78 0 155.5 -23.5t126.5 -62.5l-34 -151q-125 80 -256 80q-156 0 -249 -100.5t-134 -307.5l-35 -172h424l-29 -149h-424l-100 -516h645l-31 -154h-1005z" />
<glyph unicode="&#xa4;" horiz-adv-x="1269" d="M139 416l183 196q-66 109 -66 242q0 137 66 244l-183 194l105 97l170 -185q59 49 133 76t153 27q78 0 152 -27t133 -78l172 187l105 -97l-185 -196q68 -104 68 -242q0 -133 -66 -242l183 -196l-105 -97l-170 185q-127 -102 -287 -103q-78 0 -152.5 27t-133.5 76 l-170 -185zM408 854q0 -141 81.5 -230t210.5 -89t211 89t82 230t-82 230.5t-211 89.5t-210.5 -89.5t-81.5 -230.5z" />
<glyph unicode="&#xa5;" horiz-adv-x="1269" d="M131 322l25 135h385l39 205h-385l26 135h309l-264 727h178l240 -717l520 717h193l-549 -727h307l-27 -135h-385l-38 -205h385l-25 -135h-387l-62 -322h-163l61 322h-383z" />
<glyph unicode="&#xa6;" horiz-adv-x="645" d="M45 -465l178 911h174l-178 -911h-174zM303 862l176 912h174l-176 -912h-174z" />
<glyph unicode="&#xa7;" horiz-adv-x="1003" d="M4 -135l39 143q78 -59 157 -86.5t171 -27.5q100 0 164.5 52t64.5 134q0 72 -46 118t-181 109q-123 57 -179.5 133t-56.5 183q0 135 85 233t220 121q-154 84 -153 246q0 143 100 227t273 84q82 0 171 -27.5t148 -72.5l-35 -142q-152 100 -293 101q-92 0 -147 -41t-55 -111 q0 -63 40.5 -106t143.5 -88q150 -68 216.5 -147t66.5 -189q0 -131 -79 -226.5t-214 -128.5q72 -43 109.5 -110.5t37.5 -149.5q0 -154 -115 -249t-301 -95q-98 0 -196.5 32t-155.5 81zM293 633q0 -86 57.5 -140.5t145.5 -54.5q113 0 188.5 75t75.5 185q0 86 -57.5 140.5 t-145.5 54.5q-113 0 -188.5 -75t-75.5 -185z" />
<glyph unicode="&#xa8;" horiz-adv-x="1024" d="M383 1413q0 55 35 91t88 36q45 0 73.5 -28.5t28.5 -75.5q0 -55 -35 -91t-88 -36q-45 0 -73.5 28.5t-28.5 75.5zM770 1413q0 55 35 91t88 36q45 0 73.5 -28.5t28.5 -75.5q0 -55 -35 -91t-88 -36q-45 0 -73.5 28.5t-28.5 75.5z" />
<glyph unicode="&#xa9;" horiz-adv-x="1662" d="M160 778q0 195 91 360t258 264t376 99q197 0 361.5 -91t264 -257t99.5 -375q0 -195 -91.5 -359.5t-258 -264t-375.5 -99.5q-197 0 -362 91.5t-264 257t-99 374.5zM303 778q0 -164 70.5 -297t204 -212t307.5 -79q164 0 296 73t208.5 207t76.5 308q0 164 -70.5 297 t-203.5 212t-307 79q-164 0 -296 -72.5t-209 -207t-77 -308.5zM532 780q0 172 109 279.5t281 107.5q55 0 111.5 -12t96.5 -35l-24 -143q-39 20 -92 33.5t-94 13.5q-98 0 -163 -67.5t-65 -170.5q0 -106 65.5 -170.5t172.5 -64.5q76 0 194 43l25 -139q-106 -47 -221 -47 q-182 0 -289 100t-107 272z" />
<glyph unicode="&#xaa;" horiz-adv-x="931" d="M168 555l25 129h649l-25 -129h-649zM231 1137q0 106 49.5 201.5t137.5 156.5t192 61q78 0 137.5 -36.5t86.5 -102.5l26 119h133l-133 -680h-133l16 102q-43 -59 -106 -91.5t-137 -32.5q-119 0 -194 83.5t-75 219.5zM381 1141q0 -84 46 -130t132 -46q63 0 118.5 36.5 t89.5 102t34 145.5q0 84 -47 130t-131 46q-63 0 -118.5 -36.5t-89.5 -102t-34 -145.5z" />
<glyph unicode="&#xab;" horiz-adv-x="1091" d="M66 526l376 439h209l-389 -453l199 -424h-191zM490 526l376 439h209l-389 -453l199 -424h-191z" />
<glyph unicode="&#xac;" horiz-adv-x="1269" d="M233 657l31 160h860l-92 -479h-166l62 319h-695z" />
<glyph unicode="&#xad;" horiz-adv-x="899" d="M152 502l34 174h590l-35 -174h-589z" />
<glyph unicode="&#xae;" horiz-adv-x="1056" d="M231 1241q0 117 55.5 216t157 160.5t226.5 61.5q119 0 218 -56t159.5 -156.5t60.5 -225.5q0 -117 -55.5 -216t-156.5 -160.5t-226 -61.5q-117 0 -216.5 56t-161 156.5t-61.5 225.5zM336 1241q0 -92 42 -170t119 -124t173 -46q68 0 127 23.5t105 68.5t74 108.5t28 139.5 q0 92 -42 170t-119 124t-173 46q-68 0 -127.5 -23.5t-105.5 -68.5t-73.5 -108.5t-27.5 -139.5zM516 1044v414h141q84 0 131.5 -36t47.5 -101q0 -90 -72 -125l94 -152h-104l-76 132h-68v-132h-94zM610 1262h49q41 0 58.5 13t17.5 44q0 53 -76 53h-49v-110z" />
<glyph unicode="&#xaf;" horiz-adv-x="1024" d="M360 1325l27 150h623l-27 -150h-623z" />
<glyph unicode="&#xb0;" horiz-adv-x="1038" d="M311 1237q0 92 44 172t125 129t179 49q94 0 173 -44t127.5 -125t48.5 -181q0 -92 -45 -171t-125.5 -128t-178.5 -49q-96 0 -174.5 44t-126 124t-47.5 180zM465 1237q0 -90 54 -147.5t140 -57.5t140.5 57.5t54.5 147.5t-54.5 148.5t-140.5 58.5t-140 -58.5t-54 -148.5z " />
<glyph unicode="&#xb1;" horiz-adv-x="1269" d="M86 2l30 160h910l-31 -160h-909zM222 715l30 160h371l80 405h168l-80 -405h371l-31 -160h-371l-80 -405h-168l80 405h-370z" />
<glyph unicode="&#xb2;" d="M198 934l23 133q213 164 293 234q98 84 138 143t40 117q0 45 -34 72.5t-91 27.5q-59 0 -118.5 -29.5t-102.5 -79.5l-25 127q41 51 113 81t149 30q115 0 183.5 -60.5t68.5 -162.5q0 -82 -52 -161t-179 -191q-92 -80 -207 -152h397l-26 -129h-570z" />
<glyph unicode="&#xb3;" d="M190 997l31 125q47 -39 106.5 -62.5t116.5 -23.5q88 0 144.5 47.5t56.5 116.5q0 59 -39 91t-111 32q-35 0 -71 -12l-31 86l279 246h-359l31 127h518l-23 -119l-256 -225q96 -8 152.5 -69t56.5 -153q0 -127 -97 -208.5t-249 -81.5q-74 0 -145.5 23.5t-110.5 59.5z" />
<glyph unicode="&#xb4;" horiz-adv-x="1024" d="M441 1249l270 334h223l-323 -334h-170z" />
<glyph unicode="&#xb5;" horiz-adv-x="1208" d="M-39 -502l297 1526h174l-115 -592q-10 -55 -10 -104q0 -207 201 -207q123 0 213 92t121 250l108 561h174l-198 -1024h-164l26 152q-57 -88 -141 -136.5t-182 -48.5q-80 0 -137.5 36t-75.5 97l-117 -602h-174z" />
<glyph unicode="&#xb6;" horiz-adv-x="1259" d="M207 1081q0 215 139 345t369 130h563l-354 -1822h-162l325 1679h-215l-325 -1679h-162l197 1011q-176 0 -275.5 89.5t-99.5 246.5z" />
<glyph unicode="&#xb7;" horiz-adv-x="593" d="M215 764q0 63 42 104t103 41q53 0 88 -35t35 -86q0 -63 -42 -104t-105 -41q-51 0 -86 34.5t-35 86.5z" />
<glyph unicode="&#xb8;" horiz-adv-x="1024" d="M100 -477l29 121q33 -16 76 -27.5t80 -11.5q135 0 135 90q0 70 -109 69q-53 0 -86 -8l107 264h135l-66 -155q76 -6 121 -51t45 -119q0 -102 -73.5 -159.5t-206.5 -57.5q-53 0 -104.5 12t-82.5 33z" />
<glyph unicode="&#xb9;" d="M356 1503l6 140l295 127h121l-164 -836h-141l131 676z" />
<glyph unicode="&#xba;" horiz-adv-x="913" d="M164 555l24 129h650l-25 -129h-649zM233 1151q0 109 51.5 201t143.5 148t205 56q141 0 226 -86t85 -229q0 -109 -51 -201t-143 -148t-205 -56q-141 0 -226.5 86t-85.5 229zM383 1153q0 -92 45 -142t129 -50q98 0 168 81.5t70 196.5q0 92 -45 142.5t-129 50.5 q-98 0 -168 -82t-70 -197z" />
<glyph unicode="&#xbb;" horiz-adv-x="1091" d="M23 88l389 451l-199 426h190l205 -439l-377 -438h-208zM447 88l389 451l-199 426h190l205 -439l-377 -438h-208z" />
<glyph unicode="&#xbc;" horiz-adv-x="1906" d="M250 0l1415 1524h199l-1415 -1524h-199zM309 1257l6 140l295 127h121l-164 -836h-141l131 676zM1120 195l20 114l492 527h141l-100 -523h117l-23 -118h-117l-37 -195h-133l37 195h-397zM1286 313h256l65 342z" />
<glyph unicode="&#xbd;" horiz-adv-x="1906" d="M155 0l1415 1524h199l-1415 -1524h-199zM309 1257l6 140l295 127h121l-164 -836h-141l131 676zM1140 0l23 133q213 164 293 234q98 84 138 143t40 117q0 45 -34 72.5t-91 27.5q-59 0 -118.5 -29.5t-102.5 -79.5l-25 127q41 51 113 81t149 30q115 0 183.5 -60.5 t68.5 -162.5q0 -82 -52 -161t-179 -191q-92 -80 -207 -152h397l-26 -129h-570z" />
<glyph unicode="&#xbe;" horiz-adv-x="1906" d="M143 751l31 125q47 -39 106.5 -62.5t116.5 -23.5q88 0 144.5 47.5t56.5 116.5q0 59 -39 91t-111 32q-35 0 -71 -12l-31 86l279 246h-359l31 127h518l-23 -119l-256 -225q96 -8 152.5 -69t56.5 -153q0 -127 -97 -208.5t-249 -81.5q-74 0 -145.5 23.5t-110.5 59.5zM262 0 l1415 1524h199l-1415 -1524h-199zM1120 195l20 114l492 527h141l-100 -523h117l-23 -118h-117l-37 -195h-133l37 195h-397zM1286 313h256l65 342z" />
<glyph unicode="&#xbf;" horiz-adv-x="954" d="M-72 -274q2 106 39 183t95.5 135t126 108.5t129 102.5t102.5 117.5t49 153.5h160q-8 -111 -49 -191.5t-100.5 -141t-124 -110.5t-122 -99.5t-92.5 -108.5t-37 -137q0 -88 64.5 -139.5t169.5 -51.5q100 0 200.5 49.5t174.5 133.5l28 -156q-63 -82 -179.5 -134t-235.5 -52 q-111 0 -202 42t-143.5 117.5t-52.5 178.5zM471 891q0 63 43 104t104 41q51 0 86 -33.5t35 -87.5q0 -63 -42 -104t-103 -41q-53 0 -88 35t-35 86z" />
<glyph unicode="&#xc0;" horiz-adv-x="1531" d="M-49 0l913 1556h203l313 -1556h-192l-86 471h-686l-269 -471h-196zM504 625h569l-139 753zM750 1974h213l168 -264h-172z" />
<glyph unicode="&#xc1;" horiz-adv-x="1531" d="M-49 0l913 1556h203l313 -1556h-192l-86 471h-686l-269 -471h-196zM504 625h569l-139 753zM830 1710l262 264h246l-320 -264h-188z" />
<glyph unicode="&#xc2;" horiz-adv-x="1531" d="M-49 0l913 1556h203l313 -1556h-192l-86 471h-686l-269 -471h-196zM504 625h569l-139 753zM621 1710l336 291h158l227 -291h-178l-138 180l-206 -180h-199z" />
<glyph unicode="&#xc3;" horiz-adv-x="1531" d="M-49 0l913 1556h203l313 -1556h-192l-86 471h-686l-269 -471h-196zM504 625h569l-139 753zM641 1710q16 133 77 206t155 73q57 -2 95 -22.5t65.5 -48.5t53 -48.5t58.5 -22.5q41 0 63.5 32t37.5 108h131q-16 -133 -77 -206t-155 -73q-57 2 -95 22.5t-65.5 48t-53 48 t-58.5 22.5q-41 0 -63.5 -31.5t-36.5 -107.5h-132z" />
<glyph unicode="&#xc4;" horiz-adv-x="1531" d="M-49 0l913 1556h203l313 -1556h-192l-86 471h-686l-269 -471h-196zM504 625h569l-139 753zM697 1802q0 55 34.5 91t88.5 36q45 0 73.5 -28.5t28.5 -75.5q0 -55 -35 -91t-88 -36q-45 0 -73.5 28.5t-28.5 75.5zM1084 1802q0 55 34.5 91t88.5 36q45 0 73.5 -28.5t28.5 -75.5 q0 -55 -35 -91t-88 -36q-45 0 -73.5 28.5t-28.5 75.5z" />
<glyph unicode="&#xc5;" horiz-adv-x="1531" d="M-49 0l913 1556h203l313 -1556h-192l-86 471h-686l-269 -471h-196zM504 625h569l-139 753zM758 1929q0 109 77 181.5t189 72.5q113 0 189.5 -72.5t76.5 -181.5t-76.5 -181.5t-189.5 -72.5t-189.5 73t-76.5 181zM885 1929q0 -63 38 -101t101 -38t101 38t38 101 q0 66 -36.5 102.5t-102.5 36.5q-63 0 -101 -37.5t-38 -101.5z" />
<glyph unicode="&#xc6;" horiz-adv-x="2238" d="M-78 0l1309 1556h995l-31 -157h-733l-102 -520h651l-31 -158h-651l-108 -563h794l-30 -158h-979l90 471h-566l-391 -471h-217zM657 625h469l144 737z" />
<glyph unicode="&#xc7;" horiz-adv-x="1538" d="M166 696q0 233 110.5 434t312.5 325t449 124q137 0 269.5 -38t230.5 -105l-43 -160q-229 135 -471 135q-174 0 -325.5 -90t-246 -253t-94.5 -359q0 -162 68 -289t193.5 -201t291.5 -74q227 0 439 117l4 -174q-207 -111 -451 -111q-211 0 -378 87.5t-263 251t-96 380.5z M432 -477l29 123q33 -16 76 -27.5t80 -11.5q137 0 137 88q0 33 -28.5 50t-82.5 17q-51 0 -84 -8l109 266h135l-65 -155q76 -8 119.5 -53t43.5 -115q0 -100 -76.5 -159.5t-205.5 -59.5q-53 0 -104.5 12t-82.5 33z" />
<glyph unicode="&#xc8;" horiz-adv-x="1347" d="M115 0l303 1556h917l-30 -157h-734l-102 -520h651l-30 -158h-652l-108 -563h794l-30 -158h-979zM680 1974h213l168 -264h-172z" />
<glyph unicode="&#xc9;" horiz-adv-x="1347" d="M115 0l303 1556h917l-30 -157h-734l-102 -520h651l-30 -158h-652l-108 -563h794l-30 -158h-979zM760 1710l262 264h246l-320 -264h-188z" />
<glyph unicode="&#xca;" horiz-adv-x="1347" d="M115 0l303 1556h917l-30 -157h-734l-102 -520h651l-30 -158h-652l-108 -563h794l-30 -158h-979zM551 1710l336 291h158l227 -291h-178l-138 180l-206 -180h-199z" />
<glyph unicode="&#xcb;" horiz-adv-x="1347" d="M115 0l303 1556h917l-30 -157h-734l-102 -520h651l-30 -158h-652l-108 -563h794l-30 -158h-979zM627 1802q0 55 34.5 91t88.5 36q45 0 73.5 -28.5t28.5 -75.5q0 -55 -35 -91t-88 -36q-45 0 -73.5 28.5t-28.5 75.5zM1014 1802q0 55 34.5 91t88.5 36q45 0 73.5 -28.5 t28.5 -75.5q0 -55 -35 -91t-88 -36q-45 0 -73.5 28.5t-28.5 75.5z" />
<glyph unicode="&#xcc;" horiz-adv-x="614" d="M115 0l303 1556h184l-303 -1556h-184zM297 1974h213l168 -264h-172z" />
<glyph unicode="&#xcd;" horiz-adv-x="614" d="M115 0l303 1556h184l-303 -1556h-184zM377 1710l262 264h246l-320 -264h-188z" />
<glyph unicode="&#xce;" horiz-adv-x="614" d="M115 0l303 1556h184l-303 -1556h-184zM168 1710l336 291h158l227 -291h-178l-138 180l-206 -180h-199z" />
<glyph unicode="&#xcf;" horiz-adv-x="614" d="M115 0l303 1556h184l-303 -1556h-184zM244 1802q0 55 34.5 91t88.5 36q45 0 73.5 -28.5t28.5 -75.5q0 -55 -35 -91t-88 -36q-45 0 -73.5 28.5t-28.5 75.5zM631 1802q0 55 34.5 91t88.5 36q45 0 73.5 -28.5t28.5 -75.5q0 -55 -35 -91t-88 -36q-45 0 -73.5 28.5t-28.5 75.5 z" />
<glyph unicode="&#xd0;" horiz-adv-x="1718" d="M57 713l29 143h215l137 700h500q217 0 380 -79.5t253 -231t90 -362.5q0 -250 -117 -450t-333 -316.5t-496 -116.5h-580l139 713h-217zM350 158h377q215 0 383 87t263 250.5t95 378.5q0 250 -144 387.5t-406 137.5h-326l-107 -543h363l-29 -143h-360z" />
<glyph unicode="&#xd1;" horiz-adv-x="1734" d="M115 0l303 1556h174l706 -1304l254 1304h170l-303 -1556h-174l-706 1305l-254 -1305h-170zM743 1710q16 133 77 206t155 73q57 -2 95 -22.5t65.5 -48.5t53 -48.5t58.5 -22.5q41 0 63.5 32t37.5 108h131q-16 -133 -77 -206t-155 -73q-57 2 -95 22.5t-65.5 48t-53 48 t-58.5 22.5q-41 0 -63.5 -31.5t-36.5 -107.5h-132z" />
<glyph unicode="&#xd2;" horiz-adv-x="1798" d="M162 672q0 238 111.5 446.5t312 339.5t444.5 131q199 0 359.5 -88t256 -248.5t95.5 -367.5q0 -238 -111.5 -447t-312.5 -340t-445 -131q-199 0 -359.5 88t-255.5 249t-95 368zM354 690q0 -166 64.5 -291t185.5 -194.5t287 -69.5q170 0 319.5 94.5t243.5 263.5t94 373 q0 166 -64.5 291t-185 194.5t-286.5 69.5q-170 0 -319.5 -94t-244 -263t-94.5 -374zM856 1974h213l168 -264h-172z" />
<glyph unicode="&#xd3;" horiz-adv-x="1798" d="M162 672q0 238 111.5 446.5t312 339.5t444.5 131q199 0 359.5 -88t256 -248.5t95.5 -367.5q0 -238 -111.5 -447t-312.5 -340t-445 -131q-199 0 -359.5 88t-255.5 249t-95 368zM354 690q0 -166 64.5 -291t185.5 -194.5t287 -69.5q170 0 319.5 94.5t243.5 263.5t94 373 q0 166 -64.5 291t-185 194.5t-286.5 69.5q-170 0 -319.5 -94t-244 -263t-94.5 -374zM936 1710l262 264h246l-320 -264h-188z" />
<glyph unicode="&#xd4;" horiz-adv-x="1798" d="M162 672q0 238 111.5 446.5t312 339.5t444.5 131q199 0 359.5 -88t256 -248.5t95.5 -367.5q0 -238 -111.5 -447t-312.5 -340t-445 -131q-199 0 -359.5 88t-255.5 249t-95 368zM354 690q0 -166 64.5 -291t185.5 -194.5t287 -69.5q170 0 319.5 94.5t243.5 263.5t94 373 q0 166 -64.5 291t-185 194.5t-286.5 69.5q-170 0 -319.5 -94t-244 -263t-94.5 -374zM727 1710l336 291h158l227 -291h-178l-138 180l-206 -180h-199z" />
<glyph unicode="&#xd5;" horiz-adv-x="1798" d="M162 672q0 238 111.5 446.5t312 339.5t444.5 131q199 0 359.5 -88t256 -248.5t95.5 -367.5q0 -238 -111.5 -447t-312.5 -340t-445 -131q-199 0 -359.5 88t-255.5 249t-95 368zM354 690q0 -166 64.5 -291t185.5 -194.5t287 -69.5q170 0 319.5 94.5t243.5 263.5t94 373 q0 166 -64.5 291t-185 194.5t-286.5 69.5q-170 0 -319.5 -94t-244 -263t-94.5 -374zM747 1710q16 133 77 206t155 73q57 -2 95 -22.5t65.5 -48.5t53 -48.5t58.5 -22.5q41 0 63.5 32t37.5 108h131q-16 -133 -77 -206t-155 -73q-57 2 -95 22.5t-65.5 48t-53 48t-58.5 22.5 q-41 0 -63.5 -31.5t-36.5 -107.5h-132z" />
<glyph unicode="&#xd6;" horiz-adv-x="1798" d="M162 672q0 238 111.5 446.5t312 339.5t444.5 131q199 0 359.5 -88t256 -248.5t95.5 -367.5q0 -238 -111.5 -447t-312.5 -340t-445 -131q-199 0 -359.5 88t-255.5 249t-95 368zM354 690q0 -166 64.5 -291t185.5 -194.5t287 -69.5q170 0 319.5 94.5t243.5 263.5t94 373 q0 166 -64.5 291t-185 194.5t-286.5 69.5q-170 0 -319.5 -94t-244 -263t-94.5 -374zM803 1802q0 55 34.5 91t88.5 36q45 0 73.5 -28.5t28.5 -75.5q0 -55 -35 -91t-88 -36q-45 0 -73.5 28.5t-28.5 75.5zM1190 1802q0 55 34.5 91t88.5 36q45 0 73.5 -28.5t28.5 -75.5 q0 -55 -35 -91t-88 -36q-45 0 -73.5 28.5t-28.5 75.5z" />
<glyph unicode="&#xd7;" horiz-adv-x="1269" d="M221 375l344 309l-235 309l129 101l225 -308l334 308l96 -107l-346 -309l238 -309l-129 -101l-226 305l-334 -305z" />
<glyph unicode="&#xd8;" horiz-adv-x="1798" d="M109 78l182 172q-129 180 -129 422q0 238 111.5 446.5t312 339.5t444.5 131q137 0 263 -46t223 -132l184 174l96 -108l-184 -174q129 -180 129 -418t-111.5 -447t-312.5 -340t-445 -131q-139 0 -264 45t-221 131l-182 -174zM354 690q0 -176 74 -309l956 905 q-145 135 -372 135q-170 0 -319.5 -94t-244 -263t-94.5 -374zM518 266q144 -131 373 -131q170 0 319.5 94.5t243.5 263.5t94 373q0 176 -73 308z" />
<glyph unicode="&#xd9;" horiz-adv-x="1693" d="M219 500q0 84 21 192l168 864h184l-166 -851q-18 -100 -18 -181q0 -190 102 -289.5t297 -99.5q154 0 257 58.5t169.5 180.5t105.5 318l168 864h185l-179 -915q-66 -340 -244.5 -507t-475.5 -167q-272 0 -423 139.5t-151 393.5zM817 1974h213l168 -264h-172z" />
<glyph unicode="&#xda;" horiz-adv-x="1693" d="M219 500q0 84 21 192l168 864h184l-166 -851q-18 -100 -18 -181q0 -190 102 -289.5t297 -99.5q154 0 257 58.5t169.5 180.5t105.5 318l168 864h185l-179 -915q-66 -340 -244.5 -507t-475.5 -167q-272 0 -423 139.5t-151 393.5zM897 1710l262 264h246l-320 -264h-188z" />
<glyph unicode="&#xdb;" horiz-adv-x="1693" d="M219 500q0 84 21 192l168 864h184l-166 -851q-18 -100 -18 -181q0 -190 102 -289.5t297 -99.5q154 0 257 58.5t169.5 180.5t105.5 318l168 864h185l-179 -915q-66 -340 -244.5 -507t-475.5 -167q-272 0 -423 139.5t-151 393.5zM688 1710l336 291h158l227 -291h-178 l-138 180l-206 -180h-199z" />
<glyph unicode="&#xdc;" horiz-adv-x="1693" d="M219 500q0 84 21 192l168 864h184l-166 -851q-18 -100 -18 -181q0 -190 102 -289.5t297 -99.5q154 0 257 58.5t169.5 180.5t105.5 318l168 864h185l-179 -915q-66 -340 -244.5 -507t-475.5 -167q-272 0 -423 139.5t-151 393.5zM764 1802q0 55 34.5 91t88.5 36 q45 0 73.5 -28.5t28.5 -75.5q0 -55 -35 -91t-88 -36q-45 0 -73.5 28.5t-28.5 75.5zM1151 1802q0 55 34.5 91t88.5 36q45 0 73.5 -28.5t28.5 -75.5q0 -55 -35 -91t-88 -36q-45 0 -73.5 28.5t-28.5 75.5z" />
<glyph unicode="&#xdd;" horiz-adv-x="1396" d="M233 1556h195l324 -741l614 741h203l-754 -892l-129 -664h-184l131 676zM760 1710l262 264h246l-320 -264h-188z" />
<glyph unicode="&#xde;" horiz-adv-x="1265" d="M115 0l303 1556h178l-53 -276h188q236 0 369 -108.5t133 -301.5q0 -162 -73 -286.5t-210 -195.5t-321 -71h-275l-61 -317h-178zM385 471h254q193 0 301.5 102.5t108.5 282.5q0 131 -89.5 200.5t-254.5 69.5h-193z" />
<glyph unicode="&#xdf;" horiz-adv-x="1323" d="M86 0l223 1151q49 252 188.5 385t352.5 133q117 0 209 -44t144 -128t52 -192q0 -102 -37.5 -189.5t-108.5 -151t-165 -90.5q115 -31 188.5 -136t73.5 -238q0 -152 -65.5 -273t-189 -190.5t-287.5 -69.5q-80 0 -156 21.5t-125 56.5l37 145q102 -78 246 -77q102 0 184 48 t131 136t49 203q0 295 -371 295h-28l28 147h78q145 0 244.5 100.5t99.5 245.5q0 104 -65.5 166t-177.5 62q-283 0 -359 -394l-219 -1122h-174z" />
<glyph unicode="&#xe0;" horiz-adv-x="1320" d="M111 440q0 156 73.5 296.5t204.5 230.5t285 90q125 0 216 -62.5t134 -175.5l43 205h170l-199 -1024h-170l29 162q-57 -88 -159 -141.5t-208 -53.5q-190 0 -304.5 130t-114.5 343zM287 444q0 -150 79 -235.5t216 -85.5q104 0 194 58.5t146.5 164t56.5 234.5 q0 150 -79 235.5t-216 85.5q-104 0 -194.5 -58.5t-146.5 -164t-56 -234.5zM574 1583h188l152 -334h-152z" />
<glyph unicode="&#xe1;" horiz-adv-x="1320" d="M111 440q0 156 73.5 296.5t204.5 230.5t285 90q125 0 216 -62.5t134 -175.5l43 205h170l-199 -1024h-170l29 162q-57 -88 -159 -141.5t-208 -53.5q-190 0 -304.5 130t-114.5 343zM287 444q0 -150 79 -235.5t216 -85.5q104 0 194 58.5t146.5 164t56.5 234.5 q0 150 -79 235.5t-216 85.5q-104 0 -194.5 -58.5t-146.5 -164t-56 -234.5zM647 1249l270 334h223l-323 -334h-170z" />
<glyph unicode="&#xe2;" horiz-adv-x="1320" d="M111 440q0 156 73.5 296.5t204.5 230.5t285 90q125 0 216 -62.5t134 -175.5l43 205h170l-199 -1024h-170l29 162q-57 -88 -159 -141.5t-208 -53.5q-190 0 -304.5 130t-114.5 343zM287 444q0 -150 79 -235.5t216 -85.5q104 0 194 58.5t146.5 164t56.5 234.5 q0 150 -79 235.5t-216 85.5q-104 0 -194.5 -58.5t-146.5 -164t-56 -234.5zM446 1249l346 334h144l215 -334h-158l-141 219l-226 -219h-180z" />
<glyph unicode="&#xe3;" horiz-adv-x="1320" d="M111 440q0 156 73.5 296.5t204.5 230.5t285 90q125 0 216 -62.5t134 -175.5l43 205h170l-199 -1024h-170l29 162q-57 -88 -159 -141.5t-208 -53.5q-190 0 -304.5 130t-114.5 343zM287 444q0 -150 79 -235.5t216 -85.5q104 0 194 58.5t146.5 164t56.5 234.5 q0 150 -79 235.5t-216 85.5q-104 0 -194.5 -58.5t-146.5 -164t-56 -234.5zM462 1274q16 133 77 205.5t155 72.5q57 -2 95 -22.5t65.5 -48t53.5 -48t58 -22.5q41 0 63.5 32t37.5 107h131q-16 -133 -77 -205.5t-155 -72.5q-57 2 -95 22.5t-65.5 48t-53 48t-58.5 22.5 q-41 0 -63.5 -31.5t-36.5 -107.5h-132z" />
<glyph unicode="&#xe4;" horiz-adv-x="1320" d="M111 440q0 156 73.5 296.5t204.5 230.5t285 90q125 0 216 -62.5t134 -175.5l43 205h170l-199 -1024h-170l29 162q-57 -88 -159 -141.5t-208 -53.5q-190 0 -304.5 130t-114.5 343zM287 444q0 -150 79 -235.5t216 -85.5q104 0 194 58.5t146.5 164t56.5 234.5 q0 150 -79 235.5t-216 85.5q-104 0 -194.5 -58.5t-146.5 -164t-56 -234.5zM526 1413q0 55 35 91t88 36q45 0 73.5 -28.5t28.5 -75.5q0 -55 -35 -91t-88 -36q-45 0 -73.5 28.5t-28.5 75.5zM913 1413q0 55 35 91t88 36q45 0 73.5 -28.5t28.5 -75.5q0 -55 -35 -91t-88 -36 q-45 0 -73.5 28.5t-28.5 75.5z" />
<glyph unicode="&#xe5;" horiz-adv-x="1320" d="M111 440q0 156 73.5 296.5t204.5 230.5t285 90q125 0 216 -62.5t134 -175.5l43 205h170l-199 -1024h-170l29 162q-57 -88 -159 -141.5t-208 -53.5q-190 0 -304.5 130t-114.5 343zM287 444q0 -150 79 -235.5t216 -85.5q104 0 194 58.5t146.5 164t56.5 234.5 q0 150 -79 235.5t-216 85.5q-104 0 -194.5 -58.5t-146.5 -164t-56 -234.5zM562 1458q0 109 76.5 181.5t189.5 72.5t189.5 -72.5t76.5 -181.5t-76.5 -181.5t-189.5 -72.5t-189.5 73t-76.5 181zM689 1458q0 -63 38 -101t101 -38t101 38t38 101q0 66 -37 102.5t-102 36.5 q-63 0 -101 -37.5t-38 -101.5z" />
<glyph unicode="&#xe6;" horiz-adv-x="2048" d="M111 440q0 156 73.5 296.5t204.5 230.5t285 90q119 0 207 -56.5t135 -158.5l39 182h139l-31 -154q59 88 155.5 137.5t209.5 49.5q117 0 210 -50.5t147 -143.5t54 -216q0 -90 -26 -190h-791q0 -334 377 -334q154 0 309 76l4 -154q-57 -35 -152 -56.5t-187 -21.5 q-154 0 -264.5 52.5t-166.5 152.5l-32 -172h-140l29 166q-55 -88 -157.5 -143.5t-211.5 -55.5q-190 0 -304.5 130t-114.5 343zM287 444q0 -150 79 -235.5t216 -85.5q104 0 194 58.5t146.5 164t56.5 234.5q0 150 -79 235.5t-216 85.5q-104 0 -194.5 -58.5t-146.5 -164 t-56 -234.5zM1139 594h624q4 29 4 55q0 123 -66.5 190.5t-187.5 67.5q-133 0 -234 -85t-140 -228z" />
<glyph unicode="&#xe7;" horiz-adv-x="1089" d="M111 442q0 162 76.5 300.5t215 223.5t308.5 85q88 0 173 -25t146 -65l-33 -154q-59 41 -139 64.5t-151 23.5q-115 0 -210.5 -55.5t-152.5 -156.5t-57 -228q0 -154 94 -240t262 -86q57 0 128 18.5t122 47.5l4 -152q-45 -29 -128 -49.5t-159 -20.5q-231 0 -365 126 t-134 343zM229 -477l29 121q33 -16 76 -27.5t80 -11.5q135 0 135 90q0 70 -109 69q-53 0 -86 -8l107 264h135l-66 -155q76 -6 121 -51t45 -119q0 -102 -73.5 -159.5t-206.5 -57.5q-53 0 -104.5 12t-82.5 33z" />
<glyph unicode="&#xe8;" horiz-adv-x="1208" d="M113 438q0 164 72.5 304.5t205.5 227.5t297 87q117 0 210 -50.5t147.5 -143.5t54.5 -216q0 -90 -27 -190h-790q0 -334 376 -334q154 0 310 76l4 -154q-57 -35 -152.5 -56.5t-187.5 -21.5q-244 0 -382 125t-138 346zM301 594h623q4 29 4 55q0 123 -66.5 190.5t-187.5 67.5 q-129 0 -231.5 -87t-141.5 -226zM496 1583h188l152 -334h-152z" />
<glyph unicode="&#xe9;" horiz-adv-x="1208" d="M113 438q0 164 72.5 304.5t205.5 227.5t297 87q117 0 210 -50.5t147.5 -143.5t54.5 -216q0 -90 -27 -190h-790q0 -334 376 -334q154 0 310 76l4 -154q-57 -35 -152.5 -56.5t-187.5 -21.5q-244 0 -382 125t-138 346zM301 594h623q4 29 4 55q0 123 -66.5 190.5t-187.5 67.5 q-129 0 -231.5 -87t-141.5 -226zM570 1249l270 334h223l-323 -334h-170z" />
<glyph unicode="&#xea;" horiz-adv-x="1208" d="M113 438q0 164 72.5 304.5t205.5 227.5t297 87q117 0 210 -50.5t147.5 -143.5t54.5 -216q0 -90 -27 -190h-790q0 -334 376 -334q154 0 310 76l4 -154q-57 -35 -152.5 -56.5t-187.5 -21.5q-244 0 -382 125t-138 346zM301 594h623q4 29 4 55q0 123 -66.5 190.5t-187.5 67.5 q-129 0 -231.5 -87t-141.5 -226zM369 1249l346 334h144l215 -334h-158l-141 219l-226 -219h-180z" />
<glyph unicode="&#xeb;" horiz-adv-x="1208" d="M113 438q0 164 72.5 304.5t205.5 227.5t297 87q117 0 210 -50.5t147.5 -143.5t54.5 -216q0 -90 -27 -190h-790q0 -334 376 -334q154 0 310 76l4 -154q-57 -35 -152.5 -56.5t-187.5 -21.5q-244 0 -382 125t-138 346zM301 594h623q4 29 4 55q0 123 -66.5 190.5t-187.5 67.5 q-129 0 -231.5 -87t-141.5 -226zM449 1413q0 55 35 91t88 36q45 0 73.5 -28.5t28.5 -75.5q0 -55 -35 -91t-88 -36q-45 0 -73.5 28.5t-28.5 75.5zM836 1413q0 55 35 91t88 36q45 0 73.5 -28.5t28.5 -75.5q0 -55 -35 -91t-88 -36q-45 0 -73.5 28.5t-28.5 75.5z" />
<glyph unicode="&#xec;" horiz-adv-x="542" d="M86 0l199 1024h174l-199 -1024h-174zM178 1583h188l152 -334h-152z" />
<glyph unicode="&#xed;" horiz-adv-x="542" d="M86 0l199 1024h174l-199 -1024h-174zM252 1249l270 334h223l-323 -334h-170z" />
<glyph unicode="&#xee;" horiz-adv-x="542" d="M51 1249l346 334h144l215 -334h-158l-141 219l-226 -219h-180zM86 0l199 1024h174l-199 -1024h-174z" />
<glyph unicode="&#xef;" horiz-adv-x="542" d="M86 0l199 1024h174l-199 -1024h-174zM131 1413q0 55 35 91t88 36q45 0 73.5 -28.5t28.5 -75.5q0 -55 -35 -91t-88 -36q-45 0 -73.5 28.5t-28.5 75.5zM518 1413q0 55 35 91t88 36q45 0 73.5 -28.5t28.5 -75.5q0 -55 -35 -91t-88 -36q-45 0 -73.5 28.5t-28.5 75.5z" />
<glyph unicode="&#xf0;" horiz-adv-x="1302" d="M111 432q0 117 38.5 226.5t112.5 198.5t176.5 144.5t216.5 55.5q109 0 192 -44t126 -124q-47 233 -170 426l-324 -148l-55 119l301 139q-90 111 -209 211l199 17q78 -66 153 -162l244 113l55 -121l-219 -101q209 -330 209 -706q0 -199 -71.5 -359.5t-202.5 -255 t-303 -94.5q-215 0 -342 126t-127 339zM287 444q0 -150 79 -235.5t216 -85.5q104 0 194 58.5t146.5 164t56.5 234.5q0 150 -79 235.5t-216 85.5q-104 0 -194.5 -58.5t-146.5 -164t-56 -234.5z" />
<glyph unicode="&#xf1;" horiz-adv-x="1236" d="M86 0l199 1024h164l-29 -162q57 90 149.5 142.5t196.5 52.5q143 0 233.5 -93.5t90.5 -240.5q0 -51 -11 -100l-121 -623h-174l115 592q12 59 12 106q0 205 -206 205q-123 0 -214.5 -92t-121.5 -250l-109 -561h-174zM428 1274q16 133 77 205.5t155 72.5q57 -2 95 -22.5 t65.5 -48t53.5 -48t58 -22.5q41 0 63.5 32t37.5 107h131q-16 -133 -77 -205.5t-155 -72.5q-57 2 -95 22.5t-65.5 48t-53 48t-58.5 22.5q-41 0 -63.5 -31.5t-36.5 -107.5h-132z" />
<glyph unicode="&#xf2;" horiz-adv-x="1265" d="M111 432q0 164 74.5 305.5t210.5 230.5t302 89q127 0 230.5 -57.5t165 -164t61.5 -243.5q0 -164 -74.5 -305.5t-211 -230.5t-302.5 -89q-127 0 -230.5 57.5t-164.5 164t-61 243.5zM287 444q0 -150 79 -235.5t216 -85.5q104 0 194 58.5t146.5 164t56.5 234.5 q0 150 -79 235.5t-216 85.5q-104 0 -194.5 -58.5t-146.5 -164t-56 -234.5zM535 1583h188l152 -334h-152z" />
<glyph unicode="&#xf3;" horiz-adv-x="1265" d="M111 432q0 164 74.5 305.5t210.5 230.5t302 89q127 0 230.5 -57.5t165 -164t61.5 -243.5q0 -164 -74.5 -305.5t-211 -230.5t-302.5 -89q-127 0 -230.5 57.5t-164.5 164t-61 243.5zM287 444q0 -150 79 -235.5t216 -85.5q104 0 194 58.5t146.5 164t56.5 234.5 q0 150 -79 235.5t-216 85.5q-104 0 -194.5 -58.5t-146.5 -164t-56 -234.5zM608 1249l270 334h223l-323 -334h-170z" />
<glyph unicode="&#xf4;" horiz-adv-x="1265" d="M111 432q0 164 74.5 305.5t210.5 230.5t302 89q127 0 230.5 -57.5t165 -164t61.5 -243.5q0 -164 -74.5 -305.5t-211 -230.5t-302.5 -89q-127 0 -230.5 57.5t-164.5 164t-61 243.5zM287 444q0 -150 79 -235.5t216 -85.5q104 0 194 58.5t146.5 164t56.5 234.5 q0 150 -79 235.5t-216 85.5q-104 0 -194.5 -58.5t-146.5 -164t-56 -234.5zM407 1249l346 334h144l215 -334h-158l-141 219l-226 -219h-180z" />
<glyph unicode="&#xf5;" horiz-adv-x="1265" d="M111 432q0 164 74.5 305.5t210.5 230.5t302 89q127 0 230.5 -57.5t165 -164t61.5 -243.5q0 -164 -74.5 -305.5t-211 -230.5t-302.5 -89q-127 0 -230.5 57.5t-164.5 164t-61 243.5zM287 444q0 -150 79 -235.5t216 -85.5q104 0 194 58.5t146.5 164t56.5 234.5 q0 150 -79 235.5t-216 85.5q-104 0 -194.5 -58.5t-146.5 -164t-56 -234.5zM423 1274q16 133 77 205.5t155 72.5q57 -2 95 -22.5t65.5 -48t53.5 -48t58 -22.5q41 0 63.5 32t37.5 107h131q-16 -133 -77 -205.5t-155 -72.5q-57 2 -95 22.5t-65.5 48t-53 48t-58.5 22.5 q-41 0 -63.5 -31.5t-36.5 -107.5h-132z" />
<glyph unicode="&#xf6;" horiz-adv-x="1265" d="M111 432q0 164 74.5 305.5t210.5 230.5t302 89q127 0 230.5 -57.5t165 -164t61.5 -243.5q0 -164 -74.5 -305.5t-211 -230.5t-302.5 -89q-127 0 -230.5 57.5t-164.5 164t-61 243.5zM287 444q0 -150 79 -235.5t216 -85.5q104 0 194 58.5t146.5 164t56.5 234.5 q0 150 -79 235.5t-216 85.5q-104 0 -194.5 -58.5t-146.5 -164t-56 -234.5zM487 1413q0 55 35 91t88 36q45 0 73.5 -28.5t28.5 -75.5q0 -55 -35 -91t-88 -36q-45 0 -73.5 28.5t-28.5 75.5zM874 1413q0 55 35 91t88 36q45 0 73.5 -28.5t28.5 -75.5q0 -55 -35 -91t-88 -36 q-45 0 -73.5 28.5t-28.5 75.5z" />
<glyph unicode="&#xf7;" horiz-adv-x="1269" d="M199 604l30 160h910l-31 -160h-909zM473 303q0 55 39 94t94 39q51 0 83 -31.5t32 -80.5q0 -57 -39 -95.5t-96 -38.5q-49 0 -81 32t-32 81zM616 1044q0 55 39 94.5t95 39.5q51 0 82.5 -32t31.5 -81q0 -57 -39 -95t-96 -38q-49 0 -81 31.5t-32 80.5z" />
<glyph unicode="&#xf8;" horiz-adv-x="1265" d="M68 47l118 117q-76 117 -75 268q0 164 74.5 305.5t210.5 230.5t302 89q84 0 160 -26.5t135 -78.5l115 113l90 -88l-121 -117q78 -115 78 -268q0 -164 -74.5 -305.5t-211 -230.5t-302.5 -89q-172 0 -297 103l-112 -111zM287 444q0 -86 28 -155l559 549q-80 63 -190 63 q-104 0 -194.5 -58.5t-146.5 -164t-56 -234.5zM389 186q76 -63 193 -63q104 0 194 58.5t146.5 164t56.5 234.5q0 88 -29 155z" />
<glyph unicode="&#xf9;" horiz-adv-x="1228" d="M145 287q0 53 13 114l121 623h174l-119 -610q-10 -55 -10 -103q0 -190 188 -190q133 0 226 91t124 251l109 561h174l-199 -1024h-164l29 162q-59 -94 -151 -145q-90 -50 -201 -50q-143 0 -229 87q-85 87 -85 233zM510 1583h188l152 -334h-152z" />
<glyph unicode="&#xfa;" horiz-adv-x="1228" d="M145 287q0 53 13 114l121 623h174l-119 -610q-10 -55 -10 -103q0 -190 188 -190q133 0 226 91t124 251l109 561h174l-199 -1024h-164l29 162q-59 -94 -151 -145q-90 -50 -201 -50q-143 0 -229 87q-85 87 -85 233zM584 1249l270 334h223l-323 -334h-170z" />
<glyph unicode="&#xfb;" horiz-adv-x="1228" d="M145 287q0 53 13 114l121 623h174l-119 -610q-10 -55 -10 -103q0 -190 188 -190q133 0 226 91t124 251l109 561h174l-199 -1024h-164l29 162q-59 -94 -151 -145q-90 -50 -201 -50q-143 0 -229 87q-85 87 -85 233zM383 1249l346 334h144l215 -334h-158l-141 219l-226 -219 h-180z" />
<glyph unicode="&#xfc;" horiz-adv-x="1228" d="M145 287q0 53 13 114l121 623h174l-119 -610q-10 -55 -10 -103q0 -190 188 -190q133 0 226 91t124 251l109 561h174l-199 -1024h-164l29 162q-59 -94 -151 -145q-90 -50 -201 -50q-143 0 -229 87q-85 87 -85 233zM463 1413q0 55 35 91t88 36q45 0 73.5 -28.5t28.5 -75.5 q0 -55 -35 -91t-88 -36q-45 0 -73.5 28.5t-28.5 75.5zM850 1413q0 55 35 91t88 36q45 0 73.5 -28.5t28.5 -75.5q0 -55 -35 -91t-88 -36q-45 0 -73.5 28.5t-28.5 75.5z" />
<glyph unicode="&#xfd;" horiz-adv-x="1107" d="M-10 -502l395 604l-246 922h183l188 -750l467 750h188l-991 -1526h-184zM522 1249l270 334h223l-323 -334h-170z" />
<glyph unicode="&#xfe;" horiz-adv-x="1323" d="M-12 -502l420 2161h174l-156 -797q57 88 158.5 141.5t208.5 53.5q190 0 304.5 -130t114.5 -343q0 -156 -73.5 -296.5t-204.5 -230.5t-285 -90q-125 0 -216 60.5t-136 175.5l-135 -705h-174zM344 444q0 -150 79 -235.5t216 -85.5q104 0 194.5 58.5t146.5 164t56 234.5 q0 150 -78.5 235.5t-216.5 85.5q-104 0 -194 -58.5t-146.5 -164t-56.5 -234.5z" />
<glyph unicode="&#xff;" horiz-adv-x="1107" d="M-10 -502l395 604l-246 922h183l188 -750l467 750h188l-991 -1526h-184zM401 1413q0 55 35 91t88 36q45 0 73.5 -28.5t28.5 -75.5q0 -55 -35 -91t-88 -36q-45 0 -73.5 28.5t-28.5 75.5zM788 1413q0 55 35 91t88 36q45 0 73.5 -28.5t28.5 -75.5q0 -55 -35 -91t-88 -36 q-45 0 -73.5 28.5t-28.5 75.5z" />
<glyph unicode="&#x100;" horiz-adv-x="1531" d="M-49 0l913 1556h203l313 -1556h-192l-86 471h-686l-269 -471h-196zM504 625h569l-139 753zM680 1749l27 149h623l-27 -149h-623z" />
<glyph unicode="&#x101;" horiz-adv-x="1320" d="M111 440q0 156 73.5 296.5t204.5 230.5t285 90q125 0 216 -62.5t134 -175.5l43 205h170l-199 -1024h-170l29 162q-57 -88 -159 -141.5t-208 -53.5q-190 0 -304.5 130t-114.5 343zM287 444q0 -150 79 -235.5t216 -85.5q104 0 194 58.5t146.5 164t56.5 234.5 q0 150 -79 235.5t-216 85.5q-104 0 -194.5 -58.5t-146.5 -164t-56 -234.5zM503 1325l27 150h623l-27 -150h-623z" />
<glyph unicode="&#x102;" horiz-adv-x="1531" d="M-49 0l913 1556h203l313 -1556h-192l-86 471h-686l-269 -471h-196zM504 625h569l-139 753zM711 1915q0 31 10 78h135q-6 -27 -6 -51q0 -59 39 -91t113 -32q88 0 141 45t70 129h139q-16 -147 -108 -225t-250 -78q-131 0 -207 60t-76 165z" />
<glyph unicode="&#x103;" horiz-adv-x="1320" d="M111 440q0 156 73.5 296.5t204.5 230.5t285 90q125 0 216 -62.5t134 -175.5l43 205h170l-199 -1024h-170l29 162q-57 -88 -159 -141.5t-208 -53.5q-190 0 -304.5 130t-114.5 343zM287 444q0 -150 79 -235.5t216 -85.5q104 0 194 58.5t146.5 164t56.5 234.5 q0 150 -79 235.5t-216 85.5q-104 0 -194.5 -58.5t-146.5 -164t-56 -234.5zM540 1456q0 43 13 88h127q-6 -33 -7 -61q0 -129 144 -129q86 0 134 46t64 144h140q-20 -156 -107.5 -236.5t-232.5 -80.5q-129 0 -202 60.5t-73 168.5z" />
<glyph unicode="&#x104;" horiz-adv-x="1531" d="M-49 0l913 1556h203l313 -1556h-192l-86 471h-686l-269 -471h-196zM504 625h569l-139 753zM957 -340q0 96 93 199.5t263 195.5l68 -55q-262 -195 -263 -309q0 -61 78 -62q59 0 119 31l4 -139q-59 -37 -151 -37q-100 0 -155.5 46t-55.5 130z" />
<glyph unicode="&#x105;" horiz-adv-x="1320" d="M111 440q0 156 73.5 296.5t204.5 230.5t285 90q125 0 216 -62.5t134 -175.5l43 205h170l-199 -1024h-170l29 162q-57 -88 -159 -141.5t-208 -53.5q-190 0 -304.5 130t-114.5 343zM287 444q0 -150 79 -235.5t216 -85.5q104 0 194 58.5t146.5 164t56.5 234.5 q0 150 -79 235.5t-216 85.5q-104 0 -194.5 -58.5t-146.5 -164t-56 -234.5zM637 -344q0 96 98.5 214t235.5 185l68 -55q-111 -82 -175.5 -165t-64.5 -144q0 -29 17.5 -45.5t50.5 -16.5q55 0 120 33l5 -139q-27 -16 -71 -27.5t-85 -11.5q-94 0 -146.5 45t-52.5 127z" />
<glyph unicode="&#x106;" horiz-adv-x="1538" d="M166 696q0 233 110.5 434t312.5 325t449 124q137 0 269.5 -38t230.5 -105l-43 -160q-229 135 -471 135q-174 0 -325.5 -90t-246 -253t-94.5 -359q0 -162 68 -289t193.5 -201t291.5 -74q227 0 439 117l4 -174q-207 -111 -451 -111q-211 0 -378 87.5t-263 251t-96 380.5z M922 1710l262 264h246l-320 -264h-188z" />
<glyph unicode="&#x107;" horiz-adv-x="1089" d="M111 442q0 162 76.5 300.5t215 223.5t308.5 85q88 0 173 -25t146 -65l-33 -154q-59 41 -139 64.5t-151 23.5q-115 0 -210.5 -55.5t-152.5 -156.5t-57 -228q0 -154 94 -240t262 -86q57 0 128 18.5t122 47.5l4 -152q-45 -29 -128 -49.5t-159 -20.5q-231 0 -365 126 t-134 343zM588 1249l270 334h223l-323 -334h-170z" />
<glyph unicode="&#x10a;" horiz-adv-x="1538" d="M166 696q0 233 110.5 434t312.5 325t449 124q137 0 269.5 -38t230.5 -105l-43 -160q-229 135 -471 135q-174 0 -325.5 -90t-246 -253t-94.5 -359q0 -162 68 -289t193.5 -201t291.5 -74q227 0 439 117l4 -174q-207 -111 -451 -111q-211 0 -378 87.5t-263 251t-96 380.5z M975 1810q0 57 37 95.5t94 38.5q47 0 78 -31t31 -82q0 -57 -37 -95t-94 -38q-47 0 -78 30.5t-31 81.5z" />
<glyph unicode="&#x10b;" horiz-adv-x="1089" d="M111 442q0 162 76.5 300.5t215 223.5t308.5 85q88 0 173 -25t146 -65l-33 -154q-59 41 -139 64.5t-151 23.5q-115 0 -210.5 -55.5t-152.5 -156.5t-57 -228q0 -154 94 -240t262 -86q57 0 128 18.5t122 47.5l4 -152q-45 -29 -128 -49.5t-159 -20.5q-231 0 -365 126 t-134 343zM620 1411q0 57 37 95t94 38q47 0 78 -30.5t31 -81.5q0 -57 -37 -95.5t-94 -38.5q-47 0 -78 31t-31 82z" />
<glyph unicode="&#x10c;" horiz-adv-x="1538" d="M166 696q0 233 110.5 434t312.5 325t449 124q137 0 269.5 -38t230.5 -105l-43 -160q-229 135 -471 135q-174 0 -325.5 -90t-246 -253t-94.5 -359q0 -162 68 -289t193.5 -201t291.5 -74q227 0 439 117l4 -174q-207 -111 -451 -111q-211 0 -378 87.5t-263 251t-96 380.5z M770 2001h178l140 -184l209 184h194l-336 -291h-157z" />
<glyph unicode="&#x10d;" horiz-adv-x="1089" d="M111 442q0 162 76.5 300.5t215 223.5t308.5 85q88 0 173 -25t146 -65l-33 -154q-59 41 -139 64.5t-151 23.5q-115 0 -210.5 -55.5t-152.5 -156.5t-57 -228q0 -154 94 -240t262 -86q57 0 128 18.5t122 47.5l4 -152q-45 -29 -128 -49.5t-159 -20.5q-231 0 -365 126 t-134 343zM453 1583h157l142 -221l225 221h180l-346 -334h-143z" />
<glyph unicode="&#x10e;" horiz-adv-x="1697" d="M115 0l303 1556h500q217 0 379.5 -79.5t252.5 -231t90 -362.5q0 -250 -116.5 -450t-332.5 -316.5t-497 -116.5h-579zM330 158h377q215 0 382.5 87t263 250.5t95.5 378.5q0 250 -144.5 387.5t-406.5 137.5h-326zM723 2001h178l140 -184l209 184h194l-336 -291h-157z" />
<glyph unicode="&#x10f;" horiz-adv-x="1320" d="M111 440q0 156 73.5 296.5t204.5 230.5t285 90q125 0 215 -60.5t135 -173.5l162 836h174l-322 -1659h-170l29 162q-57 -88 -159 -141.5t-208 -53.5q-190 0 -304.5 130t-114.5 343zM287 444q0 -150 79 -235.5t216 -85.5q104 0 194 58.5t146.5 164t56.5 234.5 q0 150 -79 235.5t-216 85.5q-104 0 -194.5 -58.5t-146.5 -164t-56 -234.5zM1393 1188l116 471h183l-181 -471h-118z" />
<glyph unicode="&#x110;" horiz-adv-x="1718" d="M57 713l29 143h215l137 700h500q217 0 380 -79.5t253 -231t90 -362.5q0 -250 -117 -450t-333 -316.5t-496 -116.5h-580l139 713h-217zM350 158h377q215 0 383 87t263 250.5t95 378.5q0 250 -144 387.5t-406 137.5h-326l-107 -543h363l-29 -143h-360z" />
<glyph unicode="&#x111;" horiz-adv-x="1320" d="M111 440q0 156 73.5 296.5t204.5 230.5t285 90q125 0 215 -60.5t135 -173.5l84 434h-350l26 136h351l51 266h174l-51 -266h155l-26 -136h-156l-244 -1257h-170l29 162q-57 -88 -159 -141.5t-208 -53.5q-190 0 -304.5 130t-114.5 343zM287 444q0 -150 79 -235.5t216 -85.5 q104 0 194 58.5t146.5 164t56.5 234.5q0 150 -79 235.5t-216 85.5q-104 0 -194.5 -58.5t-146.5 -164t-56 -234.5z" />
<glyph unicode="&#x112;" horiz-adv-x="1347" d="M115 0l303 1556h917l-30 -157h-734l-102 -520h651l-30 -158h-652l-108 -563h794l-30 -158h-979zM610 1749l27 149h623l-27 -149h-623z" />
<glyph unicode="&#x113;" horiz-adv-x="1208" d="M113 438q0 164 72.5 304.5t205.5 227.5t297 87q117 0 210 -50.5t147.5 -143.5t54.5 -216q0 -90 -27 -190h-790q0 -334 376 -334q154 0 310 76l4 -154q-57 -35 -152.5 -56.5t-187.5 -21.5q-244 0 -382 125t-138 346zM301 594h623q4 29 4 55q0 123 -66.5 190.5t-187.5 67.5 q-129 0 -231.5 -87t-141.5 -226zM426 1325l27 150h623l-27 -150h-623z" />
<glyph unicode="&#x116;" horiz-adv-x="1347" d="M115 0l303 1556h917l-30 -157h-734l-102 -520h651l-30 -158h-652l-108 -563h794l-30 -158h-979zM813 1810q0 57 37 95.5t94 38.5q47 0 78 -31t31 -82q0 -57 -37 -95t-94 -38q-47 0 -78 30.5t-31 81.5z" />
<glyph unicode="&#x117;" horiz-adv-x="1208" d="M113 438q0 164 72.5 304.5t205.5 227.5t297 87q117 0 210 -50.5t147.5 -143.5t54.5 -216q0 -90 -27 -190h-790q0 -334 376 -334q154 0 310 76l4 -154q-57 -35 -152.5 -56.5t-187.5 -21.5q-244 0 -382 125t-138 346zM301 594h623q4 29 4 55q0 123 -66.5 190.5t-187.5 67.5 q-129 0 -231.5 -87t-141.5 -226zM602 1411q0 57 37 95t94 38q47 0 78 -30.5t31 -81.5q0 -57 -37 -95.5t-94 -38.5q-47 0 -78 31t-31 82z" />
<glyph unicode="&#x118;" horiz-adv-x="1347" d="M115 0l303 1556h917l-30 -157h-734l-102 -520h651l-30 -158h-652l-108 -563h794l-30 -158h-979zM670 -340q0 96 93 199.5t263 195.5l68 -55q-262 -195 -263 -309q0 -61 78 -62q59 0 119 31l4 -139q-59 -37 -151 -37q-100 0 -155.5 46t-55.5 130z" />
<glyph unicode="&#x119;" horiz-adv-x="1208" d="M113 438q0 164 72.5 304.5t205.5 227.5t297 87q117 0 210 -50.5t147.5 -143.5t54.5 -216q0 -90 -27 -190h-790q0 -334 376 -334q154 0 310 76l4 -154q-57 -35 -152.5 -56.5t-187.5 -21.5q-244 0 -382 125t-138 346zM301 594h623q4 29 4 55q0 123 -66.5 190.5t-187.5 67.5 q-129 0 -231.5 -87t-141.5 -226zM444 -344q0 109 110.5 215t299.5 180l110 -10q-182 -104 -270 -189t-88 -157q0 -66 78 -66q53 0 119 31l4 -139q-66 -37 -154 -37q-96 0 -152.5 46t-56.5 126z" />
<glyph unicode="&#x11a;" horiz-adv-x="1347" d="M115 0l303 1556h917l-30 -157h-734l-102 -520h651l-30 -158h-652l-108 -563h794l-30 -158h-979zM608 2001h178l140 -184l209 184h194l-336 -291h-157z" />
<glyph unicode="&#x11b;" horiz-adv-x="1208" d="M113 438q0 164 72.5 304.5t205.5 227.5t297 87q117 0 210 -50.5t147.5 -143.5t54.5 -216q0 -90 -27 -190h-790q0 -334 376 -334q154 0 310 76l4 -154q-57 -35 -152.5 -56.5t-187.5 -21.5q-244 0 -382 125t-138 346zM301 594h623q4 29 4 55q0 123 -66.5 190.5t-187.5 67.5 q-129 0 -231.5 -87t-141.5 -226zM435 1583h157l142 -221l225 221h180l-346 -334h-143z" />
<glyph unicode="&#x11e;" horiz-adv-x="1662" d="M164 688q0 242 111.5 444.5t315.5 324.5t460 122q147 0 285.5 -40t244.5 -112l-43 -159q-104 66 -234 104.5t-253 38.5q-190 0 -348 -88t-252.5 -249t-94.5 -365q0 -166 70 -293t201 -199t307 -72q178 0 326 60l88 454h-351l31 158h531l-144 -727q-236 -113 -500 -113 q-215 0 -385 87.5t-268 249t-98 374.5zM803 1915q0 31 10 78h135q-6 -27 -6 -51q0 -59 39 -91t113 -32q88 0 141 45t70 129h139q-16 -147 -108 -225t-250 -78q-131 0 -207 60t-76 165z" />
<glyph unicode="&#x11f;" horiz-adv-x="1323" d="M61 -412l37 154q160 -109 357 -109q125 0 206.5 46.5t134 143.5t83.5 251l16 86q-57 -86 -156.5 -139.5t-208.5 -53.5q-121 0 -216 56.5t-149 163t-54 253.5q0 160 73.5 299.5t205.5 228.5t284 89q125 0 216 -62.5t134 -175.5l43 205h170l-186 -963q-57 -301 -198.5 -441 t-397.5 -140q-115 0 -217.5 28.5t-176.5 79.5zM287 444q0 -150 79 -235.5t216 -85.5q104 0 194 58.5t146.5 165t56.5 233.5q0 150 -79 235.5t-216 85.5q-104 0 -194.5 -58.5t-146.5 -165t-56 -233.5zM540 1456q0 43 13 88h127q-6 -33 -7 -61q0 -129 144 -129q86 0 134 46 t64 144h140q-20 -156 -107.5 -236.5t-232.5 -80.5q-129 0 -202 60.5t-73 168.5z" />
<glyph unicode="&#x120;" horiz-adv-x="1662" d="M164 688q0 242 111.5 444.5t315.5 324.5t460 122q147 0 285.5 -40t244.5 -112l-43 -159q-104 66 -234 104.5t-253 38.5q-190 0 -348 -88t-252.5 -249t-94.5 -365q0 -166 70 -293t201 -199t307 -72q178 0 326 60l88 454h-351l31 158h531l-144 -727q-236 -113 -500 -113 q-215 0 -385 87.5t-268 249t-98 374.5zM975 1810q0 57 37 95.5t94 38.5q47 0 78 -31t31 -82q0 -57 -37 -95t-94 -38q-47 0 -78 30.5t-31 81.5z" />
<glyph unicode="&#x121;" horiz-adv-x="1323" d="M61 -412l37 154q160 -109 357 -109q125 0 206.5 46.5t134 143.5t83.5 251l16 86q-57 -86 -156.5 -139.5t-208.5 -53.5q-121 0 -216 56.5t-149 163t-54 253.5q0 160 73.5 299.5t205.5 228.5t284 89q125 0 216 -62.5t134 -175.5l43 205h170l-186 -963q-57 -301 -198.5 -441 t-397.5 -140q-115 0 -217.5 28.5t-176.5 79.5zM287 444q0 -150 79 -235.5t216 -85.5q104 0 194 58.5t146.5 165t56.5 233.5q0 150 -79 235.5t-216 85.5q-104 0 -194.5 -58.5t-146.5 -165t-56 -233.5zM680 1411q0 57 37 95t94 38q47 0 78 -30.5t31 -81.5q0 -57 -37 -95.5 t-94 -38.5q-47 0 -78 31t-31 82z" />
<glyph unicode="&#x122;" horiz-adv-x="1662" d="M164 688q0 242 111.5 444.5t315.5 324.5t460 122q147 0 285.5 -40t244.5 -112l-43 -159q-104 66 -234 104.5t-253 38.5q-190 0 -348 -88t-252.5 -249t-94.5 -365q0 -166 70 -293t201 -199t307 -72q178 0 326 60l88 454h-351l31 158h531l-144 -727q-236 -113 -500 -113 q-215 0 -385 87.5t-268 249t-98 374.5zM547 -502q137 170 162 369h184q-14 -100 -70.5 -201.5t-135.5 -167.5h-140z" />
<glyph unicode="&#x123;" horiz-adv-x="1323" d="M61 -412l37 154q160 -109 357 -109q125 0 206.5 46.5t134 143.5t83.5 251l16 86q-57 -86 -156.5 -139.5t-208.5 -53.5q-121 0 -216 56.5t-149 163t-54 253.5q0 160 73.5 299.5t205.5 228.5t284 89q125 0 216 -62.5t134 -175.5l43 205h170l-186 -963q-57 -301 -198.5 -441 t-397.5 -140q-115 0 -217.5 28.5t-176.5 79.5zM287 444q0 -150 79 -235.5t216 -85.5q104 0 194 58.5t146.5 165t56.5 233.5q0 150 -79 235.5t-216 85.5q-104 0 -194.5 -58.5t-146.5 -165t-56 -233.5zM696 1249q8 86 64.5 184.5t125.5 149.5h129q-55 -59 -92 -150.5 t-45 -183.5h-182z" />
<glyph unicode="&#x126;" horiz-adv-x="1746" d="M137 0l221 1143h-211l29 143h211l53 270h185l-54 -270h908l53 270h184l-53 -270h211l-29 -143h-211l-221 -1143h-184l141 733h-905l-143 -733h-185zM494 887h907l49 256h-905z" />
<glyph unicode="&#x127;" horiz-adv-x="1236" d="M86 0l244 1257h-180l26 136h180l52 266h174l-52 -266h326l-27 -136h-325l-74 -378q59 84 147.5 131t188.5 47q143 0 233.5 -93.5t90.5 -240.5q0 -43 -11 -100l-121 -623h-174l115 592q12 59 12 106q0 205 -206 205q-123 0 -214.5 -92t-121.5 -250l-109 -561h-174z" />
<glyph unicode="&#x128;" horiz-adv-x="614" d="M115 0l303 1556h184l-303 -1556h-184zM188 1710q16 133 77 206t155 73q57 -2 95 -22.5t65.5 -48.5t53 -48.5t58.5 -22.5q41 0 63.5 32t37.5 108h131q-16 -133 -77 -206t-155 -73q-57 2 -95 22.5t-65.5 48t-53 48t-58.5 22.5q-41 0 -63.5 -31.5t-36.5 -107.5h-132z" />
<glyph unicode="&#x129;" horiz-adv-x="542" d="M67 1274q16 133 77 205.5t155 72.5q57 -2 95 -22.5t65.5 -48t53.5 -48t58 -22.5q41 0 63.5 32t37.5 107h131q-16 -133 -77 -205.5t-155 -72.5q-57 2 -95 22.5t-65.5 48t-53 48t-58.5 22.5q-41 0 -63.5 -31.5t-36.5 -107.5h-132zM86 0l199 1024h174l-199 -1024h-174z" />
<glyph unicode="&#x12a;" horiz-adv-x="614" d="M115 0l303 1556h184l-303 -1556h-184zM227 1749l27 149h623l-27 -149h-623z" />
<glyph unicode="&#x12b;" horiz-adv-x="542" d="M86 0l199 1024h174l-199 -1024h-174zM108 1325l27 150h623l-27 -150h-623z" />
<glyph unicode="&#x12e;" horiz-adv-x="614" d="M-125 -340q0 96 93 199.5t263 195.5l68 -55q-262 -195 -263 -309q0 -61 78 -62q59 0 119 31l4 -139q-59 -37 -151 -37q-100 0 -155.5 46t-55.5 130zM115 0l303 1556h184l-303 -1556h-184z" />
<glyph unicode="&#x12f;" horiz-adv-x="542" d="M-142 -344q0 96 98.5 214t235.5 185l68 -55q-111 -82 -175.5 -165t-64.5 -144q0 -29 17.5 -45.5t50.5 -16.5q55 0 120 33l5 -139q-27 -16 -71 -27.5t-85 -11.5q-94 0 -146.5 45t-52.5 127zM86 0l199 1024h174l-199 -1024h-174zM326 1411q0 57 36.5 95t94.5 38 q47 0 77.5 -30.5t30.5 -81.5q0 -57 -37 -95.5t-94 -38.5q-47 0 -77.5 31t-30.5 82z" />
<glyph unicode="&#x130;" horiz-adv-x="614" d="M115 0l303 1556h184l-303 -1556h-184zM430 1810q0 57 37 95.5t94 38.5q47 0 78 -31t31 -82q0 -57 -37 -95t-94 -38q-47 0 -78 30.5t-31 81.5z" />
<glyph unicode="&#x131;" horiz-adv-x="542" d="M86 0l199 1024h174l-199 -1024h-174z" />
<glyph unicode="&#x132;" horiz-adv-x="1703" d="M115 0l303 1556h184l-303 -1556h-184zM600 63l39 160q61 -43 141 -66.5t164 -23.5q158 0 247 100.5t134 325.5l194 997h185l-201 -1028q-57 -295 -193.5 -428t-384.5 -133q-84 0 -180 29t-145 67z" />
<glyph unicode="&#x133;" horiz-adv-x="1085" d="M86 0l199 1024h174l-199 -1024h-174zM152 -471l32 143q35 -18 83 -29t93 -12q199 0 254 295l213 1098h174l-210 -1087q-45 -236 -149 -347q-104 -110 -282 -110q-59 0 -117 13t-91 36zM326 1411q0 57 36.5 95t94.5 38q47 0 77.5 -30.5t30.5 -81.5q0 -57 -37 -95.5 t-94 -38.5q-47 0 -77.5 31t-30.5 82zM868 1411q0 57 37 95t94 38q47 0 78 -31t31 -81q0 -57 -37 -96q-37 -38 -94 -38q-47 0 -78 31t-31 82z" />
<glyph unicode="&#x136;" horiz-adv-x="1482" d="M115 0l303 1556h184l-135 -696l858 696h260l-944 -759l721 -797h-250l-668 750l-145 -750h-184zM397 -502q137 170 162 369h184q-14 -100 -70.5 -201.5t-135.5 -167.5h-140z" />
<glyph unicode="&#x137;" horiz-adv-x="1140" d="M86 0l322 1659h174l-203 -1049l516 414h240l-596 -467l481 -557h-225l-435 516l-100 -516h-174zM204 -502q137 170 162 369h184q-14 -100 -70.5 -201.5t-135.5 -167.5h-140z" />
<glyph unicode="&#x138;" horiz-adv-x="1140" d="M86 0l199 1024h174l-82 -424l522 424h236l-598 -479l483 -545h-227l-437 500l-96 -500h-174z" />
<glyph unicode="&#x139;" horiz-adv-x="1216" d="M115 0l303 1556h184l-272 -1398h745l-31 -158h-929zM387 1710l262 264h246l-320 -264h-188z" />
<glyph unicode="&#x13a;" horiz-adv-x="542" d="M86 0l322 1659h174l-322 -1659h-174zM354 1741l262 264h246l-320 -264h-188z" />
<glyph unicode="&#x13b;" horiz-adv-x="1216" d="M115 0l303 1556h184l-272 -1398h745l-31 -158h-929zM331 -502q137 170 162 369h184q-14 -100 -70.5 -201.5t-135.5 -167.5h-140z" />
<glyph unicode="&#x13c;" horiz-adv-x="542" d="M-101 -502q137 170 162 369h184q-14 -100 -70.5 -201.5t-135.5 -167.5h-140zM86 0l322 1659h174l-322 -1659h-174z" />
<glyph unicode="&#x13d;" horiz-adv-x="1216" d="M115 0l303 1556h184l-272 -1398h745l-31 -158h-929zM715 1188l116 471h183l-181 -471h-118z" />
<glyph unicode="&#x13e;" horiz-adv-x="542" d="M86 0l322 1659h174l-322 -1659h-174zM615 1188l116 471h183l-181 -471h-118z" />
<glyph unicode="&#x141;" horiz-adv-x="1236" d="M33 414l18 176l228 147l159 819h185l-140 -712l455 297l-18 -176l-474 -308l-96 -499h746l-31 -158h-930l107 549z" />
<glyph unicode="&#x142;" horiz-adv-x="643" d="M51 551l21 172l227 119l158 817h174l-144 -733l213 112l-20 -172l-227 -118l-144 -748h-174l129 664z" />
<glyph unicode="&#x143;" horiz-adv-x="1734" d="M115 0l303 1556h174l706 -1304l254 1304h170l-303 -1556h-174l-706 1305l-254 -1305h-170zM932 1710l262 264h246l-320 -264h-188z" />
<glyph unicode="&#x144;" horiz-adv-x="1236" d="M86 0l199 1024h164l-29 -162q57 90 149.5 142.5t196.5 52.5q143 0 233.5 -93.5t90.5 -240.5q0 -51 -11 -100l-121 -623h-174l115 592q12 59 12 106q0 205 -206 205q-123 0 -214.5 -92t-121.5 -250l-109 -561h-174zM613 1249l270 334h223l-323 -334h-170z" />
<glyph unicode="&#x145;" horiz-adv-x="1734" d="M115 0l303 1556h174l706 -1304l254 1304h170l-303 -1556h-174l-706 1305l-254 -1305h-170zM475 -502q137 170 162 369h184q-14 -100 -70.5 -201.5t-135.5 -167.5h-140z" />
<glyph unicode="&#x146;" horiz-adv-x="1236" d="M86 0l199 1024h164l-29 -162q57 90 149.5 142.5t196.5 52.5q143 0 233.5 -93.5t90.5 -240.5q0 -51 -11 -100l-121 -623h-174l115 592q12 59 12 106q0 205 -206 205q-123 0 -214.5 -92t-121.5 -250l-109 -561h-174zM229 -502q137 170 162 369h184q-14 -100 -70.5 -201.5 t-135.5 -167.5h-140z" />
<glyph unicode="&#x147;" horiz-adv-x="1734" d="M115 0l303 1556h174l706 -1304l254 1304h170l-303 -1556h-174l-706 1305l-254 -1305h-170zM780 2001h178l140 -184l209 184h194l-336 -291h-157z" />
<glyph unicode="&#x148;" horiz-adv-x="1236" d="M86 0l199 1024h164l-29 -162q57 90 149.5 142.5t196.5 52.5q143 0 233.5 -93.5t90.5 -240.5q0 -51 -11 -100l-121 -623h-174l115 592q12 59 12 106q0 205 -206 205q-123 0 -214.5 -92t-121.5 -250l-109 -561h-174zM478 1583h157l142 -221l225 221h180l-346 -334h-143z " />
<glyph unicode="&#x14c;" horiz-adv-x="1798" d="M162 672q0 238 111.5 446.5t312 339.5t444.5 131q199 0 359.5 -88t256 -248.5t95.5 -367.5q0 -238 -111.5 -447t-312.5 -340t-445 -131q-199 0 -359.5 88t-255.5 249t-95 368zM354 690q0 -166 64.5 -291t185.5 -194.5t287 -69.5q170 0 319.5 94.5t243.5 263.5t94 373 q0 166 -64.5 291t-185 194.5t-286.5 69.5q-170 0 -319.5 -94t-244 -263t-94.5 -374zM786 1749l27 149h623l-27 -149h-623z" />
<glyph unicode="&#x14d;" horiz-adv-x="1265" d="M111 432q0 164 74.5 305.5t210.5 230.5t302 89q127 0 230.5 -57.5t165 -164t61.5 -243.5q0 -164 -74.5 -305.5t-211 -230.5t-302.5 -89q-127 0 -230.5 57.5t-164.5 164t-61 243.5zM287 444q0 -150 79 -235.5t216 -85.5q104 0 194 58.5t146.5 164t56.5 234.5 q0 150 -79 235.5t-216 85.5q-104 0 -194.5 -58.5t-146.5 -164t-56 -234.5zM464 1325l27 150h623l-27 -150h-623z" />
<glyph unicode="&#x150;" horiz-adv-x="1798" d="M162 672q0 238 111.5 446.5t312 339.5t444.5 131q199 0 359.5 -88t256 -248.5t95.5 -367.5q0 -238 -111.5 -447t-312.5 -340t-445 -131q-199 0 -359.5 88t-255.5 249t-95 368zM354 690q0 -166 64.5 -291t185.5 -194.5t287 -69.5q170 0 319.5 94.5t243.5 263.5t94 373 q0 166 -64.5 291t-185 194.5t-286.5 69.5q-170 0 -319.5 -94t-244 -263t-94.5 -374zM783 1710l176 264h211l-219 -264h-168zM1143 1710l176 264h211l-219 -264h-168z" />
<glyph unicode="&#x151;" horiz-adv-x="1265" d="M111 432q0 164 74.5 305.5t210.5 230.5t302 89q127 0 230.5 -57.5t165 -164t61.5 -243.5q0 -164 -74.5 -305.5t-211 -230.5t-302.5 -89q-127 0 -230.5 57.5t-164.5 164t-61 243.5zM287 444q0 -150 79 -235.5t216 -85.5q104 0 194 58.5t146.5 164t56.5 234.5 q0 150 -79 235.5t-216 85.5q-104 0 -194.5 -58.5t-146.5 -164t-56 -234.5zM479 1249l215 334h201l-262 -334h-154zM830 1249l215 334h200l-262 -334h-153z" />
<glyph unicode="&#x152;" horiz-adv-x="2623" d="M162 674q0 238 111.5 445.5t311 338.5t441.5 131q211 0 372 -103.5t226 -281.5l70 352h917l-31 -157h-733l-102 -520h651l-31 -158h-651l-108 -563h794l-30 -158h-979l47 248q-109 -143 -254 -212t-346 -69q-184 0 -338 88t-246 251t-92 368zM354 690q0 -164 64.5 -290 t186.5 -195.5t286 -69.5q170 0 320.5 94.5t245.5 264.5t95 372q0 164 -64.5 290t-186 195.5t-285.5 69.5q-170 0 -320.5 -94t-246 -264t-95.5 -373z" />
<glyph unicode="&#x153;" horiz-adv-x="2058" d="M111 432q0 164 74.5 305.5t210.5 230.5t302 89q143 0 248 -72t137 -192q63 121 186.5 192.5t268.5 71.5q117 0 210 -50.5t147.5 -143.5t54.5 -216q0 -90 -27 -190h-790q0 -334 376 -334q154 0 310 76l4 -154q-57 -35 -152.5 -56.5t-187.5 -21.5q-180 0 -302 69.5 t-163 196.5q-63 -123 -186 -194.5t-273 -71.5q-127 0 -228.5 57.5t-160.5 164t-59 243.5zM287 444q0 -150 79 -235.5t216 -85.5q104 0 194 58.5t146.5 164t56.5 234.5q0 150 -79 235.5t-216 85.5q-104 0 -194.5 -58.5t-146.5 -164t-56 -234.5zM1151 594h623q4 29 4 55 q0 123 -66.5 190.5t-187.5 67.5q-129 0 -231.5 -86t-141.5 -227z" />
<glyph unicode="&#x154;" horiz-adv-x="1415" d="M115 0l303 1556h377q231 0 363 -112.5t132 -308.5q0 -164 -102.5 -295t-272.5 -185l320 -655h-207l-289 623q-14 -2 -63 -2h-262l-121 -621h-178zM442 774h258q113 0 205 44t146.5 124t54.5 182q0 133 -88 206t-250 73h-203zM727 1710l262 264h246l-320 -264h-188z" />
<glyph unicode="&#x155;" horiz-adv-x="835" d="M86 0l199 1024h164l-37 -211q55 106 138 165.5t173 59.5q82 0 137 -32l-35 -158q-57 29 -133 29q-121 0 -213 -112t-129 -300l-90 -465h-174zM445 1249l270 334h223l-323 -334h-170z" />
<glyph unicode="&#x158;" horiz-adv-x="1415" d="M115 0l303 1556h377q231 0 363 -112.5t132 -308.5q0 -164 -102.5 -295t-272.5 -185l320 -655h-207l-289 623q-14 -2 -63 -2h-262l-121 -621h-178zM442 774h258q113 0 205 44t146.5 124t54.5 182q0 133 -88 206t-250 73h-203zM575 2001h178l140 -184l209 184h194 l-336 -291h-157z" />
<glyph unicode="&#x159;" horiz-adv-x="835" d="M86 0l199 1024h164l-37 -211q55 106 138 165.5t173 59.5q82 0 137 -32l-35 -158q-57 29 -133 29q-121 0 -213 -112t-129 -300l-90 -465h-174zM310 1583h157l142 -221l225 221h180l-346 -334h-143z" />
<glyph unicode="&#x15a;" horiz-adv-x="1316" d="M82 123l41 168q106 -78 227 -120t234 -42q164 0 268 79t104 204q0 88 -70.5 159.5t-238.5 153.5q-193 94 -270.5 190.5t-77.5 237.5q0 90 36 169t104.5 138.5t168 94t219.5 34.5q113 0 227.5 -33.5t205.5 -93.5l-43 -159q-94 59 -196.5 91.5t-197.5 32.5 q-152 0 -248 -74.5t-96 -193.5q0 -82 60.5 -146.5t199.5 -129.5q164 -78 249 -145.5t120 -143.5t35 -180q0 -129 -68.5 -229.5t-195.5 -159t-295 -58.5q-137 0 -271.5 42t-230.5 114zM713 1710l262 264h246l-320 -264h-188z" />
<glyph unicode="&#x15b;" horiz-adv-x="917" d="M35 86l37 147q150 -121 331 -120q94 0 149.5 40t55.5 109q0 55 -44 95t-161 92q-137 61 -195 129.5t-58 166.5q0 137 103 224.5t267 87.5q84 0 171 -26.5t151 -72.5l-33 -145q-150 98 -289 98q-92 0 -147.5 -41t-55.5 -106q0 -51 37 -87t127 -77q170 -78 236.5 -148.5 t66.5 -172.5q0 -141 -105.5 -226.5t-279.5 -85.5q-102 0 -203.5 33t-160.5 86zM438 1249l270 334h223l-323 -334h-170z" />
<glyph unicode="&#x15e;" horiz-adv-x="1316" d="M82 123l41 168q106 -78 227 -120t234 -42q164 0 268 79t104 204q0 88 -70.5 159.5t-238.5 153.5q-193 94 -270.5 190.5t-77.5 237.5q0 90 36 169t104.5 138.5t168 94t219.5 34.5q113 0 227.5 -33.5t205.5 -93.5l-43 -159q-94 59 -196.5 91.5t-197.5 32.5 q-152 0 -248 -74.5t-96 -193.5q0 -82 60.5 -146.5t199.5 -129.5q164 -78 249 -145.5t120 -143.5t35 -180q0 -129 -68.5 -229.5t-195.5 -159t-295 -58.5q-137 0 -271.5 42t-230.5 114zM229 -477l29 123q33 -16 76 -27.5t80 -11.5q137 0 137 88q0 33 -28.5 50t-82.5 17 q-51 0 -84 -8l109 266h135l-65 -155q76 -8 119.5 -53t43.5 -115q0 -100 -76.5 -159.5t-205.5 -59.5q-53 0 -104.5 12t-82.5 33z" />
<glyph unicode="&#x15f;" horiz-adv-x="917" d="M35 86l37 147q150 -121 331 -120q94 0 149.5 40t55.5 109q0 55 -44 95t-161 92q-137 61 -195 129.5t-58 166.5q0 137 103 224.5t267 87.5q84 0 171 -26.5t151 -72.5l-33 -145q-150 98 -289 98q-92 0 -147.5 -41t-55.5 -106q0 -51 37 -87t127 -77q170 -78 236.5 -148.5 t66.5 -172.5q0 -141 -105.5 -226.5t-279.5 -85.5q-102 0 -203.5 33t-160.5 86zM69 -477l29 121q33 -16 76 -27.5t80 -11.5q135 0 135 90q0 70 -109 69q-53 0 -86 -8l107 264h135l-66 -155q76 -6 121 -51t45 -119q0 -102 -73.5 -159.5t-206.5 -57.5q-53 0 -104.5 12t-82.5 33 z" />
<glyph unicode="&#x160;" horiz-adv-x="1316" d="M82 123l41 168q106 -78 227 -120t234 -42q164 0 268 79t104 204q0 88 -70.5 159.5t-238.5 153.5q-193 94 -270.5 190.5t-77.5 237.5q0 90 36 169t104.5 138.5t168 94t219.5 34.5q113 0 227.5 -33.5t205.5 -93.5l-43 -159q-94 59 -196.5 91.5t-197.5 32.5 q-152 0 -248 -74.5t-96 -193.5q0 -82 60.5 -146.5t199.5 -129.5q164 -78 249 -145.5t120 -143.5t35 -180q0 -129 -68.5 -229.5t-195.5 -159t-295 -58.5q-137 0 -271.5 42t-230.5 114zM561 2001h178l140 -184l209 184h194l-336 -291h-157z" />
<glyph unicode="&#x161;" horiz-adv-x="917" d="M35 86l37 147q150 -121 331 -120q94 0 149.5 40t55.5 109q0 55 -44 95t-161 92q-137 61 -195 129.5t-58 166.5q0 137 103 224.5t267 87.5q84 0 171 -26.5t151 -72.5l-33 -145q-150 98 -289 98q-92 0 -147.5 -41t-55.5 -106q0 -51 37 -87t127 -77q170 -78 236.5 -148.5 t66.5 -172.5q0 -141 -105.5 -226.5t-279.5 -85.5q-102 0 -203.5 33t-160.5 86zM303 1583h157l142 -221l225 221h180l-346 -334h-143z" />
<glyph unicode="&#x162;" horiz-adv-x="1363" d="M244 1399l30 157h1221l-31 -157h-518l-272 -1399h-185l273 1399h-518zM290 -477l29 123q33 -16 76 -27.5t80 -11.5q137 0 137 88q0 33 -28.5 50t-82.5 17q-51 0 -84 -8l109 266h135l-65 -155q76 -8 119.5 -53t43.5 -115q0 -100 -76.5 -159.5t-205.5 -59.5 q-53 0 -104.5 12t-82.5 33z" />
<glyph unicode="&#x163;" horiz-adv-x="888" d="M90 874l29 150h229l58 295h174l-58 -295h324l-29 -150h-323l-99 -507q-10 -55 -10 -99q0 -76 37 -112q37 -37 113 -37q53 0 98 10t102 37l8 -146q-100 -53 -235 -53q-145 0 -222 72t-77 207q0 57 12 121l98 507h-229zM133 -477l29 121q33 -16 76 -27.5t80 -11.5 q135 0 135 90q0 70 -109 69q-53 0 -86 -8l107 264h135l-66 -155q76 -6 121 -51t45 -119q0 -102 -73.5 -159.5t-206.5 -57.5q-53 0 -104.5 12t-82.5 33z" />
<glyph unicode="&#x164;" horiz-adv-x="1363" d="M244 1399l30 157h1221l-31 -157h-518l-272 -1399h-185l273 1399h-518zM610 2001h178l140 -184l209 184h194l-336 -291h-157z" />
<glyph unicode="&#x165;" horiz-adv-x="888" d="M90 874l29 150h229l58 295h174l-58 -295h324l-29 -150h-323l-99 -507q-10 -55 -10 -99q0 -76 37 -112q37 -37 113 -37q53 0 98 10t102 37l8 -146q-100 -53 -235 -53q-145 0 -222 72t-77 207q0 57 12 121l98 507h-229zM707 1239l102 420h184l-165 -420h-121z" />
<glyph unicode="&#x168;" horiz-adv-x="1693" d="M219 500q0 84 21 192l168 864h184l-166 -851q-18 -100 -18 -181q0 -190 102 -289.5t297 -99.5q154 0 257 58.5t169.5 180.5t105.5 318l168 864h185l-179 -915q-66 -340 -244.5 -507t-475.5 -167q-272 0 -423 139.5t-151 393.5zM708 1710q16 133 77 206t155 73 q57 -2 95 -22.5t65.5 -48.5t53 -48.5t58.5 -22.5q41 0 63.5 32t37.5 108h131q-16 -133 -77 -206t-155 -73q-57 2 -95 22.5t-65.5 48t-53 48t-58.5 22.5q-41 0 -63.5 -31.5t-36.5 -107.5h-132z" />
<glyph unicode="&#x169;" horiz-adv-x="1228" d="M145 287q0 53 13 114l121 623h174l-119 -610q-10 -55 -10 -103q0 -190 188 -190q133 0 226 91t124 251l109 561h174l-199 -1024h-164l29 162q-59 -94 -151 -145q-90 -50 -201 -50q-143 0 -229 87q-85 87 -85 233zM399 1274q16 133 77 205.5t155 72.5q57 -2 95 -22.5 t65.5 -48t53.5 -48t58 -22.5q41 0 63.5 32t37.5 107h131q-16 -133 -77 -205.5t-155 -72.5q-57 2 -95 22.5t-65.5 48t-53 48t-58.5 22.5q-41 0 -63.5 -31.5t-36.5 -107.5h-132z" />
<glyph unicode="&#x16a;" horiz-adv-x="1693" d="M219 500q0 84 21 192l168 864h184l-166 -851q-18 -100 -18 -181q0 -190 102 -289.5t297 -99.5q154 0 257 58.5t169.5 180.5t105.5 318l168 864h185l-179 -915q-66 -340 -244.5 -507t-475.5 -167q-272 0 -423 139.5t-151 393.5zM747 1749l27 149h623l-27 -149h-623z" />
<glyph unicode="&#x16b;" horiz-adv-x="1228" d="M145 287q0 53 13 114l121 623h174l-119 -610q-10 -55 -10 -103q0 -190 188 -190q133 0 226 91t124 251l109 561h174l-199 -1024h-164l29 162q-59 -94 -151 -145q-90 -50 -201 -50q-143 0 -229 87q-85 87 -85 233zM440 1325l27 150h623l-27 -150h-623z" />
<glyph unicode="&#x16e;" horiz-adv-x="1693" d="M219 500q0 84 21 192l168 864h184l-166 -851q-18 -100 -18 -181q0 -190 102 -289.5t297 -99.5q154 0 257 58.5t169.5 180.5t105.5 318l168 864h185l-179 -915q-66 -340 -244.5 -507t-475.5 -167q-272 0 -423 139.5t-151 393.5zM825 1929q0 109 77 181.5t189 72.5 q113 0 189.5 -72.5t76.5 -181.5t-76.5 -181.5t-189.5 -72.5t-189.5 73t-76.5 181zM952 1929q0 -63 38 -101t101 -38t101 38t38 101q0 66 -36.5 102.5t-102.5 36.5q-63 0 -101 -37.5t-38 -101.5z" />
<glyph unicode="&#x16f;" horiz-adv-x="1228" d="M145 287q0 53 13 114l121 623h174l-119 -610q-10 -55 -10 -103q0 -190 188 -190q133 0 226 91t124 251l109 561h174l-199 -1024h-164l29 162q-59 -94 -151 -145q-90 -50 -201 -50q-143 0 -229 87q-85 87 -85 233zM498 1458q0 109 76.5 181.5t189.5 72.5t189.5 -72.5 t76.5 -181.5t-76.5 -181.5t-189.5 -72.5t-189.5 73t-76.5 181zM625 1458q0 -63 38 -101t101 -38t101 38t38 101q0 66 -37 102.5t-102 36.5q-63 0 -101 -37.5t-38 -101.5z" />
<glyph unicode="&#x170;" horiz-adv-x="1693" d="M219 500q0 84 21 192l168 864h184l-166 -851q-18 -100 -18 -181q0 -190 102 -289.5t297 -99.5q154 0 257 58.5t169.5 180.5t105.5 318l168 864h185l-179 -915q-66 -340 -244.5 -507t-475.5 -167q-272 0 -423 139.5t-151 393.5zM744 1710l176 264h211l-219 -264h-168z M1104 1710l176 264h211l-219 -264h-168z" />
<glyph unicode="&#x171;" horiz-adv-x="1228" d="M145 287q0 53 13 114l121 623h174l-119 -610q-10 -55 -10 -103q0 -190 188 -190q133 0 226 91t124 251l109 561h174l-199 -1024h-164l29 162q-59 -94 -151 -145q-90 -50 -201 -50q-143 0 -229 87q-85 87 -85 233zM454 1249l215 334h201l-262 -334h-154zM805 1249l215 334 h200l-262 -334h-153z" />
<glyph unicode="&#x172;" horiz-adv-x="1693" d="M219 500q0 84 21 192l168 864h184l-166 -851q-18 -100 -18 -181q0 -190 102 -289.5t297 -99.5q154 0 257 58.5t169.5 180.5t105.5 318l168 864h185l-179 -915q-66 -340 -244.5 -507t-475.5 -167q-272 0 -423 139.5t-151 393.5zM614 -344q0 109 110.5 215t299.5 180 l110 -10q-182 -104 -270 -189t-88 -157q0 -66 78 -66q53 0 119 31l4 -139q-66 -37 -154 -37q-96 0 -152.5 46t-56.5 126z" />
<glyph unicode="&#x173;" horiz-adv-x="1228" d="M145 287q0 53 13 114l121 623h174l-119 -610q-10 -55 -10 -103q0 -190 188 -190q133 0 226 91t124 251l109 561h174l-199 -1024h-164l29 162q-59 -94 -151 -145q-90 -50 -201 -50q-143 0 -229 87q-85 87 -85 233zM545 -344q0 96 98.5 214t235.5 185l68 -55 q-111 -82 -175.5 -165t-64.5 -144q0 -29 17.5 -45.5t50.5 -16.5q55 0 120 33l5 -139q-27 -16 -71 -27.5t-85 -11.5q-94 0 -146.5 45t-52.5 127z" />
<glyph unicode="&#x174;" horiz-adv-x="2232" d="M264 1556h187l118 -1347l652 1327h192l127 -1319l645 1339h189l-768 -1556h-201l-129 1323l-647 -1323h-201zM971 1710l336 291h158l227 -291h-178l-138 180l-206 -180h-199z" />
<glyph unicode="&#x175;" horiz-adv-x="1634" d="M150 1024h169l101 -831l407 831h152l106 -829l420 829h176l-548 -1024h-162l-109 817l-401 -817h-162zM579 1249l346 334h144l215 -334h-158l-141 219l-226 -219h-180z" />
<glyph unicode="&#x176;" horiz-adv-x="1396" d="M233 1556h195l324 -741l614 741h203l-754 -892l-129 -664h-184l131 676zM551 1710l336 291h158l227 -291h-178l-138 180l-206 -180h-199z" />
<glyph unicode="&#x177;" horiz-adv-x="1107" d="M-10 -502l395 604l-246 922h183l188 -750l467 750h188l-991 -1526h-184zM321 1249l346 334h144l215 -334h-158l-141 219l-226 -219h-180z" />
<glyph unicode="&#x178;" horiz-adv-x="1396" d="M233 1556h195l324 -741l614 741h203l-754 -892l-129 -664h-184l131 676zM627 1802q0 55 34.5 91t88.5 36q45 0 73.5 -28.5t28.5 -75.5q0 -55 -35 -91t-88 -36q-45 0 -73.5 28.5t-28.5 75.5zM1014 1802q0 55 34.5 91t88.5 36q45 0 73.5 -28.5t28.5 -75.5q0 -55 -35 -91 t-88 -36q-45 0 -73.5 28.5t-28.5 75.5z" />
<glyph unicode="&#x179;" horiz-adv-x="1409" d="M10 0l27 156l1161 1243h-883l31 157h1106l-29 -155l-1161 -1243h950l-30 -158h-1172zM756 1710l262 264h246l-320 -264h-188z" />
<glyph unicode="&#x17a;" horiz-adv-x="1050" d="M6 0l25 147l717 727h-558l29 150h764l-25 -147l-718 -727h618l-29 -150h-823zM502 1249l270 334h223l-323 -334h-170z" />
<glyph unicode="&#x17b;" horiz-adv-x="1409" d="M10 0l27 156l1161 1243h-883l31 157h1106l-29 -155l-1161 -1243h950l-30 -158h-1172zM809 1810q0 57 37 95.5t94 38.5q47 0 78 -31t31 -82q0 -57 -37 -95t-94 -38q-47 0 -78 30.5t-31 81.5z" />
<glyph unicode="&#x17c;" horiz-adv-x="1050" d="M6 0l25 147l717 727h-558l29 150h764l-25 -147l-718 -727h618l-29 -150h-823zM534 1411q0 57 37 95t94 38q47 0 78 -30.5t31 -81.5q0 -57 -37 -95.5t-94 -38.5q-47 0 -78 31t-31 82z" />
<glyph unicode="&#x17d;" horiz-adv-x="1409" d="M10 0l27 156l1161 1243h-883l31 157h1106l-29 -155l-1161 -1243h950l-30 -158h-1172zM604 2001h178l140 -184l209 184h194l-336 -291h-157z" />
<glyph unicode="&#x17e;" horiz-adv-x="1050" d="M6 0l25 147l717 727h-558l29 150h764l-25 -147l-718 -727h618l-29 -150h-823zM367 1583h157l142 -221l225 221h180l-346 -334h-143z" />
<glyph unicode="&#x192;" horiz-adv-x="798" d="M-334 -471l33 143q35 -18 83 -29.5t93 -11.5q199 0 254 295l184 948h-202l28 150h203l39 199q43 221 162 333.5t305 112.5q57 0 114.5 -14.5t100.5 -40.5l-33 -146q-88 47 -182 48q-121 0 -193.5 -77t-105.5 -245l-33 -170h309l-28 -150h-310l-182 -937 q-45 -236 -148.5 -346.5t-281.5 -110.5q-59 0 -117.5 13t-91.5 36z" />
<glyph unicode="&#x218;" horiz-adv-x="1316" d="M82 123l41 168q106 -78 227 -120t234 -42q164 0 268 79t104 204q0 88 -70.5 159.5t-238.5 153.5q-193 94 -270.5 190.5t-77.5 237.5q0 90 36 169t104.5 138.5t168 94t219.5 34.5q113 0 227.5 -33.5t205.5 -93.5l-43 -159q-94 59 -196.5 91.5t-197.5 32.5 q-152 0 -248 -74.5t-96 -193.5q0 -82 60.5 -146.5t199.5 -129.5q164 -78 249 -145.5t120 -143.5t35 -180q0 -129 -68.5 -229.5t-195.5 -159t-295 -58.5q-137 0 -271.5 42t-230.5 114zM262 -502q137 170 162 369h184q-14 -100 -70.5 -201.5t-135.5 -167.5h-140z" />
<glyph unicode="&#x219;" horiz-adv-x="917" d="M35 86l37 147q150 -121 331 -120q94 0 149.5 40t55.5 109q0 55 -44 95t-161 92q-137 61 -195 129.5t-58 166.5q0 137 103 224.5t267 87.5q84 0 171 -26.5t151 -72.5l-33 -145q-150 98 -289 98q-92 0 -147.5 -41t-55.5 -106q0 -51 37 -87t127 -77q170 -78 236.5 -148.5 t66.5 -172.5q0 -141 -105.5 -226.5t-279.5 -85.5q-102 0 -203.5 33t-160.5 86zM65 -502q137 170 162 369h184q-14 -100 -70.5 -201.5t-135.5 -167.5h-140z" />
<glyph unicode="&#x21a;" horiz-adv-x="1363" d="M244 1399l30 157h1221l-31 -157h-518l-272 -1399h-185l273 1399h-518zM303 -502q137 170 162 369h184q-14 -100 -70.5 -201.5t-135.5 -167.5h-140z" />
<glyph unicode="&#x21b;" horiz-adv-x="888" d="M90 874l29 150h229l58 295h174l-58 -295h324l-29 -150h-323l-99 -507q-10 -55 -10 -99q0 -76 37 -112q37 -37 113 -37q53 0 98 10t102 37l8 -146q-100 -53 -235 -53q-145 0 -222 72t-77 207q0 57 12 121l98 507h-229zM141 -502q137 170 162 369h184 q-14 -100 -70.5 -201.5t-135.5 -167.5h-140z" />
<glyph unicode="&#x237;" horiz-adv-x="542" d="M-391 -471l33 143q35 -18 83 -29.5t93 -11.5q199 0 254 295l213 1098h174l-211 -1087q-45 -236 -148.5 -346.5t-281.5 -110.5q-59 0 -117.5 13t-91.5 36z" />
<glyph unicode="&#x2c6;" horiz-adv-x="1024" d="M303 1249l346 334h144l215 -334h-158l-141 219l-226 -219h-180z" />
<glyph unicode="&#x2c7;" horiz-adv-x="1024" d="M367 1583h157l142 -221l225 221h180l-346 -334h-143z" />
<glyph unicode="&#x2c9;" horiz-adv-x="1024" d="M360 1325l27 150h623l-27 -150h-623z" />
<glyph unicode="&#x2cb;" horiz-adv-x="1024" d="M518 1583h188l152 -334h-152z" />
<glyph unicode="&#x2d8;" horiz-adv-x="1024" d="M399 1456q0 43 13 88h127q-6 -33 -7 -61q0 -129 144 -129q86 0 134 46t64 144h140q-20 -156 -107.5 -236.5t-232.5 -80.5q-129 0 -202 60.5t-73 168.5z" />
<glyph unicode="&#x2d9;" horiz-adv-x="1024" d="M567 1411q0 57 37 95t94 38q47 0 78 -30.5t31 -81.5q0 -57 -37 -95.5t-94 -38.5q-47 0 -78 31t-31 82z" />
<glyph unicode="&#x2da;" horiz-adv-x="1024" d="M410 1458q0 109 76.5 181.5t189.5 72.5t189.5 -72.5t76.5 -181.5t-76.5 -181.5t-189.5 -72.5t-189.5 73t-76.5 181zM537 1458q0 -63 38 -101t101 -38t101 38t38 101q0 66 -37 102.5t-102 36.5q-63 0 -101 -37.5t-38 -101.5z" />
<glyph unicode="&#x2db;" horiz-adv-x="1024" d="M301 -344q0 96 98.5 214t235.5 185l68 -55q-111 -82 -175.5 -165t-64.5 -144q0 -29 17.5 -45.5t50.5 -16.5q55 0 120 33l5 -139q-27 -16 -71 -27.5t-85 -11.5q-94 0 -146.5 45t-52.5 127z" />
<glyph unicode="&#x2dc;" horiz-adv-x="1024" d="M319 1274q16 133 77 205.5t155 72.5q57 -2 95 -22.5t65.5 -48t53.5 -48t58 -22.5q41 0 63.5 32t37.5 107h131q-16 -133 -77 -205.5t-155 -72.5q-57 2 -95 22.5t-65.5 48t-53 48t-58.5 22.5q-41 0 -63.5 -31.5t-36.5 -107.5h-132z" />
<glyph unicode="&#x2dd;" horiz-adv-x="1024" d="M305 1249l215 334h201l-262 -334h-154zM656 1249l215 334h200l-262 -334h-153z" />
<glyph unicode="&#x300;" horiz-adv-x="0" d="M-90 1583h188l152 -334h-152z" />
<glyph unicode="&#x301;" horiz-adv-x="0" d="M-8 1249l270 334h223l-323 -334h-170z" />
<glyph unicode="&#x302;" horiz-adv-x="0" d="M-209 1249l346 334h144l215 -334h-158l-141 219l-226 -219h-180z" />
<glyph unicode="&#x303;" horiz-adv-x="0" d="M-193 1274q16 133 77 205.5t155 72.5q57 -2 95 -22.5t65.5 -48t53.5 -48t58 -22.5q41 0 63.5 32t37.5 107h131q-16 -133 -77 -205.5t-155 -72.5q-57 2 -95 22.5t-65.5 48t-53 48t-58.5 22.5q-41 0 -63.5 -31.5t-36.5 -107.5h-132z" />
<glyph unicode="&#x304;" horiz-adv-x="0" d="M-154 1325l27 150h623l-27 -150h-623z" />
<glyph unicode="&#x306;" horiz-adv-x="0" d="M-115 1456q0 43 13 88h127q-6 -33 -7 -61q0 -129 144 -129q86 0 134 46t64 144h140q-20 -156 -107.5 -236.5t-232.5 -80.5q-129 0 -202 60.5t-73 168.5z" />
<glyph unicode="&#x307;" horiz-adv-x="0" d="M57 1411q0 57 37 95t94 38q47 0 78 -30.5t31 -81.5q0 -57 -37 -95.5t-94 -38.5q-47 0 -78 31t-31 82z" />
<glyph unicode="&#x308;" horiz-adv-x="0" d="M-129 1413q0 55 35 91t88 36q45 0 73.5 -28.5t28.5 -75.5q0 -55 -35 -91t-88 -36q-45 0 -73.5 28.5t-28.5 75.5zM258 1413q0 55 35 91t88 36q45 0 73.5 -28.5t28.5 -75.5q0 -55 -35 -91t-88 -36q-45 0 -73.5 28.5t-28.5 75.5z" />
<glyph unicode="&#x30a;" horiz-adv-x="0" d="M-102 1458q0 109 76.5 181.5t189.5 72.5t189.5 -72.5t76.5 -181.5t-76.5 -181.5t-189.5 -72.5t-189.5 73t-76.5 181zM25 1458q0 -63 38 -101t101 -38t101 38t38 101q0 66 -37 102.5t-102 36.5q-63 0 -101 -37.5t-38 -101.5z" />
<glyph unicode="&#x30b;" horiz-adv-x="0" d="M-111 1249l215 334h201l-262 -334h-154zM240 1249l215 334h200l-262 -334h-153z" />
<glyph unicode="&#x30c;" horiz-adv-x="0" d="M-143 1583h157l142 -221l225 221h180l-346 -334h-143z" />
<glyph unicode="&#x312;" horiz-adv-x="0" d="M43 1249q8 86 64.5 184.5t125.5 149.5h129q-55 -59 -92 -150.5t-45 -183.5h-182z" />
<glyph unicode="&#x315;" horiz-adv-x="0" d="M25 1188l116 471h183l-181 -471h-118z" />
<glyph unicode="&#x326;" horiz-adv-x="0" d="M-371 -502q137 170 162 369h184q-14 -100 -70.5 -201.5t-135.5 -167.5h-140z" />
<glyph unicode="&#x327;" horiz-adv-x="0" d="M-418 -477l29 121q33 -16 76 -27.5t80 -11.5q135 0 135 90q0 70 -109 69q-53 0 -86 -8l107 264h135l-66 -155q76 -6 121 -51t45 -119q0 -102 -73.5 -159.5t-206.5 -57.5q-53 0 -104.5 12t-82.5 33z" />
<glyph unicode="&#x328;" horiz-adv-x="0" d="M-418 -344q0 96 98.5 214t235.5 185l68 -55q-111 -82 -175.5 -165t-64.5 -144q0 -29 17.5 -45.5t50.5 -16.5q55 0 120 33l5 -139q-27 -16 -71 -27.5t-85 -11.5q-94 0 -146.5 45t-52.5 127z" />
<glyph unicode="&#x3c0;" horiz-adv-x="1286" d="M147 0l170 874h-165l28 150h1106l-29 -150h-161l-119 -612q-6 -33 -6 -57q0 -35 16.5 -49.5t56.5 -14.5q31 0 72 13l-18 -148q-44 -16 -105 -16q-199 0 -198 174q0 29 10 86l121 624h-439l-170 -874h-170z" />
<glyph unicode="&#x1e80;" horiz-adv-x="2232" d="M264 1556h187l118 -1347l652 1327h192l127 -1319l645 1339h189l-768 -1556h-201l-129 1323l-647 -1323h-201zM1100 1974h213l168 -264h-172z" />
<glyph unicode="&#x1e81;" horiz-adv-x="1634" d="M150 1024h169l101 -831l407 831h152l106 -829l420 829h176l-548 -1024h-162l-109 817l-401 -817h-162zM707 1583h188l152 -334h-152z" />
<glyph unicode="&#x1e82;" horiz-adv-x="2232" d="M264 1556h187l118 -1347l652 1327h192l127 -1319l645 1339h189l-768 -1556h-201l-129 1323l-647 -1323h-201zM1180 1710l262 264h246l-320 -264h-188z" />
<glyph unicode="&#x1e83;" horiz-adv-x="1634" d="M150 1024h169l101 -831l407 831h152l106 -829l420 829h176l-548 -1024h-162l-109 817l-401 -817h-162zM780 1249l270 334h223l-323 -334h-170z" />
<glyph unicode="&#x1e84;" horiz-adv-x="2232" d="M264 1556h187l118 -1347l652 1327h192l127 -1319l645 1339h189l-768 -1556h-201l-129 1323l-647 -1323h-201zM1047 1802q0 55 34.5 91t88.5 36q45 0 73.5 -28.5t28.5 -75.5q0 -55 -35 -91t-88 -36q-45 0 -73.5 28.5t-28.5 75.5zM1434 1802q0 55 34.5 91t88.5 36 q45 0 73.5 -28.5t28.5 -75.5q0 -55 -35 -91t-88 -36q-45 0 -73.5 28.5t-28.5 75.5z" />
<glyph unicode="&#x1e85;" horiz-adv-x="1634" d="M150 1024h169l101 -831l407 831h152l106 -829l420 829h176l-548 -1024h-162l-109 817l-401 -817h-162zM659 1413q0 55 35 91t88 36q45 0 73.5 -28.5t28.5 -75.5q0 -55 -35 -91t-88 -36q-45 0 -73.5 28.5t-28.5 75.5zM1046 1413q0 55 35 91t88 36q45 0 73.5 -28.5 t28.5 -75.5q0 -55 -35 -91t-88 -36q-45 0 -73.5 28.5t-28.5 75.5z" />
<glyph unicode="&#x1e9e;" horiz-adv-x="1593" d="M104 0l179 915q63 326 248.5 500t467.5 174q150 0 284 -51t228 -145l-22 -123l-356 -391q152 -25 240.5 -134.5t88.5 -269.5q0 -141 -68.5 -257t-195.5 -183.5t-289 -67.5q-115 0 -215 29t-168 80l37 164q154 -109 336 -109q170 0 275.5 95.5t105.5 248.5q0 131 -84 207 t-227 76q-18 0 -35 -2l-37 98l422 465q-61 49 -146.5 75.5t-177.5 26.5q-211 0 -348 -143t-192 -424l-166 -854h-185z" />
<glyph unicode="&#x1ef2;" horiz-adv-x="1396" d="M233 1556h195l324 -741l614 741h203l-754 -892l-129 -664h-184l131 676zM680 1974h213l168 -264h-172z" />
<glyph unicode="&#x1ef3;" horiz-adv-x="1107" d="M-10 -502l395 604l-246 922h183l188 -750l467 750h188l-991 -1526h-184zM449 1583h188l152 -334h-152z" />
<glyph unicode="&#x2000;" horiz-adv-x="1024" />
<glyph unicode="&#x2001;" horiz-adv-x="2048" />
<glyph unicode="&#x2002;" horiz-adv-x="1024" />
<glyph unicode="&#x2003;" horiz-adv-x="2048" />
<glyph unicode="&#x2004;" horiz-adv-x="681" />
<glyph unicode="&#x2005;" horiz-adv-x="512" />
<glyph unicode="&#x2006;" horiz-adv-x="339" />
<glyph unicode="&#x2007;" horiz-adv-x="1269" />
<glyph unicode="&#x2008;" horiz-adv-x="593" />
<glyph unicode="&#x2009;" horiz-adv-x="409" />
<glyph unicode="&#x200a;" horiz-adv-x="112" />
<glyph unicode="&#x200b;" horiz-adv-x="0" />
<glyph unicode="&#x2010;" horiz-adv-x="899" d="M152 502l34 174h590l-35 -174h-589z" />
<glyph unicode="&#x2011;" horiz-adv-x="899" d="M152 502l34 174h590l-35 -174h-589z" />
<glyph unicode="&#x2012;" horiz-adv-x="1024" d="M-16 512l28 156h1028l-30 -156h-1026z" />
<glyph unicode="&#x2013;" horiz-adv-x="1024" d="M-16 512l28 156h1028l-30 -156h-1026z" />
<glyph unicode="&#x2014;" horiz-adv-x="2048" d="M-16 512l30 156h2050l-30 -156h-2050z" />
<glyph unicode="&#x2015;" horiz-adv-x="2048" d="M-16 512l30 156h2050l-30 -156h-2050z" />
<glyph unicode="&#x2018;" horiz-adv-x="425" d="M207 1085q8 125 64.5 249t148.5 222h147q-74 -94 -120 -215.5t-58 -255.5h-182z" />
<glyph unicode="&#x2019;" horiz-adv-x="425" d="M172 1085q74 94 120 216t58 255h182q-8 -125 -64 -248.5t-149 -222.5h-147z" />
<glyph unicode="&#x201a;" horiz-adv-x="425" d="M-82 -229q74 94 120 216t58 255h183q-8 -125 -64.5 -249t-148.5 -222h-148z" />
<glyph unicode="&#x201c;" horiz-adv-x="768" d="M207 1085q8 125 64.5 249t148.5 222h147q-74 -94 -120 -215.5t-58 -255.5h-182zM549 1085q8 125 64.5 249t148.5 222h147q-74 -94 -120 -215.5t-58 -255.5h-182z" />
<glyph unicode="&#x201d;" horiz-adv-x="768" d="M172 1085q74 94 120 216t58 255h182q-8 -125 -64 -248.5t-149 -222.5h-147zM514 1085q74 94 120 216t58 255h182q-8 -125 -64 -248.5t-149 -222.5h-147z" />
<glyph unicode="&#x201e;" horiz-adv-x="768" d="M-82 -229q74 94 120 216t58 255h183q-8 -125 -64.5 -249t-148.5 -222h-148zM260 -229q74 94 120 216t58 255h183q-8 -125 -64.5 -249t-148.5 -222h-148z" />
<glyph unicode="&#x2020;" horiz-adv-x="1015" d="M168 907l31 160h329l97 489h172l-97 -489h330l-31 -160h-329l-228 -1173h-172l228 1173h-330z" />
<glyph unicode="&#x2021;" horiz-adv-x="1015" d="M31 203l30 159h330l111 566h-330l31 159h329l93 469h172l-92 -469h329l-30 -159h-330l-111 -566h330l-31 -159h-330l-90 -469h-172l90 469h-329z" />
<glyph unicode="&#x2022;" horiz-adv-x="718" d="M117 561q0 104 73.5 178t178.5 74q104 0 178 -73.5t74 -178.5q0 -104 -74 -178t-178 -74t-178 74t-74 178z" />
<glyph unicode="&#x2026;" horiz-adv-x="2048" d="M129 109q0 63 42 104t103 41q53 0 88 -35t35 -86q0 -63 -42 -104t-105 -41q-51 0 -86 34.5t-35 86.5zM811 109q0 63 42 104t103 41q53 0 88 -35t35 -86q0 -63 -42 -104t-105 -41q-51 0 -86 34.5t-35 86.5zM1497 109q0 63 42 104t103 41q53 0 88 -35t35 -86 q0 -63 -42 -104t-105 -41q-51 0 -86 34.5t-35 86.5z" />
<glyph unicode="&#x202f;" horiz-adv-x="436" />
<glyph unicode="&#x2030;" horiz-adv-x="2940" d="M240 1122q0 109 52 208.5t147.5 162.5t207.5 63q100 0 182 -43t130.5 -122.5t48.5 -182.5q0 -109 -52.5 -208t-147.5 -162.5t-208 -63.5q-100 0 -182 43t-130 123t-48 182zM270 0l1416 1524h198l-1415 -1524h-199zM393 1135q0 -100 56.5 -158.5t154.5 -58.5 q104 0 177 81.5t73 196.5q0 100 -56.5 158.5t-154.5 58.5q-104 0 -177 -82t-73 -196zM1157 328q0 109 52.5 208t147.5 162.5t208 63.5q100 0 182 -43t130 -123t48 -182q0 -109 -52 -208.5t-147 -162.5t-208 -63q-100 0 -182.5 43t-130.5 122.5t-48 182.5zM1311 340 q0 -100 56.5 -158.5t154.5 -58.5q104 0 177 82t73 196q0 100 -56.5 158.5t-154.5 58.5q-104 0 -177 -81.5t-73 -196.5zM2032 328q0 109 52 208t147.5 162.5t207.5 63.5q100 0 182 -43t130.5 -123t48.5 -182q0 -109 -52.5 -208.5t-147.5 -162.5t-208 -63q-100 0 -182 43 t-130 122.5t-48 182.5zM2185 340q0 -100 56.5 -158.5t154.5 -58.5q104 0 177 82t73 196q0 100 -56.5 158.5t-154.5 58.5q-104 0 -177 -81.5t-73 -196.5z" />
<glyph unicode="&#x2032;" horiz-adv-x="409" d="M147 961l220 595h184l-254 -595h-150z" />
<glyph unicode="&#x2033;" horiz-adv-x="778" d="M147 961l220 595h184l-254 -595h-150zM516 961l220 595h184l-254 -595h-150z" />
<glyph unicode="&#x2039;" horiz-adv-x="667" d="M66 526l376 439h209l-389 -453l199 -424h-191z" />
<glyph unicode="&#x203a;" horiz-adv-x="667" d="M23 88l389 451l-199 426h190l205 -439l-377 -438h-208z" />
<glyph unicode="&#x2044;" horiz-adv-x="342" d="M-586 0l1415 1524h199l-1415 -1524h-199z" />
<glyph unicode="&#x205f;" horiz-adv-x="545" />
<glyph unicode="&#x2070;" d="M209 1260q0 74 14 137q37 180 141.5 286.5t243.5 106.5q131 0 211 -94t80 -252q0 -74 -15 -137q-37 -180 -141.5 -286.5t-243.5 -106.5q-131 0 -210.5 94t-79.5 252zM356 1260q0 -104 42 -163t116 -59q78 0 139 74t84 195q14 66 14 137q0 104 -42 162.5t-115 58.5 q-78 0 -139.5 -73.5t-84.5 -194.5q-14 -66 -14 -137z" />
<glyph unicode="&#x2074;" d="M176 1129l20 114l492 527h141l-100 -523h117l-23 -118h-117l-37 -195h-133l37 195h-397zM342 1247h256l65 342z" />
<glyph unicode="&#x2075;" d="M215 991l33 125q111 -78 221 -78q88 0 142 47.5t54 118.5q0 63 -52 100.5t-142 37.5q-74 0 -152 -19l99 447h444l-27 -129h-313l-41 -181q10 2 31 2q139 0 217 -66.5t78 -187.5q0 -131 -94 -212.5t-244 -81.5q-76 0 -144.5 21.5t-109.5 55.5z" />
<glyph unicode="&#x2076;" d="M219 1184q0 143 113.5 308t295.5 284l175 -8q-283 -184 -394 -367q72 72 185 72q106 0 173.5 -70t67.5 -178q0 -82 -43 -152.5t-120 -114.5t-171 -44q-133 0 -207.5 71.5t-74.5 198.5zM354 1176q0 -66 40 -106t110 -40q82 0 139 55.5t57 135.5q0 66 -40 104.5t-109 38.5 q-84 0 -140.5 -54t-56.5 -134z" />
<glyph unicode="&#x2077;" d="M307 938l424 701h-412l27 131h557l-25 -125l-422 -715z" />
<glyph unicode="&#x2078;" d="M209 1139q0 86 56 153.5t146 87.5q-47 18 -73.5 59.5t-26.5 96.5q0 109 87 181.5t218 72.5q115 0 187.5 -60.5t72.5 -154.5q0 -80 -44 -137.5t-122 -79.5q55 -23 85 -70t30 -106q0 -121 -89.5 -194.5t-236.5 -73.5q-133 0 -211.5 61t-78.5 164zM350 1153q0 -57 42 -89 t114 -32q76 0 127 43t51 111q0 57 -42 89t-114 32q-76 0 -127 -43t-51 -111zM444 1536q0 -51 35.5 -80.5t101.5 -29.5q70 0 116 39.5t46 99.5q0 51 -36 80.5t-101 29.5q-70 0 -116 -39.5t-46 -99.5z" />
<glyph unicode="&#x2079;" d="M274 1479q0 82 43 152.5t120 114.5t171 44q133 0 208 -71.5t75 -198.5q0 -143 -113 -306t-297 -284l-174 8q279 182 393 365q-68 -72 -184 -72q-106 0 -174 69.5t-68 178.5zM409 1483q0 -66 40 -104.5t110 -38.5q84 0 140 54t56 134q0 66 -39.5 105.5t-109.5 39.5 q-82 0 -139.5 -55t-57.5 -135z" />
<glyph unicode="&#x2080;" d="M-20 70q0 74 14 137q37 180 141.5 286.5t243.5 106.5q131 0 211 -94t80 -252q0 -74 -15 -137q-37 -180 -141.5 -286.5t-243.5 -106.5q-131 0 -210.5 94t-79.5 252zM127 70q0 -104 42 -163t116 -59q78 0 139 74t84 195q14 66 14 137q0 104 -42 162.5t-115 58.5 q-78 0 -139.5 -73.5t-84.5 -194.5q-14 -66 -14 -137z" />
<glyph unicode="&#x2081;" d="M127 313l6 140l295 127h121l-164 -836h-141l131 676z" />
<glyph unicode="&#x2082;" d="M-31 -256l23 133q213 164 293 234q98 84 138 143t40 117q0 45 -34 72.5t-91 27.5q-59 0 -118.5 -29.5t-102.5 -79.5l-25 127q41 51 113 81t149 30q115 0 183.5 -60.5t68.5 -162.5q0 -82 -52 -161t-179 -191q-92 -80 -207 -152h397l-26 -129h-570z" />
<glyph unicode="&#x2083;" d="M-39 -193l31 125q47 -39 106.5 -62.5t116.5 -23.5q88 0 144.5 47.5t56.5 116.5q0 59 -39 91t-111 32q-35 0 -71 -12l-31 86l279 246h-359l31 127h518l-23 -119l-256 -225q96 -8 152.5 -69t56.5 -153q0 -127 -97 -208.5t-249 -81.5q-74 0 -145.5 23.5t-110.5 59.5z" />
<glyph unicode="&#x2084;" d="M-53 -61l20 114l492 527h141l-100 -523h117l-23 -118h-117l-37 -195h-133l37 195h-397zM113 57h256l65 342z" />
<glyph unicode="&#x2085;" d="M-14 -199l33 125q111 -78 221 -78q88 0 142 47.5t54 118.5q0 63 -52 100.5t-142 37.5q-74 0 -152 -19l99 447h444l-27 -129h-313l-41 -181q10 2 31 2q139 0 217 -66.5t78 -187.5q0 -131 -94 -212.5t-244 -81.5q-76 0 -144.5 21.5t-109.5 55.5z" />
<glyph unicode="&#x2086;" d="M-10 -6q0 143 113.5 308t295.5 284l175 -8q-283 -184 -394 -367q72 72 185 72q106 0 173.5 -70t67.5 -178q0 -82 -43 -152.5t-120 -114.5t-171 -44q-133 0 -207.5 71.5t-74.5 198.5zM125 -14q0 -66 40 -106t110 -40q82 0 139 55.5t57 135.5q0 66 -40 104.5t-109 38.5 q-84 0 -140.5 -54t-56.5 -134z" />
<glyph unicode="&#x2087;" d="M78 -252l424 701h-412l27 131h557l-25 -125l-422 -715z" />
<glyph unicode="&#x2088;" d="M-20 -51q0 86 56 153.5t146 87.5q-47 18 -73.5 59.5t-26.5 96.5q0 109 87 181.5t218 72.5q115 0 187.5 -60.5t72.5 -154.5q0 -80 -44 -137.5t-122 -79.5q55 -23 85 -70t30 -106q0 -121 -89.5 -194.5t-236.5 -73.5q-133 0 -211.5 61t-78.5 164zM121 -37q0 -57 42 -89 t114 -32q76 0 127 43t51 111q0 57 -42 89t-114 32q-76 0 -127 -43t-51 -111zM215 346q0 -51 35.5 -80.5t101.5 -29.5q70 0 116 39.5t46 99.5q0 51 -36 80.5t-101 29.5q-70 0 -116 -39.5t-46 -99.5z" />
<glyph unicode="&#x2089;" d="M45 289q0 82 43 152.5t120 114.5t171 44q133 0 208 -71.5t75 -198.5q0 -143 -113 -306t-297 -284l-174 8q279 182 393 365q-68 -72 -184 -72q-106 0 -174 69.5t-68 178.5zM180 293q0 -66 40 -104.5t110 -38.5q84 0 140 54t56 134q0 66 -39.5 105.5t-109.5 39.5 q-82 0 -139.5 -55t-57.5 -135z" />
<glyph unicode="&#x20ac;" horiz-adv-x="1269" d="M78 514l26 141h197q4 113 25 213h-181l29 142h191q88 254 275 400t419 146q86 0 170 -21.5t145 -59.5l-35 -154q-156 78 -292 78q-162 0 -295.5 -103.5t-206.5 -285.5h563l-29 -142h-577q-23 -102 -27 -213h563l-26 -141h-533q37 -389 395 -389q135 0 281 74l6 -162 q-57 -33 -136 -51.5t-163 -18.5q-254 0 -395 139.5t-164 407.5h-225z" />
<glyph unicode="&#x20ba;" horiz-adv-x="1269" d="M115 553l28 147l211 64l37 190l-209 -63l29 147l209 62l82 424h164l-76 -379l403 121l-28 -148l-404 -123l-37 -188l402 121l-29 -148l-401 -121l-105 -536h10q268 0 417 129t196 403l155 -16q-41 -328 -244.5 -500t-549.5 -172q-96 0 -172 19l123 630z" />
<glyph unicode="&#x2122;" horiz-adv-x="1687" d="M211 1432l25 124h602l-25 -124h-227l-123 -633h-146l123 633h-229zM815 799l186 757h142l125 -485l327 485h142l-111 -757h-129l84 555l-285 -424h-100l-117 444l-135 -575h-129z" />
<glyph unicode="&#x2126;" horiz-adv-x="1892" d="M96 0l33 166h379q-133 98 -207 247.5t-74 323.5q0 162 58.5 312.5t171 271.5t270.5 194.5t340 73.5q205 0 365.5 -85t254 -242.5t93.5 -366.5q0 -139 -59.5 -280.5t-170 -260t-254.5 -188.5h373l-33 -166h-635l29 152q166 76 292 190.5t195.5 256.5t69.5 294 q0 154 -64.5 272.5t-185 186t-282.5 67.5q-168 0 -312.5 -87t-233.5 -243.5t-89 -351.5q0 -186 67.5 -320t229.5 -265l-29 -152h-592z" />
<glyph unicode="&#x2150;" horiz-adv-x="1906" d="M159 0l1415 1524h199l-1415 -1524h-199zM309 1257l6 140l295 127h121l-164 -836h-141l131 676zM1251 4l424 701h-412l27 131h557l-25 -125l-422 -715z" />
<glyph unicode="&#x2151;" horiz-adv-x="1906" d="M172 0l1415 1524h199l-1415 -1524h-199zM309 1257l6 140l295 127h121l-164 -836h-141l131 676zM1216 545q0 82 43 152.5t120 114.5t171 44q133 0 208 -71.5t75 -198.5q0 -143 -113 -306t-297 -284l-174 8q279 182 393 365q-68 -72 -184 -72q-106 0 -174 69.5t-68 178.5z M1351 549q0 -66 40 -104.5t110 -38.5q84 0 140 54t56 134q0 66 -39.5 105.5t-109.5 39.5q-82 0 -139.5 -55t-57.5 -135z" />
<glyph unicode="&#x2153;" horiz-adv-x="1906" d="M153 0l1415 1524h199l-1415 -1524h-199zM309 1257l6 140l295 127h121l-164 -836h-141l131 676zM1134 63l31 125q47 -39 106.5 -62.5t116.5 -23.5q88 0 144.5 47.5t56.5 116.5q0 59 -39 91t-111 32q-35 0 -71 -12l-31 86l279 246h-359l31 127h518l-23 -119l-256 -225 q96 -8 152.5 -69t56.5 -153q0 -127 -97 -208.5t-249 -81.5q-74 0 -145.5 23.5t-110.5 59.5z" />
<glyph unicode="&#x2154;" horiz-adv-x="1906" d="M149 688l23 133q213 164 293 234q98 84 138 143t40 117q0 45 -34 72.5t-91 27.5q-59 0 -118.5 -29.5t-102.5 -79.5l-25 127q41 51 113 81t149 30q115 0 183.5 -60.5t68.5 -162.5q0 -82 -52 -161t-179 -191q-92 -80 -207 -152h397l-26 -129h-570zM202 0l1415 1524h199 l-1415 -1524h-199zM1134 63l31 125q47 -39 106.5 -62.5t116.5 -23.5q88 0 144.5 47.5t56.5 116.5q0 59 -39 91t-111 32q-35 0 -71 -12l-31 86l279 246h-359l31 127h518l-23 -119l-256 -225q96 -8 152.5 -69t56.5 -153q0 -127 -97 -208.5t-249 -81.5q-74 0 -145.5 23.5 t-110.5 59.5z" />
<glyph unicode="&#x2155;" horiz-adv-x="1906" d="M190 0l1415 1524h199l-1415 -1524h-199zM309 1257l6 140l295 127h121l-164 -836h-141l131 676zM1159 57l33 125q111 -78 221 -78q88 0 142 47.5t54 118.5q0 63 -52 100.5t-142 37.5q-74 0 -152 -19l99 447h444l-27 -129h-313l-41 -181q10 2 31 2q139 0 217 -66.5 t78 -187.5q0 -131 -94 -212.5t-244 -81.5q-76 0 -144.5 21.5t-109.5 55.5z" />
<glyph unicode="&#x2156;" horiz-adv-x="1906" d="M149 688l23 133q213 164 293 234q98 84 138 143t40 117q0 45 -34 72.5t-91 27.5q-59 0 -118.5 -29.5t-102.5 -79.5l-25 127q41 51 113 81t149 30q115 0 183.5 -60.5t68.5 -162.5q0 -82 -52 -161t-179 -191q-92 -80 -207 -152h397l-26 -129h-570zM239 0l1415 1524h199 l-1415 -1524h-199zM1159 57l33 125q111 -78 221 -78q88 0 142 47.5t54 118.5q0 63 -52 100.5t-142 37.5q-74 0 -152 -19l99 447h444l-27 -129h-313l-41 -181q10 2 31 2q139 0 217 -66.5t78 -187.5q0 -131 -94 -212.5t-244 -81.5q-76 0 -144.5 21.5t-109.5 55.5z" />
<glyph unicode="&#x2157;" horiz-adv-x="1906" d="M143 751l31 125q47 -39 106.5 -62.5t116.5 -23.5q88 0 144.5 47.5t56.5 116.5q0 59 -39 91t-111 32q-35 0 -71 -12l-31 86l279 246h-359l31 127h518l-23 -119l-256 -225q96 -8 152.5 -69t56.5 -153q0 -127 -97 -208.5t-249 -81.5q-74 0 -145.5 23.5t-110.5 59.5zM207 0 l1415 1524h199l-1415 -1524h-199zM1159 57l33 125q111 -78 221 -78q88 0 142 47.5t54 118.5q0 63 -52 100.5t-142 37.5q-74 0 -152 -19l99 447h444l-27 -129h-313l-41 -181q10 2 31 2q139 0 217 -66.5t78 -187.5q0 -131 -94 -212.5t-244 -81.5q-76 0 -144.5 21.5 t-109.5 55.5z" />
<glyph unicode="&#x2158;" horiz-adv-x="1906" d="M129 883l20 114l492 527h141l-100 -523h117l-23 -118h-117l-37 -195h-133l37 195h-397zM202 0l1415 1524h199l-1415 -1524h-199zM295 1001h256l65 342zM1159 57l33 125q111 -78 221 -78q88 0 142 47.5t54 118.5q0 63 -52 100.5t-142 37.5q-74 0 -152 -19l99 447h444 l-27 -129h-313l-41 -181q10 2 31 2q139 0 217 -66.5t78 -187.5q0 -131 -94 -212.5t-244 -81.5q-76 0 -144.5 21.5t-109.5 55.5z" />
<glyph unicode="&#x2159;" horiz-adv-x="1906" d="M225 0l1415 1524h199l-1415 -1524h-199zM309 1257l6 140l295 127h121l-164 -836h-141l131 676zM1161 250q0 143 113.5 308t295.5 284l175 -8q-283 -184 -394 -367q72 72 185 72q106 0 173.5 -70t67.5 -178q0 -82 -43 -152.5t-120 -114.5t-171 -44q-133 0 -207.5 71.5 t-74.5 198.5zM1296 242q0 -66 40 -106t110 -40q82 0 139 55.5t57 135.5q0 66 -40 104.5t-109 38.5q-84 0 -140.5 -54t-56.5 -134z" />
<glyph unicode="&#x215a;" horiz-adv-x="1906" d="M168 745l33 125q111 -78 221 -78q88 0 142 47.5t54 118.5q0 63 -52 100.5t-142 37.5q-74 0 -152 -19l99 447h444l-27 -129h-313l-41 -181q10 2 31 2q139 0 217 -66.5t78 -187.5q0 -131 -94 -212.5t-244 -81.5q-76 0 -144.5 21.5t-109.5 55.5zM243 0l1415 1524h199 l-1415 -1524h-199zM1161 250q0 143 113.5 308t295.5 284l175 -8q-283 -184 -394 -367q72 72 185 72q106 0 173.5 -70t67.5 -178q0 -82 -43 -152.5t-120 -114.5t-171 -44q-133 0 -207.5 71.5t-74.5 198.5zM1296 242q0 -66 40 -106t110 -40q82 0 139 55.5t57 135.5 q0 66 -40 104.5t-109 38.5q-84 0 -140.5 -54t-56.5 -134z" />
<glyph unicode="&#x215b;" horiz-adv-x="1906" d="M178 0l1415 1524h199l-1415 -1524h-199zM309 1257l6 140l295 127h121l-164 -836h-141l131 676zM1151 205q0 86 56 153.5t146 87.5q-47 18 -73.5 59.5t-26.5 96.5q0 109 87 181.5t218 72.5q115 0 187.5 -60.5t72.5 -154.5q0 -80 -44 -137.5t-122 -79.5q55 -23 85 -70 t30 -106q0 -121 -89.5 -194.5t-236.5 -73.5q-133 0 -211.5 61t-78.5 164zM1292 219q0 -57 42 -89t114 -32q76 0 127 43t51 111q0 57 -42 89t-114 32q-76 0 -127 -43t-51 -111zM1386 602q0 -51 35.5 -80.5t101.5 -29.5q70 0 116 39.5t46 99.5q0 51 -36 80.5t-101 29.5 q-70 0 -116 -39.5t-46 -99.5z" />
<glyph unicode="&#x215c;" horiz-adv-x="1906" d="M143 751l31 125q47 -39 106.5 -62.5t116.5 -23.5q88 0 144.5 47.5t56.5 116.5q0 59 -39 91t-111 32q-35 0 -71 -12l-31 86l279 246h-359l31 127h518l-23 -119l-256 -225q96 -8 152.5 -69t56.5 -153q0 -127 -97 -208.5t-249 -81.5q-74 0 -145.5 23.5t-110.5 59.5zM202 0 l1415 1524h199l-1415 -1524h-199zM1151 205q0 86 56 153.5t146 87.5q-47 18 -73.5 59.5t-26.5 96.5q0 109 87 181.5t218 72.5q115 0 187.5 -60.5t72.5 -154.5q0 -80 -44 -137.5t-122 -79.5q55 -23 85 -70t30 -106q0 -121 -89.5 -194.5t-236.5 -73.5q-133 0 -211.5 61 t-78.5 164zM1292 219q0 -57 42 -89t114 -32q76 0 127 43t51 111q0 57 -42 89t-114 32q-76 0 -127 -43t-51 -111zM1386 602q0 -51 35.5 -80.5t101.5 -29.5q70 0 116 39.5t46 99.5q0 51 -36 80.5t-101 29.5q-70 0 -116 -39.5t-46 -99.5z" />
<glyph unicode="&#x215d;" horiz-adv-x="1906" d="M168 745l33 125q111 -78 221 -78q88 0 142 47.5t54 118.5q0 63 -52 100.5t-142 37.5q-74 0 -152 -19l99 447h444l-27 -129h-313l-41 -181q10 2 31 2q139 0 217 -66.5t78 -187.5q0 -131 -94 -212.5t-244 -81.5q-76 0 -144.5 21.5t-109.5 55.5zM217 0l1415 1524h199 l-1415 -1524h-199zM1151 205q0 86 56 153.5t146 87.5q-47 18 -73.5 59.5t-26.5 96.5q0 109 87 181.5t218 72.5q115 0 187.5 -60.5t72.5 -154.5q0 -80 -44 -137.5t-122 -79.5q55 -23 85 -70t30 -106q0 -121 -89.5 -194.5t-236.5 -73.5q-133 0 -211.5 61t-78.5 164zM1292 219 q0 -57 42 -89t114 -32q76 0 127 43t51 111q0 57 -42 89t-114 32q-76 0 -127 -43t-51 -111zM1386 602q0 -51 35.5 -80.5t101.5 -29.5q70 0 116 39.5t46 99.5q0 51 -36 80.5t-101 29.5q-70 0 -116 -39.5t-46 -99.5z" />
<glyph unicode="&#x215e;" horiz-adv-x="1906" d="M108 0l1415 1524h199l-1415 -1524h-199zM260 692l424 701h-412l27 131h557l-25 -125l-422 -715zM1151 205q0 86 56 153.5t146 87.5q-47 18 -73.5 59.5t-26.5 96.5q0 109 87 181.5t218 72.5q115 0 187.5 -60.5t72.5 -154.5q0 -80 -44 -137.5t-122 -79.5q55 -23 85 -70 t30 -106q0 -121 -89.5 -194.5t-236.5 -73.5q-133 0 -211.5 61t-78.5 164zM1292 219q0 -57 42 -89t114 -32q76 0 127 43t51 111q0 57 -42 89t-114 32q-76 0 -127 -43t-51 -111zM1386 602q0 -51 35.5 -80.5t101.5 -29.5q70 0 116 39.5t46 99.5q0 51 -36 80.5t-101 29.5 q-70 0 -116 -39.5t-46 -99.5z" />
<glyph unicode="&#x2202;" horiz-adv-x="1269" d="M104 369q0 104 39 201.5t114 176t178.5 127t219.5 48.5q135 0 231.5 -71t119.5 -189q41 158 41 311q0 428 -324 428q-162 0 -309 -123l-13 160q57 55 145.5 86.5t188.5 31.5q227 0 353 -149.5t126 -417.5q0 -283 -87 -514t-247.5 -369.5t-367.5 -138.5q-182 0 -295 111.5 t-113 290.5zM279 371q0 -111 73.5 -180.5t188.5 -69.5q98 0 184 50t140.5 142.5t54.5 204.5q0 111 -74 180.5t-189 69.5q-98 0 -184 -50t-140 -142.5t-54 -204.5z" />
<glyph unicode="&#x2206;" horiz-adv-x="1531" d="M-49 0l913 1556h203l313 -1556h-1429zM240 154h919l-223 1218z" />
<glyph unicode="&#x220f;" horiz-adv-x="1443" d="M84 -164l332 1720h1016l-334 -1720h-183l304 1567h-652l-303 -1567h-180z" />
<glyph unicode="&#x2211;" horiz-adv-x="1167" d="M-59 -162l28 150l625 729l-313 690l28 149h944l-30 -153h-750l320 -703l-607 -708h799l-29 -154h-1015z" />
<glyph unicode="&#x2212;" horiz-adv-x="1269" d="M199 604l30 160h910l-31 -160h-909z" />
<glyph unicode="&#x2215;" horiz-adv-x="342" d="M-586 0l1415 1524h199l-1415 -1524h-199z" />
<glyph unicode="&#x2219;" horiz-adv-x="593" d="M213 764q0 63 42 104t103 41q53 0 88 -35t35 -86q0 -63 -42 -104t-105 -41q-51 0 -86 34.5t-35 86.5z" />
<glyph unicode="&#x221a;" horiz-adv-x="1341" d="M121 764l29 149h350l133 -714l811 1460h182l-942 -1659h-168l-164 764h-231z" />
<glyph unicode="&#x221e;" horiz-adv-x="1480" d="M121 666q0 106 47 198t133 148.5t191 56.5q100 0 179 -53t124 -154q68 100 155.5 153.5t186.5 53.5q137 0 219 -85t82 -228q0 -106 -47.5 -198.5t-133.5 -149t-190 -56.5q-100 0 -179 54.5t-124 150.5q-70 -100 -157 -152.5t-185 -52.5q-137 0 -219 85t-82 229zM279 674 q0 -80 41.5 -126t113.5 -46q139 0 275 211q-43 109 -97.5 158t-130.5 49q-84 0 -143 -72t-59 -174zM850 709q41 -109 96 -158t131 -49q84 0 143.5 71.5t59.5 174.5q0 80 -42 126t-114 46t-139 -52.5t-135 -158.5z" />
<glyph unicode="&#x222b;" horiz-adv-x="806" d="M-262 -469l33 145q31 -20 73.5 -32.5t83.5 -12.5q109 0 172.5 91.5t87.5 285.5l156 1186q66 487 422 487q57 0 110.5 -14t86.5 -37l-33 -145q-31 20 -74 32.5t-84 12.5q-106 0 -170.5 -92t-89.5 -285l-156 -1186q-33 -250 -138.5 -368.5t-291.5 -118.5q-53 0 -104 14 t-84 37z" />
<glyph unicode="&#x2248;" horiz-adv-x="1269" d="M84 283q29 178 117 280.5t215 102.5q59 0 109 -23.5t94.5 -56.5t83 -66.5t75.5 -57t74 -23.5q59 0 102 59t64 168h158q-29 -178 -117 -280.5t-215 -102.5q-59 0 -109.5 23.5t-94.5 57.5t-83 66.5t-76 56t-73 23.5q-59 0 -102.5 -59.5t-63.5 -167.5h-158zM182 801 q29 178 117 280.5t215 102.5q59 0 109 -23.5t94.5 -56.5t83 -66.5t75.5 -57t74 -23.5q59 0 102 59t64 168h158q-29 -178 -117 -280.5t-215 -102.5q-59 0 -109.5 23.5t-94.5 57.5t-83 66.5t-76 56t-73 23.5q-59 0 -102.5 -59.5t-63.5 -167.5h-158z" />
<glyph unicode="&#x2260;" horiz-adv-x="1269" d="M186 362l31 160h272l201 322h-409l30 160h477l146 233h158l-146 -233h205l-31 -160h-272l-201 -322h410l-31 -160h-477l-143 -231h-158l143 231h-205z" />
<glyph unicode="&#x2264;" horiz-adv-x="1269" d="M84 2l30 160h910l-31 -160h-909zM241 708l35 174l936 383l-35 -182l-737 -295l622 -295l-32 -168z" />
<glyph unicode="&#x2265;" horiz-adv-x="1269" d="M84 2l30 160h910l-31 -160h-909zM168 325l34 183l738 293l-623 297l33 167l788 -383l-35 -174z" />
<glyph unicode="&#x25ca;" horiz-adv-x="1265" d="M154 829l626 832h152l303 -830l-627 -831h-151zM336 809l223 -612l494 653l-226 612z" />
<glyph unicode="&#x25fc;" horiz-adv-x="1024" d="M0 0v1024h1024v-1024h-1024z" />
<glyph unicode="&#xf507;" horiz-adv-x="1906" d="M149 688l23 133q213 164 293 234q98 84 138 143t40 117q0 45 -34 72.5t-91 27.5q-59 0 -118.5 -29.5t-102.5 -79.5l-25 127q41 51 113 81t149 30q115 0 183.5 -60.5t68.5 -162.5q0 -82 -52 -161t-179 -191q-92 -80 -207 -152h397l-26 -129h-570zM223 0l1415 1524h199 l-1415 -1524h-199zM1251 4l424 701h-412l27 131h557l-25 -125l-422 -715z" />
<glyph unicode="&#xf508;" horiz-adv-x="1906" d="M143 751l31 125q47 -39 106.5 -62.5t116.5 -23.5q88 0 144.5 47.5t56.5 116.5q0 59 -39 91t-111 32q-35 0 -71 -12l-31 86l279 246h-359l31 127h518l-23 -119l-256 -225q96 -8 152.5 -69t56.5 -153q0 -127 -97 -208.5t-249 -81.5q-74 0 -145.5 23.5t-110.5 59.5zM174 0 l1415 1524h199l-1415 -1524h-199zM1251 4l424 701h-412l27 131h557l-25 -125l-422 -715z" />
<glyph unicode="&#xf509;" horiz-adv-x="1906" d="M129 883l20 114l492 527h141l-100 -523h117l-23 -118h-117l-37 -195h-133l37 195h-397zM188 0l1415 1524h199l-1415 -1524h-199zM295 1001h256l65 342zM1251 4l424 701h-412l27 131h557l-25 -125l-422 -715z" />
<glyph unicode="&#xf50a;" horiz-adv-x="1906" d="M168 745l33 125q111 -78 221 -78q88 0 142 47.5t54 118.5q0 63 -52 100.5t-142 37.5q-74 0 -152 -19l99 447h444l-27 -129h-313l-41 -181q10 2 31 2q139 0 217 -66.5t78 -187.5q0 -131 -94 -212.5t-244 -81.5q-76 0 -144.5 21.5t-109.5 55.5zM217 0l1415 1524h199 l-1415 -1524h-199zM1251 4l424 701h-412l27 131h557l-25 -125l-422 -715z" />
<glyph unicode="&#xf50b;" horiz-adv-x="1906" d="M172 938q0 143 113.5 308t295.5 284l175 -8q-283 -184 -394 -367q72 72 185 72q106 0 173.5 -70t67.5 -178q0 -82 -43 -152.5t-120 -114.5t-171 -44q-133 0 -207.5 71.5t-74.5 198.5zM192 0l1415 1524h199l-1415 -1524h-199zM307 930q0 -66 40 -106t110 -40 q82 0 139 55.5t57 135.5q0 66 -40 104.5t-109 38.5q-84 0 -140.5 -54t-56.5 -134zM1251 4l424 701h-412l27 131h557l-25 -125l-422 -715z" />
<glyph unicode="&#xf50d;" horiz-adv-x="1906" d="M149 688l23 133q213 164 293 234q98 84 138 143t40 117q0 45 -34 72.5t-91 27.5q-59 0 -118.5 -29.5t-102.5 -79.5l-25 127q41 51 113 81t149 30q115 0 183.5 -60.5t68.5 -162.5q0 -82 -52 -161t-179 -191q-92 -80 -207 -152h397l-26 -129h-570zM250 0l1415 1524h199 l-1415 -1524h-199zM1216 545q0 82 43 152.5t120 114.5t171 44q133 0 208 -71.5t75 -198.5q0 -143 -113 -306t-297 -284l-174 8q279 182 393 365q-68 -72 -184 -72q-106 0 -174 69.5t-68 178.5zM1351 549q0 -66 40 -104.5t110 -38.5q84 0 140 54t56 134q0 66 -39.5 105.5 t-109.5 39.5q-82 0 -139.5 -55t-57.5 -135z" />
<glyph unicode="&#xf50e;" horiz-adv-x="1906" d="M129 883l20 114l492 527h141l-100 -523h117l-23 -118h-117l-37 -195h-133l37 195h-397zM219 0l1415 1524h199l-1415 -1524h-199zM295 1001h256l65 342zM1216 545q0 82 43 152.5t120 114.5t171 44q133 0 208 -71.5t75 -198.5q0 -143 -113 -306t-297 -284l-174 8 q279 182 393 365q-68 -72 -184 -72q-106 0 -174 69.5t-68 178.5zM1351 549q0 -66 40 -104.5t110 -38.5q84 0 140 54t56 134q0 66 -39.5 105.5t-109.5 39.5q-82 0 -139.5 -55t-57.5 -135z" />
<glyph unicode="&#xf50f;" horiz-adv-x="1906" d="M168 745l33 125q111 -78 221 -78q88 0 142 47.5t54 118.5q0 63 -52 100.5t-142 37.5q-74 0 -152 -19l99 447h444l-27 -129h-313l-41 -181q10 2 31 2q139 0 217 -66.5t78 -187.5q0 -131 -94 -212.5t-244 -81.5q-76 0 -144.5 21.5t-109.5 55.5zM219 0l1415 1524h199 l-1415 -1524h-199zM1216 545q0 82 43 152.5t120 114.5t171 44q133 0 208 -71.5t75 -198.5q0 -143 -113 -306t-297 -284l-174 8q279 182 393 365q-68 -72 -184 -72q-106 0 -174 69.5t-68 178.5zM1351 549q0 -66 40 -104.5t110 -38.5q84 0 140 54t56 134q0 66 -39.5 105.5 t-109.5 39.5q-82 0 -139.5 -55t-57.5 -135z" />
<glyph unicode="&#xf510;" horiz-adv-x="1906" d="M100 0l1415 1524h199l-1415 -1524h-199zM260 692l424 701h-412l27 131h557l-25 -125l-422 -715zM1216 545q0 82 43 152.5t120 114.5t171 44q133 0 208 -71.5t75 -198.5q0 -143 -113 -306t-297 -284l-174 8q279 182 393 365q-68 -72 -184 -72q-106 0 -174 69.5t-68 178.5z M1351 549q0 -66 40 -104.5t110 -38.5q84 0 140 54t56 134q0 66 -39.5 105.5t-109.5 39.5q-82 0 -139.5 -55t-57.5 -135z" />
<glyph unicode="&#xf511;" horiz-adv-x="1906" d="M160 893q0 86 56 153.5t146 87.5q-47 18 -73.5 59.5t-26.5 96.5q0 109 87 181.5t218 72.5q115 0 187.5 -60.5t72.5 -154.5q0 -80 -44 -137.5t-122 -79.5q55 -23 85 -70t30 -106q0 -121 -89.5 -194.5t-236.5 -73.5q-133 0 -211.5 61t-78.5 164zM211 0l1415 1524h199 l-1415 -1524h-199zM301 907q0 -57 42 -89t114 -32q76 0 127 43t51 111q0 57 -42 89t-114 32q-76 0 -127 -43t-51 -111zM395 1290q0 -51 35.5 -80.5t101.5 -29.5q70 0 116 39.5t46 99.5q0 51 -36 80.5t-101 29.5q-70 0 -116 -39.5t-46 -99.5zM1216 545q0 82 43 152.5 t120 114.5t171 44q133 0 208 -71.5t75 -198.5q0 -143 -113 -306t-297 -284l-174 8q279 182 393 365q-68 -72 -184 -72q-106 0 -174 69.5t-68 178.5zM1351 549q0 -66 40 -104.5t110 -38.5q84 0 140 54t56 134q0 66 -39.5 105.5t-109.5 39.5q-82 0 -139.5 -55t-57.5 -135z" />
<glyph unicode="&#xfb01;" horiz-adv-x="1339" d="M111 874l28 150h203l31 160q45 240 168 362.5t313 122.5q98 0 174 -37l-33 -145q-76 29 -143 29q-123 0 -200 -89.5t-111 -275.5l-25 -127h309l-28 -150h-310l-170 -874h-174l168 874h-200zM883 0l198 1024h174l-198 -1024h-174zM1122 1411q0 57 37 95t94 38 q47 0 78 -30.5t31 -81.5q0 -57 -37 -95.5t-94 -38.5q-47 0 -78 31t-31 82z" />
<glyph unicode="&#xfb02;" horiz-adv-x="1339" d="M111 874l28 150h203l31 160q45 240 168 362.5t313 122.5q98 0 174 -37l-33 -145q-76 29 -143 29q-123 0 -200 -89.5t-111 -275.5l-25 -127h309l-28 -150h-310l-170 -874h-174l168 874h-200zM883 0l321 1659h174l-321 -1659h-174z" />
<glyph unicode="&#xfeff;" horiz-adv-x="0" />
<glyph horiz-adv-x="1228" d="M109 532q0 139 32 310q39 203 129 364.5t219 255.5t275 94q219 0 337 -146t118 -419q0 -139 -33 -309q-39 -203 -129 -364.5t-219.5 -256t-274.5 -94.5q-219 0 -336.5 146.5t-117.5 418.5zM293 537q0 -199 68.5 -305.5t197.5 -106.5q94 0 183 68.5t158 195.5t101 295 q33 166 33 303q0 199 -68.5 305.5t-197.5 106.5q-94 0 -183 -68.5t-158 -195.5t-101 -295q-33 -166 -33 -303z" />
<glyph horiz-adv-x="1019" d="M246 1157l8 174l488 193h159l-297 -1524h-178l258 1329z" />
<glyph horiz-adv-x="1212" d="M67 0l27 152q106 86 260.5 226t261.5 247q184 186 257 306t73 232q0 111 -69 173.5t-191 62.5q-96 0 -193.5 -47t-177.5 -135l-31 155q66 80 184.5 132t235.5 52q188 0 305 -105t117 -277q0 -139 -78 -273.5t-270 -327.5q-225 -225 -455 -407h703l-33 -166h-926z" />
<glyph horiz-adv-x="1210" d="M45 90l39 154q70 -55 170 -89t195 -34q176 0 288.5 102.5t112.5 261.5q0 125 -80 196t-219 71q-59 0 -108 -17l-46 99l531 528h-633l33 162h833l-28 -154l-494 -489q180 -10 283.5 -116t103.5 -280q0 -143 -72.5 -261t-205.5 -187.5t-303 -69.5q-111 0 -223.5 35 t-176.5 88z" />
<glyph horiz-adv-x="1255" d="M86 389l25 148l856 987h182l-192 -985h217l-29 -150h-217l-76 -389h-170l76 389h-672zM291 539h496l143 735z" />
<glyph horiz-adv-x="1185" d="M51 94l41 154q76 -59 172 -93t193 -34q182 0 294.5 105.5t112.5 273.5q0 133 -93 213t-249 80q-150 0 -276 -37l172 768h717l-33 -166h-563l-95 -422q57 10 117 10q215 0 347 -119.5t132 -314.5q0 -154 -71.5 -276.5t-205.5 -195.5t-308 -73q-119 0 -226.5 34t-177.5 93z " />
<glyph horiz-adv-x="1228" d="M109 420q0 168 91 367.5t258 396t382 344.5l225 -10q-227 -154 -416.5 -352.5t-281.5 -381.5q53 68 142 108t189 40q113 0 205 -52.5t147.5 -148.5t55.5 -221q0 -145 -69.5 -268t-195.5 -199t-284 -76q-209 0 -328.5 120t-119.5 333zM276 408q0 -133 79 -213t210 -80 q100 0 183 48t133.5 135t50.5 196q0 133 -79 211.5t-212 78.5q-98 0 -181 -47t-133.5 -134t-50.5 -195z" />
<glyph horiz-adv-x="1118" d="M166 6l788 1348h-747l35 170h930l-31 -160l-789 -1368z" />
<glyph horiz-adv-x="1228" d="M86 362q0 164 104.5 288t274.5 161q-88 35 -139 115t-51 178q0 121 63.5 223.5t179 165.5t261.5 63q195 0 312.5 -101t117.5 -267q0 -145 -90 -258t-236 -150q102 -39 162.5 -125t60.5 -192q0 -135 -67.5 -248t-191 -180.5t-279.5 -67.5q-223 0 -352.5 106.5 t-129.5 288.5zM263 385q0 -125 82 -195.5t225 -70.5q158 0 259 94t101 240q0 125 -80 195.5t-223 70.5q-100 0 -183 -41t-132 -118t-49 -175zM445 1110q0 -113 72.5 -178.5t199.5 -65.5q63 0 120.5 21.5t103 61.5t72 97.5t26.5 124.5q0 113 -75 177.5t-202 64.5 q-86 0 -158.5 -38t-115.5 -107.5t-43 -157.5z" />
<glyph horiz-adv-x="1228" d="M185 1014q0 145 69.5 268t195.5 198.5t284 75.5q209 0 328.5 -119.5t119.5 -332.5q0 -168 -91 -367.5t-258 -396.5t-382 -344l-225 10q227 154 416.5 352.5t281.5 380.5q-53 -68 -142 -107.5t-190 -39.5q-113 0 -205 52t-147 148.5t-55 221.5zM359 1030q0 -131 80 -211 t211 -80q98 0 181 47.5t133 134.5t50 195q0 133 -79 213t-210 80q-100 0 -183 -48t-133 -135t-50 -196z" />
<glyph d="M27 326q0 74 14 137q37 180 141.5 286.5t243.5 106.5q131 0 211 -94t80 -252q0 -74 -15 -137q-37 -180 -141.5 -286.5t-243.5 -106.5q-131 0 -210.5 94t-79.5 252zM174 326q0 -104 42 -163t116 -59q78 0 139 74t84 195q14 66 14 137q0 104 -42 162.5t-115 58.5 q-78 0 -139.5 -73.5t-84.5 -194.5q-14 -66 -14 -137z" />
<glyph d="M176 569l6 140l295 127h121l-164 -836h-141l131 676z" />
<glyph d="M16 0l23 133q213 164 293 234q98 84 138 143t40 117q0 45 -34 72.5t-91 27.5q-59 0 -118.5 -29.5t-102.5 -79.5l-25 127q41 51 113 81t149 30q115 0 183.5 -60.5t68.5 -162.5q0 -82 -52 -161t-179 -191q-92 -80 -207 -152h397l-26 -129h-570z" />
<glyph d="M10 63l31 125q47 -39 106.5 -62.5t116.5 -23.5q88 0 144.5 47.5t56.5 116.5q0 59 -39 91t-111 32q-35 0 -71 -12l-31 86l279 246h-359l31 127h518l-23 -119l-256 -225q96 -8 152.5 -69t56.5 -153q0 -127 -97 -208.5t-249 -81.5q-74 0 -145.5 23.5t-110.5 59.5z" />
<glyph d="M-4 195l20 114l492 527h141l-100 -523h117l-23 -118h-117l-37 -195h-133l37 195h-397zM162 313h256l65 342z" />
<glyph d="M35 57l33 125q111 -78 221 -78q88 0 142 47.5t54 118.5q0 63 -52 100.5t-142 37.5q-74 0 -152 -19l99 447h444l-27 -129h-313l-41 -181q10 2 31 2q139 0 217 -66.5t78 -187.5q0 -131 -94 -212.5t-244 -81.5q-76 0 -144.5 21.5t-109.5 55.5z" />
<glyph d="M37 250q0 143 113.5 308t295.5 284l175 -8q-283 -184 -394 -367q72 72 185 72q106 0 173.5 -70t67.5 -178q0 -82 -43 -152.5t-120 -114.5t-171 -44q-133 0 -207.5 71.5t-74.5 198.5zM172 242q0 -66 40 -106t110 -40q82 0 139 55.5t57 135.5q0 66 -40 104.5t-109 38.5 q-84 0 -140.5 -54t-56.5 -134z" />
<glyph d="M127 4l424 701h-412l27 131h557l-25 -125l-422 -715z" />
<glyph d="M27 205q0 86 56 153.5t146 87.5q-47 18 -73.5 59.5t-26.5 96.5q0 109 87 181.5t218 72.5q115 0 187.5 -60.5t72.5 -154.5q0 -80 -44 -137.5t-122 -79.5q55 -23 85 -70t30 -106q0 -121 -89.5 -194.5t-236.5 -73.5q-133 0 -211.5 61t-78.5 164zM168 219q0 -57 42 -89 t114 -32q76 0 127 43t51 111q0 57 -42 89t-114 32q-76 0 -127 -43t-51 -111zM262 602q0 -51 35.5 -80.5t101.5 -29.5q70 0 116 39.5t46 99.5q0 51 -36 80.5t-101 29.5q-70 0 -116 -39.5t-46 -99.5z" />
<glyph d="M92 545q0 82 43 152.5t120 114.5t171 44q133 0 208 -71.5t75 -198.5q0 -143 -113 -306t-297 -284l-174 8q279 182 393 365q-68 -72 -184 -72q-106 0 -174 69.5t-68 178.5zM227 549q0 -66 40 -104.5t110 -38.5q84 0 140 54t56 134q0 66 -39.5 105.5t-109.5 39.5 q-82 0 -139.5 -55t-57.5 -135z" />
<glyph d="M162 1014q0 74 14 137q37 180 141.5 286.5t243.5 106.5q131 0 211 -94t80 -252q0 -74 -15 -137q-37 -180 -141.5 -286.5t-243.5 -106.5q-131 0 -210.5 94t-79.5 252zM309 1014q0 -104 42 -163t116 -59q78 0 139 74t84 195q14 66 14 137q0 104 -42 162.5t-115 58.5 q-78 0 -139.5 -73.5t-84.5 -194.5q-14 -66 -14 -137z" />
<glyph d="M309 1257l6 140l295 127h121l-164 -836h-141l131 676z" />
<glyph d="M149 688l23 133q213 164 293 234q98 84 138 143t40 117q0 45 -34 72.5t-91 27.5q-59 0 -118.5 -29.5t-102.5 -79.5l-25 127q41 51 113 81t149 30q115 0 183.5 -60.5t68.5 -162.5q0 -82 -52 -161t-179 -191q-92 -80 -207 -152h397l-26 -129h-570z" />
<glyph d="M143 751l31 125q47 -39 106.5 -62.5t116.5 -23.5q88 0 144.5 47.5t56.5 116.5q0 59 -39 91t-111 32q-35 0 -71 -12l-31 86l279 246h-359l31 127h518l-23 -119l-256 -225q96 -8 152.5 -69t56.5 -153q0 -127 -97 -208.5t-249 -81.5q-74 0 -145.5 23.5t-110.5 59.5z" />
<glyph d="M129 883l20 114l492 527h141l-100 -523h117l-23 -118h-117l-37 -195h-133l37 195h-397zM295 1001h256l65 342z" />
<glyph d="M168 745l33 125q111 -78 221 -78q88 0 142 47.5t54 118.5q0 63 -52 100.5t-142 37.5q-74 0 -152 -19l99 447h444l-27 -129h-313l-41 -181q10 2 31 2q139 0 217 -66.5t78 -187.5q0 -131 -94 -212.5t-244 -81.5q-76 0 -144.5 21.5t-109.5 55.5z" />
<glyph d="M170 938q0 143 113.5 308t295.5 284l175 -8q-283 -184 -394 -367q72 72 185 72q106 0 173.5 -70t67.5 -178q0 -82 -43 -152.5t-120 -114.5t-171 -44q-133 0 -207.5 71.5t-74.5 198.5zM305 930q0 -66 40 -106t110 -40q82 0 139 55.5t57 135.5q0 66 -40 104.5t-109 38.5 q-84 0 -140.5 -54t-56.5 -134z" />
<glyph d="M260 692l424 701h-412l27 131h557l-25 -125l-422 -715z" />
<glyph d="M160 893q0 86 56 153.5t146 87.5q-47 18 -73.5 59.5t-26.5 96.5q0 109 87 181.5t218 72.5q115 0 187.5 -60.5t72.5 -154.5q0 -80 -44 -137.5t-122 -79.5q55 -23 85 -70t30 -106q0 -121 -89.5 -194.5t-236.5 -73.5q-133 0 -211.5 61t-78.5 164zM301 907q0 -57 42 -89 t114 -32q76 0 127 43t51 111q0 57 -42 89t-114 32q-76 0 -127 -43t-51 -111zM395 1290q0 -51 35.5 -80.5t101.5 -29.5q70 0 116 39.5t46 99.5q0 51 -36 80.5t-101 29.5q-70 0 -116 -39.5t-46 -99.5z" />
<glyph d="M227 1233q0 82 43 152.5t120 114.5t171 44q133 0 208 -71.5t75 -198.5q0 -143 -113 -306t-297 -284l-174 8q279 182 393 365q-68 -72 -184 -72q-106 0 -174 69.5t-68 178.5zM362 1237q0 -66 40 -104.5t110 -38.5q84 0 140 54t56 134q0 66 -39.5 105.5t-109.5 39.5 q-82 0 -139.5 -55t-57.5 -135z" />
<glyph horiz-adv-x="899" d="M189 690l34 174h590l-35 -174h-589z" />
<glyph horiz-adv-x="1024" d="M21 700l28 156h1028l-30 -156h-1026z" />
<glyph horiz-adv-x="2048" d="M21 700l30 156h2050l-30 -156h-2050z" />
<glyph horiz-adv-x="823" d="M209 607q0 227 74 456.5t213 430t326 335.5h215q-309 -227 -481.5 -544.5t-172.5 -661.5q0 -211 61.5 -400.5t182.5 -344.5h-197q-104 145 -162.5 339.5t-58.5 389.5z" />
<glyph horiz-adv-x="823" d="M-82 -122q309 227 481.5 544.5t172.5 661.5q0 211 -61.5 400.5t-182.5 344.5h197q104 -145 162.5 -339.5t58.5 -389.5q0 -227 -74 -456.5t-213 -430t-326 -335.5h-215z" />
<glyph horiz-adv-x="1038" d="M-101 -188l1145 1931h199l-1145 -1931h-199z" />
<glyph horiz-adv-x="1038" d="M282 1743h180l396 -1931h-180z" />
<glyph horiz-adv-x="800" d="M113 -125l379 1951h491l-26 -145h-330l-324 -1661h330l-29 -145h-491z" />
<glyph horiz-adv-x="800" d="M-49 -125l27 145h327l324 1661h-328l29 145h492l-379 -1951h-492z" />
<glyph horiz-adv-x="856" d="M158 783l29 153h49q98 0 145 38t72 136q18 78 26.5 161t15.5 164t25.5 152.5t56.5 127t106.5 87t178.5 31.5q68 0 136 -14l-29 -143q-57 12 -98 12q-84 0 -128 -35t-62.5 -93t-23.5 -133t-10.5 -158t-25.5 -165q-47 -195 -213 -245q59 -14 94 -62.5t35 -116.5 q-2 -59 -22.5 -132.5t-47 -151.5t-47 -147.5t-22.5 -121.5q0 -66 37.5 -93t138.5 -32q45 0 63 3l-28 -146q-15 -2 -58 -2q-160 0 -240.5 63.5t-80.5 188.5q2 66 22.5 143.5t49 157.5t49 150.5t22.5 121.5q0 57 -33 79t-119 22h-63z" />
<glyph horiz-adv-x="856" d="M-10 -129l29 144q57 -12 98 -13q84 0 128 35t62.5 93.5t23.5 133t10 157.5t26 165q47 195 213 246q-59 14 -94 62.5t-35 115.5q2 59 22.5 133t47 152t47 147.5t22.5 120.5q0 66 -38 93.5t-138 31.5q-45 0 -64 -2l29 145q14 2 58 2q160 0 240.5 -63.5t80.5 -187.5 q-2 -66 -22.5 -144t-49 -157.5t-49 -150.5t-22.5 -122q0 -57 32.5 -78.5t118.5 -21.5h64l-29 -154h-49q-98 0 -145.5 -38t-71.5 -136q-18 -78 -26.5 -161t-15.5 -163.5t-25.5 -152.5t-56.5 -127t-106.5 -87t-179.5 -32q-68 0 -135 14z" />
<glyph horiz-adv-x="718" d="M140 672q0 104 73.5 178t178.5 74q104 0 178 -73.5t74 -178.5q0 -104 -74 -178t-178 -74t-178 74t-74 178z" />
<glyph horiz-adv-x="667" d="M115 778l376 439h209l-389 -453l199 -424h-191z" />
<glyph horiz-adv-x="667" d="M72 340l389 451l-199 426h190l205 -439l-377 -438h-208z" />
<glyph horiz-adv-x="1091" d="M115 778l376 439h209l-389 -453l199 -424h-191zM539 778l376 439h209l-389 -453l199 -424h-191z" />
<glyph horiz-adv-x="1091" d="M72 340l389 451l-199 426h190l205 -439l-377 -438h-208zM496 340l389 451l-199 426h190l205 -439l-377 -438h-208z" />
<glyph horiz-adv-x="2052" d="M161 612q0 272 141.5 512t395.5 390.5t559 150.5q213 0 388 -89t279.5 -254t104.5 -374q0 -176 -65.5 -327.5t-184 -245t-266.5 -93.5q-96 0 -159.5 49.5t-80.5 135.5q-45 -82 -135 -133.5t-188 -51.5q-150 0 -239 99.5t-89 265.5q0 139 66.5 264t183.5 206t254 81 q100 0 171 -56.5t95 -156.5l60 180h145l-164 -539q-16 -59 -16 -92q0 -57 30.5 -89t88.5 -32q86 0 163.5 70t128 192.5t50.5 268.5q0 170 -78 300t-223.5 203.5t-339.5 73.5q-238 0 -448 -116.5t-343 -324.5t-133 -460q0 -301 174 -470t483 -169q102 0 221 24.5t199 63.5 l4 -145q-84 -39 -198.5 -62.5t-227.5 -23.5q-242 0 -424 92t-282.5 267t-100.5 415zM782 647q0 -102 57.5 -161.5t157.5 -59.5q84 0 161 53t127 148.5t50 203.5q0 104 -57.5 163.5t-157.5 59.5q-84 0 -161 -53t-127 -148t-50 -206z" />
<glyph horiz-adv-x="593" d="M225 805q0 63 42 104t103 41q53 0 88 -35t35 -86q0 -63 -42 -104t-105 -41q-51 0 -86 34.5t-35 86.5z" />
<glyph horiz-adv-x="1120" d="M63 262q0 106 57.5 190.5t163 133.5t242.5 49q70 0 147 -16.5t142 -47.5q10 61 10 95q0 119 -70.5 181t-205.5 62q-76 0 -158 -23.5t-139 -60.5l-4 144q53 39 142 63.5t173 24.5q195 0 309.5 -99.5t114.5 -265.5q0 -53 -10 -104l-115 -588h-145l26 160 q-59 -88 -156.5 -140.5t-203.5 -52.5q-145 0 -232.5 81t-87.5 214zM221 274q0 -78 53.5 -120.5t147.5 -42.5q133 0 233.5 91t135.5 247q-119 49 -263 49q-139 0 -223 -60.5t-84 -163.5z" />
<glyph horiz-adv-x="1153" d="M-53 -231q0 70 33.5 131t96 104t144.5 57q-135 45 -135 156q0 70 50 123t145 86q-104 88 -105 229q0 111 57.5 202t163 145.5t240.5 54.5q59 0 116.5 -13.5t98.5 -35.5l350 20l-18 -143l-213 16q27 -29 43 -74t16 -90q0 -111 -57.5 -202t-162.5 -145t-241 -54 q-106 0 -194 35q-127 -45 -127 -123q0 -49 54 -71.5t204 -37.5l43 -4q199 -18 291 -89t92 -204q0 -100 -65.5 -183t-185 -132t-273.5 -49q-219 0 -340 76.5t-121 214.5zM100 -207q0 -86 80 -132t230 -46q164 0 261 61.5t97 165.5q0 78 -87 120t-249 42q-150 0 -241 -58.5 t-91 -152.5zM334 668q0 -98 64.5 -151.5t181.5 -53.5q127 0 209.5 73.5t82.5 188.5q0 98 -64.5 151.5t-180.5 53.5q-127 0 -210 -74t-83 -188z" />
<glyph horiz-adv-x="1116" d="M-160 -473l33 151q27 -18 62.5 -29t70.5 -11q76 0 142.5 60t162.5 218l66 109l-240 999h176l185 -834l483 834h193l-697 -1147q-135 -223 -239.5 -310t-237.5 -87q-45 0 -92 13t-68 34z" />
<glyph horiz-adv-x="593" d="M215 764q0 63 42 104t103 41q53 0 88 -34.5t35 -86.5q0 -63 -42 -104t-105 -41q-51 0 -86 35t-35 86z" />
<glyph horiz-adv-x="593" d="M225 823q0 63 42 104.5t104 41.5q53 0 88 -35t35 -86q0 -63 -42.5 -104.5t-105.5 -41.5q-51 0 -86 35t-35 86z" />
<glyph horiz-adv-x="1884" d="M63 262q0 106 57.5 190.5t163 133.5t242.5 49q70 0 147 -16.5t142 -47.5q10 61 10 93q0 119 -71.5 182t-204.5 63q-76 0 -158 -23.5t-139 -60.5l-4 144q53 39 142 63.5t173 24.5q143 0 243.5 -54.5t145.5 -152.5q72 100 178.5 153.5t233.5 53.5q117 0 210 -50.5 t147.5 -143.5t54.5 -216q0 -90 -27 -190h-791q0 -334 377 -334q154 0 310 76l4 -154q-57 -35 -152.5 -56.5t-187.5 -21.5q-176 0 -298 65.5t-175 188.5q-37 -76 -103.5 -133t-157 -89t-192.5 -32q-145 0 -232.5 81t-87.5 214zM221 274q0 -78 53.5 -120.5t147.5 -42.5 q133 0 233.5 91t135.5 247q-119 49 -263 49q-139 0 -223 -60.5t-84 -163.5zM977 594h631q2 10 2 21.5v21.5q0 123 -70 196.5t-186 73.5q-131 0 -234.5 -86t-142.5 -227z" />
<glyph horiz-adv-x="0" d="M-408 -477l29 123q33 -16 76 -27.5t80 -11.5q137 0 137 88q0 33 -28.5 50t-82.5 17q-51 0 -84 -8l109 266h135l-65 -155q76 -8 119.5 -53t43.5 -115q0 -100 -76.5 -159.5t-205.5 -59.5q-53 0 -104.5 12t-82.5 33z" />
<glyph horiz-adv-x="0" d="M-371 -502q137 170 162 369h184q-14 -100 -70.5 -201.5t-135.5 -167.5h-140z" />
<glyph horiz-adv-x="0" d="M-440 -340q0 96 93 199.5t263 195.5l68 -55q-262 -195 -263 -309q0 -61 78 -62q59 0 119 31l4 -139q-59 -37 -151 -37q-100 0 -155.5 46t-55.5 130z" />
<glyph horiz-adv-x="0" d="M-373 -344q0 109 110.5 215t299.5 180l110 -10q-182 -104 -270 -189t-88 -157q0 -66 78 -66q53 0 119 31l4 -139q-66 -37 -154 -37q-96 0 -152.5 46t-56.5 126z" />
<glyph horiz-adv-x="0" d="M-373 -344q0 109 110.5 215t299.5 180l110 -10q-182 -104 -270 -189t-88 -157q0 -66 78 -66q53 0 119 31l4 -139q-66 -37 -154 -37q-96 0 -152.5 46t-56.5 126z" />
<glyph horiz-adv-x="1153" d="M-53 -231q0 70 33.5 131t96 104t144.5 57q-135 45 -135 156q0 70 50 123t145 86q-104 88 -105 229q0 111 57.5 202t163 145.5t240.5 54.5q59 0 116.5 -13.5t98.5 -35.5l350 20l-18 -143l-213 16q27 -29 43 -74t16 -90q0 -111 -57.5 -202t-162.5 -145t-241 -54 q-106 0 -194 35q-127 -45 -127 -123q0 -49 54 -71.5t204 -37.5l43 -4q199 -18 291 -89t92 -204q0 -100 -65.5 -183t-185 -132t-273.5 -49q-219 0 -340 76.5t-121 214.5zM100 -207q0 -86 80 -132t230 -46q164 0 261 61.5t97 165.5q0 78 -87 120t-249 42q-150 0 -241 -58.5 t-91 -152.5zM334 668q0 -98 64.5 -151.5t181.5 -53.5q127 0 209.5 73.5t82.5 188.5q0 98 -64.5 151.5t-180.5 53.5q-127 0 -210 -74t-83 -188zM641 1249q8 86 64.5 184.5t125.5 149.5h129q-55 -59 -92 -150.5t-45 -183.5h-182z" />
<glyph horiz-adv-x="1120" d="M63 262q0 106 57.5 190.5t163 133.5t242.5 49q70 0 147 -16.5t142 -47.5q10 61 10 95q0 119 -70.5 181t-205.5 62q-76 0 -158 -23.5t-139 -60.5l-4 144q53 39 142 63.5t173 24.5q195 0 309.5 -99.5t114.5 -265.5q0 -53 -10 -104l-115 -588h-145l26 160 q-59 -88 -156.5 -140.5t-203.5 -52.5q-145 0 -232.5 81t-87.5 214zM221 274q0 -78 53.5 -120.5t147.5 -42.5q133 0 233.5 91t135.5 247q-119 49 -263 49q-139 0 -223 -60.5t-84 -163.5zM461 -344q0 96 98.5 214t235.5 185l68 -55q-111 -82 -175.5 -165t-64.5 -144 q0 -29 17.5 -45.5t50.5 -16.5q55 0 120 33l5 -139q-27 -16 -71 -27.5t-85 -11.5q-94 0 -146.5 45t-52.5 127z" />
<glyph horiz-adv-x="0" d="M80 1710l262 264h246l-320 -264h-188z" />
<glyph horiz-adv-x="0" d="M-53 1710l176 264h211l-219 -264h-168zM307 1710l176 264h211l-219 -264h-168z" />
<glyph horiz-adv-x="1120" d="M63 262q0 106 57.5 190.5t163 133.5t242.5 49q70 0 147 -16.5t142 -47.5q10 61 10 95q0 119 -70.5 181t-205.5 62q-76 0 -158 -23.5t-139 -60.5l-4 144q53 39 142 63.5t173 24.5q195 0 309.5 -99.5t114.5 -265.5q0 -53 -10 -104l-115 -588h-145l26 160 q-59 -88 -156.5 -140.5t-203.5 -52.5q-145 0 -232.5 81t-87.5 214zM221 274q0 -78 53.5 -120.5t147.5 -42.5q133 0 233.5 91t135.5 247q-119 49 -263 49q-139 0 -223 -60.5t-84 -163.5zM514 1249l270 334h223l-323 -334h-170z" />
<glyph horiz-adv-x="1116" d="M-160 -473l33 151q27 -18 62.5 -29t70.5 -11q76 0 142.5 60t162.5 218l66 109l-240 999h176l185 -834l483 834h193l-697 -1147q-135 -223 -239.5 -310t-237.5 -87q-45 0 -92 13t-68 34zM522 1249l270 334h223l-323 -334h-170z" />
<glyph horiz-adv-x="0" d="M-4 1974h213l168 -264h-172z" />
<glyph horiz-adv-x="1120" d="M63 262q0 106 57.5 190.5t163 133.5t242.5 49q70 0 147 -16.5t142 -47.5q10 61 10 95q0 119 -70.5 181t-205.5 62q-76 0 -158 -23.5t-139 -60.5l-4 144q53 39 142 63.5t173 24.5q195 0 309.5 -99.5t114.5 -265.5q0 -53 -10 -104l-115 -588h-145l26 160 q-59 -88 -156.5 -140.5t-203.5 -52.5q-145 0 -232.5 81t-87.5 214zM221 274q0 -78 53.5 -120.5t147.5 -42.5q133 0 233.5 91t135.5 247q-119 49 -263 49q-139 0 -223 -60.5t-84 -163.5zM440 1583h188l152 -334h-152z" />
<glyph horiz-adv-x="1116" d="M-160 -473l33 151q27 -18 62.5 -29t70.5 -11q76 0 142.5 60t162.5 218l66 109l-240 999h176l185 -834l483 834h193l-697 -1147q-135 -223 -239.5 -310t-237.5 -87q-45 0 -92 13t-68 34zM449 1583h188l152 -334h-152z" />
<glyph horiz-adv-x="0" d="M-129 1710l336 291h158l227 -291h-178l-138 180l-206 -180h-199z" />
<glyph horiz-adv-x="0" d="M-109 1710q16 133 77 206t155 73q57 -2 95 -22.5t65.5 -48.5t53 -48.5t58.5 -22.5q41 0 63.5 32t37.5 108h131q-16 -133 -77 -206t-155 -73q-57 2 -95 22.5t-65.5 48t-53 48t-58.5 22.5q-41 0 -63.5 -31.5t-36.5 -107.5h-132z" />
<glyph horiz-adv-x="1120" d="M63 262q0 106 57.5 190.5t163 133.5t242.5 49q70 0 147 -16.5t142 -47.5q10 61 10 95q0 119 -70.5 181t-205.5 62q-76 0 -158 -23.5t-139 -60.5l-4 144q53 39 142 63.5t173 24.5q195 0 309.5 -99.5t114.5 -265.5q0 -53 -10 -104l-115 -588h-145l26 160 q-59 -88 -156.5 -140.5t-203.5 -52.5q-145 0 -232.5 81t-87.5 214zM221 274q0 -78 53.5 -120.5t147.5 -42.5q133 0 233.5 91t135.5 247q-119 49 -263 49q-139 0 -223 -60.5t-84 -163.5zM313 1249l346 334h144l215 -334h-158l-141 219l-226 -219h-180z" />
<glyph horiz-adv-x="1116" d="M-160 -473l33 151q27 -18 62.5 -29t70.5 -11q76 0 142.5 60t162.5 218l66 109l-240 999h176l185 -834l483 834h193l-697 -1147q-135 -223 -239.5 -310t-237.5 -87q-45 0 -92 13t-68 34zM321 1249l346 334h144l215 -334h-158l-141 219l-226 -219h-180z" />
<glyph horiz-adv-x="1120" d="M63 262q0 106 57.5 190.5t163 133.5t242.5 49q70 0 147 -16.5t142 -47.5q10 61 10 95q0 119 -70.5 181t-205.5 62q-76 0 -158 -23.5t-139 -60.5l-4 144q53 39 142 63.5t173 24.5q195 0 309.5 -99.5t114.5 -265.5q0 -53 -10 -104l-115 -588h-145l26 160 q-59 -88 -156.5 -140.5t-203.5 -52.5q-145 0 -232.5 81t-87.5 214zM221 274q0 -78 53.5 -120.5t147.5 -42.5q133 0 233.5 91t135.5 247q-119 49 -263 49q-139 0 -223 -60.5t-84 -163.5zM329 1274q16 133 77 205.5t155 72.5q57 -2 95 -22.5t65.5 -48t53.5 -48t58 -22.5 q41 0 63.5 32t37.5 107h131q-16 -133 -77 -205.5t-155 -72.5q-57 2 -95 22.5t-65.5 48t-53 48t-58.5 22.5q-41 0 -63.5 -31.5t-36.5 -107.5h-132z" />
<glyph horiz-adv-x="0" d="M-72 2001h178l140 -184l209 184h194l-336 -291h-157z" />
<glyph horiz-adv-x="0" d="M31 1239l102 420h184l-165 -420h-121z" />
<glyph horiz-adv-x="0" d="M-72 1749l27 149h623l-27 -149h-623z" />
<glyph horiz-adv-x="1120" d="M63 262q0 106 57.5 190.5t163 133.5t242.5 49q70 0 147 -16.5t142 -47.5q10 61 10 95q0 119 -70.5 181t-205.5 62q-76 0 -158 -23.5t-139 -60.5l-4 144q53 39 142 63.5t173 24.5q195 0 309.5 -99.5t114.5 -265.5q0 -53 -10 -104l-115 -588h-145l26 160 q-59 -88 -156.5 -140.5t-203.5 -52.5q-145 0 -232.5 81t-87.5 214zM221 274q0 -78 53.5 -120.5t147.5 -42.5q133 0 233.5 91t135.5 247q-119 49 -263 49q-139 0 -223 -60.5t-84 -163.5zM370 1325l27 150h623l-27 -150h-623z" />
<glyph horiz-adv-x="0" d="M-53 1802q0 55 34.5 91t88.5 36q45 0 73.5 -28.5t28.5 -75.5q0 -55 -35 -91t-88 -36q-45 0 -73.5 28.5t-28.5 75.5zM334 1802q0 55 34.5 91t88.5 36q45 0 73.5 -28.5t28.5 -75.5q0 -55 -35 -91t-88 -36q-45 0 -73.5 28.5t-28.5 75.5z" />
<glyph horiz-adv-x="0" d="M-39 1915q0 31 10 78h135q-6 -27 -6 -51q0 -59 39 -91t113 -32q88 0 141 45t70 129h139q-16 -147 -108 -225t-250 -78q-131 0 -207 60t-76 165z" />
<glyph horiz-adv-x="1120" d="M63 262q0 106 57.5 190.5t163 133.5t242.5 49q70 0 147 -16.5t142 -47.5q10 61 10 95q0 119 -70.5 181t-205.5 62q-76 0 -158 -23.5t-139 -60.5l-4 144q53 39 142 63.5t173 24.5q195 0 309.5 -99.5t114.5 -265.5q0 -53 -10 -104l-115 -588h-145l26 160 q-59 -88 -156.5 -140.5t-203.5 -52.5q-145 0 -232.5 81t-87.5 214zM221 274q0 -78 53.5 -120.5t147.5 -42.5q133 0 233.5 91t135.5 247q-119 49 -263 49q-139 0 -223 -60.5t-84 -163.5zM393 1413q0 55 35 91t88 36q45 0 73.5 -28.5t28.5 -75.5q0 -55 -35 -91t-88 -36 q-45 0 -73.5 28.5t-28.5 75.5zM780 1413q0 55 35 91t88 36q45 0 73.5 -28.5t28.5 -75.5q0 -55 -35 -91t-88 -36q-45 0 -73.5 28.5t-28.5 75.5z" />
<glyph horiz-adv-x="1116" d="M-160 -473l33 151q27 -18 62.5 -29t70.5 -11q76 0 142.5 60t162.5 218l66 109l-240 999h176l185 -834l483 834h193l-697 -1147q-135 -223 -239.5 -310t-237.5 -87q-45 0 -92 13t-68 34zM401 1413q0 55 35 91t88 36q45 0 73.5 -28.5t28.5 -75.5q0 -55 -35 -91t-88 -36 q-45 0 -73.5 28.5t-28.5 75.5zM788 1413q0 55 35 91t88 36q45 0 73.5 -28.5t28.5 -75.5q0 -55 -35 -91t-88 -36q-45 0 -73.5 28.5t-28.5 75.5z" />
<glyph horiz-adv-x="1120" d="M63 262q0 106 57.5 190.5t163 133.5t242.5 49q70 0 147 -16.5t142 -47.5q10 61 10 95q0 119 -70.5 181t-205.5 62q-76 0 -158 -23.5t-139 -60.5l-4 144q53 39 142 63.5t173 24.5q195 0 309.5 -99.5t114.5 -265.5q0 -53 -10 -104l-115 -588h-145l26 160 q-59 -88 -156.5 -140.5t-203.5 -52.5q-145 0 -232.5 81t-87.5 214zM221 274q0 -78 53.5 -120.5t147.5 -42.5q133 0 233.5 91t135.5 247q-119 49 -263 49q-139 0 -223 -60.5t-84 -163.5zM407 1456q0 43 13 88h127q-6 -33 -7 -61q0 -129 144 -129q86 0 134 46t64 144h140 q-20 -156 -107.5 -236.5t-232.5 -80.5q-129 0 -202 60.5t-73 168.5z" />
<glyph horiz-adv-x="1153" d="M-53 -231q0 70 33.5 131t96 104t144.5 57q-135 45 -135 156q0 70 50 123t145 86q-104 88 -105 229q0 111 57.5 202t163 145.5t240.5 54.5q59 0 116.5 -13.5t98.5 -35.5l350 20l-18 -143l-213 16q27 -29 43 -74t16 -90q0 -111 -57.5 -202t-162.5 -145t-241 -54 q-106 0 -194 35q-127 -45 -127 -123q0 -49 54 -71.5t204 -37.5l43 -4q199 -18 291 -89t92 -204q0 -100 -65.5 -183t-185 -132t-273.5 -49q-219 0 -340 76.5t-121 214.5zM100 -207q0 -86 80 -132t230 -46q164 0 261 61.5t97 165.5q0 78 -87 120t-249 42q-150 0 -241 -58.5 t-91 -152.5zM334 668q0 -98 64.5 -151.5t181.5 -53.5q127 0 209.5 73.5t82.5 188.5q0 98 -64.5 151.5t-180.5 53.5q-127 0 -210 -74t-83 -188zM485 1456q0 43 13 88h127q-6 -33 -7 -61q0 -129 144 -129q86 0 134 46t64 144h140q-20 -156 -107.5 -236.5t-232.5 -80.5 q-129 0 -202 60.5t-73 168.5z" />
<glyph horiz-adv-x="0" d="M133 1810q0 57 37 95.5t94 38.5q47 0 78 -31t31 -82q0 -57 -37 -95t-94 -38q-47 0 -78 30.5t-31 81.5z" />
<glyph horiz-adv-x="1153" d="M-53 -231q0 70 33.5 131t96 104t144.5 57q-135 45 -135 156q0 70 50 123t145 86q-104 88 -105 229q0 111 57.5 202t163 145.5t240.5 54.5q59 0 116.5 -13.5t98.5 -35.5l350 20l-18 -143l-213 16q27 -29 43 -74t16 -90q0 -111 -57.5 -202t-162.5 -145t-241 -54 q-106 0 -194 35q-127 -45 -127 -123q0 -49 54 -71.5t204 -37.5l43 -4q199 -18 291 -89t92 -204q0 -100 -65.5 -183t-185 -132t-273.5 -49q-219 0 -340 76.5t-121 214.5zM100 -207q0 -86 80 -132t230 -46q164 0 261 61.5t97 165.5q0 78 -87 120t-249 42q-150 0 -241 -58.5 t-91 -152.5zM334 668q0 -98 64.5 -151.5t181.5 -53.5q127 0 209.5 73.5t82.5 188.5q0 98 -64.5 151.5t-180.5 53.5q-127 0 -210 -74t-83 -188zM624 1411q0 57 37 95t94 38q47 0 78 -30.5t31 -81.5q0 -57 -37 -95.5t-94 -38.5q-47 0 -78 31t-31 82z" />
<glyph horiz-adv-x="0" d="M-2 1929q0 109 77 181.5t189 72.5q113 0 189.5 -72.5t76.5 -181.5t-76.5 -181.5t-189.5 -72.5t-189.5 73t-76.5 181zM125 1929q0 -63 38 -101t101 -38t101 38t38 101q0 66 -36.5 102.5t-102.5 36.5q-63 0 -101 -37.5t-38 -101.5z" />
<glyph horiz-adv-x="1120" d="M63 262q0 106 57.5 190.5t163 133.5t242.5 49q70 0 147 -16.5t142 -47.5q10 61 10 95q0 119 -70.5 181t-205.5 62q-76 0 -158 -23.5t-139 -60.5l-4 144q53 39 142 63.5t173 24.5q195 0 309.5 -99.5t114.5 -265.5q0 -53 -10 -104l-115 -588h-145l26 160 q-59 -88 -156.5 -140.5t-203.5 -52.5q-145 0 -232.5 81t-87.5 214zM221 274q0 -78 53.5 -120.5t147.5 -42.5q133 0 233.5 91t135.5 247q-119 49 -263 49q-139 0 -223 -60.5t-84 -163.5zM428 1458q0 109 76.5 181.5t189.5 72.5t189.5 -72.5t76.5 -181.5t-76.5 -181.5 t-189.5 -72.5t-189.5 73t-76.5 181zM555 1458q0 -63 38 -101t101 -38t101 38t38 101q0 66 -37 102.5t-102 36.5q-63 0 -101 -37.5t-38 -101.5z" />
</font>
</defs>
</svg>
