<?xml version="1.0" standalone="no"?>
<!DOCTYPE svg PUBLIC "-//W3C//DTD SVG 1.1//EN" "http://www.w3.org/Graphics/SVG/1.1/DTD/svg11.dtd" >
<svg xmlns="http://www.w3.org/2000/svg" xmlns:xlink="http://www.w3.org/1999/xlink" version="1.1">
<metadata></metadata>
<defs>
<font id="objektiv_mk1black_italic" horiz-adv-x="827" >
<font-face units-per-em="2048" ascent="1638" descent="-410" />
<missing-glyph horiz-adv-x="419" />
<glyph unicode=" "  horiz-adv-x="419" />
<glyph unicode="&#x09;" horiz-adv-x="419" />
<glyph unicode="&#xa0;" horiz-adv-x="419" />
<glyph unicode="!" d="M113 182q0 106 74.5 175t189.5 69q94 0 152.5 -53.5t58.5 -141.5q0 -106 -74.5 -174.5t-189.5 -68.5q-94 0 -152.5 53t-58.5 141zM223 551l162 1067h479l-256 -1067h-385z" />
<glyph unicode="&#x22;" horiz-adv-x="1095" d="M188 891l93 665h413l-174 -665h-332zM706 891l93 665h413l-174 -665h-332z" />
<glyph unicode="#" horiz-adv-x="1372" d="M-43 291l90 258h195l116 289h-200l90 258h213l117 290h315l-117 -290h203l117 290h315l-117 -290h183l-91 -258h-194l-117 -289h201l-90 -258h-213l-117 -291h-315l116 291h-202l-117 -291h-315l116 291h-182zM557 549h203l117 289h-203z" />
<glyph unicode="$" horiz-adv-x="1372" d="M43 133l94 348q72 -57 194 -107t222 -65l59 303q-186 96 -259.5 160t-105.5 136.5t-32 162.5q0 145 69.5 254t201.5 169t309 60l47 240h157l-49 -252q205 -35 363 -135l-103 -334q-162 106 -325 133l-51 -268q117 -57 184 -99t110 -85t69 -89.5t37 -97.5t11 -110 q0 -131 -73.5 -242t-208 -177.5t-318.5 -70.5l-45 -233h-158l47 241q-129 14 -248.5 57.5t-197.5 100.5zM606 1106q0 -35 18.5 -59.5t61.5 -49.5l43 217q-123 -12 -123 -108zM713 313q129 25 129 125q0 37 -18.5 62.5t-65.5 52.5z" />
<glyph unicode="%" horiz-adv-x="2195" d="M238 1130q0 117 55 213.5t155.5 154.5t229.5 58q182 0 294.5 -101t112.5 -265q0 -117 -55 -213t-155.5 -154.5t-229.5 -58.5q-182 0 -294.5 101.5t-112.5 264.5zM354 0l1219 1524h350l-1218 -1524h-351zM545 1145q0 -53 28.5 -84t77.5 -31q55 0 91 41t36 105 q0 53 -28.5 83.5t-77.5 30.5q-55 0 -91 -41t-36 -104zM1200 336q0 117 55.5 213t155.5 154.5t229 58.5q182 0 295 -101.5t113 -265.5q0 -117 -55.5 -213t-155.5 -154.5t-229 -58.5q-182 0 -295 101.5t-113 265.5zM1507 350q0 -53 29 -83.5t78 -30.5q55 0 91 40.5t36 104.5 q0 53 -29 84t-78 31q-55 0 -91 -41t-36 -105z" />
<glyph unicode="&#x26;" horiz-adv-x="1593" d="M43 385q0 166 93 284.5t298 215.5q-43 72 -61.5 131t-18.5 131q0 207 139.5 327.5t374.5 120.5q209 0 334 -99t125 -265q0 -141 -93 -252t-288 -201l146 -215q74 104 104 248l350 -43q-57 -307 -260 -498l182 -270h-456l-33 49q-164 -82 -397 -82q-252 0 -395.5 111.5 t-143.5 306.5zM465 436q0 -66 44 -104.5t116 -38.5q86 0 170 39l-195 297q-70 -43 -102.5 -89t-32.5 -104zM733 1169q0 -57 49 -143q86 45 126 90t40 98q0 43 -26.5 69t-69.5 26q-55 0 -87 -38t-32 -102z" />
<glyph unicode="'" horiz-adv-x="577" d="M188 891l93 665h413l-174 -665h-332z" />
<glyph unicode="(" horiz-adv-x="954" d="M172 451q0 727 533 1228h491q-291 -223 -459 -549.5t-168 -670.5q0 -221 60.5 -398.5t187.5 -334.5h-430q-98 119 -156.5 313t-58.5 412z" />
<glyph unicode=")" horiz-adv-x="954" d="M-176 -274q291 223 459 549.5t168 670.5q0 221 -60.5 398.5t-187.5 334.5h430q98 -119 156.5 -313.5t58.5 -411.5q0 -727 -533 -1228h-491z" />
<glyph unicode="*" horiz-adv-x="1042" d="M156 1124l143 287l221 -119l6 264h351l-97 -276l273 119l67 -312l-289 -38l160 -215l-274 -158l-113 248l-170 -248l-241 192l219 197z" />
<glyph unicode="+" horiz-adv-x="1372" d="M186 514l68 350h305l68 342h377l-68 -342h305l-67 -350h-308l-65 -342h-377l65 342h-303z" />
<glyph unicode="," horiz-adv-x="638" d="M-188 -338q102 152 173.5 344.5t100.5 390.5h395q-29 -221 -117 -417.5t-212 -317.5h-340z" />
<glyph unicode="-" horiz-adv-x="831" d="M59 414l70 350h666l-70 -350h-666z" />
<glyph unicode="." horiz-adv-x="638" d="M18 182q0 106 75 175t190 69q94 0 152.5 -53.5t58.5 -141.5q0 -106 -75 -174.5t-190 -68.5q-94 0 -152.5 53t-58.5 141z" />
<glyph unicode="/" horiz-adv-x="1224" d="M-156 -272l1198 1931h400l-1198 -1931h-400z" />
<glyph unicode="0" horiz-adv-x="1372" d="M98 549q0 109 31 258q70 360 256 554.5t459 194.5q240 0 379 -155.5t139 -425.5q0 -109 -31 -258q-70 -360 -256.5 -555t-458.5 -195q-240 0 -379 156t-139 426zM575 514q0 -72 19.5 -105.5t62.5 -33.5q125 0 195 358q33 168 33 277q0 72 -19.5 105.5t-62.5 33.5 q-125 0 -195 -358q-33 -168 -33 -277z" />
<glyph unicode="1" horiz-adv-x="1372" d="M287 893l18 414l541 217h371l-297 -1524h-451l205 1053z" />
<glyph unicode="2" horiz-adv-x="1372" d="M27 0l63 330q283 203 433.5 328.5t213 211.5t62.5 158q0 70 -45 105.5t-129 35.5t-182.5 -36.5t-186.5 -100.5l-14 393q86 59 215 95t264 36q166 0 292 -55t195.5 -159.5t69.5 -245.5q0 -360 -494 -707h420l-76 -389h-1101z" />
<glyph unicode="3" horiz-adv-x="1372" d="M47 63l76 365q82 -41 189.5 -65.5t205.5 -24.5q113 0 175.5 42t62.5 118q0 66 -48.5 100.5t-136.5 34.5q-37 0 -84 -7.5t-73 -17.5l-78 238l397 315h-502l72 363h1059l-59 -310l-408 -325q152 -29 240 -135.5t88 -261.5q0 -248 -182.5 -386.5t-508.5 -138.5 q-139 0 -269 25.5t-216 70.5z" />
<glyph unicode="4" horiz-adv-x="1372" d="M0 283l66 342l782 899h498l-175 -891h160l-67 -350h-160l-55 -283h-416l55 283h-688zM485 633h271l78 403z" />
<glyph unicode="5" horiz-adv-x="1372" d="M43 63l76 365q82 -41 189.5 -65.5t205.5 -24.5q117 0 181.5 42t64.5 118t-73 114.5t-214 38.5q-147 0 -291 -37l217 910h922l-74 -373h-534l-39 -168q16 2 35 2q244 0 382 -121t138 -334q0 -170 -83 -297t-241 -196.5t-377 -69.5q-139 0 -269 25.5t-216 70.5z" />
<glyph unicode="6" horiz-adv-x="1372" d="M82 510q0 242 179 514t495 508l577 -16q-201 -143 -368.5 -291t-266.5 -269q74 29 154 29q121 0 221.5 -56.5t161.5 -157.5t61 -230q0 -162 -77.5 -292t-222 -206t-332.5 -76q-268 0 -425 146.5t-157 396.5zM537 477q0 -66 38 -103.5t99 -37.5q74 0 122 47t48 121 q0 63 -38 102t-101 39q-74 0 -121 -47t-47 -121z" />
<glyph unicode="7" horiz-adv-x="1372" d="M133 4l676 1100h-598l82 420h1122l-69 -355l-695 -1177z" />
<glyph unicode="8" horiz-adv-x="1372" d="M51 395q0 150 95.5 267.5t242.5 150.5q-174 90 -174 274q0 135 72.5 242t212 167t323.5 60q166 0 293 -49t198.5 -140t71.5 -214q0 -141 -79.5 -242.5t-219.5 -140.5q90 -31 145.5 -111.5t55.5 -183.5q0 -150 -75.5 -264.5t-222 -179t-347.5 -64.5q-279 0 -435.5 114 t-156.5 314zM518 451q0 -59 40 -94t106 -35q74 0 122 47t48 120q0 59 -40 94t-106 35q-76 0 -123 -47t-47 -120zM645 1063q0 -55 38 -89t101 -34q72 0 117 45t45 115q0 55 -38 89t-101 34q-72 0 -117 -45t-45 -115z" />
<glyph unicode="9" horiz-adv-x="1372" d="M123 8q201 143 368.5 290.5t266.5 268.5q-74 -29 -154 -28q-121 0 -221 56t-161.5 157.5t-61.5 230.5q0 162 77.5 292t222 205.5t333.5 75.5q268 0 424.5 -146t156.5 -396q0 -242 -179 -514.5t-495 -507.5zM612 1020q0 -63 38.5 -102t101.5 -39q74 0 121 47t47 121 q0 66 -38 103.5t-100 37.5q-74 0 -122 -47t-48 -121z" />
<glyph unicode=":" horiz-adv-x="638" d="M18 182q0 106 75 175t190 69q94 0 152.5 -53.5t58.5 -141.5q0 -106 -75 -174.5t-190 -68.5q-94 0 -152.5 53t-58.5 141zM145 837q0 106 75 175t190 69q94 0 152.5 -53.5t58.5 -141.5q0 -106 -75 -174.5t-190 -68.5q-94 0 -152.5 53t-58.5 141z" />
<glyph unicode=";" horiz-adv-x="638" d="M-188 -338q102 152 173.5 344.5t100.5 390.5h395q-29 -221 -117 -417.5t-212 -317.5h-340zM145 837q0 106 75 175t190 69q94 0 152.5 -53.5t58.5 -141.5q0 -106 -75 -174.5t-190 -68.5q-94 0 -152.5 53t-58.5 141z" />
<glyph unicode="&#x3c;" horiz-adv-x="1372" d="M242 483l77 406l957 350l-84 -416l-492 -159l430 -162l-71 -371z" />
<glyph unicode="=" horiz-adv-x="1372" d="M172 264l64 334h923l-63 -334h-924zM268 756l64 334h923l-63 -334h-924z" />
<glyph unicode="&#x3e;" horiz-adv-x="1372" d="M156 131l84 416l491 160l-430 161l72 371l817 -352l-78 -406z" />
<glyph unicode="?" horiz-adv-x="1183" d="M236 1499q84 63 216 100t269 37q248 0 390 -115.5t142 -318.5q0 -150 -74.5 -252t-260.5 -211q-94 -55 -123 -90t-29 -98h-397q-8 41 -9 61q0 102 28 171t90.5 126.5t176.5 124.5q68 39 89.5 65.5t21.5 65.5q0 41 -36 62.5t-99 21.5q-90 0 -193.5 -39t-193.5 -108z M264 184q0 104 75 173t189 69q96 0 153.5 -53.5t57.5 -143.5q0 -104 -74.5 -172.5t-189.5 -68.5q-96 0 -153.5 53t-57.5 143z" />
<glyph unicode="@" horiz-adv-x="2191" d="M80 350q0 223 80 421t231.5 350.5t367.5 240.5t472 88q258 0 458.5 -85t316.5 -244.5t116 -372.5q0 -207 -80 -374t-228.5 -264.5t-340.5 -97.5q-236 0 -291 133q-51 -61 -122 -94t-155 -33q-156 0 -246 99.5t-90 271.5q0 150 63.5 280t179.5 211t255 81q78 0 142.5 -32 t101.5 -89l39 92h342l-172 -483q-25 -68 -25 -105q0 -53 55 -53q57 0 115.5 59.5t98.5 162.5t40 216q0 209 -150.5 320.5t-432.5 111.5q-233 0 -419 -97t-294.5 -279.5t-108.5 -419.5q0 -270 165 -408.5t487 -138.5q106 0 222 23.5t218 64.5l-35 -305q-78 -33 -196.5 -52.5 t-241.5 -19.5q-289 0 -500 96t-324.5 281.5t-113.5 443.5zM946 455q0 -49 30 -79t79 -30q63 0 107 51.5t44 126.5q0 49 -29.5 79t-78.5 30q-63 0 -107.5 -51.5t-44.5 -126.5z" />
<glyph unicode="A" horiz-adv-x="1763" d="M-63 0l897 1556h489l295 -1556h-502l-37 322h-491l-160 -322h-491zM770 690h268l-49 438z" />
<glyph unicode="B" horiz-adv-x="1501" d="M39 0l303 1556h557q264 0 406.5 -101t142.5 -288q0 -125 -59.5 -220t-167.5 -144q188 -98 188 -320q0 -231 -162 -357t-461 -126h-747zM543 332h188q217 0 217 168q0 118 -157 118h-3h-190zM662 938h114q217 0 217 168q0 119 -159 119h-117z" />
<glyph unicode="C" horiz-adv-x="1556" d="M135 711q0 182 62.5 338.5t184.5 275.5t297 186.5t386 67.5q135 0 284.5 -36t235.5 -89l-121 -412q-184 100 -395 101q-125 0 -221 -49.5t-151.5 -141.5t-55.5 -217q0 -154 99.5 -237.5t279.5 -83.5q188 0 369 94l-13 -432q-172 -99 -469 -99q-233 0 -406 87.5 t-269.5 252t-96.5 394.5z" />
<glyph unicode="D" horiz-adv-x="1753" d="M39 0l303 1556h557q821 0 821 -663q0 -279 -117.5 -479.5t-345 -307t-548.5 -106.5h-670zM606 389h123q143 0 252 56.5t169 164t60 254.5q0 156 -85 229.5t-263 73.5h-106z" />
<glyph unicode="E" horiz-adv-x="1384" d="M39 0l303 1556h1092l-72 -370h-641l-43 -217h557l-72 -371h-557l-45 -227h688l-71 -371h-1139z" />
<glyph unicode="F" horiz-adv-x="1308" d="M39 0l303 1556h1094l-76 -389h-612l-52 -260h531l-76 -389h-530l-101 -518h-481z" />
<glyph unicode="G" horiz-adv-x="1697" d="M133 705q0 256 119 453.5t343 309t523 111.5q154 0 321 -37t265 -90l-113 -393q-102 53 -230 81.5t-265 28.5q-217 0 -345 -119.5t-128 -322.5q0 -162 99 -255t273 -93q70 0 119 14l35 180h-227l69 353h670l-164 -840q-84 -47 -229.5 -78t-284.5 -31q-401 0 -625.5 191.5 t-224.5 536.5z" />
<glyph unicode="H" horiz-adv-x="1751" d="M39 0l303 1556h502l-111 -563h461l111 563h501l-303 -1556h-502l115 594h-461l-114 -594h-502z" />
<glyph unicode="I" horiz-adv-x="788" d="M39 0l303 1556h502l-303 -1556h-502z" />
<glyph unicode="J" horiz-adv-x="1204" d="M0 72l86 370q115 -75 247 -75h3q109 0 168 60t86 204l180 925h502l-199 -1015q-39 -203 -123 -329t-215 -185.5t-319 -59.5q-127 0 -241 29t-175 76z" />
<glyph unicode="K" horiz-adv-x="1701" d="M39 0l303 1556h481l-112 -575l546 575h594l-788 -765l524 -791h-588l-356 629l-123 -629h-481z" />
<glyph unicode="L" horiz-adv-x="1323" d="M39 0l303 1556h502l-226 -1157h607l-78 -399h-1108z" />
<glyph unicode="M" horiz-adv-x="2037" d="M-8 0l395 1556h436l219 -819l539 819h465l-209 -1556h-448l133 815l-373 -563h-369l-157 567l-183 -819h-448z" />
<glyph unicode="N" horiz-adv-x="1736" d="M39 0l303 1556h420l414 -841l163 841h453l-303 -1556h-420l-414 846l-163 -846h-453z" />
<glyph unicode="O" horiz-adv-x="1857" d="M135 715q0 242 112.5 440.5t320.5 316t472 117.5q221 0 396.5 -92t278 -262t102.5 -393q0 -242 -113 -440.5t-321 -316.5t-472 -118q-221 0 -396 92.5t-277.5 262.5t-102.5 393zM641 713q0 -139 82 -223t217 -84q102 0 186 53t134.5 153.5t50.5 231.5q0 139 -82 223 t-217 84q-102 0 -186.5 -53.5t-134.5 -153.5t-50 -231z" />
<glyph unicode="P" horiz-adv-x="1441" d="M39 0l303 1556h504q303 0 468 -128t165 -363q0 -299 -189.5 -454.5t-554.5 -155.5h-135l-88 -455h-473zM670 811h73q127 0 194 58.5t67 170.5q0 78 -52.5 119t-154.5 41h-54z" />
<glyph unicode="Q" horiz-adv-x="1853" d="M133 715q0 242 112.5 440.5t320.5 316t472 117.5q221 0 396.5 -92t278 -262t102.5 -393q0 -260 -127 -466t-353 -315l328 -434h-539l-215 340q-221 0 -396 92.5t-277.5 262.5t-102.5 393zM639 713q0 -139 82 -223t217 -84q102 0 186 53t134.5 153.5t50.5 231.5 q0 139 -82 223t-217 84q-102 0 -186.5 -53.5t-134.5 -153.5t-50 -231z" />
<glyph unicode="R" horiz-adv-x="1579" d="M39 0l303 1556h494q317 0 482 -122.5t165 -356.5q0 -172 -81 -296t-235 -187l277 -594h-520l-170 485h-148l-94 -485h-473zM672 827h73q260 0 261 228q0 78 -53.5 117.5t-153.5 39.5h-54z" />
<glyph unicode="S" horiz-adv-x="1345" d="M14 111l105 387q88 -63 206.5 -102.5t221.5 -39.5q111 0 164 27t53 82q0 35 -16.5 55.5t-57.5 41t-127 52.5q-199 74 -287 183.5t-88 277.5q0 238 172 376t467 138q141 0 288 -39t239 -100l-113 -377q-96 57 -205.5 92t-197.5 35q-164 0 -164 -94q0 -31 17.5 -51.5 t56 -40t114.5 -47.5q215 -84 304 -190.5t89 -282.5q0 -248 -181 -387.5t-505 -139.5q-147 0 -295.5 38t-259.5 106z" />
<glyph unicode="T" horiz-adv-x="1529" d="M193 1157l77 399h1387l-78 -399h-442l-226 -1157h-501l225 1157h-442z" />
<glyph unicode="U" horiz-adv-x="1734" d="M158 545q0 102 24 237l150 774h502l-158 -811q-14 -70 -14 -133q0 -106 47 -157.5t145 -51.5q117 0 182.5 73t98.5 241l163 839h502l-176 -899q-70 -356 -264.5 -523t-542.5 -167q-315 0 -487 151.5t-172 426.5z" />
<glyph unicode="V" horiz-adv-x="1634" d="M209 1556h516l82 -1003l465 1003h551l-865 -1556h-493z" />
<glyph unicode="W" horiz-adv-x="2322" d="M229 1556h523l-4 -860l385 840h426l73 -844l326 864h532l-755 -1556h-432l-84 883l-410 -883h-432z" />
<glyph unicode="X" horiz-adv-x="1667" d="M-74 0l684 825l-354 731h547l143 -395l277 395h587l-653 -788l375 -768h-547l-162 442l-309 -442h-588z" />
<glyph unicode="Y" horiz-adv-x="1597" d="M209 1556h526l142 -552l348 552h561l-727 -944l-119 -612h-491l118 616z" />
<glyph unicode="Z" horiz-adv-x="1576" d="M8 0l64 328l809 839h-611l76 389h1264l-64 -327l-811 -840h690l-75 -389h-1342z" />
<glyph unicode="[" horiz-adv-x="970" d="M39 -272l379 1951h651l-68 -356h-251l-240 -1237h278l-69 -358h-680z" />
<glyph unicode="\" horiz-adv-x="1224" d="M229 1659h379l449 -1931h-379z" />
<glyph unicode="]" horiz-adv-x="970" d="M-33 -272l68 356h252l239 1237h-278l69 358h680l-379 -1951h-651z" />
<glyph unicode="^" horiz-adv-x="1372" d="M106 604l556 862h405l223 -862h-383l-104 469l-287 -469h-410z" />
<glyph unicode="_" horiz-adv-x="1024" d="M-170 -348l61 317h1022l-61 -317h-1022z" />
<glyph unicode="`" horiz-adv-x="1024" d="M372 1604h457l143 -355h-356z" />
<glyph unicode="a" horiz-adv-x="1341" d="M59 444q0 176 69 326t192.5 241t277.5 91q106 0 182 -43t113 -125l35 135h415l-206 -1069h-408l12 121q-104 -154 -292 -154q-176 0 -283 130t-107 347zM504 510q0 -68 38 -108t101 -40q72 0 122 57.5t50 139.5q0 68 -38 108t-101 40q-72 0 -122 -57.5t-50 -139.5z" />
<glyph unicode="b" horiz-adv-x="1337" d="M-2 0l321 1659h445l-129 -668q49 53 115.5 82t142.5 29q176 0 282.5 -130t106.5 -347q0 -176 -68.5 -325.5t-192.5 -241t-278 -91.5q-106 0 -183 43t-111 123l-35 -133h-416zM526 510q0 -68 38.5 -108t101.5 -40q72 0 122 57.5t50 139.5q0 68 -38 108t-102 40 q-72 0 -122 -57.5t-50 -139.5z" />
<glyph unicode="c" horiz-adv-x="1107" d="M66 485q0 174 77.5 312.5t222 220.5t326.5 82q113 0 223.5 -29t176.5 -74l-95 -364q-47 31 -118.5 51.5t-139.5 20.5q-111 0 -172 -48.5t-61 -132.5q0 -157 222 -157h3q121 0 238 55l-15 -389q-39 -25 -130 -43.5t-187 -18.5q-274 0 -422.5 132.5t-148.5 381.5z" />
<glyph unicode="d" horiz-adv-x="1343" d="M59 444q0 176 69 326t192.5 241t277.5 91q195 0 279 -137l137 694h444l-321 -1659h-408l12 121q-104 -154 -292 -154q-176 0 -283 130t-107 347zM504 510q0 -68 38 -108t101 -40q72 0 122 57.5t50 139.5q0 68 -38 108t-101 40q-72 0 -122 -57.5t-50 -139.5z" />
<glyph unicode="e" horiz-adv-x="1247" d="M63 469q0 178 75 321.5t216.5 227.5t325.5 84q238 0 367 -115t129 -325q0 -113 -31 -222h-666q10 -86 71.5 -119.5t211.5 -33.5q72 0 159 17.5t142 43.5l-10 -315q-66 -31 -166 -48.5t-213 -17.5q-289 0 -450 132t-161 370zM496 664h280q4 20 4 38q0 53 -30.5 82 t-85.5 29q-125 0 -168 -149z" />
<glyph unicode="f" horiz-adv-x="940" d="M106 717l68 352h156l14 78q49 264 189.5 393t379.5 129q74 0 151 -18.5t118 -44.5l-95 -353q-59 33 -122 33q-78 0 -121 -44t-66 -146l-6 -27h219l-67 -352h-219l-140 -717h-444l139 717h-154z" />
<glyph unicode="g" horiz-adv-x="1343" d="M6 -389l98 338q66 -49 152 -77t170 -28q137 0 210 69t101 222q-104 -141 -284 -141q-115 0 -203 56t-138.5 161.5t-50.5 249.5q0 172 68 317.5t191.5 234.5t277.5 89q106 0 182 -43t113 -125l35 135h415l-178 -922q-68 -352 -230.5 -509.5t-463.5 -157.5q-127 0 -258 37 t-207 94zM506 526q0 -68 39 -107.5t102 -39.5q72 0 121 57.5t49 138.5q0 68 -38 108t-101 40q-72 0 -122 -57.5t-50 -139.5z" />
<glyph unicode="h" horiz-adv-x="1286" d="M-2 0l321 1659h445l-137 -703q47 70 122.5 108t165.5 38q150 0 229 -85t79 -249q0 -78 -17 -166l-116 -602h-445l111 567q4 27 4 45q0 45 -21.5 70t-62.5 25q-94 0 -125 -150l-109 -557h-444z" />
<glyph unicode="i" horiz-adv-x="649" d="M0 0l207 1069h444l-207 -1069h-444zM258 1399q0 109 74 178.5t186 69.5q98 0 158.5 -56.5t60.5 -148.5q0 -109 -73.5 -178.5t-186.5 -69.5q-98 0 -158.5 56.5t-60.5 148.5z" />
<glyph unicode="j" horiz-adv-x="649" d="M-430 -438l100 342q66 -39 156 -39q78 0 121 47t65 158l195 999h444l-202 -1044q-41 -205 -112 -323t-180.5 -170t-275.5 -52q-94 0 -177 21.5t-134 60.5zM258 1399q0 109 74 178.5t186 69.5q98 0 158.5 -56.5t60.5 -148.5q0 -109 -73.5 -178.5t-186.5 -69.5 q-98 0 -158.5 56.5t-60.5 148.5z" />
<glyph unicode="k" horiz-adv-x="1359" d="M-2 0l321 1659h445l-184 -946l323 356h527l-517 -514l353 -555h-514l-228 428l-82 -428h-444z" />
<glyph unicode="l" horiz-adv-x="649" d="M-2 0l321 1659h445l-322 -1659h-444z" />
<glyph unicode="m" horiz-adv-x="1935" d="M0 0l207 1069h430l-19 -131q47 76 126 120t174 44q96 0 166.5 -45t107.5 -129q115 174 346 174q160 0 247 -90t87 -256q0 -70 -17 -154l-116 -602h-445l111 567q4 27 4 45q0 45 -21.5 70t-62.5 25q-94 0 -125 -150l-108 -557h-445l111 567q4 27 4 45q0 45 -21.5 70 t-62.5 25q-94 0 -125 -150l-109 -557h-444z" />
<glyph unicode="n" horiz-adv-x="1288" d="M0 0l207 1069h430l-19 -131q47 76 126 120t174 44q150 0 228.5 -85t78.5 -249q0 -78 -17 -166l-116 -602h-445l111 567q4 27 4 45q0 45 -21.5 70t-62.5 25q-94 0 -125 -150l-109 -557h-444z" />
<glyph unicode="o" horiz-adv-x="1314" d="M61 477q0 170 80 312.5t227.5 227.5t333.5 85q250 0 400.5 -139.5t150.5 -370.5q0 -170 -79.5 -312.5t-227.5 -227.5t-334 -85q-250 0 -400.5 139.5t-150.5 370.5zM502 508q0 -68 39 -107t102 -39q72 0 121 58.5t49 140.5q0 68 -39 107t-102 39q-72 0 -121 -58.5 t-49 -140.5z" />
<glyph unicode="p" horiz-adv-x="1337" d="M-98 -502l305 1571h405l-12 -121q104 154 293 154q176 0 282.5 -130t106.5 -347q0 -176 -68.5 -325.5t-192.5 -241t-278 -91.5q-98 0 -169.5 36t-110.5 103l-117 -608h-444zM526 510q0 -68 38.5 -108t101.5 -40q72 0 122 57.5t50 139.5q0 68 -38 108t-102 40 q-72 0 -122 -57.5t-50 -139.5z" />
<glyph unicode="q" horiz-adv-x="1341" d="M59 444q0 176 69 326t192.5 241t277.5 91q106 0 182 -43t113 -125l35 135h415l-305 -1571h-444l113 578q-98 -109 -258 -109q-176 0 -283 130t-107 347zM504 510q0 -68 38 -108t101 -40q72 0 122 57.5t50 139.5q0 68 -38 108t-101 40q-72 0 -122 -57.5t-50 -139.5z" />
<glyph unicode="r" horiz-adv-x="948" d="M0 0l207 1069h424l-21 -164q43 86 115 136.5t156 50.5q78 0 123 -25l-115 -420q-55 31 -133 31q-96 0 -150.5 -62.5t-81.5 -201.5l-80 -414h-444z" />
<glyph unicode="s" horiz-adv-x="1060" d="M6 86l80 299q76 -51 167 -80t177 -29q51 0 71.5 10.5t20.5 32.5q0 20 -22.5 36t-96.5 44q-150 59 -219 143.5t-69 198.5q0 106 58 187.5t169 127.5t258 46q100 0 211 -27.5t190 -73.5l-79 -299q-61 39 -146.5 65t-152.5 26q-84 0 -84 -43q0 -18 17 -30.5t81 -39.5 q170 -68 241.5 -146.5t71.5 -199.5q0 -166 -135 -266.5t-358 -100.5q-123 0 -254 35t-197 84z" />
<glyph unicode="t" horiz-adv-x="1015" d="M66 717l67 352h158l51 264h440l-51 -264h248l-68 -352h-249l-41 -217q-6 -31 -7 -51q0 -45 25 -66t78 -21q94 0 164 29l-17 -373q-43 -23 -120.5 -37t-159.5 -14q-422 0 -422 367q0 74 18 166l41 217h-155z" />
<glyph unicode="u" horiz-adv-x="1286" d="M59 291q0 74 15 143l123 635h444l-111 -567q-4 -27 -4 -45q0 -45 21.5 -70t62.5 -25q94 0 125 150l109 557h444l-207 -1069h-430l17 125q-103 -158 -306 -158q-145 0 -224 84t-79 240z" />
<glyph unicode="v" horiz-adv-x="1247" d="M125 1069h471l12 -616l252 616h471l-579 -1069h-463z" />
<glyph unicode="w" horiz-adv-x="1837" d="M135 1069h453l-2 -534l237 534h371l41 -512l195 512h481l-553 -1069h-383l-47 588l-260 -588h-392z" />
<glyph unicode="x" horiz-adv-x="1331" d="M-63 0l491 569l-270 500h473l88 -233l164 233h485l-465 -543l283 -526h-469l-103 270l-188 -270h-489z" />
<glyph unicode="y" horiz-adv-x="1308" d="M-29 -502l373 563l-219 1008h475l47 -557l271 557h475l-953 -1571h-469z" />
<glyph unicode="z" horiz-adv-x="1136" d="M-33 0l53 279l474 442h-371l67 348h947l-54 -278l-475 -443h430l-67 -348h-1004z" />
<glyph unicode="{" horiz-adv-x="944" d="M84 539l68 350h45q68 0 100.5 20.5t48.5 66.5t23 130q18 227 73.5 350t156.5 174t269 51q129 0 209 -24l-67 -334q-12 6 -36 10t-42 4q-84 0 -123 -55t-47 -182q-12 -193 -61.5 -282t-151.5 -105q51 -25 79.5 -72t28.5 -111q0 -49 -16 -94t-37.5 -88t-38 -86t-16.5 -88 q0 -66 40 -95.5t128 -29.5q35 0 74 6l-68 -342q-39 -8 -100 -8q-229 0 -354.5 88t-125.5 250q0 63 15.5 116.5t35 100.5t35 92t15.5 90q0 51 -32 74t-101 23h-27z" />
<glyph unicode="|" horiz-adv-x="718" d="M-31 -467l434 2241h392l-435 -2241h-391z" />
<glyph unicode="}" horiz-adv-x="944" d="M-72 -270l68 333q12 -6 35.5 -10t42.5 -4q84 0 123 55.5t47 182.5q12 193 61 281.5t152 105.5q-51 25 -80 72t-29 110q0 49 16.5 94t38 88t38 86t16.5 88q0 66 -40 95.5t-128 29.5q-33 0 -74 -6l68 342q39 8 100 8q229 0 354 -88t125 -250q0 -63 -15.5 -116t-34.5 -100.5 t-34.5 -92.5t-15.5 -90q0 -51 31.5 -73.5t101.5 -22.5h27l-68 -350h-45q-68 0 -100.5 -20.5t-49 -66.5t-22.5 -130q-18 -227 -73.5 -350.5t-157 -174.5t-269.5 -51q-129 0 -209 25z" />
<glyph unicode="~" horiz-adv-x="1372" d="M102 430q33 266 142.5 402.5t292.5 136.5q72 -2 118.5 -22.5t78.5 -47.5t60.5 -47.5t65.5 -22.5q47 0 74 31t43 109h342q-33 -266 -142.5 -402.5t-291.5 -136.5q-72 2 -119 22.5t-79 47t-60.5 47t-65.5 22.5q-47 0 -73.5 -30.5t-43.5 -108.5h-342z" />
<glyph unicode="&#xa1;" d="M-37 -549l256 1067h385l-162 -1067h-479zM240 838q0 106 74.5 174.5t189.5 68.5q94 0 152.5 -53t58.5 -141q0 -106 -75 -175t-189 -69q-94 0 -152.5 53.5t-58.5 141.5z" />
<glyph unicode="&#xa2;" horiz-adv-x="1372" d="M174 485q0 170 76 305.5t219 216t334 91.5l47 239h158l-50 -247q76 -12 141.5 -37t104.5 -56l-82 -342q-41 27 -105.5 46.5t-127.5 23.5l-74 -381q145 2 254 55l-22 -366q-41 -25 -122 -42.5t-184 -19.5l-45 -237h-157l49 252q-203 37 -308.5 163.5t-105.5 335.5z M567 522q0 -123 95 -160l69 359q-82 -14 -123 -65.5t-41 -133.5z" />
<glyph unicode="&#xa3;" horiz-adv-x="1372" d="M-12 0l69 360h191l45 228h-180l65 338h182l2 12q43 221 127 356.5t215.5 197.5t321.5 62q115 0 229.5 -28.5t180.5 -75.5l-93 -344q-133 84 -282 84q-111 0 -174.5 -59.5t-87.5 -184.5l-4 -20h358l-66 -338h-360l-45 -228h563l-69 -360h-1188z" />
<glyph unicode="&#xa4;" horiz-adv-x="1372" d="M154 469l161 176q-43 92 -43 209q0 119 43 207l-161 178l256 229l149 -176q90 37 191 37q100 0 188 -37l152 176l256 -229l-164 -178q45 -94 45 -207t-45 -209l164 -176l-256 -229l-152 176q-88 -37 -188 -37t-191 37l-149 -176zM602 854q0 -72 41 -115t107 -43t106.5 43 t40.5 115t-41 115t-106 43q-66 0 -107 -43t-41 -115z" />
<glyph unicode="&#xa5;" horiz-adv-x="1372" d="M45 260l43 225h363l28 142h-364l45 225h250l-217 672h473l92 -527l297 527h512l-484 -672h254l-45 -225h-379l-28 -142h381l-43 -225h-381l-51 -260h-435l52 260h-363z" />
<glyph unicode="&#xa6;" horiz-adv-x="718" d="M-31 -467l176 911h392l-177 -911h-391zM227 862l176 912h392l-177 -912h-391z" />
<glyph unicode="&#xa7;" horiz-adv-x="1222" d="M-25 -135l80 297q82 -53 188.5 -82t223.5 -29q70 0 100.5 16.5t30.5 51.5q0 27 -27.5 43t-119.5 45q-195 61 -273 138t-78 206q0 121 71 211t200 131q-109 78 -109 237q0 188 146.5 297t400.5 109q117 0 235.5 -28.5t184.5 -71.5l-80 -299q-70 39 -167 66.5t-169 27.5 q-66 0 -95.5 -14.5t-29.5 -47.5q0 -23 13.5 -34t47 -24t95.5 -34q129 -41 199.5 -87t100.5 -107.5t30 -153.5q0 -121 -67 -210t-187 -132q113 -84 112 -231q0 -188 -159 -299t-431 -111q-133 0 -266 34t-201 85zM508 623q0 -49 32 -78t85 -29q63 0 105 42t42 104 q0 49 -31.5 77.5t-85.5 28.5q-63 0 -105 -42t-42 -103z" />
<glyph unicode="&#xa8;" horiz-adv-x="1024" d="M225 1356q0 88 60.5 144t150.5 56q80 0 129 -46t49 -121q0 -86 -59 -142.5t-149 -56.5q-82 0 -131.5 45t-49.5 121zM735 1356q0 88 60.5 144t150.5 56q80 0 129 -46t49 -121q0 -86 -59.5 -142.5t-149.5 -56.5q-82 0 -131 45t-49 121z" />
<glyph unicode="&#xa9;" horiz-adv-x="1652" d="M113 778q0 207 94 373t268 263t397 97q213 0 385.5 -90t273.5 -258t101 -385q0 -207 -94 -372.5t-268.5 -263t-397.5 -97.5q-213 0 -385 90t-273 258t-101 385zM332 778q0 -150 66.5 -270.5t190 -191t283.5 -70.5q152 0 275 65.5t194.5 187.5t71.5 279q0 150 -66.5 270.5 t-190.5 191.5t-284 71q-152 0 -274.5 -65.5t-194 -187.5t-71.5 -280zM473 774q0 182 120 295t316 113q70 0 143.5 -15.5t121.5 -42.5l-41 -266q-96 37 -187 37q-70 0 -108.5 -30.5t-38.5 -84.5q0 -113 168 -112q43 0 90 11t86 32l33 -265q-47 -31 -123 -48t-162 -17 q-193 0 -305.5 106.5t-112.5 286.5z" />
<glyph unicode="&#xaa;" horiz-adv-x="989" d="M57 330l56 282h829l-55 -282h-830zM174 1055q0 139 48 252.5t137.5 181t203.5 67.5q70 0 126 -29.5t89 -82.5l25 90h315l-151 -772h-308l13 88q-35 -55 -94.5 -85t-131.5 -30q-125 0 -198.5 87t-73.5 233zM506 1122q0 -45 24.5 -71.5t67.5 -26.5q57 0 92 40t35 103 q0 45 -24.5 72t-67.5 27q-57 0 -92 -40t-35 -104z" />
<glyph unicode="&#xab;" horiz-adv-x="1474" d="M39 526l399 465h473l-442 -493l219 -437h-432zM649 526l399 465h473l-442 -493l219 -437h-432z" />
<glyph unicode="&#xac;" horiz-adv-x="1372" d="M201 590l69 358h992l-125 -645h-387l55 287h-604z" />
<glyph unicode="&#xad;" horiz-adv-x="831" d="M59 414l70 350h666l-70 -350h-666z" />
<glyph unicode="&#xae;" horiz-adv-x="1067" d="M186 1241q0 131 59.5 236.5t170 168t254.5 62.5q135 0 244.5 -57.5t174 -165t64.5 -244.5q0 -131 -59.5 -236.5t-170 -168t-253.5 -62.5q-135 0 -245 57.5t-174.5 165t-64.5 244.5zM338 1241q0 -152 90 -242t242 -90t241.5 90.5t89.5 241.5q0 152 -90 242t-241 90 q-152 0 -242 -90t-90 -242zM469 1024v449h207q96 0 147 -41t51 -119q0 -82 -57 -121l82 -168h-180l-41 111h-47v-111h-162zM631 1257h24q29 0 42.5 10.5t13.5 35.5q0 27 -13.5 37t-42.5 10h-24v-93z" />
<glyph unicode="&#xaf;" horiz-adv-x="1024" d="M303 1249l53 283h697l-54 -283h-696z" />
<glyph unicode="&#xb0;" horiz-adv-x="997" d="M213 1196q0 109 51 198t146.5 142t216.5 53q115 0 209 -49t149 -139t55 -205q0 -109 -51 -198t-146 -142t-216 -53q-115 0 -209 49t-149.5 139t-55.5 205zM506 1196q0 -57 34 -92t87 -35t87 35t34 92t-34 92t-87 35t-87 -35t-34 -92z" />
<glyph unicode="&#xb1;" horiz-adv-x="1372" d="M104 0l70 360h948l-69 -360h-949zM238 784l67 351h305l64 319h377l-64 -319h305l-67 -351h-307l-62 -319h-377l62 319h-303z" />
<glyph unicode="&#xb2;" d="M164 934l43 223q211 123 298 197t87 127q0 29 -22.5 44t-61.5 15q-47 0 -108.5 -24.5t-104.5 -59.5l-31 242q53 41 143 66.5t179 25.5q145 0 235 -70.5t90 -181.5q0 -98 -59.5 -188t-171.5 -162h215l-49 -254h-682z" />
<glyph unicode="&#xb3;" d="M162 973l53 231q43 -23 106.5 -38t122.5 -15q113 0 113 66q0 49 -90 49q-53 0 -86 -13l-49 150l178 133h-254l43 234h639l-39 -207l-184 -137q70 -20 111.5 -78t41.5 -135q0 -139 -110.5 -219t-303.5 -80q-82 0 -165.5 17t-126.5 42z" />
<glyph unicode="&#xb4;" horiz-adv-x="1024" d="M318 1249l276 355h459l-369 -355h-366z" />
<glyph unicode="&#xb5;" horiz-adv-x="1296" d="M-98 -502l305 1571h444l-110 -567q-4 -27 -4 -45q0 -45 21.5 -70t62.5 -25q94 0 124 150l109 557h444l-206 -1069h-430l16 127q-18 -43 -48 -80t-68 -58.5t-75 -21.5q-31 0 -49 13l-92 -482h-444z" />
<glyph unicode="&#xb6;" horiz-adv-x="1343" d="M129 977q0 268 174 423.5t473 155.5h684l-354 -1822h-373l287 1476h-115l-287 -1476h-372l166 864q-135 37 -209 136.5t-74 242.5z" />
<glyph unicode="&#xb7;" horiz-adv-x="638" d="M129 751q0 106 75 175t190 69q94 0 152.5 -53.5t58.5 -141.5q0 -106 -75 -174.5t-190 -68.5q-94 0 -152.5 53t-58.5 141z" />
<glyph unicode="&#xb8;" horiz-adv-x="1024" d="M29 -506l70 187q53 -29 129 -29q51 0 78.5 17.5t27.5 49.5q0 51 -84 52q-39 0 -71 -9l120 258h220l-60 -129q82 -14 126 -60t44 -120q0 -78 -44 -138t-124.5 -95t-191.5 -35q-74 0 -141.5 14.5t-98.5 36.5z" />
<glyph unicode="&#xb9;" d="M276 1368l8 279l297 123h285l-164 -836h-323l102 516z" />
<glyph unicode="&#xba;" horiz-adv-x="1021" d="M39 330l55 282h830l-56 -282h-829zM174 1098q0 131 58.5 234.5t167 163.5t249.5 60q182 0 293 -100t111 -264q0 -131 -58.5 -234.5t-167 -164t-249.5 -60.5q-182 0 -293 100.5t-111 264.5zM504 1122q0 -45 24.5 -71.5t67.5 -26.5q57 0 92 40t35 103q0 45 -24.5 72 t-67.5 27q-57 0 -92 -40t-35 -104z" />
<glyph unicode="&#xbb;" horiz-adv-x="1474" d="M-51 61l440 492l-217 438h432l217 -465l-399 -465h-473zM559 61l440 492l-217 438h432l217 -465l-399 -465h-473z" />
<glyph unicode="&#xbc;" horiz-adv-x="2060" d="M229 1122l8 279l297 123h285l-164 -836h-323l102 516zM315 0l1219 1524h350l-1218 -1524h-351zM1186 139l47 246l418 451h334l-90 -474h98l-43 -223h-99l-26 -139h-275l27 139h-391zM1471 362h149l39 203z" />
<glyph unicode="&#xbd;" horiz-adv-x="2060" d="M225 0l1219 1524h350l-1218 -1524h-351zM229 1122l8 279l297 123h285l-164 -836h-323l102 516zM1217 0l43 223q211 123 298 197t87 127q0 29 -22.5 44t-61.5 15q-47 0 -108.5 -24.5t-104.5 -59.5l-31 242q53 41 143 66.5t179 25.5q145 0 235 -70.5t90 -181.5 q0 -98 -59.5 -188t-171.5 -162h215l-49 -254h-682z" />
<glyph unicode="&#xbe;" horiz-adv-x="2060" d="M115 727l53 231q43 -23 106.5 -38t122.5 -15q113 0 113 66q0 49 -90 49q-53 0 -86 -13l-49 150l178 133h-254l43 234h639l-39 -207l-184 -137q70 -20 111.5 -78t41.5 -135q0 -139 -110.5 -219t-303.5 -80q-82 0 -165.5 17t-126.5 42zM311 0l1219 1524h350l-1218 -1524 h-351zM1186 139l47 246l418 451h334l-90 -474h98l-43 -223h-99l-26 -139h-275l27 139h-391zM1471 362h149l39 203z" />
<glyph unicode="&#xbf;" horiz-adv-x="1183" d="M-70 -133q0 150 75 252t261 211q94 55 123 90t29 98h397q8 -41 8 -61q0 -102 -27.5 -171t-90 -126.5t-177.5 -124.5q-68 -39 -89 -65.5t-21 -65.5q0 -41 35.5 -62.5t99.5 -21.5q90 0 193.5 39t193.5 108l8 -397q-84 -63 -216 -100t-269 -37q-248 0 -390.5 115.5 t-142.5 318.5zM444 840q0 104 75 172.5t190 68.5q96 0 153.5 -53t57.5 -143q0 -104 -75 -173t-190 -69q-96 0 -153.5 53.5t-57.5 143.5z" />
<glyph unicode="&#xc0;" horiz-adv-x="1763" d="M-63 0l897 1556h489l295 -1556h-502l-37 322h-491l-160 -322h-491zM671 2044h494l174 -334h-383zM770 690h268l-49 438z" />
<glyph unicode="&#xc1;" horiz-adv-x="1763" d="M-63 0l897 1556h489l295 -1556h-502l-37 322h-491l-160 -322h-491zM770 690h268l-49 438zM830 1710l291 334h508l-408 -334h-391z" />
<glyph unicode="&#xc2;" horiz-adv-x="1763" d="M-63 0l897 1556h489l295 -1556h-502l-37 322h-491l-160 -322h-491zM583 1710l355 334h438l223 -334h-385l-78 125l-127 -125h-426zM770 690h268l-49 438z" />
<glyph unicode="&#xc3;" horiz-adv-x="1763" d="M-63 0l897 1556h489l295 -1556h-502l-37 322h-491l-160 -322h-491zM665 1704q29 195 109 288t217 93q55 0 92 -15.5t61.5 -34t47 -33.5t53.5 -15t47 20.5t27 73.5h272q-29 -195 -109 -288t-217 -93q-55 0 -92 14.5t-61.5 31.5t-47 31.5t-53.5 14.5q-35 0 -50 -18.5 t-23 -69.5h-273zM770 690h268l-49 438z" />
<glyph unicode="&#xc4;" horiz-adv-x="1763" d="M-63 0l897 1556h489l295 -1556h-502l-37 322h-491l-160 -322h-491zM663 1876q0 90 62.5 149.5t156.5 59.5q84 0 134.5 -48t50.5 -126q0 -90 -61.5 -148.5t-155.5 -58.5q-84 0 -135.5 47t-51.5 125zM770 690h268l-49 438zM1188 1876q0 90 62.5 149.5t156.5 59.5 q84 0 134 -48t50 -126q0 -90 -61.5 -148.5t-155.5 -58.5q-84 0 -135 47t-51 125z" />
<glyph unicode="&#xc5;" horiz-adv-x="1763" d="M-63 0l897 1556h489l295 -1556h-502l-37 322h-491l-160 -322h-491zM770 690h268l-49 438zM815 1970q0 131 90 216t230 85q139 0 229 -85t90 -216t-90 -216t-229 -85t-229.5 85t-90.5 216zM1034 1970q0 -45 28 -72.5t73 -27.5t72.5 27.5t27.5 72.5t-27.5 73t-72.5 28 t-73 -28t-28 -73z" />
<glyph unicode="&#xc6;" horiz-adv-x="2283" d="M-113 0l1112 1556h1334l-72 -370h-641l-43 -217h557l-72 -371h-557l-45 -227h688l-71 -371h-1139l61 322h-393l-203 -322h-516zM842 690h229l103 522z" />
<glyph unicode="&#xc7;" horiz-adv-x="1556" d="M135 711q0 182 62.5 338.5t184.5 275.5t297 186.5t386 67.5q135 0 284.5 -36t235.5 -89l-121 -412q-184 100 -395 101q-125 0 -221 -49.5t-151.5 -141.5t-55.5 -217q0 -154 99.5 -237.5t279.5 -83.5q188 0 369 94l-13 -432q-172 -99 -469 -99q-233 0 -406 87.5 t-269.5 252t-96.5 394.5zM410 -510l74 199q55 -29 129 -29q92 0 92 59q0 43 -82 43q-31 0 -68 -4l121 262h234l-58 -126q84 -8 131 -57.5t47 -127.5q0 -121 -103 -193.5t-277 -72.5q-78 0 -143.5 13.5t-96.5 33.5z" />
<glyph unicode="&#xc8;" horiz-adv-x="1384" d="M39 0l303 1556h1092l-72 -370h-641l-43 -217h557l-72 -371h-557l-45 -227h688l-71 -371h-1139zM516 2044h494l174 -334h-383z" />
<glyph unicode="&#xc9;" horiz-adv-x="1384" d="M39 0l303 1556h1092l-72 -370h-641l-43 -217h557l-72 -371h-557l-45 -227h688l-71 -371h-1139zM674 1710l291 334h508l-408 -334h-391z" />
<glyph unicode="&#xca;" horiz-adv-x="1384" d="M39 0l303 1556h1092l-72 -370h-641l-43 -217h557l-72 -371h-557l-45 -227h688l-71 -371h-1139zM428 1710l355 334h438l223 -334h-385l-78 125l-127 -125h-426z" />
<glyph unicode="&#xcb;" horiz-adv-x="1384" d="M39 0l303 1556h1092l-72 -370h-641l-43 -217h557l-72 -371h-557l-45 -227h688l-71 -371h-1139zM508 1876q0 90 62.5 149.5t156.5 59.5q84 0 134.5 -48t50.5 -126q0 -90 -61.5 -148.5t-155.5 -58.5q-84 0 -135.5 47t-51.5 125zM1033 1876q0 90 62.5 149.5t156.5 59.5 q84 0 134 -48t50 -126q0 -90 -61.5 -148.5t-155.5 -58.5q-84 0 -135 47t-51 125z" />
<glyph unicode="&#xcc;" horiz-adv-x="788" d="M39 0l303 1556h502l-303 -1556h-502zM180 2044h494l174 -334h-383z" />
<glyph unicode="&#xcd;" horiz-adv-x="788" d="M39 0l303 1556h502l-303 -1556h-502zM338 1710l291 334h508l-408 -334h-391z" />
<glyph unicode="&#xce;" horiz-adv-x="788" d="M39 0l303 1556h502l-303 -1556h-502zM92 1710l355 334h438l223 -334h-385l-78 125l-127 -125h-426z" />
<glyph unicode="&#xcf;" horiz-adv-x="788" d="M39 0l303 1556h502l-303 -1556h-502zM172 1876q0 90 62.5 149.5t156.5 59.5q84 0 134.5 -48t50.5 -126q0 -90 -61.5 -148.5t-155.5 -58.5q-84 0 -135.5 47t-51.5 125zM697 1876q0 90 62.5 149.5t156.5 59.5q84 0 134 -48t50 -126q0 -90 -61.5 -148.5t-155.5 -58.5 q-84 0 -135 47t-51 125z" />
<glyph unicode="&#xd0;" horiz-adv-x="1814" d="M72 635l57 297h152l122 624h558q821 0 821 -663q0 -279 -118 -479.5t-345 -307t-549 -106.5h-670l123 635h-151zM668 389h123q143 0 251.5 56.5t169 164t60.5 254.5q0 156 -85 229.5t-263 73.5h-107l-45 -235h236l-58 -297h-235z" />
<glyph unicode="&#xd1;" horiz-adv-x="1736" d="M39 0l303 1556h420l414 -841l163 841h453l-303 -1556h-420l-414 846l-163 -846h-453zM665 1704q29 195 109 288t217 93q55 0 92 -15.5t61.5 -34t47 -33.5t53.5 -15t47 20.5t27 73.5h272q-29 -195 -109 -288t-217 -93q-55 0 -92 14.5t-61.5 31.5t-47 31.5t-53.5 14.5 q-35 0 -50 -18.5t-23 -69.5h-273z" />
<glyph unicode="&#xd2;" horiz-adv-x="1857" d="M135 715q0 242 112.5 440.5t320.5 316t472 117.5q221 0 396.5 -92t278 -262t102.5 -393q0 -242 -113 -440.5t-321 -316.5t-472 -118q-221 0 -396 92.5t-277.5 262.5t-102.5 393zM641 713q0 -139 82 -223t217 -84q102 0 186 53t134.5 153.5t50.5 231.5q0 139 -82 223 t-217 84q-102 0 -186.5 -53.5t-134.5 -153.5t-50 -231zM706 2044h494l174 -334h-383z" />
<glyph unicode="&#xd3;" horiz-adv-x="1857" d="M135 715q0 242 112.5 440.5t320.5 316t472 117.5q221 0 396.5 -92t278 -262t102.5 -393q0 -242 -113 -440.5t-321 -316.5t-472 -118q-221 0 -396 92.5t-277.5 262.5t-102.5 393zM641 713q0 -139 82 -223t217 -84q102 0 186 53t134.5 153.5t50.5 231.5q0 139 -82 223 t-217 84q-102 0 -186.5 -53.5t-134.5 -153.5t-50 -231zM864 1710l291 334h508l-408 -334h-391z" />
<glyph unicode="&#xd4;" horiz-adv-x="1857" d="M135 715q0 242 112.5 440.5t320.5 316t472 117.5q221 0 396.5 -92t278 -262t102.5 -393q0 -242 -113 -440.5t-321 -316.5t-472 -118q-221 0 -396 92.5t-277.5 262.5t-102.5 393zM618 1710l355 334h438l223 -334h-385l-78 125l-127 -125h-426zM641 713q0 -139 82 -223 t217 -84q102 0 186 53t134.5 153.5t50.5 231.5q0 139 -82 223t-217 84q-102 0 -186.5 -53.5t-134.5 -153.5t-50 -231z" />
<glyph unicode="&#xd5;" horiz-adv-x="1857" d="M135 715q0 242 112.5 440.5t320.5 316t472 117.5q221 0 396.5 -92t278 -262t102.5 -393q0 -242 -113 -440.5t-321 -316.5t-472 -118q-221 0 -396 92.5t-277.5 262.5t-102.5 393zM641 713q0 -139 82 -223t217 -84q102 0 186 53t134.5 153.5t50.5 231.5q0 139 -82 223 t-217 84q-102 0 -186.5 -53.5t-134.5 -153.5t-50 -231zM700 1704q29 195 109 288t217 93q55 0 92 -15.5t61.5 -34t47 -33.5t53.5 -15t47 20.5t27 73.5h272q-29 -195 -109 -288t-217 -93q-55 0 -92 14.5t-61.5 31.5t-47 31.5t-53.5 14.5q-35 0 -50 -18.5t-23 -69.5h-273z" />
<glyph unicode="&#xd6;" horiz-adv-x="1857" d="M135 715q0 242 112.5 440.5t320.5 316t472 117.5q221 0 396.5 -92t278 -262t102.5 -393q0 -242 -113 -440.5t-321 -316.5t-472 -118q-221 0 -396 92.5t-277.5 262.5t-102.5 393zM641 713q0 -139 82 -223t217 -84q102 0 186 53t134.5 153.5t50.5 231.5q0 139 -82 223 t-217 84q-102 0 -186.5 -53.5t-134.5 -153.5t-50 -231zM698 1876q0 90 62.5 149.5t156.5 59.5q84 0 134.5 -48t50.5 -126q0 -90 -61.5 -148.5t-155.5 -58.5q-84 0 -135.5 47t-51.5 125zM1223 1876q0 90 62.5 149.5t156.5 59.5q84 0 134 -48t50 -126q0 -90 -61.5 -148.5 t-155.5 -58.5q-84 0 -135 47t-51 125z" />
<glyph unicode="&#xd7;" horiz-adv-x="1372" d="M182 453l307 274l-198 268l270 215l187 -252l294 263l218 -263l-308 -274l199 -268l-270 -215l-189 252l-293 -263z" />
<glyph unicode="&#xd8;" horiz-adv-x="1857" d="M18 156l211 178q-94 172 -94 381q0 244 112.5 441.5t321.5 315t475 117.5q283 0 488 -151l217 182l176 -209l-211 -178q102 -170 103 -391q0 -244 -112 -442.5t-318 -315.5t-472 -117q-307 0 -507 158l-213 -178zM614 707q0 -35 2 -45l568 479q-70 43 -168 43 q-113 0 -204 -59.5t-144.5 -168t-53.5 -249.5zM754 422q78 -49 184 -49q113 0 203 59.5t143 168t53 249.5q0 27 -4 59z" />
<glyph unicode="&#xd9;" horiz-adv-x="1734" d="M158 545q0 102 24 237l150 774h502l-158 -811q-14 -70 -14 -133q0 -106 47 -157.5t145 -51.5q117 0 182.5 73t98.5 241l163 839h502l-176 -899q-70 -356 -264.5 -523t-542.5 -167q-315 0 -487 151.5t-172 426.5zM665 2044h494l174 -334h-383z" />
<glyph unicode="&#xda;" horiz-adv-x="1734" d="M158 545q0 102 24 237l150 774h502l-158 -811q-14 -70 -14 -133q0 -106 47 -157.5t145 -51.5q117 0 182.5 73t98.5 241l163 839h502l-176 -899q-70 -356 -264.5 -523t-542.5 -167q-315 0 -487 151.5t-172 426.5zM824 1710l291 334h508l-408 -334h-391z" />
<glyph unicode="&#xdb;" horiz-adv-x="1734" d="M158 545q0 102 24 237l150 774h502l-158 -811q-14 -70 -14 -133q0 -106 47 -157.5t145 -51.5q117 0 182.5 73t98.5 241l163 839h502l-176 -899q-70 -356 -264.5 -523t-542.5 -167q-315 0 -487 151.5t-172 426.5zM577 1710l355 334h438l223 -334h-385l-78 125l-127 -125 h-426z" />
<glyph unicode="&#xdc;" horiz-adv-x="1734" d="M158 545q0 102 24 237l150 774h502l-158 -811q-14 -70 -14 -133q0 -106 47 -157.5t145 -51.5q117 0 182.5 73t98.5 241l163 839h502l-176 -899q-70 -356 -264.5 -523t-542.5 -167q-315 0 -487 151.5t-172 426.5zM657 1876q0 90 62.5 149.5t156.5 59.5q84 0 134.5 -48 t50.5 -126q0 -90 -61.5 -148.5t-155.5 -58.5q-84 0 -135.5 47t-51.5 125zM1182 1876q0 90 62.5 149.5t156.5 59.5q84 0 134 -48t50 -126q0 -90 -61.5 -148.5t-155.5 -58.5q-84 0 -135 47t-51 125z" />
<glyph unicode="&#xdd;" horiz-adv-x="1597" d="M209 1556h526l142 -552l348 552h561l-727 -944l-119 -612h-491l118 616zM760 1710l291 334h508l-408 -334h-391z" />
<glyph unicode="&#xde;" horiz-adv-x="1443" d="M41 0l301 1556h473l-41 -206h33q303 0 468 -128t165 -364q0 -299 -189.5 -454.5t-554.5 -155.5h-135l-47 -248h-473zM631 604h74q127 0 193.5 58.5t66.5 171.5q0 78 -52.5 118.5t-154.5 40.5h-53z" />
<glyph unicode="&#xdf;" horiz-adv-x="1452" d="M-2 0l203 1047q61 322 228 472t464 150q242 0 386 -118.5t144 -315.5q0 -131 -62.5 -232.5t-170.5 -148.5q90 -45 137 -133t47 -207q0 -164 -67.5 -288t-196.5 -191.5t-303 -67.5q-86 0 -170 17.5t-123 42.5l94 348q66 -37 154 -37t143.5 46t55.5 122q0 70 -51.5 102.5 t-159.5 32.5q-47 0 -64 -2l66 344h16q109 0 169 50t60 138q0 61 -36.5 95t-100.5 34q-96 0 -154.5 -68.5t-87.5 -215.5l-196 -1016h-424z" />
<glyph unicode="&#xe0;" horiz-adv-x="1341" d="M59 444q0 176 69 326t192.5 241t277.5 91q106 0 182 -43t113 -125l35 135h415l-206 -1069h-408l12 121q-104 -154 -292 -154q-176 0 -283 130t-107 347zM426 1604h457l143 -355h-356zM504 510q0 -68 38 -108t101 -40q72 0 122 57.5t50 139.5q0 68 -38 108t-101 40 q-72 0 -122 -57.5t-50 -139.5z" />
<glyph unicode="&#xe1;" horiz-adv-x="1341" d="M59 444q0 176 69 326t192.5 241t277.5 91q106 0 182 -43t113 -125l35 135h415l-206 -1069h-408l12 121q-104 -154 -292 -154q-176 0 -283 130t-107 347zM504 510q0 -68 38 -108t101 -40q72 0 122 57.5t50 139.5q0 68 -38 108t-101 40q-72 0 -122 -57.5t-50 -139.5z M592 1249l276 355h459l-369 -355h-366z" />
<glyph unicode="&#xe2;" horiz-adv-x="1341" d="M59 444q0 176 69 326t192.5 241t277.5 91q106 0 182 -43t113 -125l35 135h415l-206 -1069h-408l12 121q-104 -154 -292 -154q-176 0 -283 130t-107 347zM352 1249l340 355h381l205 -355h-342l-78 137l-131 -137h-375zM504 510q0 -68 38 -108t101 -40q72 0 122 57.5 t50 139.5q0 68 -38 108t-101 40q-72 0 -122 -57.5t-50 -139.5z" />
<glyph unicode="&#xe3;" horiz-adv-x="1341" d="M59 444q0 176 69 326t192.5 241t277.5 91q106 0 182 -43t113 -125l35 135h415l-206 -1069h-408l12 121q-104 -154 -292 -154q-176 0 -283 130t-107 347zM387 1237q27 186 106 277.5t218 91.5q55 0 92 -15.5t61.5 -34t47 -34t53.5 -15.5t47 20.5t26 74.5h273 q-27 -186 -106 -277.5t-218 -91.5q-55 0 -92 15.5t-61.5 33.5t-47 33.5t-53.5 15.5t-47 -20.5t-26 -73.5h-273zM504 510q0 -68 38 -108t101 -40q72 0 122 57.5t50 139.5q0 68 -38 108t-101 40q-72 0 -122 -57.5t-50 -139.5z" />
<glyph unicode="&#xe4;" horiz-adv-x="1341" d="M59 444q0 176 69 326t192.5 241t277.5 91q106 0 182 -43t113 -125l35 135h415l-206 -1069h-408l12 121q-104 -154 -292 -154q-176 0 -283 130t-107 347zM387 1356q0 88 60.5 144t150.5 56q80 0 129 -46t49 -121q0 -86 -59 -142.5t-149 -56.5q-82 0 -131.5 45t-49.5 121z M504 510q0 -68 38 -108t101 -40q72 0 122 57.5t50 139.5q0 68 -38 108t-101 40q-72 0 -122 -57.5t-50 -139.5zM897 1356q0 88 60.5 144t150.5 56q80 0 129 -46t49 -121q0 -86 -59.5 -142.5t-149.5 -56.5q-82 0 -131 45t-49 121z" />
<glyph unicode="&#xe5;" horiz-adv-x="1341" d="M59 444q0 176 69 326t192.5 241t277.5 91q106 0 182 -43t113 -125l35 135h415l-206 -1069h-408l12 121q-104 -154 -292 -154q-176 0 -283 130t-107 347zM504 510q0 -68 38 -108t101 -40q72 0 122 57.5t50 139.5q0 68 -38 108t-101 40q-72 0 -122 -57.5t-50 -139.5z M506 1458q0 131 90 216t229 85t229.5 -85t90.5 -216t-90.5 -216t-229.5 -85t-229 85t-90 216zM725 1458q0 -45 27.5 -72.5t72.5 -27.5t73 27.5t28 72.5t-28 73t-73 28t-72.5 -28t-27.5 -73z" />
<glyph unicode="&#xe6;" horiz-adv-x="1998" d="M59 444q0 176 69 326t192.5 241t277.5 91q106 0 182 -43t113 -125l35 135h334l-17 -98q45 63 119 97t164 34q182 0 290.5 -120t108.5 -320q0 -113 -31 -222h-665q10 -86 71.5 -119.5t210.5 -33.5q72 0 159 17.5t143 43.5l-11 -315q-63 -29 -159.5 -47.5t-190.5 -18.5 q-141 0 -237.5 34t-139.5 99l-22 -100h-326l12 121q-104 -154 -292 -154q-176 0 -283 130t-107 347zM504 510q0 -68 38 -108t101 -40q72 0 122 57.5t50 139.5q0 68 -38 108t-101 40q-72 0 -122 -57.5t-50 -139.5zM1247 664h281q4 25 4 38q0 53 -31 82t-86 29 q-125 0 -168 -149z" />
<glyph unicode="&#xe7;" horiz-adv-x="1107" d="M66 485q0 174 77.5 312.5t222 220.5t326.5 82q113 0 223.5 -29t176.5 -74l-95 -364q-47 31 -118.5 51.5t-139.5 20.5q-111 0 -172 -48.5t-61 -132.5q0 -158 225 -157q121 0 238 55l-15 -389q-39 -25 -130 -43.5t-187 -18.5q-274 0 -422.5 132.5t-148.5 381.5zM162 -506 l70 187q53 -29 129 -29q51 0 78.5 17.5t27.5 49.5q0 51 -84 52q-39 0 -71 -9l120 258h220l-60 -129q82 -14 126 -60t44 -120q0 -78 -44 -138t-124.5 -95t-191.5 -35q-74 0 -141.5 14.5t-98.5 36.5z" />
<glyph unicode="&#xe8;" horiz-adv-x="1247" d="M63 469q0 178 75 321.5t216.5 227.5t325.5 84q238 0 367 -115t129 -325q0 -113 -31 -222h-666q10 -86 71.5 -119.5t211.5 -33.5q72 0 159 17.5t142 43.5l-10 -315q-66 -31 -166 -48.5t-213 -17.5q-289 0 -450 132t-161 370zM348 1604h457l143 -355h-356zM496 664h280 q4 20 4 38q0 53 -30.5 82t-85.5 29q-125 0 -168 -149z" />
<glyph unicode="&#xe9;" horiz-adv-x="1247" d="M63 469q0 178 75 321.5t216.5 227.5t325.5 84q238 0 367 -115t129 -325q0 -113 -31 -222h-666q10 -86 71.5 -119.5t211.5 -33.5q72 0 159 17.5t142 43.5l-10 -315q-66 -31 -166 -48.5t-213 -17.5q-289 0 -450 132t-161 370zM496 664h280q4 20 4 38q0 53 -30.5 82 t-85.5 29q-125 0 -168 -149zM514 1249l276 355h459l-369 -355h-366z" />
<glyph unicode="&#xea;" horiz-adv-x="1247" d="M63 469q0 178 75 321.5t216.5 227.5t325.5 84q238 0 367 -115t129 -325q0 -113 -31 -222h-666q10 -86 71.5 -119.5t211.5 -33.5q72 0 159 17.5t142 43.5l-10 -315q-66 -31 -166 -48.5t-213 -17.5q-289 0 -450 132t-161 370zM274 1249l340 355h381l205 -355h-342l-78 137 l-131 -137h-375zM496 664h280q4 20 4 38q0 53 -30.5 82t-85.5 29q-125 0 -168 -149z" />
<glyph unicode="&#xeb;" horiz-adv-x="1247" d="M63 469q0 178 75 321.5t216.5 227.5t325.5 84q238 0 367 -115t129 -325q0 -113 -31 -222h-666q10 -86 71.5 -119.5t211.5 -33.5q72 0 159 17.5t142 43.5l-10 -315q-66 -31 -166 -48.5t-213 -17.5q-289 0 -450 132t-161 370zM309 1356q0 88 60.5 144t150.5 56 q80 0 129 -46t49 -121q0 -86 -59 -142.5t-149 -56.5q-82 0 -131.5 45t-49.5 121zM496 664h280q4 20 4 38q0 53 -30.5 82t-85.5 29q-125 0 -168 -149zM819 1356q0 88 60.5 144t150.5 56q80 0 129 -46t49 -121q0 -86 -59.5 -142.5t-149.5 -56.5q-82 0 -131 45t-49 121z" />
<glyph unicode="&#xec;" horiz-adv-x="649" d="M0 0l207 1069h444l-207 -1069h-444zM63 1604h457l143 -355h-356z" />
<glyph unicode="&#xed;" horiz-adv-x="649" d="M0 0l207 1069h444l-207 -1069h-444zM230 1249l276 355h459l-369 -355h-366z" />
<glyph unicode="&#xee;" horiz-adv-x="649" d="M-11 1249l340 355h381l205 -355h-342l-78 137l-131 -137h-375zM0 0l207 1069h444l-207 -1069h-444z" />
<glyph unicode="&#xef;" horiz-adv-x="649" d="M0 0l207 1069h444l-207 -1069h-444zM24 1356q0 88 60.5 144t150.5 56q80 0 129 -46t49 -121q0 -86 -59 -142.5t-149 -56.5q-82 0 -131.5 45t-49.5 121zM534 1356q0 88 60.5 144t150.5 56q80 0 129 -46t49 -121q0 -86 -59.5 -142.5t-149.5 -56.5q-82 0 -131 45t-49 121z " />
<glyph unicode="&#xf0;" horiz-adv-x="1337" d="M61 477q0 154 68 285t189.5 213t273.5 82q160 0 252 -92q-23 143 -84 270l-326 -107l-65 207l278 95q-76 109 -174 204l463 33q39 -39 94 -117l248 82l65 -207l-202 -69q74 -154 112.5 -313.5t38.5 -305.5q0 -231 -79.5 -404t-233.5 -269.5t-363 -96.5 q-258 0 -406.5 137.5t-148.5 372.5zM502 496q0 -66 40.5 -104t108.5 -38q74 0 125 54.5t51 134.5q0 66 -41 103.5t-108 37.5q-74 0 -125 -54.5t-51 -133.5z" />
<glyph unicode="&#xf1;" horiz-adv-x="1288" d="M0 0l207 1069h430l-19 -131q47 76 126 120t174 44q150 0 228.5 -85t78.5 -249q0 -78 -17 -166l-116 -602h-445l111 567q4 27 4 45q0 45 -21.5 70t-62.5 25q-94 0 -125 -150l-109 -557h-444zM356 1237q27 186 106 277.5t218 91.5q55 0 92 -15.5t61.5 -34t47 -34 t53.5 -15.5t47 20.5t26 74.5h273q-27 -186 -106 -277.5t-218 -91.5q-55 0 -92 15.5t-61.5 33.5t-47 33.5t-53.5 15.5t-47 -20.5t-26 -73.5h-273z" />
<glyph unicode="&#xf2;" horiz-adv-x="1314" d="M61 477q0 170 80 312.5t227.5 227.5t333.5 85q250 0 400.5 -139.5t150.5 -370.5q0 -170 -79.5 -312.5t-227.5 -227.5t-334 -85q-250 0 -400.5 139.5t-150.5 370.5zM399 1604h457l143 -355h-356zM502 508q0 -68 39 -107t102 -39q72 0 121 58.5t49 140.5q0 68 -39 107 t-102 39q-72 0 -121 -58.5t-49 -140.5z" />
<glyph unicode="&#xf3;" horiz-adv-x="1314" d="M61 477q0 170 80 312.5t227.5 227.5t333.5 85q250 0 400.5 -139.5t150.5 -370.5q0 -170 -79.5 -312.5t-227.5 -227.5t-334 -85q-250 0 -400.5 139.5t-150.5 370.5zM502 508q0 -68 39 -107t102 -39q72 0 121 58.5t49 140.5q0 68 -39 107t-102 39q-72 0 -121 -58.5 t-49 -140.5zM566 1249l276 355h459l-369 -355h-366z" />
<glyph unicode="&#xf4;" horiz-adv-x="1314" d="M61 477q0 170 80 312.5t227.5 227.5t333.5 85q250 0 400.5 -139.5t150.5 -370.5q0 -170 -79.5 -312.5t-227.5 -227.5t-334 -85q-250 0 -400.5 139.5t-150.5 370.5zM325 1249l340 355h381l205 -355h-342l-78 137l-131 -137h-375zM502 508q0 -68 39 -107t102 -39 q72 0 121 58.5t49 140.5q0 68 -39 107t-102 39q-72 0 -121 -58.5t-49 -140.5z" />
<glyph unicode="&#xf5;" horiz-adv-x="1314" d="M61 477q0 170 80 312.5t227.5 227.5t333.5 85q250 0 400.5 -139.5t150.5 -370.5q0 -170 -79.5 -312.5t-227.5 -227.5t-334 -85q-250 0 -400.5 139.5t-150.5 370.5zM360 1237q27 186 106 277.5t218 91.5q55 0 92 -15.5t61.5 -34t47 -34t53.5 -15.5t47 20.5t26 74.5h273 q-27 -186 -106 -277.5t-218 -91.5q-55 0 -92 15.5t-61.5 33.5t-47 33.5t-53.5 15.5t-47 -20.5t-26 -73.5h-273zM502 508q0 -68 39 -107t102 -39q72 0 121 58.5t49 140.5q0 68 -39 107t-102 39q-72 0 -121 -58.5t-49 -140.5z" />
<glyph unicode="&#xf6;" horiz-adv-x="1314" d="M61 477q0 170 80 312.5t227.5 227.5t333.5 85q250 0 400.5 -139.5t150.5 -370.5q0 -170 -79.5 -312.5t-227.5 -227.5t-334 -85q-250 0 -400.5 139.5t-150.5 370.5zM360 1356q0 88 60.5 144t150.5 56q80 0 129 -46t49 -121q0 -86 -59 -142.5t-149 -56.5q-82 0 -131.5 45 t-49.5 121zM502 508q0 -68 39 -107t102 -39q72 0 121 58.5t49 140.5q0 68 -39 107t-102 39q-72 0 -121 -58.5t-49 -140.5zM870 1356q0 88 60.5 144t150.5 56q80 0 129 -46t49 -121q0 -86 -59.5 -142.5t-149.5 -56.5q-82 0 -131 45t-49 121z" />
<glyph unicode="&#xf7;" horiz-adv-x="1372" d="M211 524l63 330h949l-64 -330h-948zM442 242q0 82 58.5 135t146.5 53q78 0 127 -42t49 -109q0 -82 -58.5 -135.5t-146.5 -53.5q-78 0 -127 42t-49 110zM608 1100q0 82 58.5 135t146.5 53q78 0 127 -42t49 -109q0 -82 -58.5 -135.5t-146.5 -53.5q-78 0 -127 42t-49 110z " />
<glyph unicode="&#xf8;" horiz-adv-x="1314" d="M-16 98l141 117q-63 109 -64 262q0 170 80 312.5t227.5 227.5t333.5 85q217 0 363 -109l149 125l123 -147l-145 -121q61 -113 61 -258q0 -170 -79.5 -312.5t-227 -227.5t-334.5 -85q-213 0 -358 105l-145 -121zM430 496q0 -16 2 -27l350 291q-43 25 -104 24 q-104 0 -176 -84t-72 -204zM537 305q41 -20 100 -20q104 0 176 84t72 204q0 10 -2 21z" />
<glyph unicode="&#xf9;" horiz-adv-x="1286" d="M59 291q0 74 15 143l123 635h444l-111 -567q-4 -27 -4 -45q0 -45 22 -70t62 -25q94 0 125 150l109 557h444l-207 -1069h-430l17 125q-103 -158 -306 -158q-145 0 -224 84t-79 240zM360 1604h457l143 -355h-356z" />
<glyph unicode="&#xfa;" horiz-adv-x="1286" d="M59 291q0 74 15 143l123 635h444l-111 -567q-4 -27 -4 -45q0 -45 22 -70t62 -25q94 0 125 150l109 557h444l-207 -1069h-430l17 125q-103 -158 -306 -158q-145 0 -224 84t-79 240zM527 1249l276 355h459l-369 -355h-366z" />
<glyph unicode="&#xfb;" horiz-adv-x="1286" d="M59 291q0 74 15 143l123 635h444l-111 -567q-4 -27 -4 -45q0 -45 22 -70t62 -25q94 0 125 150l109 557h444l-207 -1069h-430l17 125q-103 -158 -306 -158q-145 0 -224 84t-79 240zM286 1249l340 355h381l205 -355h-342l-78 137l-131 -137h-375z" />
<glyph unicode="&#xfc;" horiz-adv-x="1286" d="M59 291q0 74 15 143l123 635h444l-111 -567q-4 -27 -4 -45q0 -45 22 -70t62 -25q94 0 125 150l109 557h444l-207 -1069h-430l17 125q-103 -158 -306 -158q-145 0 -224 84t-79 240zM321 1356q0 88 60.5 144t150.5 56q80 0 129 -46t49 -121q0 -86 -59 -142.5t-149 -56.5 q-82 0 -131.5 45t-49.5 121zM831 1356q0 88 60.5 144t150.5 56q80 0 129 -46t49 -121q0 -86 -59.5 -142.5t-149.5 -56.5q-82 0 -131 45t-49 121z" />
<glyph unicode="&#xfd;" horiz-adv-x="1308" d="M-29 -502l373 563l-219 1008h475l47 -557l271 557h475l-953 -1571h-469zM572 1249l276 355h459l-369 -355h-366z" />
<glyph unicode="&#xfe;" horiz-adv-x="1337" d="M-98 -502l417 2161h445l-131 -668q100 111 260 111q176 0 282.5 -130t106.5 -347q0 -176 -68.5 -325.5t-192.5 -241t-278 -91.5q-98 0 -169.5 36t-110.5 103l-117 -608h-444zM526 510q0 -68 38.5 -108t101.5 -40q72 0 122 57.5t50 139.5q0 68 -38 108t-102 40 q-72 0 -122 -57.5t-50 -139.5z" />
<glyph unicode="&#xff;" horiz-adv-x="1308" d="M-29 -502l373 563l-219 1008h475l47 -557l271 557h475l-953 -1571h-469zM366 1356q0 88 60.5 144t150.5 56q80 0 129 -46t49 -121q0 -86 -59 -142.5t-149 -56.5q-82 0 -131.5 45t-49.5 121zM876 1356q0 88 60.5 144t150.5 56q80 0 129 -46t49 -121q0 -86 -59.5 -142.5 t-149.5 -56.5q-82 0 -131 45t-49 121z" />
<glyph unicode="&#x100;" horiz-adv-x="1763" d="M-63 0l897 1556h489l295 -1556h-502l-37 322h-491l-160 -322h-491zM733 1710l57 289h715l-57 -289h-715zM770 690h268l-49 438z" />
<glyph unicode="&#x101;" horiz-adv-x="1341" d="M59 444q0 176 69 326t192.5 241t277.5 91q106 0 182 -43t113 -125l35 135h415l-206 -1069h-408l12 121q-104 -154 -292 -154q-176 0 -283 130t-107 347zM467 1249l53 283h697l-54 -283h-696zM504 510q0 -68 38 -108t101 -40q72 0 122 57.5t50 139.5q0 68 -38 108t-101 40 q-72 0 -122 -57.5t-50 -139.5z" />
<glyph unicode="&#x102;" horiz-adv-x="1763" d="M-63 0l897 1556h489l295 -1556h-502l-37 322h-491l-160 -322h-491zM725 1954q0 43 12 88h295q-2 -14 -2 -29q0 -47 27.5 -72.5t78.5 -25.5q109 0 138 127h295q-2 -182 -121 -280.5t-336 -98.5q-174 0 -280.5 80t-106.5 211zM770 690h268l-49 438z" />
<glyph unicode="&#x103;" horiz-adv-x="1341" d="M59 444q0 176 69 326t192.5 241t277.5 91q106 0 182 -43t113 -125l35 135h415l-206 -1069h-408l12 121q-104 -154 -292 -154q-176 0 -283 130t-107 347zM449 1479q0 53 14 96h276q-2 -14 -2 -29q0 -111 117 -110q125 0 152 139h276q0 -186 -115.5 -284.5t-332.5 -98.5 q-176 0 -280.5 79t-104.5 208zM504 510q0 -68 38 -108t101 -40q72 0 122 57.5t50 139.5q0 68 -38 108t-101 40q-72 0 -122 -57.5t-50 -139.5z" />
<glyph unicode="&#x104;" horiz-adv-x="1763" d="M-63 0l897 1556h489l295 -1556h-502l-37 322h-491l-160 -322h-491zM770 690h268l-49 438zM1080 -309q0 135 127 237.5t348 147.5l63 -76q-178 -113 -178 -188q0 -53 62 -54q35 0 63 11l-29 -287q-71 -31 -188 -31q-125 0 -196.5 63.5t-71.5 176.5z" />
<glyph unicode="&#x105;" horiz-adv-x="1341" d="M59 444q0 176 69 326t192.5 241t277.5 91q106 0 182 -43t113 -125l35 135h415l-206 -1069h-408l12 121q-104 -154 -292 -154q-176 0 -283 130t-107 347zM504 510q0 -68 38 -108t101 -40q72 0 122 57.5t50 139.5q0 68 -38 108t-101 40q-72 0 -122 -57.5t-50 -139.5z M601 -309q0 125 114.5 236.5t323.5 191.5l98 -119q-102 -63 -148 -111.5t-46 -89.5q0 -25 20.5 -41t54.5 -16q31 0 66 10l-27 -270q-71 -31 -188 -31q-125 0 -196.5 63.5t-71.5 176.5z" />
<glyph unicode="&#x106;" horiz-adv-x="1556" d="M135 711q0 182 62.5 338.5t184.5 275.5t297 186.5t386 67.5q135 0 284.5 -36t235.5 -89l-121 -412q-184 100 -395 101q-125 0 -221 -49.5t-151.5 -141.5t-55.5 -217q0 -154 99.5 -237.5t279.5 -83.5q188 0 369 94l-13 -432q-172 -99 -469 -99q-233 0 -406 87.5 t-269.5 252t-96.5 394.5zM791 1710l291 334h508l-408 -334h-391z" />
<glyph unicode="&#x107;" horiz-adv-x="1107" d="M66 485q0 174 77.5 312.5t222 220.5t326.5 82q113 0 223.5 -29t176.5 -74l-95 -364q-47 31 -118.5 51.5t-139.5 20.5q-111 0 -172 -48.5t-61 -132.5q0 -158 225 -157q121 0 238 55l-15 -389q-39 -25 -130 -43.5t-187 -18.5q-274 0 -422.5 132.5t-148.5 381.5zM533 1249 l276 355h459l-369 -355h-366z" />
<glyph unicode="&#x10a;" horiz-adv-x="1556" d="M135 711q0 182 62.5 338.5t184.5 275.5t297 186.5t386 67.5q135 0 284.5 -36t235.5 -89l-121 -412q-184 100 -395 101q-125 0 -221 -49.5t-151.5 -141.5t-55.5 -217q0 -154 99.5 -237.5t279.5 -83.5q188 0 369 94l-13 -432q-172 -99 -469 -99q-233 0 -406 87.5 t-269.5 252t-96.5 394.5zM862 1896q0 104 70.5 172t183.5 68q94 0 151.5 -54t57.5 -143q0 -104 -70.5 -171.5t-183.5 -67.5q-94 0 -151.5 54t-57.5 142z" />
<glyph unicode="&#x10b;" horiz-adv-x="1107" d="M66 485q0 174 77.5 312.5t222 220.5t326.5 82q113 0 223.5 -29t176.5 -74l-95 -364q-47 31 -118.5 51.5t-139.5 20.5q-111 0 -172 -48.5t-61 -132.5q0 -158 225 -157q121 0 238 55l-15 -389q-39 -25 -130 -43.5t-187 -18.5q-274 0 -422.5 132.5t-148.5 381.5zM567 1376 q0 98 66.5 162t170.5 64q88 0 142.5 -51.5t54.5 -133.5q0 -98 -67 -161.5t-171 -63.5q-88 0 -142 51t-54 133z" />
<glyph unicode="&#x10c;" horiz-adv-x="1556" d="M135 711q0 182 62.5 338.5t184.5 275.5t297 186.5t386 67.5q135 0 284.5 -36t235.5 -89l-121 -412q-184 100 -395 101q-125 0 -221 -49.5t-151.5 -141.5t-55.5 -217q0 -154 99.5 -237.5t279.5 -83.5q188 0 369 94l-13 -432q-172 -99 -469 -99q-233 0 -406 87.5 t-269.5 252t-96.5 394.5zM582 2044h385l78 -125l127 125h426l-355 -334h-438z" />
<glyph unicode="&#x10d;" horiz-adv-x="1107" d="M66 485q0 174 77.5 312.5t222 220.5t326.5 82q113 0 223.5 -29t176.5 -74l-95 -364q-47 31 -118.5 51.5t-139.5 20.5q-111 0 -172 -48.5t-61 -132.5q0 -158 225 -157q121 0 238 55l-15 -389q-39 -25 -130 -43.5t-187 -18.5q-274 0 -422.5 132.5t-148.5 381.5zM361 1604 h342l77 -138l131 138h375l-340 -355h-381z" />
<glyph unicode="&#x10e;" horiz-adv-x="1753" d="M39 0l303 1556h557q821 0 821 -663q0 -279 -117.5 -479.5t-345 -307t-548.5 -106.5h-670zM565 2044h385l78 -125l127 125h426l-355 -334h-438zM606 389h123q143 0 252 56.5t169 164t60 254.5q0 156 -85 229.5t-263 73.5h-106z" />
<glyph unicode="&#x10f;" horiz-adv-x="1343" d="M59 444q0 176 69 326t192.5 241t277.5 91q195 0 279 -137l137 694h444l-321 -1659h-408l12 121q-104 -154 -292 -154q-176 0 -283 130t-107 347zM504 510q0 -68 38 -108t101 -40q72 0 122 57.5t50 139.5q0 68 -38 108t-101 40q-72 0 -122 -57.5t-50 -139.5zM1487 1147 l123 512h411l-237 -512h-297z" />
<glyph unicode="&#x110;" horiz-adv-x="1814" d="M72 635l57 297h152l122 624h558q821 0 821 -663q0 -279 -118 -479.5t-345 -307t-549 -106.5h-670l123 635h-151zM668 389h123q143 0 251.5 56.5t169 164t60.5 254.5q0 156 -85 229.5t-263 73.5h-107l-45 -235h236l-58 -297h-235z" />
<glyph unicode="&#x111;" horiz-adv-x="1343" d="M59 444q0 176 69 326t192.5 241t277.5 91q195 0 279 -137l53 272h-252l47 236h252l37 186h444l-37 -186h146l-45 -236h-146l-239 -1237h-408l12 121q-104 -154 -292 -154q-176 0 -283 130t-107 347zM504 510q0 -68 38 -108t101 -40q72 0 122 57.5t50 139.5q0 68 -38 108 t-101 40q-72 0 -122 -57.5t-50 -139.5z" />
<glyph unicode="&#x112;" horiz-adv-x="1384" d="M39 0l303 1556h1092l-72 -370h-641l-43 -217h557l-72 -371h-557l-45 -227h688l-71 -371h-1139zM578 1710l57 289h715l-57 -289h-715z" />
<glyph unicode="&#x113;" horiz-adv-x="1247" d="M63 469q0 178 75 321.5t216.5 227.5t325.5 84q238 0 367 -115t129 -325q0 -113 -31 -222h-666q10 -86 71.5 -119.5t211.5 -33.5q72 0 159 17.5t142 43.5l-10 -315q-66 -31 -166 -48.5t-213 -17.5q-289 0 -450 132t-161 370zM389 1249l53 283h697l-54 -283h-696zM496 664 h280q4 20 4 38q0 53 -30.5 82t-85.5 29q-125 0 -168 -149z" />
<glyph unicode="&#x116;" horiz-adv-x="1384" d="M39 0l303 1556h1092l-72 -370h-641l-43 -217h557l-72 -371h-557l-45 -227h688l-71 -371h-1139zM746 1896q0 104 70.5 172t183.5 68q94 0 151.5 -54t57.5 -143q0 -104 -70.5 -171.5t-183.5 -67.5q-94 0 -151.5 54t-57.5 142z" />
<glyph unicode="&#x117;" horiz-adv-x="1247" d="M63 469q0 178 75 321.5t216.5 227.5t325.5 84q238 0 367 -115t129 -325q0 -113 -31 -222h-666q10 -86 71.5 -119.5t211.5 -33.5q72 0 159 17.5t142 43.5l-10 -315q-66 -31 -166 -48.5t-213 -17.5q-289 0 -450 132t-161 370zM496 664h280q4 20 4 38q0 53 -30.5 82 t-85.5 29q-125 0 -168 -149zM549 1376q0 98 66.5 162t170.5 64q88 0 142.5 -51.5t54.5 -133.5q0 -98 -67 -161.5t-171 -63.5q-88 0 -142 51t-54 133z" />
<glyph unicode="&#x118;" horiz-adv-x="1384" d="M39 0l303 1556h1092l-72 -370h-641l-43 -217h557l-72 -371h-557l-45 -227h688l-71 -371h-1139zM639 -309q0 135 127 237.5t348 147.5l63 -76q-178 -113 -178 -188q0 -53 62 -54q35 0 63 11l-29 -287q-71 -31 -188 -31q-125 0 -196.5 63.5t-71.5 176.5z" />
<glyph unicode="&#x119;" horiz-adv-x="1247" d="M63 469q0 178 75 321.5t216.5 227.5t325.5 84q238 0 367 -115t129 -325q0 -113 -31 -222h-666q10 -86 71.5 -119.5t211.5 -33.5q72 0 159 17.5t142 43.5l-10 -315q-66 -31 -166 -48.5t-213 -17.5q-289 0 -450 132t-161 370zM496 664h280q4 20 4 38q0 53 -30.5 82 t-85.5 29q-125 0 -168 -149zM504 -332q0 133 111.5 233.5t328.5 157.5l109 -26q-92 -51 -149.5 -115.5t-57.5 -118.5q0 -27 20.5 -42t52.5 -15q37 0 68 10l-27 -270q-67 -31 -180 -31q-131 0 -203.5 57.5t-72.5 159.5z" />
<glyph unicode="&#x11a;" horiz-adv-x="1384" d="M39 0l303 1556h1092l-72 -370h-641l-43 -217h557l-72 -371h-557l-45 -227h688l-71 -371h-1139zM465 2044h385l78 -125l127 125h426l-355 -334h-438z" />
<glyph unicode="&#x11b;" horiz-adv-x="1247" d="M63 469q0 178 75 321.5t216.5 227.5t325.5 84q238 0 367 -115t129 -325q0 -113 -31 -222h-666q10 -86 71.5 -119.5t211.5 -33.5q72 0 159 17.5t142 43.5l-10 -315q-66 -31 -166 -48.5t-213 -17.5q-289 0 -450 132t-161 370zM343 1604h342l77 -138l131 138h375l-340 -355 h-381zM496 664h280q4 20 4 38q0 53 -30.5 82t-85.5 29q-125 0 -168 -149z" />
<glyph unicode="&#x11e;" horiz-adv-x="1697" d="M133 705q0 256 119 453.5t343 309t523 111.5q154 0 321 -37t265 -90l-113 -393q-102 53 -230 81.5t-265 28.5q-217 0 -345 -119.5t-128 -322.5q0 -162 99 -255t273 -93q70 0 119 14l35 180h-227l69 353h670l-164 -840q-84 -47 -229.5 -78t-284.5 -31q-401 0 -625.5 191.5 t-224.5 536.5zM717 1954q0 43 12 88h295q-2 -14 -2 -29q0 -47 27.5 -72.5t78.5 -25.5q109 0 138 127h295q-2 -182 -121 -280.5t-336 -98.5q-174 0 -280.5 80t-106.5 211z" />
<glyph unicode="&#x11f;" horiz-adv-x="1343" d="M6 -389l98 338q66 -49 152 -77t170 -28q137 0 210 69t101 222q-104 -141 -284 -141q-115 0 -203 56t-138.5 161.5t-50.5 249.5q0 172 68 317.5t191.5 234.5t277.5 89q106 0 182 -43t113 -125l35 135h415l-178 -922q-68 -352 -230.5 -509.5t-463.5 -157.5q-127 0 -258 37 t-207 94zM449 1479q0 53 14 96h276q-2 -14 -2 -29q0 -111 117 -110q125 0 152 139h276q0 -186 -115.5 -284.5t-332.5 -98.5q-176 0 -280.5 79t-104.5 208zM506 526q0 -68 39 -107.5t102 -39.5q72 0 121 57.5t49 138.5q0 68 -38 108t-101 40q-72 0 -122 -57.5t-50 -139.5z " />
<glyph unicode="&#x120;" horiz-adv-x="1697" d="M133 705q0 256 119 453.5t343 309t523 111.5q154 0 321 -37t265 -90l-113 -393q-102 53 -230 81.5t-265 28.5q-217 0 -345 -119.5t-128 -322.5q0 -162 99 -255t273 -93q70 0 119 14l35 180h-227l69 353h670l-164 -840q-84 -47 -229.5 -78t-284.5 -31q-401 0 -625.5 191.5 t-224.5 536.5zM893 1896q0 104 70.5 172t183.5 68q94 0 151.5 -54t57.5 -143q0 -104 -70.5 -171.5t-183.5 -67.5q-94 0 -151.5 54t-57.5 142z" />
<glyph unicode="&#x121;" horiz-adv-x="1343" d="M6 -389l98 338q66 -49 152 -77t170 -28q137 0 210 69t101 222q-104 -141 -284 -141q-115 0 -203 56t-138.5 161.5t-50.5 249.5q0 172 68 317.5t191.5 234.5t277.5 89q106 0 182 -43t113 -125l35 135h415l-178 -922q-68 -352 -230.5 -509.5t-463.5 -157.5q-127 0 -258 37 t-207 94zM506 526q0 -68 39 -107.5t102 -39.5q72 0 121 57.5t49 138.5q0 68 -38 108t-101 40q-72 0 -122 -57.5t-50 -139.5zM627 1376q0 98 66.5 162t170.5 64q88 0 142.5 -51.5t54.5 -133.5q0 -98 -67 -161.5t-171 -63.5q-88 0 -142 51t-54 133z" />
<glyph unicode="&#x122;" horiz-adv-x="1697" d="M133 705q0 256 119 453.5t343 309t523 111.5q154 0 321 -37t265 -90l-113 -393q-102 53 -230 81.5t-265 28.5q-217 0 -345 -119.5t-128 -322.5q0 -162 99 -255t273 -93q70 0 119 14l35 180h-227l69 353h670l-164 -840q-84 -47 -229.5 -78t-284.5 -31q-401 0 -625.5 191.5 t-224.5 536.5zM478 -512q63 96 105 198.5t52 188.5h398q-14 -102 -71.5 -208.5t-137.5 -178.5h-346z" />
<glyph unicode="&#x123;" horiz-adv-x="1343" d="M6 -389l98 338q66 -49 152 -77t170 -28q137 0 210 69t101 222q-104 -141 -284 -141q-115 0 -203 56t-138.5 161.5t-50.5 249.5q0 172 68 317.5t191.5 234.5t277.5 89q106 0 182 -43t113 -125l35 135h415l-178 -922q-68 -352 -230.5 -509.5t-463.5 -157.5q-127 0 -258 37 t-207 94zM506 526q0 -68 39 -107.5t102 -39.5q72 0 121 57.5t49 138.5q0 68 -38 108t-101 40q-72 0 -122 -57.5t-50 -139.5zM608 1249q14 102 71.5 209t137.5 178h327q-63 -96 -105 -198.5t-52 -188.5h-379z" />
<glyph unicode="&#x126;" horiz-adv-x="1869" d="M98 0l213 1092h-151l53 276h152l36 188h502l-37 -188h461l37 188h502l-37 -188h151l-53 -276h-151l-213 -1092h-502l96 496h-461l-96 -496h-502zM774 895h461l37 197h-459z" />
<glyph unicode="&#x127;" horiz-adv-x="1286" d="M-2 0l240 1237h-146l45 236h146l36 186h445l-37 -186h252l-45 -236h-252l-55 -281q47 70 122.5 108t165.5 38q150 0 229 -85t79 -249q0 -78 -17 -166l-116 -602h-445l111 567q4 27 4 45q0 45 -21.5 70t-62.5 25q-94 0 -125 -150l-109 -557h-444z" />
<glyph unicode="&#x128;" horiz-adv-x="788" d="M39 0l303 1556h502l-303 -1556h-502zM174 1704q29 195 109 288t217 93q55 0 92 -15.5t61.5 -34t47 -33.5t53.5 -15t47 20.5t27 73.5h272q-29 -195 -109 -288t-217 -93q-55 0 -92 14.5t-61.5 31.5t-47 31.5t-53.5 14.5q-35 0 -50 -18.5t-23 -69.5h-273z" />
<glyph unicode="&#x129;" horiz-adv-x="649" d="M0 0l207 1069h444l-207 -1069h-444zM24 1237q27 186 106 277.5t218 91.5q55 0 92 -15.5t61.5 -34t47 -34t53.5 -15.5t47 20.5t26 74.5h273q-27 -186 -106 -277.5t-218 -91.5q-55 0 -92 15.5t-61.5 33.5t-47 33.5t-53.5 15.5t-47 -20.5t-26 -73.5h-273z" />
<glyph unicode="&#x12a;" horiz-adv-x="788" d="M39 0l303 1556h502l-303 -1556h-502zM242 1710l57 289h715l-57 -289h-715z" />
<glyph unicode="&#x12b;" horiz-adv-x="649" d="M0 0l207 1069h444l-207 -1069h-444zM104 1249l53 283h697l-54 -283h-696z" />
<glyph unicode="&#x12e;" horiz-adv-x="788" d="M2 -309q0 135 127 237.5t348 147.5l63 -76q-178 -113 -178 -188q0 -53 62 -54q35 0 63 11l-29 -287q-71 -31 -188 -31q-125 0 -196.5 63.5t-71.5 176.5zM39 0l303 1556h502l-303 -1556h-502z" />
<glyph unicode="&#x12f;" horiz-adv-x="649" d="M-92 -309q0 125 114.5 236.5t323.5 191.5l98 -119q-102 -63 -148 -111.5t-46 -89.5q0 -25 20.5 -41t54.5 -16q31 0 66 10l-27 -270q-71 -31 -188 -31q-125 0 -196.5 63.5t-71.5 176.5zM0 0l207 1069h444l-207 -1069h-444zM258 1399q0 109 74 178.5t186 69.5 q98 0 158.5 -56.5t60.5 -148.5q0 -109 -73.5 -178.5t-186.5 -69.5q-98 0 -158.5 56.5t-60.5 148.5z" />
<glyph unicode="&#x130;" horiz-adv-x="788" d="M39 0l303 1556h502l-303 -1556h-502zM410 1896q0 104 70.5 172t183.5 68q94 0 151.5 -54t57.5 -143q0 -104 -70.5 -171.5t-183.5 -67.5q-94 0 -151.5 54t-57.5 142z" />
<glyph unicode="&#x131;" horiz-adv-x="649" d="M0 0l207 1069h444l-207 -1069h-444z" />
<glyph unicode="&#x132;" horiz-adv-x="1992" d="M39 0l303 1556h502l-303 -1556h-502zM788 72l86 370q117 -76 250 -75q109 0 168 60t86 204l180 925h502l-199 -1015q-39 -203 -123 -329t-215 -185.5t-319 -59.5q-127 0 -241 29t-175 76z" />
<glyph unicode="&#x133;" horiz-adv-x="1298" d="M0 0l207 1069h444l-207 -1069h-444zM219 -438l100 342q66 -39 156 -39q78 0 121 47t66 158l194 999h444l-202 -1044q-41 -205 -112 -323t-180 -170q-110 -52 -276 -52q-94 0 -177 21q-83 22 -134 61zM258 1399q0 109 74 178.5t186 69.5q98 0 158.5 -56.5t60.5 -148.5 q0 -109 -73.5 -178.5t-186.5 -69.5q-98 0 -158.5 56.5t-60.5 148.5zM907 1399q0 109 74 178q74 70 186 70q98 0 159 -57q60 -56 60 -148q0 -109 -73 -178q-74 -70 -187 -70q-98 0 -158 56t-61 149z" />
<glyph unicode="&#x136;" horiz-adv-x="1701" d="M39 0l303 1556h481l-112 -575l546 575h594l-788 -765l524 -791h-588l-356 629l-123 -629h-481zM383 -512q63 96 105 198.5t52 188.5h398q-14 -102 -71.5 -208.5t-137.5 -178.5h-346z" />
<glyph unicode="&#x137;" horiz-adv-x="1359" d="M-2 0l321 1659h445l-184 -946l323 356h527l-517 -514l353 -555h-514l-228 428l-82 -428h-444zM168 -512q63 96 105 198.5t52 188.5h379q-14 -102 -71.5 -208.5t-137.5 -178.5h-327z" />
<glyph unicode="&#x138;" horiz-adv-x="1359" d="M0 0l207 1069h444l-67 -352l321 352h527l-517 -516l353 -553h-514l-228 426l-82 -426h-444z" />
<glyph unicode="&#x139;" horiz-adv-x="1323" d="M39 0l303 1556h502l-226 -1157h607l-78 -399h-1108zM338 1710l291 334h508l-408 -334h-391z" />
<glyph unicode="&#x13a;" horiz-adv-x="649" d="M-2 0l321 1659h445l-322 -1659h-444zM289 1741l291 334h508l-408 -334h-391z" />
<glyph unicode="&#x13b;" horiz-adv-x="1323" d="M39 0l303 1556h502l-226 -1157h607l-78 -399h-1108zM269 -512q63 96 105 198.5t52 188.5h398q-14 -102 -71.5 -208.5t-137.5 -178.5h-346z" />
<glyph unicode="&#x13c;" horiz-adv-x="649" d="M-139 -512q63 96 105 198.5t52 188.5h379q-14 -102 -71.5 -208.5t-137.5 -178.5h-327zM-2 0l321 1659h445l-322 -1659h-444z" />
<glyph unicode="&#x13d;" horiz-adv-x="1323" d="M39 0l303 1556h502l-226 -1157h607l-78 -399h-1108zM901 1147l123 512h411l-237 -512h-297z" />
<glyph unicode="&#x13e;" horiz-adv-x="649" d="M-2 0l321 1659h445l-322 -1659h-444zM793 1147l123 512h411l-237 -512h-297z" />
<glyph unicode="&#x141;" horiz-adv-x="1433" d="M10 319l76 392l221 102l146 743h501l-104 -534l393 182l-76 -391l-393 -184l-45 -230h606l-78 -399h-1107l81 422z" />
<glyph unicode="&#x142;" horiz-adv-x="813" d="M8 465l64 330l176 71l153 793h445l-121 -619l178 70l-63 -330l-178 -71l-138 -709h-444l102 532z" />
<glyph unicode="&#x143;" horiz-adv-x="1736" d="M39 0l303 1556h420l414 -841l163 841h453l-303 -1556h-420l-414 846l-163 -846h-453zM830 1710l291 334h508l-408 -334h-391z" />
<glyph unicode="&#x144;" horiz-adv-x="1288" d="M0 0l207 1069h430l-19 -131q47 76 126 120t174 44q150 0 228.5 -85t78.5 -249q0 -78 -17 -166l-116 -602h-445l111 567q4 27 4 45q0 45 -21.5 70t-62.5 25q-94 0 -125 -150l-109 -557h-444zM562 1249l276 355h459l-369 -355h-366z" />
<glyph unicode="&#x145;" horiz-adv-x="1736" d="M39 0l303 1556h420l414 -841l163 841h453l-303 -1556h-420l-414 846l-163 -846h-453zM435 -512q63 96 105 198.5t52 188.5h398q-14 -102 -71.5 -208.5t-137.5 -178.5h-346z" />
<glyph unicode="&#x146;" horiz-adv-x="1288" d="M0 0l207 1069h430l-19 -131q47 76 126 120t174 44q150 0 228.5 -85t78.5 -249q0 -78 -17 -166l-116 -602h-445l111 567q4 27 4 45q0 45 -21.5 70t-62.5 25q-94 0 -125 -150l-109 -557h-444zM195 -512q63 96 105 198.5t52 188.5h379q-14 -102 -71.5 -208.5t-137.5 -178.5 h-327z" />
<glyph unicode="&#x147;" horiz-adv-x="1736" d="M39 0l303 1556h420l414 -841l163 841h453l-303 -1556h-420l-414 846l-163 -846h-453zM621 2044h385l78 -125l127 125h426l-355 -334h-438z" />
<glyph unicode="&#x148;" horiz-adv-x="1288" d="M0 0l207 1069h430l-19 -131q47 76 126 120t174 44q150 0 228.5 -85t78.5 -249q0 -78 -17 -166l-116 -602h-445l111 567q4 27 4 45q0 45 -21.5 70t-62.5 25q-94 0 -125 -150l-109 -557h-444zM390 1604h342l77 -138l131 138h375l-340 -355h-381z" />
<glyph unicode="&#x14c;" horiz-adv-x="1857" d="M135 715q0 242 112.5 440.5t320.5 316t472 117.5q221 0 396.5 -92t278 -262t102.5 -393q0 -242 -113 -440.5t-321 -316.5t-472 -118q-221 0 -396 92.5t-277.5 262.5t-102.5 393zM641 713q0 -139 82 -223t217 -84q102 0 186 53t134.5 153.5t50.5 231.5q0 139 -82 223 t-217 84q-102 0 -186.5 -53.5t-134.5 -153.5t-50 -231zM768 1710l57 289h715l-57 -289h-715z" />
<glyph unicode="&#x14d;" horiz-adv-x="1314" d="M61 477q0 170 80 312.5t227.5 227.5t333.5 85q250 0 400.5 -139.5t150.5 -370.5q0 -170 -79.5 -312.5t-227.5 -227.5t-334 -85q-250 0 -400.5 139.5t-150.5 370.5zM440 1249l53 283h697l-54 -283h-696zM502 508q0 -68 39 -107t102 -39q72 0 121 58.5t49 140.5 q0 68 -39 107t-102 39q-72 0 -121 -58.5t-49 -140.5z" />
<glyph unicode="&#x150;" horiz-adv-x="1857" d="M135 715q0 242 112.5 440.5t320.5 316t472 117.5q221 0 396.5 -92t278 -262t102.5 -393q0 -242 -113 -440.5t-321 -316.5t-472 -118q-221 0 -396 92.5t-277.5 262.5t-102.5 393zM613 1710l235 330h465l-303 -330h-397zM641 713q0 -139 82 -223t217 -84q102 0 186 53 t134.5 153.5t50.5 231.5q0 139 -82 223t-217 84q-102 0 -186.5 -53.5t-134.5 -153.5t-50 -231zM1151 1710l236 330h465l-304 -330h-397z" />
<glyph unicode="&#x151;" horiz-adv-x="1314" d="M61 477q0 170 80 312.5t227.5 227.5t333.5 85q250 0 400.5 -139.5t150.5 -370.5q0 -170 -79.5 -312.5t-227.5 -227.5t-334 -85q-250 0 -400.5 139.5t-150.5 370.5zM355 1249l225 355h399l-289 -355h-335zM502 508q0 -68 39 -107t102 -39q72 0 121 58.5t49 140.5 q0 68 -39 107t-102 39q-72 0 -121 -58.5t-49 -140.5zM799 1249l225 355h400l-289 -355h-336z" />
<glyph unicode="&#x152;" horiz-adv-x="2478" d="M135 690q0 252 101.5 456t290 323.5t431.5 119.5q154 0 269.5 -53t173.5 -150l35 170h1091l-71 -370h-641l-43 -217h557l-72 -371h-557l-45 -227h688l-72 -371h-1138l20 109q-68 -70 -167 -106t-222 -36q-182 0 -324.5 88t-223.5 252t-81 383zM641 713q0 -137 83 -222 t218 -85q104 0 187 54t132.5 153.5t49.5 230.5q0 139 -82 223t-215 84q-162 0 -267.5 -124t-105.5 -314z" />
<glyph unicode="&#x153;" horiz-adv-x="1986" d="M61 477q0 125 44.5 236.5t129 198.5t205.5 138.5t265 51.5q113 0 209 -42t149 -114q61 76 160.5 116t220.5 40q227 0 349 -115t122 -325q0 -113 -31 -222h-665q10 -86 71.5 -119.5t210.5 -33.5q72 0 159 17.5t142 43.5l-10 -315q-66 -31 -164 -48.5t-203 -17.5 q-330 0 -440 160q-66 -78 -173.5 -119t-242.5 -41q-231 0 -369.5 138.5t-138.5 371.5zM502 508q0 -68 39 -107t102 -39q72 0 121 58.5t49 140.5q0 68 -39 107t-102 39q-72 0 -121 -58.5t-49 -140.5zM1235 664h281q4 25 4 38q0 53 -31 82t-86 29q-125 0 -168 -149z" />
<glyph unicode="&#x154;" horiz-adv-x="1579" d="M39 0l303 1556h494q317 0 482 -122.5t165 -356.5q0 -172 -81 -296t-235 -187l277 -594h-520l-170 485h-148l-94 -485h-473zM672 827h73q260 0 261 228q0 78 -53.5 117.5t-153.5 39.5h-54zM699 1710l291 334h508l-408 -334h-391z" />
<glyph unicode="&#x155;" horiz-adv-x="948" d="M0 0l207 1069h424l-21 -164q43 86 115 136.5t156 50.5q78 0 123 -25l-115 -420q-55 31 -133 31q-96 0 -150.5 -62.5t-81.5 -201.5l-80 -414h-444zM389 1249l276 355h459l-369 -355h-366z" />
<glyph unicode="&#x158;" horiz-adv-x="1579" d="M39 0l303 1556h494q317 0 482 -122.5t165 -356.5q0 -172 -81 -296t-235 -187l277 -594h-520l-170 485h-148l-94 -485h-473zM490 2044h385l78 -125l127 125h426l-355 -334h-438zM672 827h73q260 0 261 228q0 78 -53.5 117.5t-153.5 39.5h-54z" />
<glyph unicode="&#x159;" horiz-adv-x="948" d="M0 0l207 1069h424l-21 -164q43 86 115 136.5t156 50.5q78 0 123 -25l-115 -420q-55 31 -133 31q-96 0 -150.5 -62.5t-81.5 -201.5l-80 -414h-444zM218 1604h342l77 -138l131 138h375l-340 -355h-381z" />
<glyph unicode="&#x15a;" horiz-adv-x="1345" d="M14 111l105 387q88 -63 206.5 -102.5t221.5 -39.5q111 0 164 27t53 82q0 35 -16.5 55.5t-57.5 41t-127 52.5q-199 74 -287 183.5t-88 277.5q0 238 172 376t467 138q141 0 288 -39t239 -100l-113 -377q-96 57 -205.5 92t-197.5 35q-164 0 -164 -94q0 -31 17.5 -51.5 t56 -40t114.5 -47.5q215 -84 304 -190.5t89 -282.5q0 -248 -181 -387.5t-505 -139.5q-147 0 -295.5 38t-259.5 106zM629 1710l291 334h508l-408 -334h-391z" />
<glyph unicode="&#x15b;" horiz-adv-x="1060" d="M6 86l80 299q76 -51 167 -80t177 -29q51 0 71.5 10.5t20.5 32.5q0 20 -22.5 36t-96.5 44q-150 59 -219 143.5t-69 198.5q0 106 58 187.5t169 127.5t258 46q100 0 211 -27.5t190 -73.5l-79 -299q-61 39 -146.5 65t-152.5 26q-84 0 -84 -43q0 -18 17 -30.5t81 -39.5 q170 -68 241.5 -146.5t71.5 -199.5q0 -166 -135 -266.5t-358 -100.5q-123 0 -254 35t-197 84zM404 1249l276 355h459l-369 -355h-366z" />
<glyph unicode="&#x15e;" horiz-adv-x="1345" d="M14 111l105 387q88 -63 206.5 -102.5t221.5 -39.5q111 0 164 27t53 82q0 35 -16.5 55.5t-57.5 41t-127 52.5q-199 74 -287 183.5t-88 277.5q0 238 172 376t467 138q141 0 288 -39t239 -100l-113 -377q-96 57 -205.5 92t-197.5 35q-164 0 -164 -94q0 -31 17.5 -51.5 t56 -40t114.5 -47.5q215 -84 304 -190.5t89 -282.5q0 -248 -181 -387.5t-505 -139.5q-147 0 -295.5 38t-259.5 106zM164 -510l74 199q55 -29 129 -29q92 0 92 59q0 43 -82 43q-31 0 -68 -4l121 262h234l-58 -126q84 -8 131 -57.5t47 -127.5q0 -121 -103 -193.5t-277 -72.5 q-78 0 -143.5 13.5t-96.5 33.5z" />
<glyph unicode="&#x15f;" horiz-adv-x="1060" d="M6 86l80 299q76 -51 167 -80t177 -29q51 0 71.5 10.5t20.5 32.5q0 20 -22.5 36t-96.5 44q-150 59 -219 143.5t-69 198.5q0 106 58 187.5t169 127.5t258 46q100 0 211 -27.5t190 -73.5l-79 -299q-61 39 -146.5 65t-152.5 26q-84 0 -84 -43q0 -18 17 -30.5t81 -39.5 q170 -68 241.5 -146.5t71.5 -199.5q0 -166 -135 -266.5t-358 -100.5q-123 0 -254 35t-197 84zM76 -506l70 187q53 -29 129 -29q51 0 78.5 17.5t27.5 49.5q0 51 -84 52q-39 0 -71 -9l120 258h220l-60 -129q82 -14 126 -60t44 -120q0 -78 -44 -138t-124.5 -95t-191.5 -35 q-74 0 -141.5 14.5t-98.5 36.5z" />
<glyph unicode="&#x160;" horiz-adv-x="1345" d="M14 111l105 387q88 -63 206.5 -102.5t221.5 -39.5q111 0 164 27t53 82q0 35 -16.5 55.5t-57.5 41t-127 52.5q-199 74 -287 183.5t-88 277.5q0 238 172 376t467 138q141 0 288 -39t239 -100l-113 -377q-96 57 -205.5 92t-197.5 35q-164 0 -164 -94q0 -31 17.5 -51.5 t56 -40t114.5 -47.5q215 -84 304 -190.5t89 -282.5q0 -248 -181 -387.5t-505 -139.5q-147 0 -295.5 38t-259.5 106zM420 2044h385l78 -125l127 125h426l-355 -334h-438z" />
<glyph unicode="&#x161;" horiz-adv-x="1060" d="M6 86l80 299q76 -51 167 -80t177 -29q51 0 71.5 10.5t20.5 32.5q0 20 -22.5 36t-96.5 44q-150 59 -219 143.5t-69 198.5q0 106 58 187.5t169 127.5t258 46q100 0 211 -27.5t190 -73.5l-79 -299q-61 39 -146.5 65t-152.5 26q-84 0 -84 -43q0 -18 17 -30.5t81 -39.5 q170 -68 241.5 -146.5t71.5 -199.5q0 -166 -135 -266.5t-358 -100.5q-123 0 -254 35t-197 84zM232 1604h342l77 -138l131 138h375l-340 -355h-381z" />
<glyph unicode="&#x162;" horiz-adv-x="1529" d="M193 1157l77 399h1387l-78 -399h-442l-226 -1157h-501l225 1157h-442zM303 -510l74 199q55 -29 129 -29q92 0 92 59q0 43 -82 43q-31 0 -68 -4l121 262h234l-58 -126q84 -8 131 -57.5t47 -127.5q0 -121 -103 -193.5t-277 -72.5q-78 0 -143.5 13.5t-96.5 33.5z" />
<glyph unicode="&#x163;" horiz-adv-x="1015" d="M66 717l67 352h158l51 264h440l-51 -264h248l-68 -352h-249l-41 -217q-6 -31 -7 -51q0 -45 25 -66q25 -20 78 -21q94 0 164 29l-17 -373q-43 -23 -121 -36q-77 -15 -159 -15q-422 0 -422 367q0 74 18 166l41 217h-155zM168 -506l70 187q53 -29 129 -29q51 0 78.5 17.5 t27.5 49.5q0 51 -84 52q-39 0 -71 -9l120 258h220l-60 -129q82 -14 126 -60t44 -120q0 -78 -44 -138t-124.5 -95t-191.5 -35q-74 0 -141.5 14.5t-98.5 36.5z" />
<glyph unicode="&#x164;" horiz-adv-x="1529" d="M193 1157l77 399h1387l-78 -399h-442l-226 -1157h-501l225 1157h-442zM522 2044h385l78 -125l127 125h426l-355 -334h-438z" />
<glyph unicode="&#x165;" horiz-adv-x="1015" d="M66 717l67 352h158l51 264h440l-51 -264h248l-68 -352h-249l-41 -217q-6 -31 -7 -51q0 -45 25 -66q25 -20 78 -21q94 0 164 29l-17 -373q-43 -23 -121 -36q-77 -15 -159 -15q-422 0 -422 367q0 74 18 166l41 217h-155zM827 1188l109 471h381l-211 -471h-279z" />
<glyph unicode="&#x168;" horiz-adv-x="1734" d="M158 545q0 102 24 237l150 774h502l-158 -811q-14 -70 -14 -133q0 -106 47 -157.5t145 -51.5q117 0 182.5 73t98.5 241l163 839h502l-176 -899q-70 -356 -264.5 -523t-542.5 -167q-315 0 -487 151.5t-172 426.5zM659 1704q29 195 109 288t217 93q55 0 92 -15.5t61.5 -34 t47 -33.5t53.5 -15t47 20.5t27 73.5h272q-29 -195 -109 -288t-217 -93q-55 0 -92 14.5t-61.5 31.5t-47 31.5t-53.5 14.5q-35 0 -50 -18.5t-23 -69.5h-273z" />
<glyph unicode="&#x169;" horiz-adv-x="1286" d="M59 291q0 74 15 143l123 635h444l-111 -567q-4 -27 -4 -45q0 -45 22 -70t62 -25q94 0 125 150l109 557h444l-207 -1069h-430l17 125q-103 -158 -306 -158q-145 0 -224 84t-79 240zM321 1237q27 186 106 277.5t218 91.5q55 0 92 -15.5t61.5 -34t47 -34t53.5 -15.5t47 20.5 t26 74.5h273q-27 -186 -106 -277.5t-218 -91.5q-55 0 -92 15.5t-61.5 33.5t-47 33.5t-53.5 15.5t-47 -20.5t-26 -73.5h-273z" />
<glyph unicode="&#x16a;" horiz-adv-x="1734" d="M158 545q0 102 24 237l150 774h502l-158 -811q-14 -70 -14 -133q0 -106 47 -157.5t145 -51.5q117 0 182.5 73t98.5 241l163 839h502l-176 -899q-70 -356 -264.5 -523t-542.5 -167q-315 0 -487 151.5t-172 426.5zM727 1710l57 289h715l-57 -289h-715z" />
<glyph unicode="&#x16b;" horiz-adv-x="1286" d="M59 291q0 74 15 143l123 635h444l-111 -567q-4 -27 -4 -45q0 -45 22 -70t62 -25q94 0 125 150l109 557h444l-207 -1069h-430l17 125q-103 -158 -306 -158q-145 0 -224 84t-79 240zM401 1249l53 283h697l-54 -283h-696z" />
<glyph unicode="&#x16e;" horiz-adv-x="1734" d="M158 545q0 102 24 237l150 774h502l-158 -811q-14 -70 -14 -133q0 -106 47 -157.5t145 -51.5q117 0 182.5 73t98.5 241l163 839h502l-176 -899q-70 -356 -264.5 -523t-542.5 -167q-315 0 -487 151.5t-172 426.5zM809 1970q0 131 90 216t230 85q139 0 229 -85t90 -216 t-90 -216t-229 -85t-229.5 85t-90.5 216zM1028 1970q0 -45 28 -72.5t73 -27.5t72.5 27.5t27.5 72.5t-27.5 73t-72.5 28t-73 -28t-28 -73z" />
<glyph unicode="&#x16f;" horiz-adv-x="1286" d="M59 291q0 74 15 143l123 635h444l-111 -567q-4 -27 -4 -45q0 -45 22 -70t62 -25q94 0 125 150l109 557h444l-207 -1069h-430l17 125q-103 -158 -306 -158q-145 0 -224 84t-79 240zM441 1458q0 131 90 216t229 85t229.5 -85t90.5 -216t-90.5 -216t-229.5 -85t-229 85 t-90 216zM660 1458q0 -45 27.5 -72.5t72.5 -27.5t73 27.5t28 72.5t-28 73t-73 28t-72.5 -28t-27.5 -73z" />
<glyph unicode="&#x170;" horiz-adv-x="1734" d="M158 545q0 102 24 237l150 774h502l-158 -811q-14 -70 -14 -133q0 -106 47 -157.5t145 -51.5q117 0 182.5 73t98.5 241l163 839h502l-176 -899q-70 -356 -264.5 -523t-542.5 -167q-315 0 -487 151.5t-172 426.5zM572 1710l235 330h465l-303 -330h-397zM1110 1710l236 330 h465l-304 -330h-397z" />
<glyph unicode="&#x171;" horiz-adv-x="1286" d="M59 291q0 74 15 143l123 635h444l-111 -567q-4 -27 -4 -45q0 -45 22 -70t62 -25q94 0 125 150l109 557h444l-207 -1069h-430l17 125q-103 -158 -306 -158q-145 0 -224 84t-79 240zM316 1249l225 355h399l-289 -355h-335zM760 1249l225 355h400l-289 -355h-336z" />
<glyph unicode="&#x172;" horiz-adv-x="1734" d="M158 545q0 102 24 237l150 774h502l-158 -811q-14 -70 -14 -133q0 -106 47 -157.5t145 -51.5q117 0 182.5 73t98.5 241l163 839h502l-176 -899q-70 -356 -264.5 -523t-542.5 -167q-315 0 -487 151.5t-172 426.5zM717 -307q0 125 120 239.5t345 204.5l111 -53 q-59 -37 -107.5 -83t-77 -93t-28.5 -86q0 -66 88 -66q55 0 80 13l-29 -287q-72 -31 -197 -31q-147 0 -226 62.5t-79 179.5z" />
<glyph unicode="&#x173;" horiz-adv-x="1286" d="M59 291q0 74 15 143l123 635h444l-111 -567q-4 -27 -4 -45q0 -45 22 -70t62 -25q94 0 125 150l109 557h444l-207 -1069h-430l17 125q-103 -158 -306 -158q-145 0 -224 84t-79 240zM545 -309q0 125 114.5 236.5t323.5 191.5l98 -119q-102 -63 -148 -111.5t-46 -89.5 q0 -25 20.5 -41t54.5 -16q31 0 66 10l-27 -270q-71 -31 -188 -31q-125 0 -196.5 63.5t-71.5 176.5z" />
<glyph unicode="&#x174;" horiz-adv-x="2322" d="M229 1556h523l-4 -860l385 840h426l73 -844l326 864h532l-755 -1556h-432l-84 883l-410 -883h-432zM874 1710l355 334h438l223 -334h-385l-78 125l-127 -125h-426z" />
<glyph unicode="&#x175;" horiz-adv-x="1837" d="M135 1069h453l-2 -534l237 534h371l41 -512l195 512h481l-553 -1069h-383l-47 588l-260 -588h-392zM591 1249l340 355h381l205 -355h-342l-78 137l-131 -137h-375z" />
<glyph unicode="&#x176;" horiz-adv-x="1597" d="M209 1556h526l142 -552l348 552h561l-727 -944l-119 -612h-491l118 616zM514 1710l355 334h438l223 -334h-385l-78 125l-127 -125h-426z" />
<glyph unicode="&#x177;" horiz-adv-x="1308" d="M-29 -502l373 563l-219 1008h475l47 -557l271 557h475l-953 -1571h-469zM331 1249l340 355h381l205 -355h-342l-78 137l-131 -137h-375z" />
<glyph unicode="&#x178;" horiz-adv-x="1597" d="M209 1556h526l142 -552l348 552h561l-727 -944l-119 -612h-491l118 616zM594 1876q0 90 62.5 149.5t156.5 59.5q84 0 134.5 -48t50.5 -126q0 -90 -61.5 -148.5t-155.5 -58.5q-84 0 -135.5 47t-51.5 125zM1119 1876q0 90 62.5 149.5t156.5 59.5q84 0 134 -48t50 -126 q0 -90 -61.5 -148.5t-155.5 -58.5q-84 0 -135 47t-51 125z" />
<glyph unicode="&#x179;" horiz-adv-x="1576" d="M8 0l64 328l809 839h-611l76 389h1264l-64 -327l-811 -840h690l-75 -389h-1342zM744 1710l291 334h508l-408 -334h-391z" />
<glyph unicode="&#x17a;" horiz-adv-x="1136" d="M-33 0l53 279l474 442h-371l67 348h947l-54 -278l-475 -443h430l-67 -348h-1004zM465 1249l276 355h459l-369 -355h-366z" />
<glyph unicode="&#x17b;" horiz-adv-x="1576" d="M8 0l64 328l809 839h-611l76 389h1264l-64 -327l-811 -840h690l-75 -389h-1342zM815 1896q0 104 70.5 172t183.5 68q94 0 151.5 -54t57.5 -143q0 -104 -70.5 -171.5t-183.5 -67.5q-94 0 -151.5 54t-57.5 142z" />
<glyph unicode="&#x17c;" horiz-adv-x="1136" d="M-33 0l53 279l474 442h-371l67 348h947l-54 -278l-475 -443h430l-67 -348h-1004zM500 1376q0 98 66.5 162t170.5 64q88 0 142.5 -51.5t54.5 -133.5q0 -98 -67 -161.5t-171 -63.5q-88 0 -142 51t-54 133z" />
<glyph unicode="&#x17d;" horiz-adv-x="1576" d="M8 0l64 328l809 839h-611l76 389h1264l-64 -327l-811 -840h690l-75 -389h-1342zM535 2044h385l78 -125l127 125h426l-355 -334h-438z" />
<glyph unicode="&#x17e;" horiz-adv-x="1136" d="M-33 0l53 279l474 442h-371l67 348h947l-54 -278l-475 -443h430l-67 -348h-1004zM293 1604h342l77 -138l131 138h375l-340 -355h-381z" />
<glyph unicode="&#x192;" horiz-adv-x="940" d="M-307 -438l100 342q66 -39 156 -39q78 0 122 48t64 157l125 647h-154l68 352h154l16 78q53 266 192.5 394t376.5 128q74 0 151 -18.5t118 -44.5l-95 -353q-59 33 -122 33q-76 0 -122 -46t-65 -144l-6 -27h219l-67 -352h-219l-134 -692q-39 -203 -109.5 -321t-181 -171 t-276.5 -53q-94 0 -177 21.5t-134 60.5z" />
<glyph unicode="&#x218;" horiz-adv-x="1345" d="M14 111l105 387q88 -63 206.5 -102.5t221.5 -39.5q111 0 164 27t53 82q0 35 -16.5 55.5t-57.5 41t-127 52.5q-199 74 -287 183.5t-88 277.5q0 238 172 376t467 138q141 0 288 -39t239 -100l-113 -377q-96 57 -205.5 92t-197.5 35q-164 0 -164 -94q0 -31 17.5 -51.5 t56 -40t114.5 -47.5q215 -84 304 -190.5t89 -282.5q0 -248 -181 -387.5t-505 -139.5q-147 0 -295.5 38t-259.5 106zM201 -512q63 96 105 198.5t52 188.5h398q-14 -102 -71.5 -208.5t-137.5 -178.5h-346z" />
<glyph unicode="&#x219;" horiz-adv-x="1060" d="M6 86l80 299q76 -51 167 -80t177 -29q51 0 71.5 10.5t20.5 32.5q0 20 -22.5 36t-96.5 44q-150 59 -219 143.5t-69 198.5q0 106 58 187.5t169 127.5t258 46q100 0 211 -27.5t190 -73.5l-79 -299q-61 39 -146.5 65t-152.5 26q-84 0 -84 -43q0 -18 17 -30.5t81 -39.5 q170 -68 241.5 -146.5t71.5 -199.5q0 -166 -135 -266.5t-358 -100.5q-123 0 -254 35t-197 84zM80 -512q63 96 105 198.5t52 188.5h379q-14 -102 -71.5 -208.5t-137.5 -178.5h-327z" />
<glyph unicode="&#x21a;" horiz-adv-x="1529" d="M193 1157l77 399h1387l-78 -399h-442l-226 -1157h-501l225 1157h-442zM287 -512q63 96 105 198.5t52 188.5h398q-14 -102 -71.5 -208.5t-137.5 -178.5h-346z" />
<glyph unicode="&#x21b;" horiz-adv-x="1015" d="M66 717l67 352h158l51 264h440l-51 -264h248l-68 -352h-249l-41 -217q-6 -31 -7 -51q0 -45 25 -66q25 -20 78 -21q94 0 164 29l-17 -373q-43 -23 -121 -36q-77 -15 -159 -15q-422 0 -422 367q0 74 18 166l41 217h-155zM121 -512q63 96 105 198.5t52 188.5h379 q-14 -102 -71.5 -208.5t-137.5 -178.5h-327z" />
<glyph unicode="&#x237;" horiz-adv-x="649" d="M-430 -438l100 342q66 -39 156 -39q78 0 121 47t65 158l195 999h444l-202 -1044q-41 -205 -112 -323t-180.5 -170t-275.5 -52q-94 0 -177 21.5t-134 60.5z" />
<glyph unicode="&#x2c6;" horiz-adv-x="1024" d="M188 1249l340 355h381l205 -355h-342l-78 137l-131 -137h-375z" />
<glyph unicode="&#x2c7;" horiz-adv-x="1024" d="M256 1604h342l77 -138l131 138h375l-340 -355h-381z" />
<glyph unicode="&#x2c9;" horiz-adv-x="1024" d="M303 1249l53 283h697l-54 -283h-696z" />
<glyph unicode="&#x2cb;" horiz-adv-x="1024" d="M372 1604h457l143 -355h-356z" />
<glyph unicode="&#x2d8;" horiz-adv-x="1024" d="M287 1479q0 53 14 96h276q-2 -14 -2 -29q0 -111 117 -110q125 0 152 139h276q0 -186 -115.5 -284.5t-332.5 -98.5q-176 0 -280.5 79t-104.5 208z" />
<glyph unicode="&#x2d9;" horiz-adv-x="1024" d="M463 1376q0 98 66.5 162t170.5 64q88 0 142.5 -51.5t54.5 -133.5q0 -98 -67 -161.5t-171 -63.5q-88 0 -142 51t-54 133z" />
<glyph unicode="&#x2da;" horiz-adv-x="1024" d="M371 1458q0 131 90 216t229 85t229.5 -85t90.5 -216t-90.5 -216t-229.5 -85t-229 85t-90 216zM590 1458q0 -45 27.5 -72.5t72.5 -27.5t73 27.5t28 72.5t-28 73t-73 28t-72.5 -28t-27.5 -73z" />
<glyph unicode="&#x2db;" horiz-adv-x="1024" d="M103 -309q0 125 114.5 236.5t323.5 191.5l98 -119q-102 -63 -148 -111.5t-46 -89.5q0 -25 20.5 -41t54.5 -16q31 0 66 10l-27 -270q-71 -31 -188 -31q-125 0 -196.5 63.5t-71.5 176.5z" />
<glyph unicode="&#x2dc;" horiz-adv-x="1024" d="M223 1237q27 186 106 277.5t218 91.5q55 0 92 -15.5t61.5 -34t47 -34t53.5 -15.5t47 20.5t26 74.5h273q-27 -186 -106 -277.5t-218 -91.5q-55 0 -92 15.5t-61.5 33.5t-47 33.5t-53.5 15.5t-47 -20.5t-26 -73.5h-273z" />
<glyph unicode="&#x2dd;" horiz-adv-x="1024" d="M152 1249l225 355h399l-289 -355h-335zM596 1249l225 355h400l-289 -355h-336z" />
<glyph unicode="&#x300;" horiz-adv-x="0" d="M-113 1604h457l143 -355h-356z" />
<glyph unicode="&#x301;" horiz-adv-x="0" d="M-100 1249l276 355h459l-369 -355h-366z" />
<glyph unicode="&#x302;" horiz-adv-x="0" d="M-324 1249l340 355h381l205 -355h-342l-78 137l-131 -137h-375z" />
<glyph unicode="&#x303;" horiz-adv-x="0" d="M-291 1237q27 186 106 277.5t218 91.5q55 0 92 -15.5t61.5 -34t47 -34t53.5 -15.5t47 20.5t26 74.5h273q-27 -186 -106 -277.5t-218 -91.5q-55 0 -92 15.5t-61.5 33.5t-47 33.5t-53.5 15.5t-47 -20.5t-26 -73.5h-273z" />
<glyph unicode="&#x304;" horiz-adv-x="0" d="M-209 1249l53 283h697l-54 -283h-696z" />
<glyph unicode="&#x306;" horiz-adv-x="0" d="M-227 1479q0 53 14 96h276q-2 -14 -2 -29q0 -111 117 -110q125 0 152 139h276q0 -186 -115.5 -284.5t-332.5 -98.5q-176 0 -280.5 79t-104.5 208z" />
<glyph unicode="&#x307;" horiz-adv-x="0" d="M-49 1376q0 98 66.5 162t170.5 64q88 0 142.5 -51.5t54.5 -133.5q0 -98 -67 -161.5t-171 -63.5q-88 0 -142 51t-54 133z" />
<glyph unicode="&#x308;" horiz-adv-x="0" d="M-287 1356q0 88 60.5 144t150.5 56q80 0 129 -46t49 -121q0 -86 -59 -142.5t-149 -56.5q-82 0 -131.5 45t-49.5 121zM223 1356q0 88 60.5 144t150.5 56q80 0 129 -46t49 -121q0 -86 -59.5 -142.5t-149.5 -56.5q-82 0 -131 45t-49 121z" />
<glyph unicode="&#x30a;" horiz-adv-x="0" d="M-139 1458q0 131 90 216t229 85t229.5 -85t90.5 -216t-90.5 -216t-229.5 -85t-229 85t-90 216zM80 1458q0 -45 27.5 -72.5t72.5 -27.5t73 27.5t28 72.5t-28 73t-73 28t-72.5 -28t-27.5 -73z" />
<glyph unicode="&#x30b;" horiz-adv-x="0" d="M-362 1249l225 355h399l-289 -355h-335zM82 1249l225 355h400l-289 -355h-336z" />
<glyph unicode="&#x30c;" horiz-adv-x="0" d="M-319 1604h342l77 -138l131 138h375l-340 -355h-381z" />
<glyph unicode="&#x312;" horiz-adv-x="0" d="M-90 1249q14 102 71.5 209t137.5 178h327q-63 -96 -105 -198.5t-52 -188.5h-379z" />
<glyph unicode="&#x315;" horiz-adv-x="0" d="M-100 1147l123 512h411l-237 -512h-297z" />
<glyph unicode="&#x326;" horiz-adv-x="0" d="M-485 -512q63 96 105 198.5t52 188.5h379q-14 -102 -71.5 -208.5t-137.5 -178.5h-327z" />
<glyph unicode="&#x327;" horiz-adv-x="0" d="M-506 -506l70 187q53 -29 129 -29q51 0 78.5 17.5t27.5 49.5q0 51 -84 52q-39 0 -71 -9l120 258h220l-60 -129q82 -14 126 -60t44 -120q0 -78 -44 -138t-124.5 -95t-191.5 -35q-74 0 -141.5 14.5t-98.5 36.5z" />
<glyph unicode="&#x328;" horiz-adv-x="0" d="M-317 -309q0 125 114.5 236.5t323.5 191.5l98 -119q-102 -63 -148 -111.5t-46 -89.5q0 -25 20.5 -41t54.5 -16q31 0 66 10l-27 -270q-71 -31 -188 -31q-125 0 -196.5 63.5t-71.5 176.5z" />
<glyph unicode="&#x3c0;" horiz-adv-x="1556" d="M119 717l69 352h1360l-69 -352h-164l-47 -246q-6 -33 -6 -57q0 -41 19 -58.5t65 -17.5q35 0 67 12l-51 -356q-27 -10 -84.5 -18.5t-106.5 -8.5q-186 0 -269 68.5t-83 222.5q0 72 21 180l53 279h-186l-140 -717h-422l140 717h-166z" />
<glyph unicode="&#x1e80;" horiz-adv-x="2322" d="M229 1556h523l-4 -860l385 840h426l73 -844l326 864h532l-755 -1556h-432l-84 883l-410 -883h-432zM962 2044h494l174 -334h-383z" />
<glyph unicode="&#x1e81;" horiz-adv-x="1837" d="M135 1069h453l-2 -534l237 534h371l41 -512l195 512h481l-553 -1069h-383l-47 588l-260 -588h-392zM665 1604h457l143 -355h-356z" />
<glyph unicode="&#x1e82;" horiz-adv-x="2322" d="M229 1556h523l-4 -860l385 840h426l73 -844l326 864h532l-755 -1556h-432l-84 883l-410 -883h-432zM1120 1710l291 334h508l-408 -334h-391z" />
<glyph unicode="&#x1e83;" horiz-adv-x="1837" d="M135 1069h453l-2 -534l237 534h371l41 -512l195 512h481l-553 -1069h-383l-47 588l-260 -588h-392zM832 1249l276 355h459l-369 -355h-366z" />
<glyph unicode="&#x1e84;" horiz-adv-x="2322" d="M229 1556h523l-4 -860l385 840h426l73 -844l326 864h532l-755 -1556h-432l-84 883l-410 -883h-432zM954 1876q0 90 62.5 149.5t156.5 59.5q84 0 134.5 -48t50.5 -126q0 -90 -61.5 -148.5t-155.5 -58.5q-84 0 -135.5 47t-51.5 125zM1479 1876q0 90 62.5 149.5t156.5 59.5 q84 0 134 -48t50 -126q0 -90 -61.5 -148.5t-155.5 -58.5q-84 0 -135 47t-51 125z" />
<glyph unicode="&#x1e85;" horiz-adv-x="1837" d="M135 1069h453l-2 -534l237 534h371l41 -512l195 512h481l-553 -1069h-383l-47 588l-260 -588h-392zM626 1356q0 88 60.5 144t150.5 56q80 0 129 -46t49 -121q0 -86 -59 -142.5t-149 -56.5q-82 0 -131.5 45t-49.5 121zM1136 1356q0 88 60.5 144t150.5 56q80 0 129 -46 t49 -121q0 -86 -59.5 -142.5t-149.5 -56.5q-82 0 -131 45t-49 121z" />
<glyph unicode="&#x1e9e;" horiz-adv-x="1638" d="M29 0l174 895q68 346 264.5 520t517.5 174q113 0 229.5 -27.5t219 -77.5t170.5 -118l-56 -279l-235 -225q111 -45 173 -141t62 -227q0 -156 -72.5 -275t-209 -185.5t-320.5 -66.5q-109 0 -201 23.5t-141 62.5l111 357q92 -66 205 -66q90 0 143 43t53 119q0 61 -42 95 t-120 34q-41 0 -80 -10l-65 229l321 309q-61 37 -163 37q-125 0 -209 -88t-117 -250l-168 -862h-444z" />
<glyph unicode="&#x1ef2;" horiz-adv-x="1597" d="M209 1556h526l142 -552l348 552h561l-727 -944l-119 -612h-491l118 616zM602 2044h494l174 -334h-383z" />
<glyph unicode="&#x1ef3;" horiz-adv-x="1308" d="M-29 -502l373 563l-219 1008h475l47 -557l271 557h475l-953 -1571h-469zM405 1604h457l143 -355h-356z" />
<glyph unicode="&#x2000;" horiz-adv-x="1024" />
<glyph unicode="&#x2001;" horiz-adv-x="2048" />
<glyph unicode="&#x2002;" horiz-adv-x="1024" />
<glyph unicode="&#x2003;" horiz-adv-x="2048" />
<glyph unicode="&#x2004;" horiz-adv-x="681" />
<glyph unicode="&#x2005;" horiz-adv-x="512" />
<glyph unicode="&#x2006;" horiz-adv-x="339" />
<glyph unicode="&#x2007;" horiz-adv-x="1372" />
<glyph unicode="&#x2008;" horiz-adv-x="638" />
<glyph unicode="&#x2009;" horiz-adv-x="409" />
<glyph unicode="&#x200a;" horiz-adv-x="112" />
<glyph unicode="&#x200b;" horiz-adv-x="0" />
<glyph unicode="&#x2010;" horiz-adv-x="831" d="M59 414l70 350h666l-70 -350h-666z" />
<glyph unicode="&#x2011;" horiz-adv-x="831" d="M59 414l70 350h666l-70 -350h-666z" />
<glyph unicode="&#x2012;" horiz-adv-x="1024" d="M-20 432l61 318h1024l-61 -318h-1024z" />
<glyph unicode="&#x2013;" horiz-adv-x="1024" d="M-20 432l61 318h1024l-61 -318h-1024z" />
<glyph unicode="&#x2014;" horiz-adv-x="2048" d="M-20 432l61 318h2048l-61 -318h-2048z" />
<glyph unicode="&#x2015;" horiz-adv-x="2048" d="M-20 432l61 318h2048l-61 -318h-2048z" />
<glyph unicode="&#x2018;" horiz-adv-x="565" d="M166 997q16 168 77.5 314.5t155.5 244.5h324q-74 -111 -121 -262t-51 -297h-385z" />
<glyph unicode="&#x2019;" horiz-adv-x="565" d="M131 997q74 111 121 262.5t51 296.5h385q-16 -168 -77.5 -314t-155.5 -245h-324z" />
<glyph unicode="&#x201a;" horiz-adv-x="565" d="M-121 -297q74 111 121 262.5t51 296.5h385q-16 -168 -77.5 -314.5t-155.5 -244.5h-324z" />
<glyph unicode="&#x201c;" horiz-adv-x="1060" d="M166 997q16 168 77.5 314.5t155.5 244.5h324q-74 -111 -121 -262t-51 -297h-385zM662 997q16 168 77.5 314.5t155.5 244.5h324q-74 -111 -121 -262t-51 -297h-385z" />
<glyph unicode="&#x201d;" horiz-adv-x="1060" d="M131 997q74 111 121 262.5t51 296.5h385q-16 -168 -77.5 -314t-155.5 -245h-324zM627 997q74 111 121 262.5t51 296.5h385q-16 -168 -77.5 -314t-155.5 -245h-324z" />
<glyph unicode="&#x201e;" horiz-adv-x="1060" d="M-121 -297q74 111 121 262.5t51 296.5h385q-16 -168 -77.5 -314.5t-155.5 -244.5h-324zM375 -297q74 111 121 262.5t51 296.5h385q-16 -168 -77.5 -314.5t-155.5 -244.5h-324z" />
<glyph unicode="&#x2020;" horiz-adv-x="1087" d="M109 829l63 328h270l78 399h445l-78 -399h272l-63 -328h-273l-213 -1095h-444l213 1095h-270z" />
<glyph unicode="&#x2021;" horiz-adv-x="1087" d="M-33 104l64 328h270l82 422h-270l63 328h270l74 374h445l-74 -374h272l-63 -328h-273l-82 -422h273l-64 -328h-272l-72 -370h-444l72 370h-271z" />
<glyph unicode="&#x2022;" horiz-adv-x="776" d="M102 555q0 76 37 141.5t103.5 106.5t148.5 41q78 0 143.5 -37t106.5 -103.5t41 -148.5q0 -76 -37 -141.5t-104.5 -105.5t-149.5 -40q-121 0 -205 84t-84 203z" />
<glyph unicode="&#x2026;" horiz-adv-x="2048" d="M34 182q0 106 75 175t190 69q94 0 152.5 -53.5t58.5 -141.5q0 -106 -75 -174.5t-190 -68.5q-94 0 -152.5 53t-58.5 141zM716 182q0 106 75 175t190 69q94 0 152.5 -53.5t58.5 -141.5q0 -106 -75 -174.5t-190 -68.5q-94 0 -152.5 53t-58.5 141zM1402 182q0 106 75 175 t190 69q94 0 152.5 -53.5t58.5 -141.5q0 -106 -75 -174.5t-190 -68.5q-94 0 -152.5 53t-58.5 141z" />
<glyph unicode="&#x202f;" horiz-adv-x="454" />
<glyph unicode="&#x2030;" horiz-adv-x="3129" d="M238 1130q0 117 55 213.5t155.5 154.5t229.5 58q182 0 294.5 -101t112.5 -265q0 -117 -55 -213t-155.5 -154.5t-229.5 -58.5q-182 0 -294.5 101.5t-112.5 264.5zM354 0l1219 1524h350l-1218 -1524h-351zM545 1145q0 -53 28.5 -84t77.5 -31q55 0 91 41t36 105 q0 53 -28.5 83.5t-77.5 30.5q-55 0 -91 -41t-36 -104zM1200 336q0 117 55.5 213t155.5 154.5t229 58.5q182 0 295 -101.5t113 -265.5q0 -117 -55.5 -213t-155.5 -154.5t-229 -58.5q-182 0 -295 101.5t-113 265.5zM1507 350q0 -53 29 -83.5t78 -30.5q55 0 91 40.5t36 104.5 q0 53 -29 84t-78 31q-55 0 -91 -41t-36 -105zM2134 336q0 117 55.5 213t155.5 154.5t229 58.5q182 0 295 -101.5t113 -265.5q0 -117 -55.5 -213t-155.5 -154.5t-229 -58.5q-182 0 -295 101.5t-113 265.5zM2441 350q0 -53 29 -83.5t78 -30.5q55 0 91 40.5t36 104.5 q0 53 -29 84t-78 31q-55 0 -91 -41t-36 -105z" />
<glyph unicode="&#x2032;" horiz-adv-x="483" d="M92 961l168 595h422l-250 -595h-340z" />
<glyph unicode="&#x2033;" horiz-adv-x="962" d="M92 961l168 595h422l-250 -595h-340zM571 961l168 595h422l-250 -595h-340z" />
<glyph unicode="&#x2039;" horiz-adv-x="864" d="M39 526l399 465h473l-442 -493l219 -437h-432z" />
<glyph unicode="&#x203a;" horiz-adv-x="864" d="M-51 61l440 492l-217 438h432l217 -465l-399 -465h-473z" />
<glyph unicode="&#x2044;" horiz-adv-x="405" d="M-537 0l1219 1524h350l-1218 -1524h-351z" />
<glyph unicode="&#x205f;" horiz-adv-x="567" />
<glyph unicode="&#x2070;" d="M170 1260q0 49 12 116q37 197 150.5 305.5t281.5 108.5q164 0 262.5 -94t98.5 -252q0 -49 -13 -117q-37 -197 -150.5 -305t-281.5 -108q-164 0 -262 94t-98 252zM485 1270q1 -88 60 -88q37 0 62.5 38t41.5 122q10 51 10 92q0 88 -59 88q-37 0 -62.5 -38t-42.5 -122 q-10 -51 -10 -92z" />
<glyph unicode="&#x2074;" d="M133 1073l47 246l418 451h334l-90 -474h98l-43 -223h-99l-26 -139h-275l27 139h-391zM418 1296h149l39 203z" />
<glyph unicode="&#x2075;" d="M159 971l68 231q98 -51 234 -51q117 0 116 62q0 31 -27.5 43t-101.5 12q-125 0 -205 -19l125 521h566l-45 -234h-306l-14 -61h27q137 0 212.5 -63.5t75.5 -180.5q0 -154 -113.5 -235.5t-326.5 -81.5q-76 0 -160 16t-125 41z" />
<glyph unicode="&#x2076;" d="M186 1229q0 137 100.5 282.5t278.5 264.5l403 -6q-231 -141 -362 -279q23 8 55 8q119 0 189.5 -67.5t70.5 -178.5q0 -152 -105.5 -245.5t-277.5 -93.5q-166 0 -259 82.5t-93 232.5zM475 1213q0 -31 18 -48.5t49 -17.5q35 0 58.5 23.5t23.5 58.5q0 31 -18 48t-49 17 q-35 0 -58.5 -23.5t-23.5 -57.5z" />
<glyph unicode="&#x2077;" d="M215 934l383 561h-330l53 275h686l-45 -234l-385 -608z" />
<glyph unicode="&#x2078;" d="M162 1163q0 78 44 138.5t119 85.5q-72 51 -71 149q0 119 97 186.5t265 67.5q164 0 256 -61.5t92 -167.5q0 -66 -33.5 -115t-97.5 -78q41 -25 63.5 -70t22.5 -100q0 -129 -108.5 -206.5t-288.5 -77.5q-168 0 -264 66.5t-96 182.5zM465 1192q0 -29 18 -47t51 -18 q39 0 62.5 23.5t23.5 57.5q0 29 -18.5 47.5t-50.5 18.5q-39 0 -62.5 -23.5t-23.5 -58.5zM534 1509q0 -59 66 -59q33 0 53.5 21.5t20.5 54.5q0 59 -66 59q-33 0 -53.5 -21.5t-20.5 -54.5z" />
<glyph unicode="&#x2079;" d="M178 934q109 63 204 137t158 142q-23 -8 -55 -9q-119 0 -189.5 68t-70.5 178q0 152 105.5 246t277.5 94q166 0 259 -83t93 -232q0 -137 -100 -282.5t-279 -264.5zM522 1475q0 -31 18.5 -48.5t49.5 -17.5q35 0 58 23.5t23 58.5q0 31 -18 48.5t-49 17.5q-35 0 -58.5 -24 t-23.5 -58z" />
<glyph unicode="&#x2080;" d="M-59 70q0 49 12 116q37 197 150.5 305.5t281.5 108.5q164 0 262.5 -94t98.5 -252q0 -49 -13 -117q-37 -197 -150.5 -305t-281.5 -108q-164 0 -262 94t-98 252zM256 80q1 -88 60 -88q37 0 62.5 38t41.5 122q10 51 10 92q0 88 -59 88q-37 0 -62.5 -38t-42.5 -122 q-10 -51 -10 -92z" />
<glyph unicode="&#x2081;" d="M47 178l8 279l297 123h285l-164 -836h-323l102 516z" />
<glyph unicode="&#x2082;" d="M-63 -256l43 223q211 123 298 197t87 127q0 29 -22.5 44t-61.5 15q-47 0 -108.5 -24.5t-104.5 -59.5l-31 242q53 41 143 66.5t179 25.5q145 0 235 -70.5t90 -181.5q0 -98 -59.5 -188t-171.5 -162h215l-49 -254h-682z" />
<glyph unicode="&#x2083;" d="M-67 -217l53 231q43 -23 106.5 -38t122.5 -15q113 0 113 66q0 49 -90 49q-53 0 -86 -13l-49 150l178 133h-254l43 234h639l-39 -207l-184 -137q70 -20 111.5 -78t41.5 -135q0 -139 -110.5 -219t-303.5 -80q-82 0 -165.5 17t-126.5 42z" />
<glyph unicode="&#x2084;" d="M-94 -117l47 246l418 451h334l-90 -474h98l-43 -223h-99l-26 -139h-275l27 139h-391zM191 106h149l39 203z" />
<glyph unicode="&#x2085;" d="M-70 -219l68 231q98 -51 234 -51q117 0 116 62q0 31 -27.5 43t-101.5 12q-125 0 -205 -19l125 521h566l-45 -234h-306l-14 -61h27q137 0 212.5 -63.5t75.5 -180.5q0 -154 -113.5 -235.5t-326.5 -81.5q-76 0 -160 16t-125 41z" />
<glyph unicode="&#x2086;" d="M-43 39q0 137 100.5 282.5t278.5 264.5l403 -6q-231 -141 -362 -279q23 8 55 8q119 0 189.5 -67.5t70.5 -178.5q0 -152 -105.5 -245.5t-277.5 -93.5q-166 0 -259 82.5t-93 232.5zM246 23q0 -31 18 -48.5t49 -17.5q35 0 58.5 23.5t23.5 58.5q0 31 -18 48t-49 17 q-35 0 -58.5 -23.5t-23.5 -57.5z" />
<glyph unicode="&#x2087;" d="M-12 -256l383 561h-330l53 275h686l-45 -234l-385 -608z" />
<glyph unicode="&#x2088;" d="M-67 -27q0 78 44 138.5t119 85.5q-72 51 -71 149q0 119 97 186.5t265 67.5q164 0 256 -61.5t92 -167.5q0 -66 -33.5 -115t-97.5 -78q41 -25 63.5 -70t22.5 -100q0 -129 -108.5 -206.5t-288.5 -77.5q-168 0 -264 66.5t-96 182.5zM236 2q0 -29 18 -47t51 -18 q39 0 62.5 23.5t23.5 57.5q0 29 -18.5 47.5t-50.5 18.5q-39 0 -62.5 -23.5t-23.5 -58.5zM305 319q0 -59 66 -59q33 0 53.5 21.5t20.5 54.5q0 59 -66 59q-33 0 -53.5 -21.5t-20.5 -54.5z" />
<glyph unicode="&#x2089;" d="M-51 -256q109 63 204 137t158 142q-23 -8 -55 -9q-119 0 -189.5 68t-70.5 178q0 152 105.5 246t277.5 94q166 0 259 -83t93 -232q0 -137 -100 -282.5t-279 -264.5zM293 285q0 -31 18.5 -48.5t49.5 -17.5q35 0 58 23.5t23 58.5q0 31 -18 48.5t-49 17.5q-35 0 -58.5 -24 t-23.5 -58z" />
<glyph unicode="&#x20ac;" horiz-adv-x="1372" d="M47 475l43 221h174q4 76 15 131h-162l43 222h174q90 244 279.5 375.5t455.5 131.5q115 0 219.5 -24.5t175.5 -69.5l-100 -336q-57 35 -133 54.5t-150 19.5q-201 0 -297 -151h443l-43 -222h-473q-10 -61 -13 -131h459l-43 -221h-401q27 -82 90 -116.5t184 -34.5 q66 0 146.5 16t130.5 39l-11 -354q-145 -58 -360 -58q-264 0 -427 132t-196 376h-223z" />
<glyph unicode="&#x20ba;" horiz-adv-x="1372" d="M18 406l45 243l181 80l24 125l-178 -80l45 242l180 82l84 426h435l-46 -228l252 113l-43 -242l-256 -114l-24 -123l254 112l-45 -243l-256 -115l-66 -342q137 33 222 127t106 240l403 -17q-45 -360 -270.5 -542.5t-628.5 -182.5q-88 0 -179 9.5t-155 23.5l95 485z" />
<glyph unicode="&#x2122;" horiz-adv-x="1755" d="M162 1327l45 229h676l-45 -229h-185l-102 -528h-307l102 528h-184zM786 799l205 757h309l62 -321l188 321h318l-88 -757h-275l54 379l-148 -254h-205l-47 245l-92 -370h-281z" />
<glyph unicode="&#x2126;" horiz-adv-x="1906" d="M53 0l76 389h205q-76 74 -115 180.5t-39 237.5q0 217 106.5 394t302 282.5t445.5 105.5q233 0 413.5 -79.5t284 -231.5t103.5 -356q0 -166 -70.5 -304.5t-199.5 -228.5h202l-75 -389h-768l73 383q150 70 234 200t84 294q0 125 -76 200.5t-205 75.5q-168 0 -262 -113.5 t-94 -314.5q0 -104 40 -193.5t116 -148.5l-74 -383h-707z" />
<glyph unicode="&#x2150;" horiz-adv-x="2060" d="M227 0l1219 1524h350l-1218 -1524h-351zM229 1122l8 279l297 123h285l-164 -836h-323l102 516zM1268 0l383 561h-330l53 275h686l-45 -234l-385 -608z" />
<glyph unicode="&#x2151;" horiz-adv-x="2060" d="M229 1122l8 279l297 123h285l-164 -836h-323l102 516zM247 0l1219 1524h350l-1218 -1524h-351zM1229 0q109 63 204 137t158 142q-23 -8 -55 -9q-119 0 -189.5 68t-70.5 178q0 152 105.5 246t277.5 94q166 0 259 -83t93 -232q0 -137 -100 -282.5t-279 -264.5zM1573 541 q0 -31 18.5 -48.5t49.5 -17.5q35 0 58 23.5t23 58.5q0 31 -18 48.5t-49 17.5q-35 0 -58.5 -24t-23.5 -58z" />
<glyph unicode="&#x2153;" horiz-adv-x="2060" d="M221 0l1219 1524h350l-1218 -1524h-351zM229 1122l8 279l297 123h285l-164 -836h-323l102 516zM1215 39l53 231q43 -23 106.5 -38t122.5 -15q113 0 113 66q0 49 -90 49q-53 0 -86 -13l-49 150l178 133h-254l43 234h639l-39 -207l-184 -137q70 -20 111.5 -78t41.5 -135 q0 -139 -110.5 -219t-303.5 -80q-82 0 -165.5 17t-126.5 42z" />
<glyph unicode="&#x2154;" horiz-adv-x="2060" d="M117 688l43 223q211 123 298 197t87 127q0 29 -22.5 44t-61.5 15q-47 0 -108.5 -24.5t-104.5 -59.5l-31 242q53 41 143 66.5t179 25.5q145 0 235 -70.5t90 -181.5q0 -98 -59.5 -188t-171.5 -162h215l-49 -254h-682zM290 0l1219 1524h350l-1218 -1524h-351zM1215 39 l53 231q43 -23 106.5 -38t122.5 -15q113 0 113 66q0 49 -90 49q-53 0 -86 -13l-49 150l178 133h-254l43 234h639l-39 -207l-184 -137q70 -20 111.5 -78t41.5 -135q0 -139 -110.5 -219t-303.5 -80q-82 0 -165.5 17t-126.5 42z" />
<glyph unicode="&#x2155;" horiz-adv-x="2060" d="M229 1122l8 279l297 123h285l-164 -836h-323l102 516zM247 0l1219 1524h350l-1218 -1524h-351zM1210 37l68 231q98 -51 234 -51q117 0 116 62q0 31 -27.5 43t-101.5 12q-125 0 -205 -19l125 521h566l-45 -234h-306l-14 -61h27q137 0 212.5 -63.5t75.5 -180.5 q0 -154 -113.5 -235.5t-326.5 -81.5q-76 0 -160 16t-125 41z" />
<glyph unicode="&#x2156;" horiz-adv-x="2060" d="M117 688l43 223q211 123 298 197t87 127q0 29 -22.5 44t-61.5 15q-47 0 -108.5 -24.5t-104.5 -59.5l-31 242q53 41 143 66.5t179 25.5q145 0 235 -70.5t90 -181.5q0 -98 -59.5 -188t-171.5 -162h215l-49 -254h-682zM321 0l1219 1524h350l-1218 -1524h-351zM1210 37 l68 231q98 -51 234 -51q117 0 116 62q0 31 -27.5 43t-101.5 12q-125 0 -205 -19l125 521h566l-45 -234h-306l-14 -61h27q137 0 212.5 -63.5t75.5 -180.5q0 -154 -113.5 -235.5t-326.5 -81.5q-76 0 -160 16t-125 41z" />
<glyph unicode="&#x2157;" horiz-adv-x="2060" d="M115 727l53 231q43 -23 106.5 -38t122.5 -15q113 0 113 66q0 49 -90 49q-53 0 -86 -13l-49 150l178 133h-254l43 234h639l-39 -207l-184 -137q70 -20 111.5 -78t41.5 -135q0 -139 -110.5 -219t-303.5 -80q-82 0 -165.5 17t-126.5 42zM262 0l1219 1524h350l-1218 -1524 h-351zM1210 37l68 231q98 -51 234 -51q117 0 116 62q0 31 -27.5 43t-101.5 12q-125 0 -205 -19l125 521h566l-45 -234h-306l-14 -61h27q137 0 212.5 -63.5t75.5 -180.5q0 -154 -113.5 -235.5t-326.5 -81.5q-76 0 -160 16t-125 41z" />
<glyph unicode="&#x2158;" horiz-adv-x="2060" d="M86 827l47 246l418 451h334l-90 -474h98l-43 -223h-99l-26 -139h-275l27 139h-391zM292 0l1219 1524h350l-1218 -1524h-351zM371 1050h149l39 203zM1210 37l68 231q98 -51 234 -51q117 0 116 62q0 31 -27.5 43t-101.5 12q-125 0 -205 -19l125 521h566l-45 -234h-306 l-14 -61h27q137 0 212.5 -63.5t75.5 -180.5q0 -154 -113.5 -235.5t-326.5 -81.5q-76 0 -160 16t-125 41z" />
<glyph unicode="&#x2159;" horiz-adv-x="2060" d="M229 1122l8 279l297 123h285l-164 -836h-323l102 516zM297 0l1219 1524h350l-1218 -1524h-351zM1239 295q0 137 100.5 282.5t278.5 264.5l403 -6q-231 -141 -362 -279q23 8 55 8q119 0 189.5 -67.5t70.5 -178.5q0 -152 -105.5 -245.5t-277.5 -93.5q-166 0 -259 82.5 t-93 232.5zM1528 279q0 -31 18 -48.5t49 -17.5q35 0 58.5 23.5t23.5 58.5q0 31 -18 48t-49 17q-35 0 -58.5 -23.5t-23.5 -57.5z" />
<glyph unicode="&#x215a;" horiz-adv-x="2060" d="M110 725l68 231q98 -51 234 -51q117 0 116 62q0 31 -27.5 43t-101.5 12q-125 0 -205 -19l125 521h566l-45 -234h-306l-14 -61h27q137 0 212.5 -63.5t75.5 -180.5q0 -154 -113.5 -235.5t-326.5 -81.5q-76 0 -160 16t-125 41zM301 0l1219 1524h350l-1218 -1524h-351z M1239 295q0 137 100.5 282.5t278.5 264.5l403 -6q-231 -141 -362 -279q23 8 55 8q119 0 189.5 -67.5t70.5 -178.5q0 -152 -105.5 -245.5t-277.5 -93.5q-166 0 -259 82.5t-93 232.5zM1528 279q0 -31 18 -48.5t49 -17.5q35 0 58.5 23.5t23.5 58.5q0 31 -18 48t-49 17 q-35 0 -58.5 -23.5t-23.5 -57.5z" />
<glyph unicode="&#x215b;" horiz-adv-x="2060" d="M229 1122l8 279l297 123h285l-164 -836h-323l102 516zM237 0l1219 1524h350l-1218 -1524h-351zM1213 229q0 78 44 138.5t119 85.5q-72 51 -71 149q0 119 97 186.5t265 67.5q164 0 256 -61.5t92 -167.5q0 -66 -33.5 -115t-97.5 -78q41 -25 63.5 -70t22.5 -100 q0 -129 -108.5 -206.5t-288.5 -77.5q-168 0 -264 66.5t-96 182.5zM1516 258q0 -29 18 -47t51 -18q39 0 62.5 23.5t23.5 57.5q0 29 -18.5 47.5t-50.5 18.5q-39 0 -62.5 -23.5t-23.5 -58.5zM1585 575q0 -59 66 -59q33 0 53.5 21.5t20.5 54.5q0 59 -66 59q-33 0 -53.5 -21.5 t-20.5 -54.5z" />
<glyph unicode="&#x215c;" horiz-adv-x="2060" d="M115 727l53 231q43 -23 106.5 -38t122.5 -15q113 0 113 66q0 49 -90 49q-53 0 -86 -13l-49 150l178 133h-254l43 234h639l-39 -207l-184 -137q70 -20 111.5 -78t41.5 -135q0 -139 -110.5 -219t-303.5 -80q-82 0 -165.5 17t-126.5 42zM266 0l1219 1524h350l-1218 -1524 h-351zM1213 229q0 78 44 138.5t119 85.5q-72 51 -71 149q0 119 97 186.5t265 67.5q164 0 256 -61.5t92 -167.5q0 -66 -33.5 -115t-97.5 -78q41 -25 63.5 -70t22.5 -100q0 -129 -108.5 -206.5t-288.5 -77.5q-168 0 -264 66.5t-96 182.5zM1516 258q0 -29 18 -47t51 -18 q39 0 62.5 23.5t23.5 57.5q0 29 -18.5 47.5t-50.5 18.5q-39 0 -62.5 -23.5t-23.5 -58.5zM1585 575q0 -59 66 -59q33 0 53.5 21.5t20.5 54.5q0 59 -66 59q-33 0 -53.5 -21.5t-20.5 -54.5z" />
<glyph unicode="&#x215d;" horiz-adv-x="2060" d="M110 725l68 231q98 -51 234 -51q117 0 116 62q0 31 -27.5 43t-101.5 12q-125 0 -205 -19l125 521h566l-45 -234h-306l-14 -61h27q137 0 212.5 -63.5t75.5 -180.5q0 -154 -113.5 -235.5t-326.5 -81.5q-76 0 -160 16t-125 41zM268 0l1219 1524h350l-1218 -1524h-351z M1213 229q0 78 44 138.5t119 85.5q-72 51 -71 149q0 119 97 186.5t265 67.5q164 0 256 -61.5t92 -167.5q0 -66 -33.5 -115t-97.5 -78q41 -25 63.5 -70t22.5 -100q0 -129 -108.5 -206.5t-288.5 -77.5q-168 0 -264 66.5t-96 182.5zM1516 258q0 -29 18 -47t51 -18 q39 0 62.5 23.5t23.5 57.5q0 29 -18.5 47.5t-50.5 18.5q-39 0 -62.5 -23.5t-23.5 -58.5zM1585 575q0 -59 66 -59q33 0 53.5 21.5t20.5 54.5q0 59 -66 59q-33 0 -53.5 -21.5t-20.5 -54.5z" />
<glyph unicode="&#x215e;" horiz-adv-x="2060" d="M168 688l383 561h-330l53 275h686l-45 -234l-385 -608zM215 0l1219 1524h350l-1218 -1524h-351zM1213 229q0 78 44 138.5t119 85.5q-72 51 -71 149q0 119 97 186.5t265 67.5q164 0 256 -61.5t92 -167.5q0 -66 -33.5 -115t-97.5 -78q41 -25 63.5 -70t22.5 -100 q0 -129 -108.5 -206.5t-288.5 -77.5q-168 0 -264 66.5t-96 182.5zM1516 258q0 -29 18 -47t51 -18q39 0 62.5 23.5t23.5 57.5q0 29 -18.5 47.5t-50.5 18.5q-39 0 -62.5 -23.5t-23.5 -58.5zM1585 575q0 -59 66 -59q33 0 53.5 21.5t20.5 54.5q0 59 -66 59q-33 0 -53.5 -21.5 t-20.5 -54.5z" />
<glyph unicode="&#x2202;" horiz-adv-x="1372" d="M43 426q0 154 69.5 281t198.5 203.5t293 76.5q90 0 164 -28.5t113 -77.5q4 29 4 57q0 242 -262 242q-156 0 -271 -76l-26 364q57 41 159.5 64.5t214.5 23.5q315 0 484.5 -164.5t169.5 -469.5q0 -287 -92.5 -502t-268.5 -334t-420 -119q-154 0 -273.5 55.5t-188 160 t-68.5 243.5zM487 477q0 -61 38.5 -96t101.5 -35q80 0 132 55.5t52 137.5q0 61 -38 96t-101 35q-80 0 -132.5 -55.5t-52.5 -137.5z" />
<glyph unicode="&#x2206;" horiz-adv-x="1763" d="M-63 0l897 1556h489l295 -1556h-1681zM612 369h461l-84 759z" />
<glyph unicode="&#x220f;" horiz-adv-x="1646" d="M6 -164l336 1720h1360l-336 -1720h-489l260 1335h-381l-260 -1335h-490z" />
<glyph unicode="&#x2211;" horiz-adv-x="1386" d="M-63 -162l59 314l477 591l-264 500l61 313h1194l-80 -403h-620l225 -424l-393 -487h621l-78 -404h-1202z" />
<glyph unicode="&#x2212;" horiz-adv-x="1372" d="M207 508l69 360h949l-70 -360h-948z" />
<glyph unicode="&#x2215;" horiz-adv-x="405" d="M-537 0l1219 1524h350l-1218 -1524h-351z" />
<glyph unicode="&#x2219;" horiz-adv-x="638" d="M116 751q0 106 75 175t190 69q94 0 152.5 -53.5t58.5 -141.5q0 -106 -75 -174.5t-190 -68.5q-94 0 -152.5 53t-58.5 141z" />
<glyph unicode="&#x221a;" horiz-adv-x="1589" d="M86 659l68 353h542l68 -516l702 1222h455l-1030 -1718h-418l-149 659h-238z" />
<glyph unicode="&#x221e;" horiz-adv-x="1497" d="M78 662q0 133 54 239.5t156.5 169t233.5 62.5q88 0 163 -38t118 -104q49 66 132 104t177 38q174 0 274.5 -98.5t100.5 -270.5q0 -133 -54.5 -239.5t-156.5 -169t-234 -62.5q-90 0 -165.5 37t-116.5 102q-49 -66 -131 -102.5t-176 -36.5q-174 0 -274.5 98t-100.5 271z M416 700q0 -45 23.5 -70.5t66.5 -25.5q86 0 137 105q-35 113 -117 112q-47 0 -78.5 -34.5t-31.5 -86.5zM922 715q16 -53 45.5 -82t70.5 -29q47 0 79 35t32 86q0 45 -23.5 70.5t-66.5 25.5q-88 0 -137 -106z" />
<glyph unicode="&#x222b;" horiz-adv-x="999" d="M-227 -465l84 361q74 -33 147 -33q88 0 130 54t61 187l127 953q43 317 173 470.5t355 153.5q82 0 164 -19.5t135 -51.5l-84 -355q-76 43 -158 43q-72 0 -111.5 -57t-56.5 -184l-127 -953q-31 -227 -98.5 -363t-181 -198.5t-283.5 -62.5q-74 0 -147.5 14t-128.5 41z" />
<glyph unicode="&#x2248;" horiz-adv-x="1372" d="M47 121q31 252 142.5 384t291.5 132q72 -2 119 -22.5t79 -47t60.5 -47t65.5 -22.5q47 0 73.5 30.5t43.5 108.5h342q-31 -252 -142.5 -384t-292.5 -132q-72 2 -118.5 22.5t-78.5 47t-60.5 47t-65.5 22.5q-47 0 -73.5 -30.5t-43.5 -108.5h-342zM162 713q31 252 142.5 384 t291.5 132q72 -2 119 -22.5t78.5 -47t60.5 -47t66 -22.5q47 0 73.5 30.5t42.5 108.5h342q-31 -252 -142.5 -384t-291.5 -132q-72 2 -119 22.5t-78.5 47t-60.5 47t-65 22.5q-47 0 -74 -30.5t-43 -108.5h-342z" />
<glyph unicode="&#x2260;" horiz-adv-x="1372" d="M172 264l64 334h309l98 158h-375l64 334h518l147 237h246l-147 -237h159l-63 -334h-303l-98 -158h368l-63 -334h-512l-148 -237h-246l148 237h-166z" />
<glyph unicode="&#x2264;" horiz-adv-x="1372" d="M109 0l69 360h948l-69 -360h-948zM246 719l80 411l1007 306l-69 -375l-617 -146l561 -143l-71 -350z" />
<glyph unicode="&#x2265;" horiz-adv-x="1372" d="M109 0l69 360h948l-69 -360h-948zM190 422l70 375l614 143l-559 145l72 351l891 -297l-80 -412z" />
<glyph unicode="&#x25ca;" horiz-adv-x="1464" d="M139 831l627 830h373l301 -830l-627 -831h-373zM549 788l133 -376l348 460l-135 375z" />
<glyph unicode="&#x25fc;" horiz-adv-x="1064" d="M0 0v1065h1065v-1065h-1065z" />
<glyph unicode="&#xf507;" horiz-adv-x="2060" d="M117 688l43 223q211 123 298 197t87 127q0 29 -22.5 44t-61.5 15q-47 0 -108.5 -24.5t-104.5 -59.5l-31 242q53 41 143 66.5t179 25.5q145 0 235 -70.5t90 -181.5q0 -98 -59.5 -188t-171.5 -162h215l-49 -254h-682zM301 0l1219 1524h350l-1218 -1524h-351zM1268 0 l383 561h-330l53 275h686l-45 -234l-385 -608z" />
<glyph unicode="&#xf508;" horiz-adv-x="2060" d="M115 727l53 231q43 -23 106.5 -38t122.5 -15q113 0 113 66q0 49 -90 49q-53 0 -86 -13l-49 150l178 133h-254l43 234h639l-39 -207l-184 -137q70 -20 111.5 -78t41.5 -135q0 -139 -110.5 -219t-303.5 -80q-82 0 -165.5 17t-126.5 42zM247 0l1219 1524h350l-1218 -1524 h-351zM1268 0l383 561h-330l53 275h686l-45 -234l-385 -608z" />
<glyph unicode="&#xf509;" horiz-adv-x="2060" d="M86 827l47 246l418 451h334l-90 -474h98l-43 -223h-99l-26 -139h-275l27 139h-391zM280 0l1219 1524h350l-1218 -1524h-351zM371 1050h149l39 203zM1268 0l383 561h-330l53 275h686l-45 -234l-385 -608z" />
<glyph unicode="&#xf50a;" horiz-adv-x="2060" d="M110 725l68 231q98 -51 234 -51q117 0 116 62q0 31 -27.5 43t-101.5 12q-125 0 -205 -19l125 521h566l-45 -234h-306l-14 -61h27q137 0 212.5 -63.5t75.5 -180.5q0 -154 -113.5 -235.5t-326.5 -81.5q-76 0 -160 16t-125 41zM247 0l1219 1524h350l-1218 -1524h-351z M1268 0l383 561h-330l53 275h686l-45 -234l-385 -608z" />
<glyph unicode="&#xf50b;" horiz-adv-x="2060" d="M139 983q0 137 100.5 282.5t278.5 264.5l403 -6q-231 -141 -362 -279q23 8 55 8q119 0 189.5 -67.5t70.5 -178.5q0 -152 -105.5 -245.5t-277.5 -93.5q-166 0 -259 82.5t-93 232.5zM258 0l1219 1524h350l-1218 -1524h-351zM428 967q0 -31 18 -48.5t49 -17.5 q35 0 58.5 23.5t23.5 58.5q0 31 -18 48t-49 17q-35 0 -58.5 -23.5t-23.5 -57.5zM1268 0l383 561h-330l53 275h686l-45 -234l-385 -608z" />
<glyph unicode="&#xf50d;" horiz-adv-x="2060" d="M117 688l43 223q211 123 298 197t87 127q0 29 -22.5 44t-61.5 15q-47 0 -108.5 -24.5t-104.5 -59.5l-31 242q53 41 143 66.5t179 25.5q145 0 235 -70.5t90 -181.5q0 -98 -59.5 -188t-171.5 -162h215l-49 -254h-682zM327 0l1219 1524h350l-1218 -1524h-351zM1229 0 q109 63 204 137t158 142q-23 -8 -55 -9q-119 0 -189.5 68t-70.5 178q0 152 105.5 246t277.5 94q166 0 259 -83t93 -232q0 -137 -100 -282.5t-279 -264.5zM1573 541q0 -31 18.5 -48.5t49.5 -17.5q35 0 58 23.5t23 58.5q0 31 -18 48.5t-49 17.5q-35 0 -58.5 -24t-23.5 -58z " />
<glyph unicode="&#xf50e;" horiz-adv-x="2060" d="M86 827l47 246l418 451h334l-90 -474h98l-43 -223h-99l-26 -139h-275l27 139h-391zM307 0l1219 1524h350l-1218 -1524h-351zM371 1050h149l39 203zM1229 0q109 63 204 137t158 142q-23 -8 -55 -9q-119 0 -189.5 68t-70.5 178q0 152 105.5 246t277.5 94q166 0 259 -83 t93 -232q0 -137 -100 -282.5t-279 -264.5zM1573 541q0 -31 18.5 -48.5t49.5 -17.5q35 0 58 23.5t23 58.5q0 31 -18 48.5t-49 17.5q-35 0 -58.5 -24t-23.5 -58z" />
<glyph unicode="&#xf50f;" horiz-adv-x="2060" d="M110 725l68 231q98 -51 234 -51q117 0 116 62q0 31 -27.5 43t-101.5 12q-125 0 -205 -19l125 521h566l-45 -234h-306l-14 -61h27q137 0 212.5 -63.5t75.5 -180.5q0 -154 -113.5 -235.5t-326.5 -81.5q-76 0 -160 16t-125 41zM268 0l1219 1524h350l-1218 -1524h-351z M1229 0q109 63 204 137t158 142q-23 -8 -55 -9q-119 0 -189.5 68t-70.5 178q0 152 105.5 246t277.5 94q166 0 259 -83t93 -232q0 -137 -100 -282.5t-279 -264.5zM1573 541q0 -31 18.5 -48.5t49.5 -17.5q35 0 58 23.5t23 58.5q0 31 -18 48.5t-49 17.5q-35 0 -58.5 -24 t-23.5 -58z" />
<glyph unicode="&#xf510;" horiz-adv-x="2060" d="M168 688l383 561h-330l53 275h686l-45 -234l-385 -608zM204 0l1219 1524h350l-1218 -1524h-351zM1229 0q109 63 204 137t158 142q-23 -8 -55 -9q-119 0 -189.5 68t-70.5 178q0 152 105.5 246t277.5 94q166 0 259 -83t93 -232q0 -137 -100 -282.5t-279 -264.5zM1573 541 q0 -31 18.5 -48.5t49.5 -17.5q35 0 58 23.5t23 58.5q0 31 -18 48.5t-49 17.5q-35 0 -58.5 -24t-23.5 -58z" />
<glyph unicode="&#xf511;" horiz-adv-x="2060" d="M113 917q0 78 44 138.5t119 85.5q-72 51 -71 149q0 119 97 186.5t265 67.5q164 0 256 -61.5t92 -167.5q0 -66 -33.5 -115t-97.5 -78q41 -25 63.5 -70t22.5 -100q0 -129 -108.5 -206.5t-288.5 -77.5q-168 0 -264 66.5t-96 182.5zM286 0l1219 1524h350l-1218 -1524h-351z M416 946q0 -29 18 -47t51 -18q39 0 62.5 23.5t23.5 57.5q0 29 -18.5 47.5t-50.5 18.5q-39 0 -62.5 -23.5t-23.5 -58.5zM485 1263q0 -59 66 -59q33 0 53.5 21.5t20.5 54.5q0 59 -66 59q-33 0 -53.5 -21.5t-20.5 -54.5zM1229 0q109 63 204 137t158 142q-23 -8 -55 -9 q-119 0 -189.5 68t-70.5 178q0 152 105.5 246t277.5 94q166 0 259 -83t93 -232q0 -137 -100 -282.5t-279 -264.5zM1573 541q0 -31 18.5 -48.5t49.5 -17.5q35 0 58 23.5t23 58.5q0 31 -18 48.5t-49 17.5q-35 0 -58.5 -24t-23.5 -58z" />
<glyph unicode="&#xfb01;" horiz-adv-x="1548" d="M106 717l68 352h156l14 78q49 268 184.5 395t372.5 127q66 0 133.5 -13.5t102.5 -31.5l-97 -356q-43 18 -92 18q-70 0 -108.5 -44t-61.5 -146l-6 -27h219l-67 -352h-219l-140 -717h-444l139 717h-154zM899 0l207 1069h444l-207 -1069h-444zM1157 1399q0 109 74 178.5 t186 69.5q98 0 158.5 -56.5t60.5 -148.5q0 -109 -73.5 -178.5t-186.5 -69.5q-98 0 -158.5 56.5t-60.5 148.5z" />
<glyph unicode="&#xfb02;" horiz-adv-x="1550" d="M106 717l68 352h156l14 78q49 268 184.5 395t372.5 127q66 0 133.5 -13.5t102.5 -31.5l-97 -356q-43 18 -92 18q-70 0 -108.5 -44t-61.5 -146l-6 -27h219l-67 -352h-219l-140 -717h-444l139 717h-154zM899 0l322 1659h444l-322 -1659h-444z" />
<glyph unicode="&#xfeff;" horiz-adv-x="0" />
<glyph horiz-adv-x="1425" d="M102 549q0 127 27 258q72 365 260.5 557t472.5 192q258 0 400.5 -152.5t142.5 -428.5q0 -127 -27 -258q-72 -365 -260 -557.5t-473 -192.5q-258 0 -400.5 152.5t-142.5 429.5zM580 555q-1 -180 112 -180q72 0 122 87t85 271q29 145 29 236q0 180 -113 180q-72 0 -122 -87 t-85 -271q-29 -145 -28 -236z" />
<glyph horiz-adv-x="1083" d="M185 893l18 414l541 217h371l-297 -1524h-451l205 1053z" />
<glyph horiz-adv-x="1427" d="M72 0l63 330q283 203 433.5 328.5t213 211.5t62.5 158q0 70 -45 105.5t-129 35.5t-182.5 -36.5t-186.5 -100.5l-14 393q86 59 215 95t264 36q166 0 292 -55t195.5 -159.5t69.5 -245.5q0 -360 -494 -707h420l-76 -389h-1101z" />
<glyph horiz-adv-x="1273" d="M0 63l76 365q82 -41 189.5 -65.5t205.5 -24.5q113 0 175.5 42t62.5 118q0 66 -48.5 100.5t-136.5 34.5q-37 0 -84 -7.5t-73 -17.5l-78 238l397 315h-502l72 363h1059l-59 -310l-408 -325q152 -29 240 -135.5t88 -261.5q0 -248 -182.5 -386.5t-508.5 -138.5 q-139 0 -269 25.5t-216 70.5z" />
<glyph horiz-adv-x="1392" d="M2 283l66 342l782 899h498l-175 -891h160l-67 -350h-160l-55 -283h-416l55 283h-688zM487 633h271l78 403z" />
<glyph horiz-adv-x="1249" d="M-29 63l76 365q82 -41 189.5 -65.5t205.5 -24.5q117 0 181.5 42t64.5 118t-73 114.5t-214 38.5q-147 0 -291 -37l217 910h922l-74 -373h-534l-39 -168q16 2 35 2q244 0 382 -121t138 -334q0 -170 -83 -297t-241 -196.5t-377 -69.5q-139 0 -269 25.5t-216 70.5z" />
<glyph horiz-adv-x="1386" d="M86 510q0 242 179 514t495 508l577 -16q-201 -143 -368.5 -291t-266.5 -269q74 29 154 29q121 0 221.5 -56.5t161.5 -157.5t61 -230q0 -162 -77.5 -292t-222 -206t-332.5 -76q-268 0 -425 146.5t-157 396.5zM541 477q0 -66 38 -103.5t99 -37.5q74 0 122 47t48 121 q0 63 -38 102t-101 39q-74 0 -121 -47t-47 -121z" />
<glyph horiz-adv-x="1255" d="M113 4l676 1100h-598l82 420h1122l-69 -355l-695 -1177z" />
<glyph horiz-adv-x="1404" d="M63 395q0 150 95.5 267.5t242.5 150.5q-174 90 -174 274q0 135 72.5 242t212 167t323.5 60q166 0 293 -49t198.5 -140t71.5 -214q0 -141 -79.5 -242.5t-219.5 -140.5q90 -31 145.5 -111.5t55.5 -183.5q0 -150 -75.5 -264.5t-222 -179t-347.5 -64.5q-279 0 -435.5 114 t-156.5 314zM530 451q0 -59 40 -94t106 -35q74 0 122 47t48 120q0 59 -40 94t-106 35q-76 0 -123 -47t-47 -120zM657 1063q0 -55 38 -89t101 -34q72 0 117 45t45 115q0 55 -38 89t-101 34q-72 0 -117 -45t-45 -115z" />
<glyph horiz-adv-x="1386" d="M137 8q201 143 368.5 290.5t266.5 268.5q-74 -29 -154 -28q-121 0 -221 56t-161.5 157.5t-61.5 230.5q0 162 77.5 292t222 205.5t333.5 75.5q268 0 424.5 -146t156.5 -396q0 -242 -179 -514.5t-495 -507.5zM626 1020q0 -63 38.5 -102t101.5 -39q74 0 121 47t47 121 q0 66 -38 103.5t-100 37.5q-74 0 -122 -47t-48 -121z" />
<glyph d="M-10 326q0 49 12 116q37 197 150.5 305.5t281.5 108.5q164 0 262.5 -94t98.5 -252q0 -49 -13 -117q-37 -197 -150.5 -305t-281.5 -108q-164 0 -262 94t-98 252zM305 336q1 -88 60 -88q37 0 62.5 38t41.5 122q10 51 10 92q0 88 -59 88q-37 0 -62.5 -38t-42.5 -122 q-10 -51 -10 -92z" />
<glyph d="M96 434l8 279l297 123h285l-164 -836h-323l102 516z" />
<glyph d="M-16 0l43 223q211 123 298 197t87 127q0 29 -22.5 44t-61.5 15q-47 0 -108.5 -24.5t-104.5 -59.5l-31 242q53 41 143 66.5t179 25.5q145 0 235 -70.5t90 -181.5q0 -98 -59.5 -188t-171.5 -162h215l-49 -254h-682z" />
<glyph d="M-18 39l53 231q43 -23 106.5 -38t122.5 -15q113 0 113 66q0 49 -90 49q-53 0 -86 -13l-49 150l178 133h-254l43 234h639l-39 -207l-184 -137q70 -20 111.5 -78t41.5 -135q0 -139 -110.5 -219t-303.5 -80q-82 0 -165.5 17t-126.5 42z" />
<glyph d="M-47 139l47 246l418 451h334l-90 -474h98l-43 -223h-99l-26 -139h-275l27 139h-391zM238 362h149l39 203z" />
<glyph d="M-23 37l68 231q98 -51 234 -51q117 0 116 62q0 31 -27.5 43t-101.5 12q-125 0 -205 -19l125 521h566l-45 -234h-306l-14 -61h27q137 0 212.5 -63.5t75.5 -180.5q0 -154 -113.5 -235.5t-326.5 -81.5q-76 0 -160 16t-125 41z" />
<glyph d="M6 295q0 137 100.5 282.5t278.5 264.5l403 -6q-231 -141 -362 -279q23 8 55 8q119 0 189.5 -67.5t70.5 -178.5q0 -152 -105.5 -245.5t-277.5 -93.5q-166 0 -259 82.5t-93 232.5zM295 279q0 -31 18 -48.5t49 -17.5q35 0 58.5 23.5t23.5 58.5q0 31 -18 48t-49 17 q-35 0 -58.5 -23.5t-23.5 -57.5z" />
<glyph d="M35 0l383 561h-330l53 275h686l-45 -234l-385 -608z" />
<glyph d="M-20 229q0 78 44 138.5t119 85.5q-72 51 -71 149q0 119 97 186.5t265 67.5q164 0 256 -61.5t92 -167.5q0 -66 -33.5 -115t-97.5 -78q41 -25 63.5 -70t22.5 -100q0 -129 -108.5 -206.5t-288.5 -77.5q-168 0 -264 66.5t-96 182.5zM283 258q0 -29 18 -47t51 -18 q39 0 62.5 23.5t23.5 57.5q0 29 -18.5 47.5t-50.5 18.5q-39 0 -62.5 -23.5t-23.5 -58.5zM352 575q0 -59 66 -59q33 0 53.5 21.5t20.5 54.5q0 59 -66 59q-33 0 -53.5 -21.5t-20.5 -54.5z" />
<glyph d="M-4 0q109 63 204 137t158 142q-23 -8 -55 -9q-119 0 -189.5 68t-70.5 178q0 152 105.5 246t277.5 94q166 0 259 -83t93 -232q0 -137 -100 -282.5t-279 -264.5zM340 541q0 -31 18.5 -48.5t49.5 -17.5q35 0 58 23.5t23 58.5q0 31 -18 48.5t-49 17.5q-35 0 -58.5 -24 t-23.5 -58z" />
<glyph d="M123 1014q0 49 12 116q37 197 150.5 305.5t281.5 108.5q164 0 262.5 -94t98.5 -252q0 -49 -13 -117q-37 -197 -150.5 -305t-281.5 -108q-164 0 -262 94t-98 252zM438 1024q1 -88 60 -88q37 0 62.5 38t41.5 122q10 51 10 92q0 88 -59 88q-37 0 -62.5 -38t-42.5 -122 q-10 -51 -10 -92z" />
<glyph d="M229 1122l8 279l297 123h285l-164 -836h-323l102 516z" />
<glyph d="M117 688l43 223q211 123 298 197t87 127q0 29 -22.5 44t-61.5 15q-47 0 -108.5 -24.5t-104.5 -59.5l-31 242q53 41 143 66.5t179 25.5q145 0 235 -70.5t90 -181.5q0 -98 -59.5 -188t-171.5 -162h215l-49 -254h-682z" />
<glyph d="M115 727l53 231q43 -23 106.5 -38t122.5 -15q113 0 113 66q0 49 -90 49q-53 0 -86 -13l-49 150l178 133h-254l43 234h639l-39 -207l-184 -137q70 -20 111.5 -78t41.5 -135q0 -139 -110.5 -219t-303.5 -80q-82 0 -165.5 17t-126.5 42z" />
<glyph d="M86 827l47 246l418 451h334l-90 -474h98l-43 -223h-99l-26 -139h-275l27 139h-391zM371 1050h149l39 203z" />
<glyph d="M110 725l68 231q98 -51 234 -51q117 0 116 62q0 31 -27.5 43t-101.5 12q-125 0 -205 -19l125 521h566l-45 -234h-306l-14 -61h27q137 0 212.5 -63.5t75.5 -180.5q0 -154 -113.5 -235.5t-326.5 -81.5q-76 0 -160 16t-125 41z" />
<glyph d="M139 983q0 137 100.5 282.5t278.5 264.5l403 -6q-231 -141 -362 -279q23 8 55 8q119 0 189.5 -67.5t70.5 -178.5q0 -152 -105.5 -245.5t-277.5 -93.5q-166 0 -259 82.5t-93 232.5zM428 967q0 -31 18 -48.5t49 -17.5q35 0 58.5 23.5t23.5 58.5q0 31 -18 48t-49 17 q-35 0 -58.5 -23.5t-23.5 -57.5z" />
<glyph d="M168 688l383 561h-330l53 275h686l-45 -234l-385 -608z" />
<glyph d="M113 917q0 78 44 138.5t119 85.5q-72 51 -71 149q0 119 97 186.5t265 67.5q164 0 256 -61.5t92 -167.5q0 -66 -33.5 -115t-97.5 -78q41 -25 63.5 -70t22.5 -100q0 -129 -108.5 -206.5t-288.5 -77.5q-168 0 -264 66.5t-96 182.5zM416 946q0 -29 18 -47t51 -18 q39 0 62.5 23.5t23.5 57.5q0 29 -18.5 47.5t-50.5 18.5q-39 0 -62.5 -23.5t-23.5 -58.5zM485 1263q0 -59 66 -59q33 0 53.5 21.5t20.5 54.5q0 59 -66 59q-33 0 -53.5 -21.5t-20.5 -54.5z" />
<glyph d="M131 688q109 63 204 137t158 142q-23 -8 -55 -9q-119 0 -189.5 68t-70.5 178q0 152 105.5 246t277.5 94q166 0 259 -83t93 -232q0 -137 -100 -282.5t-279 -264.5zM475 1229q0 -31 18.5 -48.5t49.5 -17.5q35 0 58 23.5t23 58.5q0 31 -18 48.5t-49 17.5q-35 0 -58.5 -24 t-23.5 -58z" />
<glyph horiz-adv-x="831" d="M94 602l70 350h666l-70 -350h-666z" />
<glyph horiz-adv-x="1024" d="M17 620l61 318h1024l-61 -318h-1024z" />
<glyph horiz-adv-x="2048" d="M13 620l61 318h2048l-61 -318h-2048z" />
<glyph horiz-adv-x="954" d="M203 601q0 727 533 1228h491q-291 -223 -459 -549.5t-168 -670.5q0 -221 60.5 -398.5t187.5 -334.5h-430q-98 119 -156.5 313t-58.5 412z" />
<glyph horiz-adv-x="954" d="M-147 -124q291 223 459 549.5t168 670.5q0 221 -60.5 398.5t-187.5 334.5h430q98 -119 156.5 -313.5t58.5 -411.5q0 -727 -533 -1228h-491z" />
<glyph horiz-adv-x="1224" d="M-140 -188l1198 1931h400l-1198 -1931h-400z" />
<glyph horiz-adv-x="1224" d="M245 1743h379l449 -1931h-379z" />
<glyph horiz-adv-x="970" d="M66 -125l379 1951h651l-68 -356h-251l-240 -1237h278l-69 -358h-680z" />
<glyph horiz-adv-x="970" d="M-6 -125l68 356h252l239 1237h-278l69 358h680l-379 -1951h-651z" />
<glyph horiz-adv-x="944" d="M113 686l68 350h45q68 0 100.5 20.5t48.5 66.5t23 130q18 227 73.5 350t156.5 174t269 51q129 0 209 -24l-67 -334q-12 6 -36 10t-42 4q-84 0 -123 -55t-47 -182q-12 -193 -61.5 -282t-151.5 -105q51 -25 79.5 -72t28.5 -111q0 -49 -16 -94t-37.5 -88t-38 -86t-16.5 -88 q0 -66 40 -95.5t128 -29.5q35 0 74 6l-68 -342q-39 -8 -100 -8q-229 0 -354.5 88t-125.5 250q0 63 15.5 116.5t35 100.5t35 92t15.5 90q0 51 -32 74t-101 23h-27z" />
<glyph horiz-adv-x="944" d="M-43 -123l68 333q12 -6 35.5 -10t42.5 -4q84 0 123 55.5t47 182.5q12 193 61 281.5t152 105.5q-51 25 -80 72t-29 110q0 49 16.5 94t38 88t38 86t16.5 88q0 66 -40 95.5t-128 29.5q-33 0 -74 -6l68 342q39 8 100 8q229 0 354 -88t125 -250q0 -63 -15.5 -116t-34.5 -100.5 t-34.5 -92.5t-15.5 -90q0 -51 31.5 -73.5t101.5 -22.5h27l-68 -350h-45q-68 0 -100.5 -20.5t-49 -66.5t-22.5 -130q-18 -227 -73.5 -350.5t-157 -174.5t-269.5 -51q-129 0 -209 25z" />
<glyph horiz-adv-x="776" d="M122 666q0 76 37 141.5t103.5 106.5t148.5 41q78 0 143.5 -37t106.5 -103.5t41 -148.5q0 -76 -37 -141.5t-104.5 -105.5t-149.5 -40q-121 0 -205 84t-84 203z" />
<glyph horiz-adv-x="864" d="M88 778l399 465h473l-442 -493l219 -437h-432z" />
<glyph horiz-adv-x="864" d="M-2 313l440 492l-217 438h432l217 -465l-399 -465h-473z" />
<glyph horiz-adv-x="1474" d="M88 778l399 465h473l-442 -493l219 -437h-432zM698 778l399 465h473l-442 -493l219 -437h-432z" />
<glyph horiz-adv-x="1474" d="M-2 313l440 492l-217 438h432l217 -465l-399 -465h-473zM608 313l440 492l-217 438h432l217 -465l-399 -465h-473z" />
<glyph horiz-adv-x="2191" d="M141 659q0 223 80 421t231.5 350.5t367.5 240.5t472 88q258 0 458.5 -85t316.5 -244.5t116 -372.5q0 -207 -80 -374t-228.5 -264.5t-340.5 -97.5q-236 0 -291 133q-51 -61 -122 -94t-155 -33q-156 0 -246 99.5t-90 271.5q0 150 63.5 280t179.5 211t255 81q78 0 142.5 -32 t101.5 -89l39 92h342l-172 -483q-25 -68 -25 -105q0 -53 55 -53q57 0 115.5 59.5t98.5 162.5t40 216q0 209 -150.5 320.5t-432.5 111.5q-233 0 -419 -97t-294.5 -279.5t-108.5 -419.5q0 -270 165 -408.5t487 -138.5q106 0 222 23.5t218 64.5l-35 -305q-78 -33 -196.5 -52.5 t-241.5 -19.5q-289 0 -500 96t-324.5 281.5t-113.5 443.5zM1007 764q0 -49 30 -79t79 -30q63 0 107 51.5t44 126.5q0 49 -29.5 79t-78.5 30q-63 0 -107.5 -51.5t-44.5 -126.5z" />
<glyph horiz-adv-x="638" d="M137 792q0 106 75 175t190 69q94 0 152.5 -53.5t58.5 -141.5q0 -106 -75 -174.5t-190 -68.5q-94 0 -152.5 53t-58.5 141z" />
<glyph horiz-adv-x="1206" d="M31 279q0 111 53 193.5t153.5 129.5t237.5 47q135 0 236 -49q0 88 -52.5 129t-162.5 41q-76 0 -152 -17.5t-131 -45.5v325q63 33 163.5 51.5t203.5 18.5q262 0 405 -121t143 -340q0 -70 -14 -145l-94 -496h-402l11 96q-105 -129 -283 -129q-147 0 -231 84t-84 228z M436 326q0 -37 21.5 -57.5t58.5 -20.5q59 0 104.5 40t57.5 105q-20 14 -56 22.5t-69 8.5q-53 0 -85 -26.5t-32 -71.5z" />
<glyph horiz-adv-x="1267" d="M-109 -221q0 84 67 151.5t175 92.5q-98 63 -98 176q0 78 53 139t164 108q-57 47 -87 109.5t-30 128.5q0 119 67.5 214t191.5 149.5t286 54.5q164 0 281 -55l380 34l-51 -270l-139 18q10 -45 10 -71q0 -119 -66.5 -214t-190.5 -149.5t-288 -54.5q-61 0 -139 12 q-25 -8 -40 -22.5t-15 -28.5q0 -27 27.5 -39t95.5 -20l112 -13q219 -23 321.5 -99.5t102.5 -217.5q0 -209 -167 -320.5t-480 -111.5q-264 0 -403.5 76.5t-139.5 222.5zM276 -143q0 -72 203 -72q217 0 217 68q0 76 -211 75q-111 0 -160 -17t-49 -54zM530 711q0 -43 30 -68 t83 -25q57 0 93 31t36 78q0 43 -29.5 67.5t-83.5 24.5q-57 0 -93 -30.5t-36 -77.5z" />
<glyph horiz-adv-x="1318" d="M-131 -461l102 359q61 -33 135 -33t117 29.5t90 99.5l45 65l-233 1010h469l65 -610l275 610h469l-655 -1147q-94 -164 -184.5 -261t-186 -139t-230.5 -42q-174 0 -278 59z" />
<glyph horiz-adv-x="638" d="M127 752q0 106 74.5 174.5t189.5 68.5q94 0 152.5 -53t58.5 -141q0 -106 -74.5 -175t-189.5 -69q-94 0 -152.5 53.5t-58.5 141.5z" />
<glyph horiz-adv-x="638" d="M139 811q0 106 75 175t189 69q94 0 152.5 -53.5t58.5 -141.5q0 -106 -74.5 -175t-189.5 -69q-94 0 -152.5 53.5t-58.5 141.5z" />
<glyph horiz-adv-x="1884" d="M31 270q0 176 118.5 277.5t323.5 101.5q133 0 238 -49q0 88 -52.5 129t-164.5 41q-74 0 -150 -17.5t-131 -45.5v319q59 33 157.5 54.5t194.5 21.5q139 0 242.5 -42t161.5 -120q59 78 159.5 120t221.5 42q221 0 341.5 -115t120.5 -325q0 -113 -30 -222h-666 q10 -86 71.5 -119.5t211.5 -33.5q72 0 159 17.5t142 43.5l-10 -315q-66 -31 -166.5 -48.5t-212.5 -17.5q-371 0 -482 203q-106 -203 -407 -203q-176 0 -283.5 83t-107.5 220zM436 326q0 -37 22.5 -57.5t65.5 -20.5q55 0 98.5 41t55.5 104q-20 14 -56 22.5t-69 8.5 q-53 0 -85 -26.5t-32 -71.5zM1133 664h280q4 25 4 38q0 53 -30.5 82t-86.5 29q-125 0 -167 -149z" />
<glyph horiz-adv-x="0" d="M-559 -510l74 199q55 -29 129 -29q92 0 92 59q0 43 -82 43q-31 0 -68 -4l121 262h234l-58 -126q84 -8 131 -57.5t47 -127.5q0 -121 -103 -193.5t-277 -72.5q-78 0 -143.5 13.5t-96.5 33.5z" />
<glyph horiz-adv-x="0" d="M-444 -512q63 96 105 198.5t52 188.5h398q-14 -102 -71.5 -208.5t-137.5 -178.5h-346z" />
<glyph horiz-adv-x="0" d="M-526 -309q0 135 127 237.5t348 147.5l63 -76q-178 -113 -178 -188q0 -53 62 -54q35 0 63 11l-29 -287q-71 -31 -188 -31q-125 0 -196.5 63.5t-71.5 176.5z" />
<glyph horiz-adv-x="0" d="M-313 -332q0 133 111.5 233.5t328.5 157.5l109 -26q-92 -51 -149.5 -115.5t-57.5 -118.5q0 -27 20.5 -42t52.5 -15q37 0 68 10l-27 -270q-67 -31 -180 -31q-131 0 -203.5 57.5t-72.5 159.5z" />
<glyph horiz-adv-x="0" d="M-549 -307q0 125 120 239.5t345 204.5l111 -53q-59 -37 -107.5 -83t-77 -93t-28.5 -86q0 -66 88 -66q55 0 80 13l-29 -287q-72 -31 -197 -31q-147 0 -226 62.5t-79 179.5z" />
<glyph horiz-adv-x="1267" d="M-109 -221q0 84 67 151.5t175 92.5q-98 63 -98 176q0 78 53 139t164 108q-57 47 -87 109.5t-30 128.5q0 119 67.5 214t191.5 149.5t286 54.5q164 0 281 -55l380 34l-51 -270l-139 18q10 -45 10 -71q0 -119 -66.5 -214t-190.5 -149.5t-288 -54.5q-61 0 -139 12 q-25 -8 -40 -22.5t-15 -28.5q0 -27 27.5 -39t95.5 -20l112 -13q219 -23 321.5 -99.5t102.5 -217.5q0 -209 -167 -320.5t-480 -111.5q-264 0 -403.5 76.5t-139.5 222.5zM276 -143q0 -72 203 -72q217 0 217 68q0 76 -211 75q-111 0 -160 -17t-49 -54zM530 711q0 -43 30 -68 t83 -25q57 0 93 31t36 78q0 43 -29.5 67.5t-83.5 24.5q-57 0 -93 -30.5t-36 -77.5zM553 1249q14 102 71.5 209t137.5 178h327q-63 -96 -105 -198.5t-52 -188.5h-379z" />
<glyph horiz-adv-x="1206" d="M31 279q0 111 53 193.5t153.5 129.5t237.5 47q135 0 236 -49q0 88 -52.5 129t-162.5 41q-76 0 -152 -17.5t-131 -45.5v325q63 33 163.5 51.5t203.5 18.5q262 0 405 -121t143 -340q0 -70 -14 -145l-94 -496h-402l11 96q-105 -129 -283 -129q-147 0 -231 84t-84 228z M436 326q0 -37 21.5 -57.5t58.5 -20.5q59 0 104.5 40t57.5 105q-20 14 -56 22.5t-69 8.5q-53 0 -85 -26.5t-32 -71.5zM484 -309q0 125 114.5 236.5t323.5 191.5l98 -119q-102 -63 -148 -111.5t-46 -89.5q0 -25 20.5 -41t54.5 -16q31 0 66 10l-27 -270q-71 -31 -188 -31 q-125 0 -196.5 63.5t-71.5 176.5z" />
<glyph horiz-adv-x="0" d="M-137 1710l291 334h508l-408 -334h-391z" />
<glyph horiz-adv-x="0" d="M-360 1710l235 330h465l-303 -330h-397zM178 1710l236 330h465l-304 -330h-397z" />
<glyph horiz-adv-x="1206" d="M31 279q0 111 53 193.5t153.5 129.5t237.5 47q135 0 236 -49q0 88 -52.5 129t-162.5 41q-76 0 -152 -17.5t-131 -45.5v325q63 33 163.5 51.5t203.5 18.5q262 0 405 -121t143 -340q0 -70 -14 -145l-94 -496h-402l11 96q-105 -129 -283 -129q-147 0 -231 84t-84 228z M436 326q0 -37 21.5 -57.5t58.5 -20.5q59 0 104.5 40t57.5 105q-20 14 -56 22.5t-69 8.5q-53 0 -85 -26.5t-32 -71.5zM459 1249l276 355h459l-369 -355h-366z" />
<glyph horiz-adv-x="1318" d="M-131 -461l102 359q61 -33 135 -33t117 29.5t90 99.5l45 65l-233 1010h469l65 -610l275 610h469l-655 -1147q-94 -164 -184.5 -261t-186 -139t-230.5 -42q-174 0 -278 59zM551 1249l276 355h459l-369 -355h-366z" />
<glyph horiz-adv-x="0" d="M-74 2044h494l174 -334h-383z" />
<glyph horiz-adv-x="1206" d="M31 279q0 111 53 193.5t153.5 129.5t237.5 47q135 0 236 -49q0 88 -52.5 129t-162.5 41q-76 0 -152 -17.5t-131 -45.5v325q63 33 163.5 51.5t203.5 18.5q262 0 405 -121t143 -340q0 -70 -14 -145l-94 -496h-402l11 96q-105 -129 -283 -129q-147 0 -231 84t-84 228z M293 1604h457l143 -355h-356zM436 326q0 -37 21.5 -57.5t58.5 -20.5q59 0 104.5 40t57.5 105q-20 14 -56 22.5t-69 8.5q-53 0 -85 -26.5t-32 -71.5z" />
<glyph horiz-adv-x="1318" d="M-131 -461l102 359q61 -33 135 -33t117 29.5t90 99.5l45 65l-233 1010h469l65 -610l275 610h469l-655 -1147q-94 -164 -184.5 -261t-186 -139t-230.5 -42q-174 0 -278 59zM385 1604h457l143 -355h-356z" />
<glyph horiz-adv-x="0" d="M-281 1710l355 334h438l223 -334h-385l-78 125l-127 -125h-426z" />
<glyph horiz-adv-x="0" d="M-201 1704q29 195 109 288t217 93q55 0 92 -15.5t61.5 -34t47 -33.5t53.5 -15t47 20.5t27 73.5h272q-29 -195 -109 -288t-217 -93q-55 0 -92 14.5t-61.5 31.5t-47 31.5t-53.5 14.5q-35 0 -50 -18.5t-23 -69.5h-273z" />
<glyph horiz-adv-x="1206" d="M31 279q0 111 53 193.5t153.5 129.5t237.5 47q135 0 236 -49q0 88 -52.5 129t-162.5 41q-76 0 -152 -17.5t-131 -45.5v325q63 33 163.5 51.5t203.5 18.5q262 0 405 -121t143 -340q0 -70 -14 -145l-94 -496h-402l11 96q-105 -129 -283 -129q-147 0 -231 84t-84 228z M219 1249l340 355h381l205 -355h-342l-78 137l-131 -137h-375zM436 326q0 -37 21.5 -57.5t58.5 -20.5q59 0 104.5 40t57.5 105q-20 14 -56 22.5t-69 8.5q-53 0 -85 -26.5t-32 -71.5z" />
<glyph horiz-adv-x="1318" d="M-131 -461l102 359q61 -33 135 -33t117 29.5t90 99.5l45 65l-233 1010h469l65 -610l275 610h469l-655 -1147q-94 -164 -184.5 -261t-186 -139t-230.5 -42q-174 0 -278 59zM311 1249l340 355h381l205 -355h-342l-78 137l-131 -137h-375z" />
<glyph horiz-adv-x="1206" d="M31 279q0 111 53 193.5t153.5 129.5t237.5 47q135 0 236 -49q0 88 -52.5 129t-162.5 41q-76 0 -152 -17.5t-131 -45.5v325q63 33 163.5 51.5t203.5 18.5q262 0 405 -121t143 -340q0 -70 -14 -145l-94 -496h-402l11 96q-105 -129 -283 -129q-147 0 -231 84t-84 228z M254 1237q27 186 106 277.5t218 91.5q55 0 92 -15.5t61.5 -34t47 -34t53.5 -15.5t47 20.5t26 74.5h273q-27 -186 -106 -277.5t-218 -91.5q-55 0 -92 15.5t-61.5 33.5t-47 33.5t-53.5 15.5t-47 -20.5t-26 -73.5h-273zM436 326q0 -37 21.5 -57.5t58.5 -20.5q59 0 104.5 40 t57.5 105q-20 14 -56 22.5t-69 8.5q-53 0 -85 -26.5t-32 -71.5z" />
<glyph horiz-adv-x="0" d="M-215 2044h385l78 -125l127 125h426l-355 -334h-438z" />
<glyph horiz-adv-x="0" d="M-72 1188l109 471h381l-211 -471h-279z" />
<glyph horiz-adv-x="0" d="M-129 1710l57 289h715l-57 -289h-715z" />
<glyph horiz-adv-x="1206" d="M31 279q0 111 53 193.5t153.5 129.5t237.5 47q135 0 236 -49q0 88 -52.5 129t-162.5 41q-76 0 -152 -17.5t-131 -45.5v325q63 33 163.5 51.5t203.5 18.5q262 0 405 -121t143 -340q0 -70 -14 -145l-94 -496h-402l11 96q-105 -129 -283 -129q-147 0 -231 84t-84 228z M334 1249l53 283h697l-54 -283h-696zM436 326q0 -37 21.5 -57.5t58.5 -20.5q59 0 104.5 40t57.5 105q-20 14 -56 22.5t-69 8.5q-53 0 -85 -26.5t-32 -71.5z" />
<glyph horiz-adv-x="0" d="M-201 1876q0 90 62.5 149.5t156.5 59.5q84 0 134.5 -48t50.5 -126q0 -90 -61.5 -148.5t-155.5 -58.5q-84 0 -135.5 47t-51.5 125zM324 1876q0 90 62.5 149.5t156.5 59.5q84 0 134 -48t50 -126q0 -90 -61.5 -148.5t-155.5 -58.5q-84 0 -135 47t-51 125z" />
<glyph horiz-adv-x="0" d="M-137 1954q0 43 12 88h295q-2 -14 -2 -29q0 -47 27.5 -72.5t78.5 -25.5q109 0 138 127h295q-2 -182 -121 -280.5t-336 -98.5q-174 0 -280.5 80t-106.5 211z" />
<glyph horiz-adv-x="1206" d="M31 279q0 111 53 193.5t153.5 129.5t237.5 47q135 0 236 -49q0 88 -52.5 129t-162.5 41q-76 0 -152 -17.5t-131 -45.5v325q63 33 163.5 51.5t203.5 18.5q262 0 405 -121t143 -340q0 -70 -14 -145l-94 -496h-402l11 96q-105 -129 -283 -129q-147 0 -231 84t-84 228z M254 1356q0 88 60.5 144t150.5 56q80 0 129 -46t49 -121q0 -86 -59 -142.5t-149 -56.5q-82 0 -131.5 45t-49.5 121zM436 326q0 -37 21.5 -57.5t58.5 -20.5q59 0 104.5 40t57.5 105q-20 14 -56 22.5t-69 8.5q-53 0 -85 -26.5t-32 -71.5zM764 1356q0 88 60.5 144t150.5 56 q80 0 129 -46t49 -121q0 -86 -59.5 -142.5t-149.5 -56.5q-82 0 -131 45t-49 121z" />
<glyph horiz-adv-x="1318" d="M-131 -461l102 359q61 -33 135 -33t117 29.5t90 99.5l45 65l-233 1010h469l65 -610l275 610h469l-655 -1147q-94 -164 -184.5 -261t-186 -139t-230.5 -42q-174 0 -278 59zM346 1356q0 88 60.5 144t150.5 56q80 0 129 -46t49 -121q0 -86 -59 -142.5t-149 -56.5 q-82 0 -131.5 45t-49.5 121zM856 1356q0 88 60.5 144t150.5 56q80 0 129 -46t49 -121q0 -86 -59.5 -142.5t-149.5 -56.5q-82 0 -131 45t-49 121z" />
<glyph horiz-adv-x="1206" d="M31 279q0 111 53 193.5t153.5 129.5t237.5 47q135 0 236 -49q0 88 -52.5 129t-162.5 41q-76 0 -152 -17.5t-131 -45.5v325q63 33 163.5 51.5t203.5 18.5q262 0 405 -121t143 -340q0 -70 -14 -145l-94 -496h-402l11 96q-105 -129 -283 -129q-147 0 -231 84t-84 228z M316 1479q0 53 14 96h276q-2 -14 -2 -29q0 -111 117 -110q125 0 152 139h276q0 -186 -115.5 -284.5t-332.5 -98.5q-176 0 -280.5 79t-104.5 208zM436 326q0 -37 21.5 -57.5t58.5 -20.5q59 0 104.5 40t57.5 105q-20 14 -56 22.5t-69 8.5q-53 0 -85 -26.5t-32 -71.5z" />
<glyph horiz-adv-x="1267" d="M-109 -221q0 84 67 151.5t175 92.5q-98 63 -98 176q0 78 53 139t164 108q-57 47 -87 109.5t-30 128.5q0 119 67.5 214t191.5 149.5t286 54.5q164 0 281 -55l380 34l-51 -270l-139 18q10 -45 10 -71q0 -119 -66.5 -214t-190.5 -149.5t-288 -54.5q-61 0 -139 12 q-25 -8 -40 -22.5t-15 -28.5q0 -27 27.5 -39t95.5 -20l112 -13q219 -23 321.5 -99.5t102.5 -217.5q0 -209 -167 -320.5t-480 -111.5q-264 0 -403.5 76.5t-139.5 222.5zM276 -143q0 -72 203 -72q217 0 217 68q0 76 -211 75q-111 0 -160 -17t-49 -54zM394 1479q0 53 14 96h276 q-2 -14 -2 -29q0 -111 117 -110q125 0 152 139h276q0 -186 -115.5 -284.5t-332.5 -98.5q-176 0 -280.5 79t-104.5 208zM530 711q0 -43 30 -68t83 -25q57 0 93 31t36 78q0 43 -29.5 67.5t-83.5 24.5q-57 0 -93 -30.5t-36 -77.5z" />
<glyph horiz-adv-x="0" d="M37 1896q0 104 70.5 172t183.5 68q94 0 151.5 -54t57.5 -143q0 -104 -70.5 -171.5t-183.5 -67.5q-94 0 -151.5 54t-57.5 142z" />
<glyph horiz-adv-x="1267" d="M-109 -221q0 84 67 151.5t175 92.5q-98 63 -98 176q0 78 53 139t164 108q-57 47 -87 109.5t-30 128.5q0 119 67.5 214t191.5 149.5t286 54.5q164 0 281 -55l380 34l-51 -270l-139 18q10 -45 10 -71q0 -119 -66.5 -214t-190.5 -149.5t-288 -54.5q-61 0 -139 12 q-25 -8 -40 -22.5t-15 -28.5q0 -27 27.5 -39t95.5 -20l112 -13q219 -23 321.5 -99.5t102.5 -217.5q0 -209 -167 -320.5t-480 -111.5q-264 0 -403.5 76.5t-139.5 222.5zM276 -143q0 -72 203 -72q217 0 217 68q0 76 -211 75q-111 0 -160 -17t-49 -54zM530 711q0 -43 30 -68 t83 -25q57 0 93 31t36 78q0 43 -29.5 67.5t-83.5 24.5q-57 0 -93 -30.5t-36 -77.5zM572 1376q0 98 66.5 162t170.5 64q88 0 142.5 -51.5t54.5 -133.5q0 -98 -67 -161.5t-171 -63.5q-88 0 -142 51t-54 133z" />
<glyph horiz-adv-x="0" d="M-41 1970q0 131 90 216t230 85q139 0 229 -85t90 -216t-90 -216t-229 -85t-229.5 85t-90.5 216zM178 1970q0 -45 28 -72.5t73 -27.5t72.5 27.5t27.5 72.5t-27.5 73t-72.5 28t-73 -28t-28 -73z" />
<glyph horiz-adv-x="1206" d="M31 279q0 111 53 193.5t153.5 129.5t237.5 47q135 0 236 -49q0 88 -52.5 129t-162.5 41q-76 0 -152 -17.5t-131 -45.5v325q63 33 163.5 51.5t203.5 18.5q262 0 405 -121t143 -340q0 -70 -14 -145l-94 -496h-402l11 96q-105 -129 -283 -129q-147 0 -231 84t-84 228z M373 1458q0 131 90 216t229 85t229.5 -85t90.5 -216t-90.5 -216t-229.5 -85t-229 85t-90 216zM436 326q0 -37 21.5 -57.5t58.5 -20.5q59 0 104.5 40t57.5 105q-20 14 -56 22.5t-69 8.5q-53 0 -85 -26.5t-32 -71.5zM592 1458q0 -45 27.5 -72.5t72.5 -27.5t73 27.5t28 72.5 t-28 73t-73 28t-72.5 -28t-27.5 -73z" />
</font>
</defs>
</svg>
