<?xml version="1.0" standalone="no"?>
<!DOCTYPE svg PUBLIC "-//W3C//DTD SVG 1.1//EN" "http://www.w3.org/Graphics/SVG/1.1/DTD/svg11.dtd" >
<svg xmlns="http://www.w3.org/2000/svg" xmlns:xlink="http://www.w3.org/1999/xlink" version="1.1">
<metadata></metadata>
<defs>
<font id="objektiv_mk1bold_italic" horiz-adv-x="790" >
<font-face units-per-em="2048" ascent="1638" descent="-410" />
<missing-glyph horiz-adv-x="440" />
<glyph unicode=" "  horiz-adv-x="440" />
<glyph unicode="&#x09;" horiz-adv-x="440" />
<glyph unicode="&#xa0;" horiz-adv-x="440" />
<glyph unicode="!" horiz-adv-x="716" d="M111 139q0 80 55 132.5t139 52.5q70 0 114 -42t44 -108q0 -82 -54.5 -134t-140.5 -52q-70 0 -113.5 42t-43.5 109zM227 520l197 1098h297l-234 -1098h-260z" />
<glyph unicode="&#x22;" horiz-adv-x="880" d="M193 932l98 624h278l-151 -624h-225zM615 932l98 624h278l-151 -624h-225z" />
<glyph unicode="#" horiz-adv-x="1384" d="M27 328l55 190h215l145 350h-227l55 191h248l135 327h221l-135 -327h271l135 327h221l-135 -327h192l-53 -191h-217l-145 -350h227l-53 -190h-252l-135 -328h-220l136 328h-271l-135 -328h-221l135 328h-192zM518 518h270l146 350h-272z" />
<glyph unicode="$" horiz-adv-x="1269" d="M47 119l62 233q70 -57 173 -99t199 -54l97 485q-188 94 -266.5 191.5t-78.5 238.5q0 125 63.5 223.5t181.5 156.5t274 60l47 244h155l-53 -256q176 -31 311 -123l-63 -225q-61 45 -139 79t-150 50l-90 -446q199 -98 281 -198.5t82 -244.5q0 -125 -66 -227.5 t-189.5 -164.5t-287.5 -69l-47 -243h-156l51 250q-115 14 -220 51t-171 88zM487 1137q0 -66 33 -111t111 -84l76 387q-102 -10 -161 -62.5t-59 -129.5zM637 201q106 16 167.5 76.5t61.5 148.5q0 57 -34.5 103t-112.5 87z" />
<glyph unicode="%" horiz-adv-x="2117" d="M238 1126q0 113 53 211.5t150.5 158.5t215.5 60q170 0 275.5 -99t105.5 -257q0 -113 -54 -210t-151.5 -158.5t-216.5 -61.5q-168 0 -273 99.5t-105 256.5zM305 0l1323 1524h273l-1323 -1524h-273zM455 1139q0 -80 44 -127t122 -47q84 0 142 64.5t58 158.5q0 80 -45 127 t-123 47q-84 0 -141 -64.5t-57 -158.5zM1174 332q0 113 53 211t150.5 158.5t215.5 60.5q170 0 275.5 -99.5t105.5 -256.5q0 -113 -54 -210.5t-151.5 -159t-216.5 -61.5q-168 0 -273 99.5t-105 257.5zM1391 344q0 -80 43.5 -127t121.5 -47q84 0 142.5 64.5t58.5 158.5 q0 80 -45 127t-123 47q-84 0 -141 -64.5t-57 -158.5z" />
<glyph unicode="&#x26;" horiz-adv-x="1568" d="M80 377q0 324 414 495q-57 88 -80 160t-23 158q0 182 125 292.5t332 110.5q184 0 299 -94t115 -248q0 -145 -98.5 -261t-299.5 -206l226 -323q92 135 120 342l248 -31q-14 -143 -73.5 -276.5t-151.5 -237.5l180 -258h-321l-64 92q-195 -125 -424 -125q-246 0 -385 108.5 t-139 301.5zM369 406q0 -92 68.5 -145.5t187.5 -53.5q66 0 135 22.5t131 63.5l-275 399q-248 -123 -247 -286zM657 1196q0 -59 18.5 -112.5t61.5 -116.5q131 63 192.5 128.5t61.5 143.5q0 66 -41 105.5t-110 39.5q-80 0 -131.5 -53t-51.5 -135z" />
<glyph unicode="'" horiz-adv-x="458" d="M193 932l98 624h278l-151 -624h-225z" />
<glyph unicode="(" horiz-adv-x="880" d="M178 455q0 348 152.5 671.5t427.5 552.5h327q-197 -145 -341 -338.5t-222 -418t-78 -455.5q0 -434 244 -739h-291q-66 88 -116 204.5t-76.5 251.5t-26.5 271z" />
<glyph unicode=")" horiz-adv-x="880" d="M-135 -272q197 145 341 338.5t222 418t78 455.5q0 434 -244 739h293q100 -133 158.5 -327.5t58.5 -399.5q0 -348 -152.5 -671.5t-426.5 -552.5h-328z" />
<glyph unicode="*" horiz-adv-x="980" d="M186 1182l97 202l249 -122l25 294h244l-90 -299l278 123l55 -221l-299 -67l181 -246l-195 -113l-143 271l-199 -271l-166 139l228 234z" />
<glyph unicode="+" horiz-adv-x="1269" d="M172 567l47 238h344l74 379h254l-76 -379h344l-45 -238h-344l-76 -379h-252l72 379h-342z" />
<glyph unicode="," horiz-adv-x="614" d="M-156 -356q106 133 180 310t97 351h278q-23 -190 -107.5 -368.5t-209.5 -292.5h-238z" />
<glyph unicode="-" horiz-adv-x="870" d="M115 465l49 248h620l-49 -248h-620z" />
<glyph unicode="." horiz-adv-x="614" d="M61 139q0 80 55.5 132.5t139.5 52.5q70 0 114 -42t44 -108q0 -82 -54.5 -134t-140.5 -52q-70 0 -114 42t-44 109z" />
<glyph unicode="/" horiz-adv-x="1118" d="M-131 -272l1167 1931h281l-1167 -1931h-281z" />
<glyph unicode="0" horiz-adv-x="1269" d="M98 539q0 145 29 288q66 342 240 535.5t413 193.5q229 0 357.5 -151.5t128.5 -419.5q0 -145 -29 -289q-66 -342 -239.5 -535.5t-413.5 -193.5q-229 0 -357.5 151.5t-128.5 420.5zM403 545q0 -154 49.5 -236t141.5 -82q111 0 202 129t132 346q33 170 33 277 q0 154 -49.5 235.5t-141.5 81.5q-111 0 -202 -129t-132 -346q-33 -170 -33 -276z" />
<glyph unicode="1" horiz-adv-x="1269" d="M297 1049l12 272l510 203h248l-297 -1524h-291l238 1214z" />
<glyph unicode="2" horiz-adv-x="1269" d="M43 0l41 225q109 82 241 193.5t240 214.5q170 162 242 270.5t72 202.5t-59.5 147.5t-168.5 53.5q-193 0 -368 -168l-23 260q76 72 193.5 114.5t246.5 42.5q219 0 350.5 -113.5t131.5 -303.5q0 -133 -75 -264.5t-255 -311.5q-154 -158 -348 -305h588l-52 -258h-997z" />
<glyph unicode="3" horiz-adv-x="1269" d="M53 80l53 242q80 -49 183.5 -79t195.5 -30q150 0 242 76t92 200q0 100 -67.5 155.5t-192.5 55.5q-66 0 -121 -16l-57 160l455 428h-562l52 252h925l-41 -217l-440 -414q158 -23 251 -132.5t93 -273.5q0 -150 -75.5 -267.5t-218.5 -185t-331 -67.5q-121 0 -240.5 31 t-195.5 82z" />
<glyph unicode="4" horiz-adv-x="1269" d="M35 342l43 233l821 949h320l-183 -944h187l-45 -238h-189l-67 -342h-277l68 342h-678zM379 580h379l110 567z" />
<glyph unicode="5" horiz-adv-x="1269" d="M49 82l55 244q78 -53 179.5 -83t197.5 -30q156 0 249 78t93 209q0 109 -85 171t-234 62q-162 0 -285 -35l191 826h802l-51 -254h-540l-72 -312q41 4 67 5q231 0 367.5 -120t136.5 -323q0 -162 -76.5 -286.5t-221 -195.5t-337.5 -71q-127 0 -243.5 31t-192.5 84z" />
<glyph unicode="6" horiz-adv-x="1269" d="M100 457q0 162 85 351t245 377.5t373 342.5l375 -10q-203 -139 -377 -307.5t-275 -319.5q84 61 228 61q188 0 311 -121.5t123 -308.5q0 -154 -73 -279.5t-206 -200.5t-301 -75q-236 0 -372 131t-136 359zM387 436q0 -106 61.5 -167.5t163.5 -61.5q123 0 205 83t82 208 q0 104 -63.5 167.5t-165.5 63.5q-121 0 -202 -84t-81 -209z" />
<glyph unicode="7" horiz-adv-x="1269" d="M158 6l741 1247h-684l55 271h1008l-47 -240l-750 -1288z" />
<glyph unicode="8" horiz-adv-x="1269" d="M61 377q0 152 90.5 273.5t233.5 166.5q-74 47 -109.5 115.5t-35.5 165.5q0 127 67.5 231.5t193.5 165.5t285 61q141 0 250 -46t170.5 -133t61.5 -203q0 -133 -72 -240t-197 -160q78 -47 126.5 -130t48.5 -177q0 -141 -73 -255t-206 -179.5t-307 -65.5 q-246 0 -386.5 109.5t-140.5 300.5zM356 408q0 -94 63.5 -147.5t172.5 -53.5q127 0 207 73.5t80 188.5q0 94 -63.5 148.5t-172.5 54.5q-125 0 -206 -74t-81 -190zM516 1094q0 -88 59.5 -139.5t159.5 -51.5q109 0 182.5 68.5t73.5 169.5q0 84 -60.5 135t-160.5 51 q-109 0 -181.5 -67.5t-72.5 -165.5z" />
<glyph unicode="9" horiz-adv-x="1269" d="M164 1001q0 113 40 212.5t115.5 176t184 121.5t239.5 45q233 0 369.5 -131t136.5 -358q0 -162 -85 -351.5t-244.5 -377.5t-372.5 -342l-375 10q213 150 386 315.5t265 311.5q-82 -61 -227 -62q-119 0 -217 53.5t-156.5 151.5t-58.5 225zM451 1026q0 -104 63.5 -167.5 t165.5 -63.5q121 0 203 84t82 208q0 104 -61.5 167t-166.5 63q-123 0 -204.5 -83t-81.5 -208z" />
<glyph unicode=":" horiz-adv-x="614" d="M61 139q0 80 55.5 132.5t139.5 52.5q70 0 114 -42t44 -108q0 -82 -54.5 -134t-140.5 -52q-70 0 -114 42t-44 109zM190 868q0 80 55.5 132.5t139.5 52.5q70 0 114 -42t44 -108q0 -82 -54.5 -134t-140.5 -52q-70 0 -114 42t-44 109z" />
<glyph unicode=";" horiz-adv-x="614" d="M-156 -356q106 133 180 310t97 351h278q-23 -190 -107.5 -368.5t-209.5 -292.5h-238zM190 868q0 80 55.5 132.5t139.5 52.5q70 0 114 -42t44 -108q0 -82 -54.5 -134t-140.5 -52q-70 0 -114 42t-44 109z" />
<glyph unicode="&#x3c;" horiz-adv-x="1269" d="M209 559l53 270l944 371l-55 -278l-637 -240l545 -242l-49 -250z" />
<glyph unicode="=" horiz-adv-x="1269" d="M160 322l45 233h874l-45 -233h-874zM254 807l45 233h875l-46 -233h-874z" />
<glyph unicode="&#x3e;" horiz-adv-x="1269" d="M131 190l53 279l637 238l-542 241l49 252l800 -371l-53 -270z" />
<glyph unicode="?" horiz-adv-x="1052" d="M223 1477q78 74 197 116.5t250 42.5q203 0 327.5 -102t124.5 -274q-2 -106 -37.5 -182.5t-93 -132.5t-123 -102t-124 -92t-97.5 -101.5t-45 -129.5h-262q2 113 36 193t88 136t114.5 99t115 84t88 89t35.5 116q0 68 -52 107.5t-140 39.5q-94 0 -195.5 -45t-183.5 -122z M238 139q0 80 55 132.5t139 52.5q70 0 114 -42t44 -108q0 -82 -54.5 -134t-140.5 -52q-70 0 -113.5 42t-43.5 109z" />
<glyph unicode="@" horiz-adv-x="2097" d="M80 322q0 209 79 399t227.5 340.5t359 241t454.5 90.5q172 0 319.5 -48.5t259 -140.5t176 -225t64.5 -295q0 -188 -71.5 -346t-202.5 -253t-295 -95q-98 0 -163.5 34.5t-92.5 100.5q-109 -133 -299 -133q-158 0 -250 98t-92 268q0 141 65.5 269.5t181 209.5t255.5 81 q96 0 163.5 -38t100.5 -112l43 119h227l-168 -514q-20 -66 -20 -99q0 -45 23.5 -69.5t68.5 -24.5q76 0 145.5 65.5t115.5 180.5t46 246q0 158 -72.5 274.5t-212 181t-331.5 64.5q-236 0 -436.5 -108.5t-323.5 -306t-123 -443.5q0 -291 169 -446.5t484 -155.5q102 0 221 24.5 t209 63.5l-12 -211q-80 -37 -196.5 -58.5t-233.5 -21.5q-262 0 -455.5 93t-300 272.5t-106.5 427.5zM803 385q0 -82 46 -129t124 -47q47 0 93 22.5t84 64.5t61.5 101.5t23.5 124.5q0 82 -46 129t-126 47q-66 0 -125 -41t-97 -113.5t-38 -158.5z" />
<glyph unicode="A" horiz-adv-x="1626" d="M-53 0l907 1556h320l305 -1556h-328l-66 410h-587l-224 -410h-327zM629 651h420l-95 596z" />
<glyph unicode="B" horiz-adv-x="1460" d="M86 0l303 1556h498q231 0 359 -97t128 -273q0 -129 -65.5 -227.5t-184.5 -149.5q61 -23 109.5 -70t75 -111.5t26.5 -138.5q0 -231 -161.5 -360t-454.5 -129h-633zM422 244h289q152 0 233.5 65.5t81.5 186.5q0 184 -264 184h-256zM553 920h235q133 0 208 61t75 168 q0 82 -61.5 123t-178.5 41h-200z" />
<glyph unicode="C" horiz-adv-x="1568" d="M156 702q0 240 112.5 438.5t317.5 318.5t465 120q135 0 275 -38t233 -97l-74 -264q-209 120 -437 120h-4q-156 0 -284.5 -73.5t-206.5 -206.5t-78 -301q0 -211 132 -337t351 -126q215 0 410 106l-2 -278q-199 -107 -461 -107q-219 0 -389 87.5t-265 252t-95 385.5z" />
<glyph unicode="D" horiz-adv-x="1728" d="M86 0l303 1556h524q367 0 565.5 -175t198.5 -494q0 -260 -116.5 -461t-338 -313.5t-517.5 -112.5h-619zM449 252h272q184 0 327.5 74.5t225.5 216t82 327.5q0 211 -121 323t-348 112h-236z" />
<glyph unicode="E" horiz-adv-x="1363" d="M86 0l303 1556h989l-53 -262h-684l-74 -372h602l-47 -260h-604l-78 -400h740l-50 -262h-1044z" />
<glyph unicode="F" horiz-adv-x="1253" d="M86 0l303 1556h971l-49 -262h-666l-80 -415h578l-51 -261h-578l-119 -618h-309z" />
<glyph unicode="G" horiz-adv-x="1679" d="M156 694q0 248 113.5 448.5t325.5 318.5t488 118q145 0 296 -38t257 -103l-75 -267q-104 61 -232.5 95t-255.5 34q-172 0 -307 -71.5t-214 -203.5t-79 -308q0 -215 132 -340t358 -125q121 0 237 39l64 332h-295l51 249h584l-152 -782q-98 -51 -234.5 -82t-269.5 -31 q-238 0 -416 85t-277 247t-99 385z" />
<glyph unicode="H" horiz-adv-x="1726" d="M86 0l303 1556h313l-120 -624h725l123 624h313l-303 -1556h-314l129 674h-725l-131 -674h-313z" />
<glyph unicode="I" horiz-adv-x="686" d="M86 0l303 1556h313l-303 -1556h-313z" />
<glyph unicode="J" horiz-adv-x="1132" d="M-12 68l57 247q133 -84 283 -84q139 0 216 83t113 274l189 968h313l-201 -1024q-57 -295 -202.5 -430t-405.5 -135q-102 0 -205.5 29t-156.5 72z" />
<glyph unicode="K" horiz-adv-x="1572" d="M86 0l303 1556h305l-129 -659l719 659h406l-865 -778l631 -778h-397l-535 688l-133 -688h-305z" />
<glyph unicode="L" horiz-adv-x="1263" d="M86 0l303 1556h313l-253 -1298h692l-54 -258h-1001z" />
<glyph unicode="M" horiz-adv-x="2062" d="M53 0l381 1556h289l303 -985l690 985h309l-217 -1556h-301l160 1061l-565 -801h-246l-258 811l-244 -1071h-301z" />
<glyph unicode="N" horiz-adv-x="1736" d="M86 0l303 1556h279l573 -1110l215 1110h297l-303 -1556h-279l-575 1108l-213 -1108h-297z" />
<glyph unicode="O" horiz-adv-x="1826" d="M154 690q0 240 111.5 444.5t314 329.5t456.5 125q209 0 376 -90t264.5 -255t97.5 -378q0 -176 -61.5 -335.5t-179.5 -286.5t-283.5 -202t-358.5 -75q-209 0 -376 90t-264 255t-97 378zM473 700q0 -205 119.5 -329.5t318.5 -124.5q143 0 266 77.5t200 218t77 314.5 q0 207 -120 331t-320 124q-143 0 -266 -78t-199 -219.5t-76 -313.5z" />
<glyph unicode="P" horiz-adv-x="1341" d="M86 0l303 1556h422q258 0 406.5 -119.5t148.5 -326.5q0 -270 -174 -424t-485 -154h-220l-102 -532h-299zM537 784h178q164 0 256 81t92 227q0 102 -74 157.5t-213 55.5h-137z" />
<glyph unicode="Q" horiz-adv-x="1826" d="M154 690q0 240 111.5 444.5t314 329.5t456.5 125q209 0 376 -90t264.5 -255t97.5 -378q0 -270 -139.5 -491t-379.5 -330l310 -418h-367l-231 344q-41 -4 -76 -4q-209 0 -376 90t-264 255t-97 378zM473 700q0 -205 119.5 -329.5t318.5 -124.5q143 0 266 77.5t200 218 t77 314.5q0 207 -120 331t-320 124q-143 0 -266 -78t-199 -219.5t-76 -313.5z" />
<glyph unicode="R" horiz-adv-x="1484" d="M86 0l303 1556h416q266 0 415.5 -117.5t149.5 -330.5q0 -164 -89 -290t-251 -187l293 -631h-336l-225 557q-16 -2 -62 -2h-206l-109 -555h-299zM543 807h178q152 0 249 78t97 202q0 104 -72.5 161t-212.5 57h-143z" />
<glyph unicode="S" horiz-adv-x="1331" d="M51 119l68 262q102 -72 221 -113t227 -41q141 0 225.5 56.5t84.5 150.5q0 70 -57.5 123t-209.5 121q-195 86 -276.5 187.5t-81.5 254.5q0 137 69.5 242.5t199.5 166t304 60.5q123 0 250 -35.5t219 -95.5l-69 -256q-100 61 -203.5 94t-194.5 33q-121 0 -195.5 -53 t-74.5 -139q0 -63 50 -111.5t181 -105.5q152 -68 238 -136.5t124 -149.5t38 -188q0 -141 -74 -249.5t-212.5 -169t-326.5 -60.5q-141 0 -282 41t-242 111z" />
<glyph unicode="T" horiz-adv-x="1433" d="M223 1298l51 258h1287l-50 -258h-487l-254 -1298h-313l254 1298h-488z" />
<glyph unicode="U" horiz-adv-x="1708" d="M193 535q0 74 22 194l160 827h315l-164 -833q-16 -88 -16 -145q0 -164 80 -248t237 -84q180 0 278.5 106.5t145.5 349.5l168 854h316l-179 -909q-70 -348 -252 -514t-495 -166q-295 0 -455.5 147.5t-160.5 420.5z" />
<glyph unicode="V" horiz-adv-x="1562" d="M242 1556h325l174 -1200l625 1200h356l-874 -1556h-324z" />
<glyph unicode="W" horiz-adv-x="2269" d="M248 1556h319l72 -1142l539 1122h292l113 -1094l500 1114h340l-764 -1556h-291l-117 1124l-546 -1124h-297z" />
<glyph unicode="X" horiz-adv-x="1511" d="M-70 0l703 823l-361 733h346l234 -520l418 520h379l-662 -772l393 -784h-348l-262 580l-463 -580h-377z" />
<glyph unicode="Y" horiz-adv-x="1478" d="M223 1556h326l248 -661l503 661h357l-742 -913l-124 -643h-312l127 651z" />
<glyph unicode="Z" horiz-adv-x="1480" d="M10 0l41 225l1010 1075h-764l49 256h1172l-43 -225l-1012 -1075h840l-52 -256h-1241z" />
<glyph unicode="[" horiz-adv-x="866" d="M63 -272l379 1951h557l-43 -231h-297l-290 -1487h309l-45 -233h-570z" />
<glyph unicode="\" horiz-adv-x="1118" d="M254 1659h262l416 -1931h-262z" />
<glyph unicode="]" horiz-adv-x="866" d="M-63 -272l45 231h297l290 1487h-309l45 233h569l-378 -1951h-559z" />
<glyph unicode="^" horiz-adv-x="1269" d="M137 629l547 815h254l233 -815h-260l-143 542l-350 -542h-281z" />
<glyph unicode="_" horiz-adv-x="1024" d="M-160 -299l43 221h1024l-43 -221h-1024z" />
<glyph unicode="`" horiz-adv-x="1024" d="M463 1591h299l147 -342h-233z" />
<glyph unicode="a" horiz-adv-x="1331" d="M90 440q0 164 71.5 308.5t199.5 235.5t282 91q115 0 198 -44t136 -134l35 145h268l-201 -1042h-268l16 113q-59 -68 -146 -107t-183 -39q-184 0 -296 130t-112 343zM375 471q0 -117 62.5 -183.5t168.5 -66.5q127 0 216 102.5t89 247.5q0 117 -61.5 183.5t-169.5 66.5 q-127 0 -216 -102.5t-89 -247.5z" />
<glyph unicode="b" horiz-adv-x="1331" d="M51 0l322 1659h284l-135 -707q57 57 139 90t173 33q184 0 295.5 -130t111.5 -343q0 -164 -71.5 -308t-199.5 -235.5t-282 -91.5q-229 0 -334 174l-32 -141h-271zM420 471q0 -117 61 -183.5t170 -66.5q127 0 216 102.5t89 247.5q0 117 -62.5 183.5t-168.5 66.5 q-127 0 -216 -102.5t-89 -247.5z" />
<glyph unicode="c" horiz-adv-x="1103" d="M92 461q0 164 77 302t217 222t316 84q100 0 195.5 -25.5t157.5 -68.5l-58 -242q-53 39 -128.5 61.5t-147.5 22.5q-150 0 -247 -94t-97 -240q0 -117 82 -187.5t217 -70.5q129 0 248 62l-4 -248q-43 -27 -129 -46.5t-160 -19.5q-250 0 -394.5 131.5t-144.5 356.5z" />
<glyph unicode="d" horiz-adv-x="1331" d="M90 440q0 164 71.5 308.5t199.5 235.5t282 91q217 0 326 -164l147 748h285l-322 -1659h-268l16 113q-59 -68 -146 -107t-183 -39q-184 0 -296 130t-112 343zM375 471q0 -117 62.5 -183.5t168.5 -66.5q127 0 216 102.5t89 247.5q0 117 -61.5 183.5t-169.5 66.5 q-127 0 -216 -102.5t-89 -247.5z" />
<glyph unicode="e" horiz-adv-x="1224" d="M92 451q0 170 74 312t210 227t308 85q203 0 323.5 -113.5t120.5 -308.5q0 -98 -30 -219h-733q10 -125 88.5 -179t244.5 -54q76 0 159 18.5t149 50.5l-2 -229q-59 -33 -156 -53.5t-199 -20.5q-262 0 -409.5 128t-147.5 356zM383 633h481q2 10 2 31q0 92 -52 143t-146 51 q-100 0 -177 -60.5t-108 -164.5z" />
<glyph unicode="f" horiz-adv-x="856" d="M111 807l43 235h184l29 150q94 477 507 477q66 0 131.5 -16.5t106.5 -42.5l-59 -230q-78 41 -158 41q-102 0 -162.5 -64.5t-89.5 -203.5l-22 -111h272l-45 -235h-273l-155 -807h-285l156 807h-180z" />
<glyph unicode="g" horiz-adv-x="1331" d="M39 -403l63 243q156 -106 340 -106q162 0 249 80t122 262l4 24q-55 -63 -139 -98t-180 -35q-184 0 -296 130t-112 343q0 164 71.5 308.5t199.5 235.5t282 91q115 0 198 -44t136 -134l35 145h268l-182 -944q-63 -326 -214 -472t-423 -146q-123 0 -236.5 31.5t-185.5 85.5z M375 471q0 -117 62.5 -183.5t168.5 -66.5q127 0 216 102.5t89 247.5q0 117 -61.5 183.5t-169.5 66.5q-127 0 -216 -102.5t-89 -247.5z" />
<glyph unicode="h" horiz-adv-x="1259" d="M51 0l322 1659h284l-139 -719q51 63 131 99t174 36q150 0 237 -89t87 -245q0 -61 -12 -127l-119 -614h-285l113 582q8 35 8 80q0 78 -39 119.5t-113 41.5q-96 0 -164.5 -70.5t-91.5 -191.5l-108 -561h-285z" />
<glyph unicode="i" horiz-adv-x="587" d="M51 0l203 1042h285l-203 -1042h-285zM299 1407q0 78 52 128t132 50q70 0 112 -41t42 -108q0 -78 -52 -129.5t-130 -51.5q-70 0 -113 42t-43 110z" />
<glyph unicode="j" horiz-adv-x="587" d="M-406 -457l60 226q68 -39 168 -39q90 0 145.5 62.5t81.5 195.5l205 1054h285l-209 -1071q-51 -262 -165 -376.5t-321 -114.5q-76 0 -143.5 17.5t-106.5 45.5zM299 1407q0 78 53.5 128t132.5 50q68 0 110 -41t42 -108q0 -78 -52 -129.5t-130 -51.5q-70 0 -113 42t-43 110z " />
<glyph unicode="k" horiz-adv-x="1232" d="M51 0l322 1659h284l-194 -1000l430 383h367l-568 -489l430 -553h-346l-348 477l-92 -477h-285z" />
<glyph unicode="l" horiz-adv-x="587" d="M51 0l322 1659h284l-321 -1659h-285z" />
<glyph unicode="m" horiz-adv-x="1918" d="M51 0l203 1042h274l-20 -116q51 72 134 110.5t179 38.5q100 0 174 -48t113 -138q57 90 152.5 138t209.5 48q162 0 249 -88t87 -250q0 -63 -12 -123l-119 -614h-284l112 582q10 57 10 80q0 78 -38.5 119.5t-112.5 41.5q-88 0 -156.5 -72.5t-91.5 -189.5l-108 -561h-285 l115 582q6 41 6 80q0 78 -39 119.5t-111 41.5q-88 0 -156.5 -71.5t-91.5 -190.5l-108 -561h-285z" />
<glyph unicode="n" horiz-adv-x="1259" d="M51 0l203 1042h274l-20 -116q51 70 134 109.5t181 39.5q150 0 237 -89t87 -245q0 -61 -12 -127l-119 -614h-285l113 582q8 43 8 80q0 78 -39 119.5t-113 41.5q-96 0 -164.5 -70.5t-91.5 -191.5l-108 -561h-285z" />
<glyph unicode="o" horiz-adv-x="1286" d="M92 451q0 166 77 308t217 229t314 87q141 0 254 -59.5t177.5 -169t64.5 -254.5q0 -166 -78 -308.5t-218 -229.5t-314 -87q-141 0 -253 59.5t-176.5 169t-64.5 255.5zM375 471q0 -115 62 -182.5t171 -67.5q80 0 148.5 45t111.5 126t43 179q0 117 -61.5 183.5t-169.5 66.5 q-127 0 -216 -102.5t-89 -247.5z" />
<glyph unicode="p" horiz-adv-x="1331" d="M-47 -502l301 1544h268l-18 -112q57 70 144 107.5t186 37.5q184 0 295.5 -130t111.5 -343q0 -164 -71.5 -308t-199.5 -235.5t-282 -91.5q-113 0 -193.5 41t-134.5 125l-122 -635h-285zM420 471q0 -117 61 -183.5t170 -66.5q127 0 216 102.5t89 247.5q0 117 -62.5 183.5 t-168.5 66.5q-127 0 -216 -102.5t-89 -247.5z" />
<glyph unicode="q" horiz-adv-x="1331" d="M90 440q0 164 71.5 308.5t199.5 235.5t282 91q115 0 198 -44t136 -134l35 145h268l-299 -1544h-285l115 596q-57 -59 -139 -93t-174 -34q-184 0 -296 130t-112 343zM375 471q0 -117 62.5 -183.5t168.5 -66.5q127 0 216 102.5t89 247.5q0 117 -61.5 183.5t-169.5 66.5 q-127 0 -216 -102.5t-89 -247.5z" />
<glyph unicode="r" horiz-adv-x="882" d="M51 0l203 1042h270l-22 -153q43 74 125 123t161 49q76 0 134 -31l-68 -264q-53 29 -133 29q-106 0 -184 -92.5t-113 -258.5l-88 -444h-285z" />
<glyph unicode="s" horiz-adv-x="976" d="M23 86l59 221q72 -53 159 -82.5t173 -29.5q72 0 114.5 25.5t42.5 66.5q0 37 -33.5 63.5t-134.5 69.5q-141 61 -204.5 139t-63.5 186q0 147 116 238.5t302 91.5q90 0 186.5 -26.5t167.5 -71.5l-53 -223q-68 43 -150.5 68.5t-152.5 25.5q-66 0 -103.5 -24.5t-37.5 -69.5 q0 -33 26.5 -55.5t108.5 -57.5q168 -72 237.5 -149.5t69.5 -190.5q0 -152 -117.5 -243t-312.5 -91q-109 0 -222.5 34t-176.5 85z" />
<glyph unicode="t" horiz-adv-x="944" d="M82 807l45 235h199l55 283h285l-58 -283h295l-47 -235h-293l-74 -385q-10 -53 -10 -80q0 -66 32 -94.5t99 -28.5q100 0 187 39l-2 -238q-45 -25 -114.5 -39t-139.5 -14q-350 0 -351 316q0 74 15 139l74 385h-197z" />
<glyph unicode="u" horiz-adv-x="1253" d="M111 301q0 55 14 127l121 614h284l-114 -581q-8 -49 -8 -82q0 -160 147 -160q96 0 164.5 70.5t91.5 191.5l109 561h284l-203 -1042h-274l18 111q-53 -68 -135 -106t-178 -38q-158 0 -239.5 86t-81.5 248z" />
<glyph unicode="v" horiz-adv-x="1144" d="M133 1042h291l98 -741l379 741h311l-598 -1042h-290z" />
<glyph unicode="w" horiz-adv-x="1716" d="M143 1042h279l59 -708l330 708h254l80 -688l323 688h306l-549 -1042h-260l-84 705l-326 -705h-266z" />
<glyph unicode="x" horiz-adv-x="1181" d="M-51 0l487 555l-268 487h309l148 -317l254 317h323l-457 -524l287 -518h-307l-168 352l-285 -352h-323z" />
<glyph unicode="y" horiz-adv-x="1189" d="M-18 -502l383 594l-232 950h295l131 -671l387 671h311l-974 -1544h-301z" />
<glyph unicode="z" horiz-adv-x="1079" d="M-8 0l37 203l604 604h-471l47 235h838l-35 -202l-609 -604h533l-47 -236h-897z" />
<glyph unicode="{" horiz-adv-x="886" d="M109 594l47 235h45q96 0 138 40t60 151q16 109 30.5 207t37 181t65.5 144.5t119 95t195 33.5q94 0 166 -16l-45 -221q-45 12 -90 12q-78 0 -118 -36t-55.5 -98t-22.5 -141t-22 -167q-23 -139 -71.5 -210t-141.5 -93q57 -16 89 -64.5t32 -116.5q0 -55 -19.5 -116.5 t-44 -125t-44 -120.5t-19.5 -102q0 -70 44 -101t143 -31q41 0 53 3l-43 -226q-39 -6 -90 -6q-168 0 -269.5 79t-101.5 210q0 66 19.5 133.5t43 134t43 125.5t19.5 109q0 53 -31.5 75.5t-111.5 22.5h-49z" />
<glyph unicode="|" horiz-adv-x="675" d="M16 -465l435 2239h262l-434 -2239h-263z" />
<glyph unicode="}" horiz-adv-x="886" d="M-57 -279l45 222q45 -12 90 -13q78 0 118 36t55 98.5t22.5 141.5t21.5 167q23 139 72 209.5t141 93.5q-57 16 -89 64t-32 116q0 55 19.5 116.5t44 125t44 121t19.5 102.5q0 70 -44 100.5t-142 30.5q-41 0 -54 -2l43 225q41 6 91 6q168 0 269 -78.5t101 -209.5 q0 -66 -19.5 -133.5t-43 -134t-43 -126t-19.5 -108.5q0 -53 32 -75.5t112 -22.5h49l-47 -236h-45q-96 0 -138.5 -40t-60.5 -150q-16 -109 -30.5 -207.5t-37 -181t-65.5 -144t-118.5 -95.5t-194.5 -34q-94 0 -166 16z" />
<glyph unicode="~" horiz-adv-x="1269" d="M96 477q29 213 126 330t247 117q59 0 105.5 -19.5t84 -47.5t70.5 -56.5t64.5 -48t64.5 -19.5q111 0 148 191h231q-27 -213 -124 -330t-249 -117q-59 0 -105 19.5t-84 48t-71 56.5t-63.5 47.5t-65.5 19.5q-109 0 -145 -191h-234z" />
<glyph unicode="&#xa1;" horiz-adv-x="716" d="M-4 -575l233 1097h260l-196 -1097h-297zM254 868q0 82 54.5 134.5t140.5 52.5q70 0 113.5 -42t43.5 -110q0 -80 -55 -132t-139 -52q-70 0 -114 42t-44 107z" />
<glyph unicode="&#xa2;" horiz-adv-x="1269" d="M178 461q0 158 69.5 290t198.5 217t295 99l50 248h155l-51 -252q61 -8 124.5 -32.5t110.5 -55.5l-51 -230q-113 68 -233 78l-121 -606q152 0 268 62l-6 -240q-41 -29 -127 -46.5t-182 -19.5l-49 -243h-154l51 262q-109 27 -186.5 90t-119.5 159.5t-42 219.5zM444 483 q0 -182 134 -237l112 569q-113 -29 -179.5 -119t-66.5 -213z" />
<glyph unicode="&#xa3;" horiz-adv-x="1269" d="M14 0l47 242h193l80 395h-191l45 225h191l22 123q51 289 199 430t397 141q94 0 187.5 -26.5t148.5 -67.5l-59 -231q-123 80 -266 80q-135 0 -215 -81t-117 -257l-23 -111h398l-45 -225h-398l-78 -395h613l-49 -242h-1080z" />
<glyph unicode="&#xa4;" horiz-adv-x="1269" d="M102 440l177 189q-55 96 -56 225q0 125 56 225l-177 189l177 157l161 -182q55 35 119 54.5t123 19.5t122.5 -19.5t119.5 -54.5l163 182l177 -157l-179 -189q55 -98 56 -225q0 -129 -56 -225l179 -189l-177 -157l-163 180q-113 -72 -242 -72q-127 0 -242 72l-161 -180z M449 854q0 -113 64.5 -183.5t168.5 -70.5t168.5 70.5t64.5 183.5t-64.5 183.5t-168.5 70.5t-168.5 -70.5t-64.5 -183.5z" />
<glyph unicode="&#xa5;" horiz-adv-x="1269" d="M74 291l35 184h372l31 160h-373l35 184h283l-242 705h299l178 -639l430 639h322l-522 -705h286l-34 -184h-383l-31 -160h383l-35 -184h-383l-57 -291h-277l55 291h-372z" />
<glyph unicode="&#xa6;" horiz-adv-x="675" d="M16 -465l177 911h262l-176 -911h-263zM274 862l177 912h262l-176 -912h-263z" />
<glyph unicode="&#xa7;" horiz-adv-x="1093" d="M-8 -135l55 209q158 -113 363 -113q88 0 139 36t51 99q0 53 -40 88t-154 82q-152 61 -217.5 137t-65.5 191q0 125 72.5 218t203.5 136q-121 82 -120 238q0 162 118.5 255t323.5 93q96 0 197.5 -27.5t164.5 -72.5l-53 -205q-74 43 -156.5 68.5t-154.5 25.5 q-84 0 -128 -28.5t-44 -82.5q0 -51 35.5 -82.5t138.5 -70.5q164 -63 232.5 -140t68.5 -200q0 -125 -68.5 -218t-189.5 -139q115 -96 115 -241q0 -109 -58.5 -193t-169.5 -131t-258 -47q-115 0 -227.5 32t-173.5 83zM381 631q0 -72 47 -115t121 -43q92 0 153.5 60.5 t61.5 150.5q0 70 -45 112t-121 42q-94 0 -155.5 -58.5t-61.5 -148.5z" />
<glyph unicode="&#xa8;" horiz-adv-x="1024" d="M360 1391q0 66 45.5 110.5t114.5 44.5q59 0 96 -35.5t37 -93.5q0 -68 -44.5 -111.5t-112.5 -43.5q-61 0 -98.5 35.5t-37.5 93.5zM799 1391q0 66 45 110.5t114 44.5q59 0 96.5 -35.5t37.5 -93.5q0 -68 -45 -111.5t-113 -43.5q-61 0 -98 35.5t-37 93.5z" />
<glyph unicode="&#xa9;" horiz-adv-x="1658" d="M139 778q0 201 93.5 366t262.5 263t386 98q203 0 370.5 -90t268 -257t100.5 -380q0 -201 -92 -365.5t-262 -263t-385 -98.5q-205 0 -373 91t-268.5 258t-100.5 378zM315 778q0 -160 70 -288t199 -202.5t297 -74.5q160 0 287.5 69.5t202.5 198.5t75 297q0 160 -69.5 288 t-198.5 202.5t-297 74.5q-160 0 -288 -69.5t-203 -198.5t-75 -297zM508 778q0 176 113.5 286t296.5 110q61 0 125.5 -15.5t103.5 -38.5l-29 -192q-43 18 -94 30.5t-92 12.5q-86 0 -140.5 -51.5t-54.5 -135.5q0 -88 56.5 -137t152.5 -49q76 0 187 43l28 -190 q-113 -54 -248 -54q-186 0 -295.5 102.5t-109.5 278.5z" />
<glyph unicode="&#xaa;" horiz-adv-x="954" d="M123 463l37 192h723l-37 -192h-723zM209 1104q0 121 50 224.5t140 165.5t201 62q143 0 213 -110l21 90h208l-141 -717h-205l11 80q-37 -51 -96.5 -77.5t-133.5 -26.5q-123 0 -195.5 84t-72.5 225zM432 1133q0 -68 36.5 -105t104.5 -37q82 0 137.5 65.5t55.5 162.5 q0 68 -37 104.5t-104 36.5q-82 0 -137.5 -65.5t-55.5 -161.5z" />
<glyph unicode="&#xab;" horiz-adv-x="1247" d="M57 526l387 449h318l-412 -471l207 -428h-291zM559 526l387 449h318l-412 -471l207 -428h-291z" />
<glyph unicode="&#xac;" horiz-adv-x="1269" d="M199 629l47 243h913l-104 -548h-258l59 305h-657z" />
<glyph unicode="&#xad;" horiz-adv-x="870" d="M115 465l49 248h620l-49 -248h-620z" />
<glyph unicode="&#xae;" horiz-adv-x="1060" d="M213 1241q0 123 57.5 224.5t163 164t236.5 62.5q125 0 228 -56.5t165.5 -160t62.5 -234.5q0 -123 -57 -225.5t-161.5 -163.5t-237.5 -61q-123 0 -226.5 57t-167 160.5t-63.5 232.5zM340 1241q0 -94 41 -170t116 -121t173 -45q145 0 238 94.5t93 241.5t-93 241.5 t-238 94.5q-92 0 -167 -42t-119 -119t-44 -175zM498 1036v428h170q88 0 137 -39t49 -108q0 -84 -66 -125l89 -156h-138l-61 121h-57v-121h-123zM621 1262h38q35 0 51.5 12t16.5 39q0 49 -68 49h-38v-100z" />
<glyph unicode="&#xaf;" horiz-adv-x="1024" d="M379 1294l37 203h653l-37 -203h-653z" />
<glyph unicode="&#xb0;" horiz-adv-x="1019" d="M270 1219q0 98 47.5 182t134.5 135t193 51q102 0 188.5 -46t137.5 -131t51 -191q0 -98 -48 -181.5t-135.5 -134.5t-193.5 -51q-102 0 -187 46t-136.5 130t-51.5 191zM483 1219q0 -74 45 -123t117 -49q74 0 120 48t46 124q0 78 -46 127t-120 49q-72 0 -117 -49.5 t-45 -126.5z" />
<glyph unicode="&#xb1;" horiz-adv-x="1269" d="M71 2l47 242h926l-47 -242h-926zM207 743l47 238h344l74 379h254l-76 -379h344l-45 -238h-344l-76 -379h-252l72 379h-342z" />
<glyph unicode="&#xb2;" d="M180 934l33 174q174 119 274 199q86 72 123 123t37 98q0 39 -28.5 60.5t-78.5 21.5q-53 0 -113.5 -26.5t-105.5 -69.5l-26 176q49 45 125.5 72.5t156.5 27.5q127 0 207 -65.5t80 -169.5q0 -84 -43 -159t-141 -159q-80 -66 -170 -123h323l-35 -180h-618z" />
<glyph unicode="&#xb3;" d="M180 987l39 170q49 -33 110.5 -51t118.5 -18q74 0 118 32.5t44 85.5q0 94 -131 95q-31 0 -72 -13l-39 111l232 197h-312l35 174h570l-31 -162l-211 -176q82 -20 128 -79t46 -145q0 -133 -103.5 -213.5t-271.5 -80.5q-76 0 -153.5 20t-116.5 53z" />
<glyph unicode="&#xb4;" horiz-adv-x="1024" d="M391 1249l270 342h322l-342 -342h-250z" />
<glyph unicode="&#xb5;" horiz-adv-x="1261" d="M-47 -502l301 1544h285l-113 -581q-8 -43 -8 -80q0 -80 40 -121t115 -41q92 0 158 70.5t88 191.5l109 561h284l-202 -1042h-273l19 123q-41 -68 -115 -112t-147 -44q-106 0 -150 76l-106 -545h-285z" />
<glyph unicode="&#xb6;" horiz-adv-x="1294" d="M174 1038q0 154 67.5 270.5t195.5 182t302 65.5h613l-355 -1822h-247l309 1595h-172l-312 -1595h-245l182 952q-160 14 -249 106.5t-89 245.5z" />
<glyph unicode="&#xb7;" horiz-adv-x="614" d="M180 757q0 80 55.5 132.5t139.5 52.5q70 0 114 -42t44 -108q0 -82 -54.5 -134t-140.5 -52q-70 0 -114 42t-44 109z" />
<glyph unicode="&#xb8;" horiz-adv-x="1024" d="M69 -489l47 147q29 -14 69 -24.5t75 -10.5q59 0 92 21.5t33 60.5q0 61 -101 62q-43 0 -79 -9l114 262h168l-59 -137q164 -29 164 -182q0 -109 -85.5 -173.5t-228.5 -64.5q-63 0 -119.5 13.5t-89.5 34.5z" />
<glyph unicode="&#xb9;" d="M321 1440l6 205l291 125h195l-164 -836h-215l117 602z" />
<glyph unicode="&#xba;" horiz-adv-x="958" d="M115 463l37 192h722l-36 -192h-723zM209 1128q0 117 54 214.5t152.5 155.5t223.5 58q158 0 254 -91t96 -242q0 -117 -54 -214.5t-152.5 -155.5t-223.5 -58q-158 0 -254 91t-96 242zM432 1133q0 -66 36.5 -104t102.5 -38q82 0 138.5 65.5t56.5 162.5q0 66 -37 103.5 t-102 37.5q-82 0 -138.5 -65.5t-56.5 -161.5z" />
<glyph unicode="&#xbb;" horiz-adv-x="1247" d="M-14 76l411 469l-207 430h291l209 -449l-387 -450h-317zM488 76l411 469l-207 430h291l209 -449l-387 -450h-317z" />
<glyph unicode="&#xbc;" horiz-adv-x="1918" d="M241 0l1323 1524h273l-1323 -1524h-273zM274 1194l6 205l291 125h195l-164 -836h-215l117 602zM1105 170l31 178l459 488h225l-96 -500h109l-33 -166h-107l-33 -170h-192l33 170h-396zM1341 336h193l49 256z" />
<glyph unicode="&#xbd;" horiz-adv-x="1918" d="M141 0l1323 1524h273l-1323 -1524h-273zM274 1194l6 205l291 125h195l-164 -836h-215l117 602zM1126 0l33 174q174 119 274 199q86 72 123 123t37 98q0 39 -28.5 60.5t-78.5 21.5q-53 0 -113.5 -26.5t-105.5 -69.5l-26 176q49 45 125.5 72.5t156.5 27.5q127 0 207 -65.5 t80 -169.5q0 -84 -43 -159t-141 -159q-80 -66 -170 -123h323l-35 -180h-618z" />
<glyph unicode="&#xbe;" horiz-adv-x="1918" d="M131 741l39 170q49 -33 110.5 -51t118.5 -18q74 0 118 32.5t44 85.5q0 94 -131 95q-31 0 -72 -13l-39 111l232 197h-312l35 174h570l-31 -162l-211 -176q82 -20 128 -79t46 -145q0 -133 -103.5 -213.5t-271.5 -80.5q-76 0 -153.5 20t-116.5 53zM249 0l1323 1524h273 l-1323 -1524h-273zM1105 170l31 178l459 488h225l-96 -500h109l-33 -166h-107l-33 -170h-192l33 170h-396zM1341 336h193l49 256z" />
<glyph unicode="&#xbf;" horiz-adv-x="1052" d="M-68 -217q2 106 38 182t93.5 132.5t123 102.5t124 92t97 101.5t45.5 128.5h262q-2 -113 -36 -192.5t-88 -136t-114.5 -99.5t-115 -84t-88 -89t-35.5 -116q0 -68 52 -107.5t140 -39.5q94 0 195.5 45t183.5 123l22 -260q-78 -74 -196.5 -117t-249.5 -43q-203 0 -328 102.5 t-125 274.5zM465 868q0 82 54 134.5t140 52.5q70 0 114 -42t44 -110q0 -80 -55 -132t-139 -52q-70 0 -114 42t-44 107z" />
<glyph unicode="&#xc0;" horiz-adv-x="1626" d="M-53 0l907 1556h320l305 -1556h-328l-66 410h-587l-224 -410h-327zM629 651h420l-95 596zM719 2003h328l170 -293h-258z" />
<glyph unicode="&#xc1;" horiz-adv-x="1626" d="M-53 0l907 1556h320l305 -1556h-328l-66 410h-587l-224 -410h-327zM629 651h420l-95 596zM832 1710l272 293h354l-356 -293h-270z" />
<glyph unicode="&#xc2;" horiz-adv-x="1626" d="M-53 0l907 1556h320l305 -1556h-328l-66 410h-587l-224 -410h-327zM609 1710l342 309h272l227 -309h-264l-111 158l-176 -158h-290zM629 651h420l-95 596z" />
<glyph unicode="&#xc3;" horiz-adv-x="1626" d="M-53 0l907 1556h320l305 -1556h-328l-66 410h-587l-224 -410h-327zM629 651h420l-95 596zM654 1708q20 158 88.5 239t179.5 81q57 0 94 -19.5t63.5 -43t51 -43t57.5 -19.5q37 0 57.5 28.5t30.5 91.5h191q-48 -319 -273 -319q-55 0 -92 18.5t-63.5 43t-51 43t-55.5 18.5 q-37 0 -57.5 -26.5t-34.5 -92.5h-186z" />
<glyph unicode="&#xc4;" horiz-adv-x="1626" d="M-53 0l907 1556h320l305 -1556h-328l-66 410h-587l-224 -410h-327zM629 651h420l-95 596zM686 1837q0 68 46.5 113t115.5 45q59 0 97 -36t38 -93q0 -70 -46 -115t-115 -45q-59 0 -97.5 37t-38.5 94zM1131 1837q0 68 46 113t116 45q59 0 97 -36t38 -93q0 -70 -46 -115 t-116 -45q-59 0 -97 37t-38 94z" />
<glyph unicode="&#xc5;" horiz-adv-x="1626" d="M-53 0l907 1556h320l305 -1556h-328l-66 410h-587l-224 -410h-327zM629 651h420l-95 596zM785 1948q0 117 81.5 194.5t206.5 77.5t207 -78t82 -194q0 -117 -83 -196t-206 -79t-205.5 79t-82.5 196zM955 1948q0 -53 32.5 -86t85.5 -33q55 0 87 32.5t32 86.5 q0 55 -31.5 86.5t-87.5 31.5q-55 0 -86.5 -31.5t-31.5 -86.5z" />
<glyph unicode="&#xc6;" horiz-adv-x="2256" d="M-90 0l1225 1556h1136l-53 -262h-684l-74 -372h602l-47 -260h-604l-78 -400h740l-50 -262h-1044l80 410h-486l-305 -410h-358zM754 651h352l123 635z" />
<glyph unicode="&#xc7;" horiz-adv-x="1568" d="M156 702q0 240 112.5 438.5t317.5 318.5t465 120q135 0 275 -38t233 -97l-74 -264q-211 121 -441 120q-156 0 -284.5 -73.5t-206.5 -206.5t-78 -301q0 -211 132 -337t351 -126q215 0 410 106l-2 -278q-199 -107 -461 -107q-219 0 -389 87.5t-265 252t-95 385.5zM428 -492 l47 158q27 -16 66 -26.5t77 -10.5q117 0 117 74q0 57 -104 57q-45 0 -70 -6l115 266h174l-59 -137q82 -14 125.5 -62t43.5 -120q0 -113 -85.5 -175.5t-239.5 -62.5q-63 0 -120.5 12.5t-86.5 32.5z" />
<glyph unicode="&#xc8;" horiz-adv-x="1363" d="M86 0l303 1556h989l-53 -262h-684l-74 -372h602l-47 -260h-604l-78 -400h740l-50 -262h-1044zM614 2003h328l170 -293h-258z" />
<glyph unicode="&#xc9;" horiz-adv-x="1363" d="M86 0l303 1556h989l-53 -262h-684l-74 -372h602l-47 -260h-604l-78 -400h740l-50 -262h-1044zM727 1710l272 293h354l-356 -293h-270z" />
<glyph unicode="&#xca;" horiz-adv-x="1363" d="M86 0l303 1556h989l-53 -262h-684l-74 -372h602l-47 -260h-604l-78 -400h740l-50 -262h-1044zM504 1710l342 309h272l227 -309h-264l-111 158l-176 -158h-290z" />
<glyph unicode="&#xcb;" horiz-adv-x="1363" d="M86 0l303 1556h989l-53 -262h-684l-74 -372h602l-47 -260h-604l-78 -400h740l-50 -262h-1044zM581 1837q0 68 46.5 113t115.5 45q59 0 97 -36t38 -93q0 -70 -46 -115t-115 -45q-59 0 -97.5 37t-38.5 94zM1026 1837q0 68 46 113t116 45q59 0 97 -36t38 -93q0 -70 -46 -115 t-116 -45q-59 0 -97 37t-38 94z" />
<glyph unicode="&#xcc;" horiz-adv-x="686" d="M86 0l303 1556h313l-303 -1556h-313zM250 2003h328l170 -293h-258z" />
<glyph unicode="&#xcd;" horiz-adv-x="686" d="M86 0l303 1556h313l-303 -1556h-313zM363 1710l272 293h354l-356 -293h-270z" />
<glyph unicode="&#xce;" horiz-adv-x="686" d="M86 0l303 1556h313l-303 -1556h-313zM140 1710l342 309h272l227 -309h-264l-111 158l-176 -158h-290z" />
<glyph unicode="&#xcf;" horiz-adv-x="686" d="M86 0l303 1556h313l-303 -1556h-313zM217 1837q0 68 46.5 113t115.5 45q59 0 97 -36t38 -93q0 -70 -46 -115t-115 -45q-59 0 -97.5 37t-38.5 94zM662 1837q0 68 46 113t116 45q59 0 97 -36t38 -93q0 -70 -46 -115t-116 -45q-59 0 -97 37t-38 94z" />
<glyph unicode="&#xd0;" horiz-adv-x="1771" d="M72 674l41 219h190l129 663h524q367 0 565.5 -175t198.5 -494q0 -260 -116.5 -461t-338 -313.5t-517.5 -112.5h-619l131 674h-188zM492 252h272q184 0 327.5 74.5t225.5 216t82 327.5q0 211 -121 323t-348 112h-236l-80 -412h308l-41 -219h-310z" />
<glyph unicode="&#xd1;" horiz-adv-x="1736" d="M86 0l303 1556h279l573 -1110l215 1110h297l-303 -1556h-279l-575 1108l-213 -1108h-297zM715 1708q20 158 88.5 239t179.5 81q57 0 94 -19.5t63.5 -43t51 -43t57.5 -19.5q37 0 57.5 28.5t30.5 91.5h191q-48 -319 -273 -319q-55 0 -92 18.5t-63.5 43t-51 43t-55.5 18.5 q-37 0 -57.5 -26.5t-34.5 -92.5h-186z" />
<glyph unicode="&#xd2;" horiz-adv-x="1826" d="M154 690q0 240 111.5 444.5t314 329.5t456.5 125q209 0 376 -90t264.5 -255t97.5 -378q0 -176 -61.5 -335.5t-179.5 -286.5t-283.5 -202t-358.5 -75q-209 0 -376 90t-264 255t-97 378zM473 700q0 -205 119.5 -329.5t318.5 -124.5q143 0 266 77.5t200 218t77 314.5 q0 207 -120 331t-320 124q-143 0 -266 -78t-199 -219.5t-76 -313.5zM796 2003h328l170 -293h-258z" />
<glyph unicode="&#xd3;" horiz-adv-x="1826" d="M154 690q0 240 111.5 444.5t314 329.5t456.5 125q209 0 376 -90t264.5 -255t97.5 -378q0 -176 -61.5 -335.5t-179.5 -286.5t-283.5 -202t-358.5 -75q-209 0 -376 90t-264 255t-97 378zM473 700q0 -205 119.5 -329.5t318.5 -124.5q143 0 266 77.5t200 218t77 314.5 q0 207 -120 331t-320 124q-143 0 -266 -78t-199 -219.5t-76 -313.5zM910 1710l272 293h354l-356 -293h-270z" />
<glyph unicode="&#xd4;" horiz-adv-x="1826" d="M154 690q0 240 111.5 444.5t314 329.5t456.5 125q209 0 376 -90t264.5 -255t97.5 -378q0 -176 -61.5 -335.5t-179.5 -286.5t-283.5 -202t-358.5 -75q-209 0 -376 90t-264 255t-97 378zM473 700q0 -205 119.5 -329.5t318.5 -124.5q143 0 266 77.5t200 218t77 314.5 q0 207 -120 331t-320 124q-143 0 -266 -78t-199 -219.5t-76 -313.5zM687 1710l342 309h272l227 -309h-264l-111 158l-176 -158h-290z" />
<glyph unicode="&#xd5;" horiz-adv-x="1826" d="M154 690q0 240 111.5 444.5t314 329.5t456.5 125q209 0 376 -90t264.5 -255t97.5 -378q0 -176 -61.5 -335.5t-179.5 -286.5t-283.5 -202t-358.5 -75q-209 0 -376 90t-264 255t-97 378zM473 700q0 -205 119.5 -329.5t318.5 -124.5q143 0 266 77.5t200 218t77 314.5 q0 207 -120 331t-320 124q-143 0 -266 -78t-199 -219.5t-76 -313.5zM732 1708q20 158 88.5 239t179.5 81q57 0 94 -19.5t63.5 -43t51 -43t57.5 -19.5q37 0 57.5 28.5t30.5 91.5h191q-48 -319 -273 -319q-55 0 -92 18.5t-63.5 43t-51 43t-55.5 18.5q-37 0 -57.5 -26.5 t-34.5 -92.5h-186z" />
<glyph unicode="&#xd6;" horiz-adv-x="1826" d="M154 690q0 240 111.5 444.5t314 329.5t456.5 125q209 0 376 -90t264.5 -255t97.5 -378q0 -176 -61.5 -335.5t-179.5 -286.5t-283.5 -202t-358.5 -75q-209 0 -376 90t-264 255t-97 378zM473 700q0 -205 119.5 -329.5t318.5 -124.5q143 0 266 77.5t200 218t77 314.5 q0 207 -120 331t-320 124q-143 0 -266 -78t-199 -219.5t-76 -313.5zM764 1837q0 68 46.5 113t115.5 45q59 0 97 -36t38 -93q0 -70 -46 -115t-115 -45q-59 0 -97.5 37t-38.5 94zM1209 1837q0 68 46 113t116 45q59 0 97 -36t38 -93q0 -70 -46 -115t-116 -45q-59 0 -97 37 t-38 94z" />
<glyph unicode="&#xd7;" horiz-adv-x="1269" d="M178 408l334 292l-223 295l186 146l217 -287l326 285l141 -164l-336 -293l226 -295l-185 -145l-219 286l-323 -284z" />
<glyph unicode="&#xd8;" horiz-adv-x="1826" d="M66 106l200 179q-113 178 -112 405q0 240 111.5 444.5t314 329.5t456.5 125q143 0 269.5 -44t224.5 -128l201 180l131 -147l-201 -180q113 -176 113 -404q0 -176 -61.5 -335.5t-179.5 -286.5t-283.5 -202t-358.5 -75q-141 0 -268 44t-228 126l-198 -178zM473 700 q0 -106 35 -198l795 712q-119 96 -289 97q-143 0 -266 -78t-199 -219.5t-76 -313.5zM623 342q114 -96 288 -96q143 0 266 77.5t200 218t77 314.5q0 104 -35 197z" />
<glyph unicode="&#xd9;" horiz-adv-x="1708" d="M193 535q0 74 22 194l160 827h315l-164 -833q-16 -88 -16 -145q0 -164 80 -248t237 -84q180 0 278.5 106.5t145.5 349.5l168 854h316l-179 -909q-70 -348 -252 -514t-495 -166q-295 0 -455.5 147.5t-160.5 420.5zM745 2003h328l170 -293h-258z" />
<glyph unicode="&#xda;" horiz-adv-x="1708" d="M193 535q0 74 22 194l160 827h315l-164 -833q-16 -88 -16 -145q0 -164 80 -248t237 -84q180 0 278.5 106.5t145.5 349.5l168 854h316l-179 -909q-70 -348 -252 -514t-495 -166q-295 0 -455.5 147.5t-160.5 420.5zM858 1710l272 293h354l-356 -293h-270z" />
<glyph unicode="&#xdb;" horiz-adv-x="1708" d="M193 535q0 74 22 194l160 827h315l-164 -833q-16 -88 -16 -145q0 -164 80 -248t237 -84q180 0 278.5 106.5t145.5 349.5l168 854h316l-179 -909q-70 -348 -252 -514t-495 -166q-295 0 -455.5 147.5t-160.5 420.5zM635 1710l342 309h272l227 -309h-264l-111 158l-176 -158 h-290z" />
<glyph unicode="&#xdc;" horiz-adv-x="1708" d="M193 535q0 74 22 194l160 827h315l-164 -833q-16 -88 -16 -145q0 -164 80 -248t237 -84q180 0 278.5 106.5t145.5 349.5l168 854h316l-179 -909q-70 -348 -252 -514t-495 -166q-295 0 -455.5 147.5t-160.5 420.5zM712 1837q0 68 46.5 113t115.5 45q59 0 97 -36t38 -93 q0 -70 -46 -115t-115 -45q-59 0 -97.5 37t-38.5 94zM1157 1837q0 68 46 113t116 45q59 0 97 -36t38 -93q0 -70 -46 -115t-116 -45q-59 0 -97 37t-38 94z" />
<glyph unicode="&#xdd;" horiz-adv-x="1478" d="M223 1556h326l248 -661l503 661h357l-742 -913l-124 -643h-312l127 651zM760 1710l272 293h354l-356 -293h-270z" />
<glyph unicode="&#xde;" horiz-adv-x="1341" d="M86 0l303 1556h301l-47 -245h121q258 0 406.5 -121t148.5 -328q0 -270 -174 -422.5t-486 -152.5h-217l-55 -287h-301zM492 539h176q164 0 256 80.5t92 226.5q0 102 -74 157.5t-213 55.5h-137z" />
<glyph unicode="&#xdf;" horiz-adv-x="1384" d="M51 0l215 1112q106 557 606 557q207 0 335 -109.5t128 -287.5q0 -139 -73.5 -249t-204.5 -163q106 -39 168.5 -136t62.5 -218q0 -156 -67.5 -278t-194.5 -191.5t-297 -69.5q-82 0 -162 19.5t-125 50.5l62 231q90 -59 209 -59q127 0 207.5 81t80.5 212q0 123 -80.5 176 t-261.5 53l43 230h52q131 0 213 76.5t82 197.5q0 88 -53.5 140t-145.5 52q-121 0 -195.5 -85t-109.5 -263l-209 -1079h-285z" />
<glyph unicode="&#xe0;" horiz-adv-x="1331" d="M90 440q0 164 71.5 308.5t199.5 235.5t282 91q115 0 198 -44t136 -134l35 145h268l-201 -1042h-268l16 113q-59 -68 -146 -107t-183 -39q-184 0 -296 130t-112 343zM375 471q0 -117 62.5 -183.5t168.5 -66.5q127 0 216 102.5t89 247.5q0 117 -61.5 183.5t-169.5 66.5 q-127 0 -216 -102.5t-89 -247.5zM512 1591h299l147 -342h-233z" />
<glyph unicode="&#xe1;" horiz-adv-x="1331" d="M90 440q0 164 71.5 308.5t199.5 235.5t282 91q115 0 198 -44t136 -134l35 145h268l-201 -1042h-268l16 113q-59 -68 -146 -107t-183 -39q-184 0 -296 130t-112 343zM375 471q0 -117 62.5 -183.5t168.5 -66.5q127 0 216 102.5t89 247.5q0 117 -61.5 183.5t-169.5 66.5 q-127 0 -216 -102.5t-89 -247.5zM625 1249l270 342h322l-342 -342h-250z" />
<glyph unicode="&#xe2;" horiz-adv-x="1331" d="M90 440q0 164 71.5 308.5t199.5 235.5t282 91q115 0 198 -44t136 -134l35 145h268l-201 -1042h-268l16 113q-59 -68 -146 -107t-183 -39q-184 0 -296 130t-112 343zM375 471q0 -117 62.5 -183.5t168.5 -66.5q127 0 216 102.5t89 247.5q0 117 -61.5 183.5t-169.5 66.5 q-127 0 -216 -102.5t-89 -247.5zM408 1249l344 342h240l211 -342h-234l-115 187l-186 -187h-260z" />
<glyph unicode="&#xe3;" horiz-adv-x="1331" d="M90 440q0 164 71.5 308.5t199.5 235.5t282 91q115 0 198 -44t136 -134l35 145h268l-201 -1042h-268l16 113q-59 -68 -146 -107t-183 -39q-184 0 -296 130t-112 343zM375 471q0 -117 62.5 -183.5t168.5 -66.5q127 0 216 102.5t89 247.5q0 117 -61.5 183.5t-169.5 66.5 q-127 0 -216 -102.5t-89 -247.5zM433 1260q20 156 88.5 235.5t181.5 79.5q55 0 93 -19.5t63.5 -43t51 -43t56.5 -19.5q37 0 57.5 27.5t32.5 93.5h189q-20 -156 -88 -236t-181 -80q-57 0 -94 19.5t-63.5 43t-51 43t-57.5 19.5q-37 0 -57.5 -28.5t-30.5 -91.5h-190z" />
<glyph unicode="&#xe4;" horiz-adv-x="1331" d="M90 440q0 164 71.5 308.5t199.5 235.5t282 91q115 0 198 -44t136 -134l35 145h268l-201 -1042h-268l16 113q-59 -68 -146 -107t-183 -39q-184 0 -296 130t-112 343zM375 471q0 -117 62.5 -183.5t168.5 -66.5q127 0 216 102.5t89 247.5q0 117 -61.5 183.5t-169.5 66.5 q-127 0 -216 -102.5t-89 -247.5zM469 1391q0 66 45.5 110.5t114.5 44.5q59 0 96 -35.5t37 -93.5q0 -68 -44.5 -111.5t-112.5 -43.5q-61 0 -98.5 35.5t-37.5 93.5zM908 1391q0 66 45 110.5t114 44.5q59 0 96.5 -35.5t37.5 -93.5q0 -68 -45 -111.5t-113 -43.5q-61 0 -98 35.5 t-37 93.5z" />
<glyph unicode="&#xe5;" horiz-adv-x="1331" d="M90 440q0 164 71.5 308.5t199.5 235.5t282 91q115 0 198 -44t136 -134l35 145h268l-201 -1042h-268l16 113q-59 -68 -146 -107t-183 -39q-184 0 -296 130t-112 343zM375 471q0 -117 62.5 -183.5t168.5 -66.5q127 0 216 102.5t89 247.5q0 117 -61.5 183.5t-169.5 66.5 q-127 0 -216 -102.5t-89 -247.5zM538 1458q0 117 82 195t207 78t207 -78t82 -195t-82 -194.5t-207 -77.5t-207 77.5t-82 194.5zM708 1458q0 -53 33 -86t86 -33q55 0 87 33t32 86q0 55 -32 87t-87 32t-87 -32t-32 -87z" />
<glyph unicode="&#xe6;" horiz-adv-x="2031" d="M90 440q0 164 71.5 308.5t199.5 235.5t282 91q115 0 198 -44t136 -134l35 145h219l-19 -96q51 61 133 95t179 34q184 0 297.5 -116.5t113.5 -305.5q0 -98 -30 -219h-734q10 -125 89 -179t245 -54q76 0 159 18.5t148 50.5l-2 -229q-59 -33 -155 -53.5t-199 -20.5 q-283 0 -403 162l-25 -129h-217l16 113q-59 -68 -146 -107t-183 -39q-184 0 -296 130t-112 343zM375 471q0 -117 62.5 -183.5t168.5 -66.5q127 0 216 102.5t89 247.5q0 117 -61.5 183.5t-169.5 66.5q-127 0 -216 -102.5t-89 -247.5zM1190 633h481q2 10 2 31q0 92 -52 143 t-146 51q-100 0 -177 -60.5t-108 -164.5z" />
<glyph unicode="&#xe7;" horiz-adv-x="1103" d="M92 461q0 164 77 302t217 222t316 84q100 0 195.5 -25.5t157.5 -68.5l-58 -242q-53 39 -128.5 61.5t-147.5 22.5q-150 0 -247 -94t-97 -240q0 -117 82 -187.5t217 -70.5q129 0 248 62l-4 -248q-43 -27 -129 -46.5t-160 -19.5q-250 0 -394.5 131.5t-144.5 356.5zM198 -489 l47 147q29 -14 69 -24.5t75 -10.5q59 0 92 21.5t33 60.5q0 61 -101 62q-43 0 -79 -9l114 262h168l-59 -137q164 -29 164 -182q0 -109 -85.5 -173.5t-228.5 -64.5q-63 0 -119.5 13.5t-89.5 34.5z" />
<glyph unicode="&#xe8;" horiz-adv-x="1224" d="M92 451q0 170 74 312t210 227t308 85q203 0 323.5 -113.5t120.5 -308.5q0 -98 -30 -219h-733q10 -125 88.5 -179t244.5 -54q76 0 159 18.5t149 50.5l-2 -229q-59 -33 -156 -53.5t-199 -20.5q-262 0 -409.5 128t-147.5 356zM383 633h481q2 10 2 31q0 92 -52 143t-146 51 q-100 0 -177 -60.5t-108 -164.5zM432 1591h299l147 -342h-233z" />
<glyph unicode="&#xe9;" horiz-adv-x="1224" d="M92 451q0 170 74 312t210 227t308 85q203 0 323.5 -113.5t120.5 -308.5q0 -98 -30 -219h-733q10 -125 88.5 -179t244.5 -54q76 0 159 18.5t149 50.5l-2 -229q-59 -33 -156 -53.5t-199 -20.5q-262 0 -409.5 128t-147.5 356zM383 633h481q2 10 2 31q0 92 -52 143t-146 51 q-100 0 -177 -60.5t-108 -164.5zM545 1249l270 342h322l-342 -342h-250z" />
<glyph unicode="&#xea;" horiz-adv-x="1224" d="M92 451q0 170 74 312t210 227t308 85q203 0 323.5 -113.5t120.5 -308.5q0 -98 -30 -219h-733q10 -125 88.5 -179t244.5 -54q76 0 159 18.5t149 50.5l-2 -229q-59 -33 -156 -53.5t-199 -20.5q-262 0 -409.5 128t-147.5 356zM328 1249l344 342h240l211 -342h-234l-115 187 l-186 -187h-260zM383 633h481q2 10 2 31q0 92 -52 143t-146 51q-100 0 -177 -60.5t-108 -164.5z" />
<glyph unicode="&#xeb;" horiz-adv-x="1224" d="M92 451q0 170 74 312t210 227t308 85q203 0 323.5 -113.5t120.5 -308.5q0 -98 -30 -219h-733q10 -125 88.5 -179t244.5 -54q76 0 159 18.5t149 50.5l-2 -229q-59 -33 -156 -53.5t-199 -20.5q-262 0 -409.5 128t-147.5 356zM383 633h481q2 10 2 31q0 92 -52 143t-146 51 q-100 0 -177 -60.5t-108 -164.5zM389 1391q0 66 45.5 110.5t114.5 44.5q59 0 96 -35.5t37 -93.5q0 -68 -44.5 -111.5t-112.5 -43.5q-61 0 -98.5 35.5t-37.5 93.5zM828 1391q0 66 45 110.5t114 44.5q59 0 96.5 -35.5t37.5 -93.5q0 -68 -45 -111.5t-113 -43.5q-61 0 -98 35.5 t-37 93.5z" />
<glyph unicode="&#xec;" horiz-adv-x="587" d="M51 0l203 1042h285l-203 -1042h-285zM133 1591h299l147 -342h-233z" />
<glyph unicode="&#xed;" horiz-adv-x="587" d="M51 0l203 1042h285l-203 -1042h-285zM246 1249l270 342h322l-342 -342h-250z" />
<glyph unicode="&#xee;" horiz-adv-x="587" d="M29 1249l344 342h240l211 -342h-234l-115 187l-186 -187h-260zM51 0l203 1042h285l-203 -1042h-285z" />
<glyph unicode="&#xef;" horiz-adv-x="587" d="M51 0l203 1042h285l-203 -1042h-285zM90 1391q0 66 45.5 110.5t114.5 44.5q59 0 96 -35.5t37 -93.5q0 -68 -44.5 -111.5t-112.5 -43.5q-61 0 -98.5 35.5t-37.5 93.5zM529 1391q0 66 45 110.5t114 44.5q59 0 96.5 -35.5t37.5 -93.5q0 -68 -45 -111.5t-113 -43.5 q-61 0 -98 35.5t-37 93.5z" />
<glyph unicode="&#xf0;" horiz-adv-x="1316" d="M92 455q0 160 69.5 299t194.5 226t277 87q162 0 270 -94q-49 182 -117 303l-325 -121l-62 168l287 107q-76 100 -188 206l313 23q61 -59 123 -139l246 92l61 -168l-205 -76q86 -156 131 -326t45 -342q0 -213 -75.5 -378.5t-216 -260t-326.5 -94.5q-231 0 -366.5 131 t-135.5 357zM375 465q0 -115 62 -180.5t173 -65.5q82 0 151.5 44t113 124t43.5 178q0 115 -63.5 181.5t-172.5 66.5q-80 0 -149.5 -44t-113.5 -125t-44 -179z" />
<glyph unicode="&#xf1;" horiz-adv-x="1259" d="M51 0l203 1042h274l-20 -116q51 70 134 109.5t181 39.5q150 0 237 -89t87 -245q0 -61 -12 -127l-119 -614h-285l113 582q8 43 8 80q0 78 -39 119.5t-113 41.5q-96 0 -164.5 -70.5t-91.5 -191.5l-108 -561h-285zM400 1260q20 156 88.5 235.5t181.5 79.5q55 0 93 -19.5 t63.5 -43t51 -43t56.5 -19.5q37 0 57.5 27.5t32.5 93.5h189q-20 -156 -88 -236t-181 -80q-57 0 -94 19.5t-63.5 43t-51 43t-57.5 19.5q-37 0 -57.5 -28.5t-30.5 -91.5h-190z" />
<glyph unicode="&#xf2;" horiz-adv-x="1286" d="M92 451q0 166 77 308t217 229t314 87q141 0 254 -59.5t177.5 -169t64.5 -254.5q0 -166 -78 -308.5t-218 -229.5t-314 -87q-141 0 -253 59.5t-176.5 169t-64.5 255.5zM375 471q0 -115 62 -182.5t171 -67.5q80 0 148.5 45t111.5 126t43 179q0 117 -61.5 183.5t-169.5 66.5 q-127 0 -216 -102.5t-89 -247.5zM478 1591h299l147 -342h-233z" />
<glyph unicode="&#xf3;" horiz-adv-x="1286" d="M92 451q0 166 77 308t217 229t314 87q141 0 254 -59.5t177.5 -169t64.5 -254.5q0 -166 -78 -308.5t-218 -229.5t-314 -87q-141 0 -253 59.5t-176.5 169t-64.5 255.5zM375 471q0 -115 62 -182.5t171 -67.5q80 0 148.5 45t111.5 126t43 179q0 117 -61.5 183.5t-169.5 66.5 q-127 0 -216 -102.5t-89 -247.5zM590 1249l270 342h322l-342 -342h-250z" />
<glyph unicode="&#xf4;" horiz-adv-x="1286" d="M92 451q0 166 77 308t217 229t314 87q141 0 254 -59.5t177.5 -169t64.5 -254.5q0 -166 -78 -308.5t-218 -229.5t-314 -87q-141 0 -253 59.5t-176.5 169t-64.5 255.5zM373 1249l344 342h240l211 -342h-234l-115 187l-186 -187h-260zM375 471q0 -115 62 -182.5t171 -67.5 q80 0 148.5 45t111.5 126t43 179q0 117 -61.5 183.5t-169.5 66.5q-127 0 -216 -102.5t-89 -247.5z" />
<glyph unicode="&#xf5;" horiz-adv-x="1286" d="M92 451q0 166 77 308t217 229t314 87q141 0 254 -59.5t177.5 -169t64.5 -254.5q0 -166 -78 -308.5t-218 -229.5t-314 -87q-141 0 -253 59.5t-176.5 169t-64.5 255.5zM375 471q0 -115 62 -182.5t171 -67.5q80 0 148.5 45t111.5 126t43 179q0 117 -61.5 183.5t-169.5 66.5 q-127 0 -216 -102.5t-89 -247.5zM398 1260q20 156 88.5 235.5t181.5 79.5q55 0 93 -19.5t63.5 -43t51 -43t56.5 -19.5q37 0 57.5 27.5t32.5 93.5h189q-20 -156 -88 -236t-181 -80q-57 0 -94 19.5t-63.5 43t-51 43t-57.5 19.5q-37 0 -57.5 -28.5t-30.5 -91.5h-190z" />
<glyph unicode="&#xf6;" horiz-adv-x="1286" d="M92 451q0 166 77 308t217 229t314 87q141 0 254 -59.5t177.5 -169t64.5 -254.5q0 -166 -78 -308.5t-218 -229.5t-314 -87q-141 0 -253 59.5t-176.5 169t-64.5 255.5zM375 471q0 -115 62 -182.5t171 -67.5q80 0 148.5 45t111.5 126t43 179q0 117 -61.5 183.5t-169.5 66.5 q-127 0 -216 -102.5t-89 -247.5zM434 1391q0 66 45.5 110.5t114.5 44.5q59 0 96 -35.5t37 -93.5q0 -68 -44.5 -111.5t-112.5 -43.5q-61 0 -98.5 35.5t-37.5 93.5zM873 1391q0 66 45 110.5t114 44.5q59 0 96.5 -35.5t37.5 -93.5q0 -68 -45 -111.5t-113 -43.5q-61 0 -98 35.5 t-37 93.5z" />
<glyph unicode="&#xf7;" horiz-adv-x="1269" d="M182 571l43 230h928l-45 -230h-926zM440 279q0 66 46 110.5t116 44.5q61 0 100 -36t39 -93q0 -68 -45.5 -111.5t-117.5 -43.5q-61 0 -99.5 35.5t-38.5 93.5zM592 1067q0 66 46 111t116 45q63 0 101 -36t38 -93q0 -68 -46 -112t-118 -44q-59 0 -98 36t-39 93z" />
<glyph unicode="&#xf8;" horiz-adv-x="1286" d="M25 76l131 119q-66 109 -66 256q0 166 77 308t217 229t314 87q188 0 320 -100l127 115l115 -123l-132 -119q66 -119 66 -256q0 -166 -78 -308.5t-218 -229.5t-314 -87q-188 0 -318 101l-127 -115zM356 469q0 -53 9 -86l458 416q-59 41 -143 41t-157.5 -47.5t-120 -133.5 t-46.5 -190zM459 242q57 -39 145 -39q84 0 158 48t120 134t46 190q0 37 -10 82z" />
<glyph unicode="&#xf9;" horiz-adv-x="1253" d="M111 301q0 55 14 127l121 614h284l-114 -581q-8 -49 -8 -82q0 -160 147 -160q96 0 165 71t91 191l109 561h284l-203 -1042h-274l18 111q-53 -68 -135 -106t-178 -38q-158 0 -239 86q-82 86 -82 248zM449 1591h299l147 -342h-233z" />
<glyph unicode="&#xfa;" horiz-adv-x="1253" d="M111 301q0 55 14 127l121 614h284l-114 -581q-8 -49 -8 -82q0 -160 147 -160q96 0 165 71t91 191l109 561h284l-203 -1042h-274l18 111q-53 -68 -135 -106t-178 -38q-158 0 -239 86q-82 86 -82 248zM561 1249l270 342h322l-342 -342h-250z" />
<glyph unicode="&#xfb;" horiz-adv-x="1253" d="M111 301q0 55 14 127l121 614h284l-114 -581q-8 -49 -8 -82q0 -160 147 -160q96 0 165 71t91 191l109 561h284l-203 -1042h-274l18 111q-53 -68 -135 -106t-178 -38q-158 0 -239 86q-82 86 -82 248zM344 1249l344 342h240l211 -342h-234l-115 187l-186 -187h-260z" />
<glyph unicode="&#xfc;" horiz-adv-x="1253" d="M111 301q0 55 14 127l121 614h284l-114 -581q-8 -49 -8 -82q0 -160 147 -160q96 0 165 71t91 191l109 561h284l-203 -1042h-274l18 111q-53 -68 -135 -106t-178 -38q-158 0 -239 86q-82 86 -82 248zM405 1391q0 66 45.5 110.5t114.5 44.5q59 0 96 -35.5t37 -93.5 q0 -68 -44.5 -111.5t-112.5 -43.5q-61 0 -98.5 35.5t-37.5 93.5zM844 1391q0 66 45 110.5t114 44.5q59 0 96.5 -35.5t37.5 -93.5q0 -68 -45 -111.5t-113 -43.5q-61 0 -98 35.5t-37 93.5z" />
<glyph unicode="&#xfd;" horiz-adv-x="1189" d="M-18 -502l383 594l-232 950h295l131 -671l387 671h311l-974 -1544h-301zM543 1249l270 342h322l-342 -342h-250z" />
<glyph unicode="&#xfe;" horiz-adv-x="1331" d="M-47 -502l420 2161h284l-141 -715q59 61 143 96t175 35q184 0 295.5 -130t111.5 -343q0 -164 -71.5 -308t-199.5 -235.5t-282 -91.5q-113 0 -193.5 41t-134.5 125l-122 -635h-285zM420 471q0 -117 61 -183.5t170 -66.5q127 0 216 102.5t89 247.5q0 117 -62.5 183.5 t-168.5 66.5q-127 0 -216 -102.5t-89 -247.5z" />
<glyph unicode="&#xff;" horiz-adv-x="1189" d="M-18 -502l383 594l-232 950h295l131 -671l387 671h311l-974 -1544h-301zM387 1391q0 66 45.5 110.5t114.5 44.5q59 0 96 -35.5t37 -93.5q0 -68 -44.5 -111.5t-112.5 -43.5q-61 0 -98.5 35.5t-37.5 93.5zM826 1391q0 66 45 110.5t114 44.5q59 0 96.5 -35.5t37.5 -93.5 q0 -68 -45 -111.5t-113 -43.5q-61 0 -98 35.5t-37 93.5z" />
<glyph unicode="&#x100;" horiz-adv-x="1626" d="M-53 0l907 1556h320l305 -1556h-328l-66 410h-587l-224 -410h-327zM629 651h420l-95 596zM705 1733l39 206h659l-39 -206h-659z" />
<glyph unicode="&#x101;" horiz-adv-x="1331" d="M90 440q0 164 71.5 308.5t199.5 235.5t282 91q115 0 198 -44t136 -134l35 145h268l-201 -1042h-268l16 113q-59 -68 -146 -107t-183 -39q-184 0 -296 130t-112 343zM375 471q0 -117 62.5 -183.5t168.5 -66.5q127 0 216 102.5t89 247.5q0 117 -61.5 183.5t-169.5 66.5 q-127 0 -216 -102.5t-89 -247.5zM490 1294l37 203h653l-37 -203h-653z" />
<glyph unicode="&#x102;" horiz-adv-x="1626" d="M-53 0l907 1556h320l305 -1556h-328l-66 410h-587l-224 -410h-327zM629 651h420l-95 596zM717 1931q0 41 12 80h201q-4 -20 -4 -41q0 -55 35 -83.5t98 -28.5q74 0 120 39.5t60 113.5h203q-6 -104 -54 -179t-135 -114t-210 -39q-147 0 -236.5 69t-89.5 183z" />
<glyph unicode="&#x103;" horiz-adv-x="1331" d="M90 440q0 164 71.5 308.5t199.5 235.5t282 91q115 0 198 -44t136 -134l35 145h268l-201 -1042h-268l16 113q-59 -68 -146 -107t-183 -39q-184 0 -296 130t-112 343zM375 471q0 -117 62.5 -183.5t168.5 -66.5q127 0 216 102.5t89 247.5q0 117 -61.5 183.5t-169.5 66.5 q-127 0 -216 -102.5t-89 -247.5zM502 1466q0 49 15 90h188q-4 -35 -4 -47q0 -123 131 -123q78 0 122 42t58 128h195q-10 -164 -109.5 -254t-273.5 -90q-150 0 -236 69t-86 185z" />
<glyph unicode="&#x104;" horiz-adv-x="1626" d="M-53 0l907 1556h320l305 -1556h-328l-66 410h-587l-224 -410h-327zM629 651h420l-95 596zM1006 -328q0 115 107.5 220.5t295.5 173.5l70 -66q-111 -74 -169 -141.5t-58 -118.5q0 -57 69 -57q53 0 99 22l-11 -201q-74 -34 -168 -34q-111 0 -173 54t-62 148z" />
<glyph unicode="&#x105;" horiz-adv-x="1331" d="M90 440q0 164 71.5 308.5t199.5 235.5t282 91q115 0 198 -44t136 -134l35 145h268l-201 -1042h-268l16 113q-59 -68 -146 -107t-183 -39q-184 0 -296 130t-112 343zM375 471q0 -117 62.5 -183.5t168.5 -66.5q127 0 216 102.5t89 247.5q0 117 -61.5 183.5t-169.5 66.5 q-127 0 -216 -102.5t-89 -247.5zM622 -330q0 113 105.5 228.5t267.5 183.5l84 -82q-106 -70 -163.5 -138.5t-57.5 -125.5q0 -59 71 -60q43 0 99 23l-11 -195q-27 -14 -74 -24t-94 -10q-106 0 -166.5 53t-60.5 147z" />
<glyph unicode="&#x106;" horiz-adv-x="1568" d="M156 702q0 240 112.5 438.5t317.5 318.5t465 120q135 0 275 -38t233 -97l-74 -264q-211 121 -441 120q-156 0 -284.5 -73.5t-206.5 -206.5t-78 -301q0 -211 132 -337t351 -126q215 0 410 106l-2 -278q-199 -107 -461 -107q-219 0 -389 87.5t-265 252t-95 385.5zM871 1710 l272 293h354l-356 -293h-270z" />
<glyph unicode="&#x107;" horiz-adv-x="1103" d="M92 461q0 164 77 302t217 222t316 84q100 0 195.5 -25.5t157.5 -68.5l-58 -242q-53 39 -128.5 61.5t-147.5 22.5q-150 0 -247 -94t-97 -240q0 -117 82 -187.5t217 -70.5q129 0 248 62l-4 -248q-43 -27 -129 -46.5t-160 -19.5q-250 0 -394.5 131.5t-144.5 356.5zM565 1249 l270 342h322l-342 -342h-250z" />
<glyph unicode="&#x10a;" horiz-adv-x="1568" d="M156 702q0 240 112.5 438.5t317.5 318.5t465 120q135 0 275 -38t233 -97l-74 -264q-211 121 -441 120q-156 0 -284.5 -73.5t-206.5 -206.5t-78 -301q0 -211 132 -337t351 -126q215 0 410 106l-2 -278q-199 -107 -461 -107q-219 0 -389 87.5t-265 252t-95 385.5zM932 1847 q0 76 51.5 125t128.5 49q68 0 109 -39.5t41 -105.5q0 -78 -51 -128t-131 -50q-66 0 -107 42t-41 107z" />
<glyph unicode="&#x10b;" horiz-adv-x="1103" d="M92 461q0 164 77 302t217 222t316 84q100 0 195.5 -25.5t157.5 -68.5l-58 -242q-53 39 -128.5 61.5t-147.5 22.5q-150 0 -247 -94t-97 -240q0 -117 82 -187.5t217 -70.5q129 0 248 62l-4 -248q-43 -27 -129 -46.5t-160 -19.5q-250 0 -394.5 131.5t-144.5 356.5zM600 1397 q0 74 49.5 122t124.5 48q66 0 106 -40t40 -102q0 -74 -50 -122t-126 -48q-63 0 -103.5 39t-40.5 103z" />
<glyph unicode="&#x10c;" horiz-adv-x="1568" d="M156 702q0 240 112.5 438.5t317.5 318.5t465 120q135 0 275 -38t233 -97l-74 -264q-211 121 -441 120q-156 0 -284.5 -73.5t-206.5 -206.5t-78 -301q0 -211 132 -337t351 -126q215 0 410 106l-2 -278q-199 -107 -461 -107q-219 0 -389 87.5t-265 252t-95 385.5zM694 2019 h264l113 -161l176 161h289l-342 -309h-273z" />
<glyph unicode="&#x10d;" horiz-adv-x="1103" d="M92 461q0 164 77 302t217 222t316 84q100 0 195.5 -25.5t157.5 -68.5l-58 -242q-53 39 -128.5 61.5t-147.5 22.5q-150 0 -247 -94t-97 -240q0 -117 82 -187.5t217 -70.5q129 0 248 62l-4 -248q-43 -27 -129 -46.5t-160 -19.5q-250 0 -394.5 131.5t-144.5 356.5zM414 1591 h235l115 -186l186 186h261l-344 -342h-240z" />
<glyph unicode="&#x10e;" horiz-adv-x="1728" d="M86 0l303 1556h524q367 0 565.5 -175t198.5 -494q0 -260 -116.5 -461t-338 -313.5t-517.5 -112.5h-619zM449 252h272q184 0 327.5 74.5t225.5 216t82 327.5q0 211 -121 323t-348 112h-236zM662 2019h264l113 -161l176 161h289l-342 -309h-273z" />
<glyph unicode="&#x10f;" horiz-adv-x="1331" d="M90 440q0 164 71.5 308.5t199.5 235.5t282 91q217 0 326 -164l147 748h285l-322 -1659h-268l16 113q-59 -68 -146 -107t-183 -39q-184 0 -296 130t-112 343zM375 471q0 -117 62.5 -183.5t168.5 -66.5q127 0 216 102.5t89 247.5q0 117 -61.5 183.5t-169.5 66.5 q-127 0 -216 -102.5t-89 -247.5zM1431 1169l119 490h277l-203 -490h-193z" />
<glyph unicode="&#x110;" horiz-adv-x="1771" d="M72 674l41 219h190l129 663h524q367 0 565.5 -175t198.5 -494q0 -260 -116.5 -461t-338 -313.5t-517.5 -112.5h-619l131 674h-188zM492 252h272q184 0 327.5 74.5t225.5 216t82 327.5q0 211 -121 323t-348 112h-236l-80 -412h308l-41 -219h-310z" />
<glyph unicode="&#x111;" horiz-adv-x="1331" d="M90 440q0 164 71.5 308.5t199.5 235.5t282 91q217 0 326 -164l65 336h-309l37 185h309l45 227h285l-45 -227h151l-34 -185h-152l-242 -1247h-268l16 113q-59 -68 -146 -107t-183 -39q-184 0 -296 130t-112 343zM375 471q0 -117 62.5 -183.5t168.5 -66.5q127 0 216 102.5 t89 247.5q0 117 -61.5 183.5t-169.5 66.5q-127 0 -216 -102.5t-89 -247.5z" />
<glyph unicode="&#x112;" horiz-adv-x="1363" d="M86 0l303 1556h989l-53 -262h-684l-74 -372h602l-47 -260h-604l-78 -400h740l-50 -262h-1044zM600 1733l39 206h659l-39 -206h-659z" />
<glyph unicode="&#x113;" horiz-adv-x="1224" d="M92 451q0 170 74 312t210 227t308 85q203 0 323.5 -113.5t120.5 -308.5q0 -98 -30 -219h-733q10 -125 88.5 -179t244.5 -54q76 0 159 18.5t149 50.5l-2 -229q-59 -33 -156 -53.5t-199 -20.5q-262 0 -409.5 128t-147.5 356zM383 633h481q2 10 2 31q0 92 -52 143t-146 51 q-100 0 -177 -60.5t-108 -164.5zM410 1294l37 203h653l-37 -203h-653z" />
<glyph unicode="&#x116;" horiz-adv-x="1363" d="M86 0l303 1556h989l-53 -262h-684l-74 -372h602l-47 -260h-604l-78 -400h740l-50 -262h-1044zM788 1847q0 76 51.5 125t128.5 49q68 0 109 -39.5t41 -105.5q0 -78 -51 -128t-131 -50q-66 0 -107 42t-41 107z" />
<glyph unicode="&#x117;" horiz-adv-x="1224" d="M92 451q0 170 74 312t210 227t308 85q203 0 323.5 -113.5t120.5 -308.5q0 -98 -30 -219h-733q10 -125 88.5 -179t244.5 -54q76 0 159 18.5t149 50.5l-2 -229q-59 -33 -156 -53.5t-199 -20.5q-262 0 -409.5 128t-147.5 356zM383 633h481q2 10 2 31q0 92 -52 143t-146 51 q-100 0 -177 -60.5t-108 -164.5zM579 1397q0 74 49.5 122t124.5 48q66 0 106 -40t40 -102q0 -74 -50 -122t-126 -48q-63 0 -103.5 39t-40.5 103z" />
<glyph unicode="&#x118;" horiz-adv-x="1363" d="M86 0l303 1556h989l-53 -262h-684l-74 -372h602l-47 -260h-604l-78 -400h740l-50 -262h-1044zM658 -328q0 115 107.5 220.5t295.5 173.5l70 -66q-111 -74 -169 -141.5t-58 -118.5q0 -57 69 -57q53 0 99 22l-11 -201q-74 -34 -168 -34q-111 0 -173 54t-62 148z" />
<glyph unicode="&#x119;" horiz-adv-x="1224" d="M92 451q0 170 74 312t210 227t308 85q203 0 323.5 -113.5t120.5 -308.5q0 -98 -30 -219h-733q10 -125 88.5 -179t244.5 -54q76 0 159 18.5t149 50.5l-2 -229q-59 -33 -156 -53.5t-199 -20.5q-262 0 -409.5 128t-147.5 356zM383 633h481q2 10 2 31q0 92 -52 143t-146 51 q-100 0 -177 -60.5t-108 -164.5zM463 -340q0 123 112.5 229.5t303.5 165.5l116 -18q-141 -76 -219 -155t-78 -144q0 -61 76 -62q43 0 96 23l-10 -195q-29 -16 -74 -25t-88 -9q-111 0 -173 50t-62 140z" />
<glyph unicode="&#x11a;" horiz-adv-x="1363" d="M86 0l303 1556h989l-53 -262h-684l-74 -372h602l-47 -260h-604l-78 -400h740l-50 -262h-1044zM551 2019h264l113 -161l176 161h289l-342 -309h-273z" />
<glyph unicode="&#x11b;" horiz-adv-x="1224" d="M92 451q0 170 74 312t210 227t308 85q203 0 323.5 -113.5t120.5 -308.5q0 -98 -30 -219h-733q10 -125 88.5 -179t244.5 -54q76 0 159 18.5t149 50.5l-2 -229q-59 -33 -156 -53.5t-199 -20.5q-262 0 -409.5 128t-147.5 356zM383 633h481q2 10 2 31q0 92 -52 143t-146 51 q-100 0 -177 -60.5t-108 -164.5zM393 1591h235l115 -186l186 186h261l-344 -342h-240z" />
<glyph unicode="&#x11e;" horiz-adv-x="1679" d="M156 694q0 248 113.5 448.5t325.5 318.5t488 118q145 0 296 -38t257 -103l-75 -267q-104 61 -232.5 95t-255.5 34q-172 0 -307 -71.5t-214 -203.5t-79 -308q0 -215 132 -340t358 -125q121 0 237 39l64 332h-295l51 249h584l-152 -782q-98 -51 -234.5 -82t-269.5 -31 q-238 0 -416 85t-277 247t-99 385zM770 1931q0 41 12 80h201q-4 -20 -4 -41q0 -55 35 -83.5t98 -28.5q74 0 120 39.5t60 113.5h203q-6 -104 -54 -179t-135 -114t-210 -39q-147 0 -236.5 69t-89.5 183z" />
<glyph unicode="&#x11f;" horiz-adv-x="1331" d="M39 -403l63 243q156 -106 340 -106q162 0 249 80t122 262l4 24q-55 -63 -139 -98t-180 -35q-184 0 -296 130t-112 343q0 164 71.5 308.5t199.5 235.5t282 91q115 0 198 -44t136 -134l35 145h268l-182 -944q-63 -326 -214 -472t-423 -146q-123 0 -236.5 31.5t-185.5 85.5z M375 471q0 -117 62.5 -183.5t168.5 -66.5q127 0 216 102.5t89 247.5q0 117 -61.5 183.5t-169.5 66.5q-127 0 -216 -102.5t-89 -247.5zM502 1466q0 49 15 90h188q-4 -35 -4 -47q0 -123 131 -123q78 0 122 42t58 128h195q-10 -164 -109.5 -254t-273.5 -90q-150 0 -236 69 t-86 185z" />
<glyph unicode="&#x120;" horiz-adv-x="1679" d="M156 694q0 248 113.5 448.5t325.5 318.5t488 118q145 0 296 -38t257 -103l-75 -267q-104 61 -232.5 95t-255.5 34q-172 0 -307 -71.5t-214 -203.5t-79 -308q0 -215 132 -340t358 -125q121 0 237 39l64 332h-295l51 249h584l-152 -782q-98 -51 -234.5 -82t-269.5 -31 q-238 0 -416 85t-277 247t-99 385zM946 1847q0 76 51.5 125t128.5 49q68 0 109 -39.5t41 -105.5q0 -78 -51 -128t-131 -50q-66 0 -107 42t-41 107z" />
<glyph unicode="&#x121;" horiz-adv-x="1331" d="M39 -403l63 243q156 -106 340 -106q162 0 249 80t122 262l4 24q-55 -63 -139 -98t-180 -35q-184 0 -296 130t-112 343q0 164 71.5 308.5t199.5 235.5t282 91q115 0 198 -44t136 -134l35 145h268l-182 -944q-63 -326 -214 -472t-423 -146q-123 0 -236.5 31.5t-185.5 85.5z M375 471q0 -117 62.5 -183.5t168.5 -66.5q127 0 216 102.5t89 247.5q0 117 -61.5 183.5t-169.5 66.5q-127 0 -216 -102.5t-89 -247.5zM659 1397q0 74 49.5 122t124.5 48q66 0 106 -40t40 -102q0 -74 -50 -122t-126 -48q-63 0 -103.5 39t-40.5 103z" />
<glyph unicode="&#x122;" horiz-adv-x="1679" d="M156 694q0 248 113.5 448.5t325.5 318.5t488 118q145 0 296 -38t257 -103l-75 -267q-104 61 -232.5 95t-255.5 34q-172 0 -307 -71.5t-214 -203.5t-79 -308q0 -215 132 -340t358 -125q121 0 237 39l64 332h-295l51 249h584l-152 -782q-98 -51 -234.5 -82t-269.5 -31 q-238 0 -416 85t-277 247t-99 385zM523 -506q133 174 159 377h273q-16 -104 -72.5 -207.5t-134.5 -169.5h-225z" />
<glyph unicode="&#x123;" horiz-adv-x="1331" d="M39 -403l63 243q156 -106 340 -106q162 0 249 80t122 262l4 24q-55 -63 -139 -98t-180 -35q-184 0 -296 130t-112 343q0 164 71.5 308.5t199.5 235.5t282 91q115 0 198 -44t136 -134l35 145h268l-182 -944q-63 -326 -214 -472t-423 -146q-123 0 -236.5 31.5t-185.5 85.5z M375 471q0 -117 62.5 -183.5t168.5 -66.5q127 0 216 102.5t89 247.5q0 117 -61.5 183.5t-169.5 66.5q-127 0 -216 -102.5t-89 -247.5zM660 1249q12 94 68.5 195.5t129.5 161.5h211q-59 -76 -98 -171.5t-47 -185.5h-264z" />
<glyph unicode="&#x126;" horiz-adv-x="1804" d="M125 0l217 1116h-186l39 207h186l47 233h313l-47 -233h727l47 233h314l-47 -233h186l-39 -207h-186l-217 -1116h-314l127 651h-727l-127 -651h-313zM614 909h727l41 207h-727z" />
<glyph unicode="&#x127;" horiz-adv-x="1259" d="M51 0l242 1247h-164l35 185h164l45 227h284l-45 -227h299l-37 -185h-296l-60 -307q51 63 131 99t174 36q150 0 237 -89t87 -245q0 -61 -12 -127l-119 -614h-285l113 582q8 35 8 80q0 78 -39 119.5t-113 41.5q-96 0 -164.5 -70.5t-91.5 -191.5l-108 -561h-285z" />
<glyph unicode="&#x128;" horiz-adv-x="686" d="M86 0l303 1556h313l-303 -1556h-313zM185 1708q20 158 88.5 239t179.5 81q57 0 94 -19.5t63.5 -43t51 -43t57.5 -19.5q37 0 57.5 28.5t30.5 91.5h191q-48 -319 -273 -319q-55 0 -92 18.5t-63.5 43t-51 43t-55.5 18.5q-37 0 -57.5 -26.5t-34.5 -92.5h-186z" />
<glyph unicode="&#x129;" horiz-adv-x="587" d="M51 0l203 1042h285l-203 -1042h-285zM54 1260q20 156 88.5 235.5t181.5 79.5q55 0 93 -19.5t63.5 -43t51 -43t56.5 -19.5q37 0 57.5 27.5t32.5 93.5h189q-20 -156 -88 -236t-181 -80q-57 0 -94 19.5t-63.5 43t-51 43t-57.5 19.5q-37 0 -57.5 -28.5t-30.5 -91.5h-190z" />
<glyph unicode="&#x12a;" horiz-adv-x="686" d="M86 0l303 1556h313l-303 -1556h-313zM236 1733l39 206h659l-39 -206h-659z" />
<glyph unicode="&#x12b;" horiz-adv-x="587" d="M51 0l203 1042h285l-203 -1042h-285zM111 1294l37 203h653l-37 -203h-653z" />
<glyph unicode="&#x12e;" horiz-adv-x="686" d="M-74 -328q0 115 107.5 220.5t295.5 173.5l70 -66q-111 -74 -169 -141.5t-58 -118.5q0 -57 69 -57q53 0 99 22l-11 -201q-74 -34 -168 -34q-111 0 -173 54t-62 148zM86 0l303 1556h313l-303 -1556h-313z" />
<glyph unicode="&#x12f;" horiz-adv-x="587" d="M-121 -330q0 113 105.5 228.5t267.5 183.5l84 -82q-106 -70 -163.5 -138.5t-57.5 -125.5q0 -59 71 -60q43 0 99 23l-11 -195q-27 -14 -74 -24t-94 -10q-106 0 -166.5 53t-60.5 147zM51 0l203 1042h285l-203 -1042h-285zM299 1407q0 78 52 128t132 50q70 0 112 -41 t42 -108q0 -78 -52 -129.5t-130 -51.5q-70 0 -113 42t-43 110z" />
<glyph unicode="&#x130;" horiz-adv-x="686" d="M86 0l303 1556h313l-303 -1556h-313zM424 1847q0 76 51.5 125t128.5 49q68 0 109 -39.5t41 -105.5q0 -78 -51 -128t-131 -50q-66 0 -107 42t-41 107z" />
<glyph unicode="&#x131;" horiz-adv-x="587" d="M51 0l203 1042h285l-203 -1042h-285z" />
<glyph unicode="&#x132;" horiz-adv-x="1818" d="M86 0l303 1556h313l-303 -1556h-313zM674 68l57 247q133 -84 283 -84q139 0 216 83t113 274l189 968h313l-201 -1024q-57 -295 -202.5 -430t-405.5 -135q-102 0 -205.5 29t-156.5 72z" />
<glyph unicode="&#x133;" horiz-adv-x="1175" d="M51 0l203 1042h285l-203 -1042h-285zM182 -457l60 226q68 -39 168 -39q90 0 145 62t82 196l205 1054h284l-208 -1071q-51 -262 -165 -377q-114 -114 -321 -114q-76 0 -143 17q-68 17 -107 46zM299 1407q0 78 52 128t132 50q70 0 112 -41t42 -108q0 -78 -52 -129.5 t-130 -51.5q-70 0 -113 42t-43 110zM887 1407q0 78 53 128t133 50q68 0 110 -41t42 -108q0 -78 -53 -129q-52 -52 -130 -52q-70 0 -112 42q-43 42 -43 110z" />
<glyph unicode="&#x136;" horiz-adv-x="1572" d="M86 0l303 1556h305l-129 -659l719 659h406l-865 -778l631 -778h-397l-535 688l-133 -688h-305zM394 -506q133 174 159 377h273q-16 -104 -72.5 -207.5t-134.5 -169.5h-225z" />
<glyph unicode="&#x137;" horiz-adv-x="1232" d="M51 0l322 1659h284l-194 -1000l430 383h367l-568 -489l430 -553h-346l-348 477l-92 -477h-285zM192 -506q137 186 160 377h264q-14 -102 -70.5 -205.5t-136.5 -171.5h-217z" />
<glyph unicode="&#x138;" horiz-adv-x="1232" d="M51 0l203 1042h285l-76 -383l430 383h367l-568 -489l430 -553h-346l-348 477l-92 -477h-285z" />
<glyph unicode="&#x139;" horiz-adv-x="1263" d="M86 0l303 1556h313l-253 -1298h692l-54 -258h-1001zM369 1710l272 293h354l-356 -293h-270z" />
<glyph unicode="&#x13a;" horiz-adv-x="587" d="M51 0l322 1659h284l-321 -1659h-285zM330 1741l272 293h354l-356 -293h-270z" />
<glyph unicode="&#x13b;" horiz-adv-x="1263" d="M86 0l303 1556h313l-253 -1298h692l-54 -258h-1001zM308 -506q133 174 159 377h273q-16 -104 -72.5 -207.5t-134.5 -169.5h-225z" />
<glyph unicode="&#x13c;" horiz-adv-x="587" d="M-113 -506q137 186 160 377h264q-14 -102 -70.5 -205.5t-136.5 -171.5h-217zM51 0l322 1659h284l-321 -1659h-285z" />
<glyph unicode="&#x13d;" horiz-adv-x="1263" d="M86 0l303 1556h313l-253 -1298h692l-54 -258h-1001zM792 1169l119 490h277l-203 -490h-193z" />
<glyph unicode="&#x13e;" horiz-adv-x="587" d="M51 0l322 1659h284l-321 -1659h-285zM688 1169l119 490h277l-203 -490h-193z" />
<glyph unicode="&#x141;" horiz-adv-x="1327" d="M33 377l43 274l225 131l152 774h313l-125 -638l432 249l-43 -274l-444 -258l-74 -377h692l-53 -258h-1001l96 500z" />
<glyph unicode="&#x142;" horiz-adv-x="694" d="M29 524l37 238l202 90l158 807h285l-133 -684l192 84l-37 -238l-203 -90l-141 -731h-285l117 608z" />
<glyph unicode="&#x143;" horiz-adv-x="1736" d="M86 0l303 1556h279l573 -1110l215 1110h297l-303 -1556h-279l-575 1108l-213 -1108h-297zM893 1710l272 293h354l-356 -293h-270z" />
<glyph unicode="&#x144;" horiz-adv-x="1259" d="M51 0l203 1042h274l-20 -116q51 70 134 109.5t181 39.5q150 0 237 -89t87 -245q0 -61 -12 -127l-119 -614h-285l113 582q8 43 8 80q0 78 -39 119.5t-113 41.5q-96 0 -164.5 -70.5t-91.5 -191.5l-108 -561h-285zM592 1249l270 342h322l-342 -342h-250z" />
<glyph unicode="&#x145;" horiz-adv-x="1736" d="M86 0l303 1556h279l573 -1110l215 1110h297l-303 -1556h-279l-575 1108l-213 -1108h-297zM461 -506q133 174 159 377h273q-16 -104 -72.5 -207.5t-134.5 -169.5h-225z" />
<glyph unicode="&#x146;" horiz-adv-x="1259" d="M51 0l203 1042h274l-20 -116q51 70 134 109.5t181 39.5q150 0 237 -89t87 -245q0 -61 -12 -127l-119 -614h-285l113 582q8 43 8 80q0 78 -39 119.5t-113 41.5q-96 0 -164.5 -70.5t-91.5 -191.5l-108 -561h-285zM217 -506q137 186 160 377h264q-14 -102 -70.5 -205.5 t-136.5 -171.5h-217z" />
<glyph unicode="&#x147;" horiz-adv-x="1736" d="M86 0l303 1556h279l573 -1110l215 1110h297l-303 -1556h-279l-575 1108l-213 -1108h-297zM717 2019h264l113 -161l176 161h289l-342 -309h-273z" />
<glyph unicode="&#x148;" horiz-adv-x="1259" d="M51 0l203 1042h274l-20 -116q51 70 134 109.5t181 39.5q150 0 237 -89t87 -245q0 -61 -12 -127l-119 -614h-285l113 582q8 43 8 80q0 78 -39 119.5t-113 41.5q-96 0 -164.5 -70.5t-91.5 -191.5l-108 -561h-285zM440 1591h235l115 -186l186 186h261l-344 -342h-240z" />
<glyph unicode="&#x14c;" horiz-adv-x="1826" d="M154 690q0 240 111.5 444.5t314 329.5t456.5 125q209 0 376 -90t264.5 -255t97.5 -378q0 -176 -61.5 -335.5t-179.5 -286.5t-283.5 -202t-358.5 -75q-209 0 -376 90t-264 255t-97 378zM473 700q0 -205 119.5 -329.5t318.5 -124.5q143 0 266 77.5t200 218t77 314.5 q0 207 -120 331t-320 124q-143 0 -266 -78t-199 -219.5t-76 -313.5zM783 1733l39 206h659l-39 -206h-659z" />
<glyph unicode="&#x14d;" horiz-adv-x="1286" d="M92 451q0 166 77 308t217 229t314 87q141 0 254 -59.5t177.5 -169t64.5 -254.5q0 -166 -78 -308.5t-218 -229.5t-314 -87q-141 0 -253 59.5t-176.5 169t-64.5 255.5zM375 471q0 -115 62 -182.5t171 -67.5q80 0 148.5 45t111.5 126t43 179q0 117 -61.5 183.5t-169.5 66.5 q-127 0 -216 -102.5t-89 -247.5zM455 1294l37 203h653l-37 -203h-653z" />
<glyph unicode="&#x150;" horiz-adv-x="1826" d="M154 690q0 240 111.5 444.5t314 329.5t456.5 125q209 0 376 -90t264.5 -255t97.5 -378q0 -176 -61.5 -335.5t-179.5 -286.5t-283.5 -202t-358.5 -75q-209 0 -376 90t-264 255t-97 378zM473 700q0 -205 119.5 -329.5t318.5 -124.5q143 0 266 77.5t200 218t77 314.5 q0 207 -120 331t-320 124q-143 0 -266 -78t-199 -219.5t-76 -313.5zM717 1710l198 291h316l-254 -291h-260zM1149 1710l201 291h313l-252 -291h-262z" />
<glyph unicode="&#x151;" horiz-adv-x="1286" d="M92 451q0 166 77 308t217 229t314 87q141 0 254 -59.5t177.5 -169t64.5 -254.5q0 -166 -78 -308.5t-218 -229.5t-314 -87q-141 0 -253 59.5t-176.5 169t-64.5 255.5zM375 471q0 -115 62 -182.5t171 -67.5q80 0 148.5 45t111.5 126t43 179q0 117 -61.5 183.5t-169.5 66.5 q-127 0 -216 -102.5t-89 -247.5zM428 1249l219 342h281l-273 -342h-227zM815 1249l221 342h281l-273 -342h-229z" />
<glyph unicode="&#x152;" horiz-adv-x="2562" d="M152 680q0 242 106.5 448.5t301 333.5t437.5 127q186 0 327.5 -76.5t213.5 -214.5l49 258h989l-53 -262h-684l-74 -372h602l-47 -260h-604l-78 -400h740l-49 -262h-1045l31 162q-86 -96 -212 -145.5t-282 -49.5q-190 0 -341.5 88t-239.5 251t-88 374zM471 700 q0 -205 119.5 -329.5t318.5 -124.5q143 0 266 77.5t200 218t77 314.5q0 207 -120 331t-316 124q-143 0 -267 -78t-201 -219.5t-77 -313.5z" />
<glyph unicode="&#x153;" horiz-adv-x="2031" d="M92 451q0 166 77 308t218 229t315 87q129 0 227.5 -55t149.5 -156q70 100 177.5 155.5t234.5 55.5q203 0 323.5 -113.5t120.5 -308.5q0 -98 -30 -219h-734q10 -125 89 -179t245 -54q76 0 159 18.5t148 50.5l-2 -229q-59 -33 -155 -53.5t-199 -20.5q-332 0 -450 205 q-74 -100 -188 -152.5t-255 -52.5q-135 0 -241.5 58.5t-168 169t-61.5 256.5zM375 471q0 -115 62 -182.5t171 -67.5q80 0 148.5 45t111.5 126t43 179q0 117 -61.5 183.5t-169.5 66.5q-127 0 -216 -102.5t-89 -247.5zM1190 633h481q2 10 2 31q0 92 -52 143t-146 51 q-100 0 -177 -60.5t-108 -164.5z" />
<glyph unicode="&#x154;" horiz-adv-x="1484" d="M86 0l303 1556h416q266 0 415.5 -117.5t149.5 -330.5q0 -164 -89 -290t-251 -187l293 -631h-336l-225 557q-16 -2 -62 -2h-206l-109 -555h-299zM543 807h178q152 0 249 78t97 202q0 104 -72.5 161t-212.5 57h-143zM717 1710l272 293h354l-356 -293h-270z" />
<glyph unicode="&#x155;" horiz-adv-x="882" d="M51 0l203 1042h270l-22 -153q43 74 125 123t161 49q76 0 134 -31l-68 -264q-53 29 -133 29q-106 0 -184 -92.5t-113 -258.5l-88 -444h-285zM424 1249l270 342h322l-342 -342h-250z" />
<glyph unicode="&#x158;" horiz-adv-x="1484" d="M86 0l303 1556h416q266 0 415.5 -117.5t149.5 -330.5q0 -164 -89 -290t-251 -187l293 -631h-336l-225 557q-16 -2 -62 -2h-206l-109 -555h-299zM541 2019h264l113 -161l176 161h289l-342 -309h-273zM543 807h178q152 0 249 78t97 202q0 104 -72.5 161t-212.5 57h-143z " />
<glyph unicode="&#x159;" horiz-adv-x="882" d="M51 0l203 1042h270l-22 -153q43 74 125 123t161 49q76 0 134 -31l-68 -264q-53 29 -133 29q-106 0 -184 -92.5t-113 -258.5l-88 -444h-285zM272 1591h235l115 -186l186 186h261l-344 -342h-240z" />
<glyph unicode="&#x15a;" horiz-adv-x="1331" d="M51 119l68 262q102 -72 221 -113t227 -41q141 0 225.5 56.5t84.5 150.5q0 70 -57.5 123t-209.5 121q-195 86 -276.5 187.5t-81.5 254.5q0 137 69.5 242.5t199.5 166t304 60.5q123 0 250 -35.5t219 -95.5l-69 -256q-100 61 -203.5 94t-194.5 33q-121 0 -195.5 -53 t-74.5 -139q0 -63 50 -111.5t181 -105.5q152 -68 238 -136.5t124 -149.5t38 -188q0 -141 -74 -249.5t-212.5 -169t-326.5 -60.5q-141 0 -282 41t-242 111zM676 1710l272 293h354l-356 -293h-270z" />
<glyph unicode="&#x15b;" horiz-adv-x="976" d="M23 86l59 221q72 -53 159 -82.5t173 -29.5q72 0 114.5 25.5t42.5 66.5q0 37 -33.5 63.5t-134.5 69.5q-141 61 -204.5 139t-63.5 186q0 147 116 238.5t302 91.5q90 0 186.5 -26.5t167.5 -71.5l-53 -223q-68 43 -150.5 68.5t-152.5 25.5q-66 0 -103.5 -24.5t-37.5 -69.5 q0 -33 26.5 -55.5t108.5 -57.5q168 -72 237.5 -149.5t69.5 -190.5q0 -152 -117.5 -243t-312.5 -91q-109 0 -222.5 34t-176.5 85zM424 1249l270 342h322l-342 -342h-250z" />
<glyph unicode="&#x15e;" horiz-adv-x="1331" d="M51 119l68 262q102 -72 221 -113t227 -41q141 0 225.5 56.5t84.5 150.5q0 70 -57.5 123t-209.5 121q-195 86 -276.5 187.5t-81.5 254.5q0 137 69.5 242.5t199.5 166t304 60.5q123 0 250 -35.5t219 -95.5l-69 -256q-100 61 -203.5 94t-194.5 33q-121 0 -195.5 -53 t-74.5 -139q0 -63 50 -111.5t181 -105.5q152 -68 238 -136.5t124 -149.5t38 -188q0 -141 -74 -249.5t-212.5 -169t-326.5 -60.5q-141 0 -282 41t-242 111zM203 -492l47 158q27 -16 66 -26.5t77 -10.5q117 0 117 74q0 57 -104 57q-45 0 -70 -6l115 266h174l-59 -137 q82 -14 125.5 -62t43.5 -120q0 -113 -85.5 -175.5t-239.5 -62.5q-63 0 -120.5 12.5t-86.5 32.5z" />
<glyph unicode="&#x15f;" horiz-adv-x="976" d="M23 86l59 221q72 -53 159 -82.5t173 -29.5q72 0 114.5 25.5t42.5 66.5q0 37 -33.5 63.5t-134.5 69.5q-141 61 -204.5 139t-63.5 186q0 147 116 238.5t302 91.5q90 0 186.5 -26.5t167.5 -71.5l-53 -223q-68 43 -150.5 68.5t-152.5 25.5q-66 0 -103.5 -24.5t-37.5 -69.5 q0 -33 26.5 -55.5t108.5 -57.5q168 -72 237.5 -149.5t69.5 -190.5q0 -152 -117.5 -243t-312.5 -91q-109 0 -222.5 34t-176.5 85zM71 -489l47 147q29 -14 69 -24.5t75 -10.5q59 0 92 21.5t33 60.5q0 61 -101 62q-43 0 -79 -9l114 262h168l-59 -137q164 -29 164 -182 q0 -109 -85.5 -173.5t-228.5 -64.5q-63 0 -119.5 13.5t-89.5 34.5z" />
<glyph unicode="&#x160;" horiz-adv-x="1331" d="M51 119l68 262q102 -72 221 -113t227 -41q141 0 225.5 56.5t84.5 150.5q0 70 -57.5 123t-209.5 121q-195 86 -276.5 187.5t-81.5 254.5q0 137 69.5 242.5t199.5 166t304 60.5q123 0 250 -35.5t219 -95.5l-69 -256q-100 61 -203.5 94t-194.5 33q-121 0 -195.5 -53 t-74.5 -139q0 -63 50 -111.5t181 -105.5q152 -68 238 -136.5t124 -149.5t38 -188q0 -141 -74 -249.5t-212.5 -169t-326.5 -60.5q-141 0 -282 41t-242 111zM500 2019h264l113 -161l176 161h289l-342 -309h-273z" />
<glyph unicode="&#x161;" horiz-adv-x="976" d="M23 86l59 221q72 -53 159 -82.5t173 -29.5q72 0 114.5 25.5t42.5 66.5q0 37 -33.5 63.5t-134.5 69.5q-141 61 -204.5 139t-63.5 186q0 147 116 238.5t302 91.5q90 0 186.5 -26.5t167.5 -71.5l-53 -223q-68 43 -150.5 68.5t-152.5 25.5q-66 0 -103.5 -24.5t-37.5 -69.5 q0 -33 26.5 -55.5t108.5 -57.5q168 -72 237.5 -149.5t69.5 -190.5q0 -152 -117.5 -243t-312.5 -91q-109 0 -222.5 34t-176.5 85zM272 1591h235l115 -186l186 186h261l-344 -342h-240z" />
<glyph unicode="&#x162;" horiz-adv-x="1433" d="M223 1298l51 258h1287l-50 -258h-487l-254 -1298h-313l254 1298h-488zM299 -492l47 158q27 -16 66 -26.5t77 -10.5q117 0 117 74q0 57 -104 57q-45 0 -70 -6l115 266h174l-59 -137q82 -14 125.5 -62t43.5 -120q0 -113 -85.5 -175.5t-239.5 -62.5q-63 0 -120.5 12.5 t-86.5 32.5z" />
<glyph unicode="&#x163;" horiz-adv-x="944" d="M82 807l45 235h199l55 283h285l-58 -283h295l-47 -235h-293l-74 -385q-10 -53 -10 -80q0 -66 32 -94q32 -29 99 -29q100 0 187 39l-2 -238q-45 -25 -115 -38q-69 -15 -139 -15q-350 0 -351 316q0 74 15 139l74 385h-197zM147 -489l47 147q29 -14 69 -24.5t75 -10.5 q59 0 92 21.5t33 60.5q0 61 -101 62q-43 0 -79 -9l114 262h168l-59 -137q164 -29 164 -182q0 -109 -85.5 -173.5t-228.5 -64.5q-63 0 -119.5 13.5t-89.5 34.5z" />
<glyph unicode="&#x164;" horiz-adv-x="1433" d="M223 1298l51 258h1287l-50 -258h-487l-254 -1298h-313l254 1298h-488zM574 2019h264l113 -161l176 161h289l-342 -309h-273z" />
<glyph unicode="&#x165;" horiz-adv-x="944" d="M82 807l45 235h199l55 283h285l-58 -283h295l-47 -235h-293l-74 -385q-10 -53 -10 -80q0 -66 32 -94q32 -29 99 -29q100 0 187 39l-2 -238q-45 -25 -115 -38q-69 -15 -139 -15q-350 0 -351 316q0 74 15 139l74 385h-197zM760 1219l104 440h264l-184 -440h-184z" />
<glyph unicode="&#x168;" horiz-adv-x="1708" d="M193 535q0 74 22 194l160 827h315l-164 -833q-16 -88 -16 -145q0 -164 80 -248t237 -84q180 0 278.5 106.5t145.5 349.5l168 854h316l-179 -909q-70 -348 -252 -514t-495 -166q-295 0 -455.5 147.5t-160.5 420.5zM680 1708q20 158 88.5 239t179.5 81q57 0 94 -19.5 t63.5 -43t51 -43t57.5 -19.5q37 0 57.5 28.5t30.5 91.5h191q-48 -319 -273 -319q-55 0 -92 18.5t-63.5 43t-51 43t-55.5 18.5q-37 0 -57.5 -26.5t-34.5 -92.5h-186z" />
<glyph unicode="&#x169;" horiz-adv-x="1253" d="M111 301q0 55 14 127l121 614h284l-114 -581q-8 -49 -8 -82q0 -160 147 -160q96 0 165 71t91 191l109 561h284l-203 -1042h-274l18 111q-53 -68 -135 -106t-178 -38q-158 0 -239 86q-82 86 -82 248zM369 1260q20 156 88.5 235.5t181.5 79.5q55 0 93 -19.5t63.5 -43 t51 -43t56.5 -19.5q37 0 57.5 27.5t32.5 93.5h189q-20 -156 -88 -236t-181 -80q-57 0 -94 19.5t-63.5 43t-51 43t-57.5 19.5q-37 0 -57.5 -28.5t-30.5 -91.5h-190z" />
<glyph unicode="&#x16a;" horiz-adv-x="1708" d="M193 535q0 74 22 194l160 827h315l-164 -833q-16 -88 -16 -145q0 -164 80 -248t237 -84q180 0 278.5 106.5t145.5 349.5l168 854h316l-179 -909q-70 -348 -252 -514t-495 -166q-295 0 -455.5 147.5t-160.5 420.5zM731 1733l39 206h659l-39 -206h-659z" />
<glyph unicode="&#x16b;" horiz-adv-x="1253" d="M111 301q0 55 14 127l121 614h284l-114 -581q-8 -49 -8 -82q0 -160 147 -160q96 0 165 71t91 191l109 561h284l-203 -1042h-274l18 111q-53 -68 -135 -106t-178 -38q-158 0 -239 86q-82 86 -82 248zM426 1294l37 203h653l-37 -203h-653z" />
<glyph unicode="&#x16e;" horiz-adv-x="1708" d="M193 535q0 74 22 194l160 827h315l-164 -833q-16 -88 -16 -145q0 -164 80 -248t237 -84q180 0 278.5 106.5t145.5 349.5l168 854h316l-179 -909q-70 -348 -252 -514t-495 -166q-295 0 -455.5 147.5t-160.5 420.5zM811 1948q0 117 81.5 194.5t206.5 77.5t207 -78t82 -194 q0 -117 -83 -196t-206 -79t-205.5 79t-82.5 196zM981 1948q0 -53 32.5 -86t85.5 -33q55 0 87 32.5t32 86.5q0 55 -31.5 86.5t-87.5 31.5q-55 0 -86.5 -31.5t-31.5 -86.5z" />
<glyph unicode="&#x16f;" horiz-adv-x="1253" d="M111 301q0 55 14 127l121 614h284l-114 -581q-8 -49 -8 -82q0 -160 147 -160q96 0 165 71t91 191l109 561h284l-203 -1042h-274l18 111q-53 -68 -135 -106t-178 -38q-158 0 -239 86q-82 86 -82 248zM475 1458q0 117 82 195t207 78t207 -78t82 -195t-82 -194.5t-207 -77.5 t-207 77.5t-82 194.5zM645 1458q0 -53 33 -86t86 -33q55 0 87 33t32 86q0 55 -32 87t-87 32t-87 -32t-32 -87z" />
<glyph unicode="&#x170;" horiz-adv-x="1708" d="M193 535q0 74 22 194l160 827h315l-164 -833q-16 -88 -16 -145q0 -164 80 -248t237 -84q180 0 278.5 106.5t145.5 349.5l168 854h316l-179 -909q-70 -348 -252 -514t-495 -166q-295 0 -455.5 147.5t-160.5 420.5zM666 1710l198 291h316l-254 -291h-260zM1098 1710 l201 291h313l-252 -291h-262z" />
<glyph unicode="&#x171;" horiz-adv-x="1253" d="M111 301q0 55 14 127l121 614h284l-114 -581q-8 -49 -8 -82q0 -160 147 -160q96 0 165 71t91 191l109 561h284l-203 -1042h-274l18 111q-53 -68 -135 -106t-178 -38q-158 0 -239 86q-82 86 -82 248zM399 1249l219 342h281l-273 -342h-227zM786 1249l221 342h281 l-273 -342h-229z" />
<glyph unicode="&#x172;" horiz-adv-x="1708" d="M193 535q0 74 22 194l160 827h315l-164 -833q-16 -88 -16 -145q0 -164 80 -248t237 -84q180 0 278.5 106.5t145.5 349.5l168 854h316l-179 -909q-70 -348 -252 -514t-495 -166q-295 0 -455.5 147.5t-160.5 420.5zM654 -330q0 119 117.5 231.5t316.5 186.5l110 -29 q-141 -82 -220 -164.5t-79 -148.5t82 -65q57 0 105 24l-11 -201q-74 -34 -172 -34q-117 0 -183 53t-66 147z" />
<glyph unicode="&#x173;" horiz-adv-x="1253" d="M111 301q0 55 14 127l121 614h284l-114 -581q-8 -49 -8 -82q0 -160 147 -160q96 0 165 71t91 191l109 561h284l-203 -1042h-274l18 111q-53 -68 -135 -106t-178 -38q-158 0 -239 86q-82 86 -82 248zM545 -330q0 113 105.5 228.5t267.5 183.5l84 -82 q-106 -70 -163.5 -138.5t-57.5 -125.5q0 -59 71 -60q43 0 99 23l-11 -195q-27 -14 -74 -24t-94 -10q-106 0 -166.5 53t-60.5 147z" />
<glyph unicode="&#x174;" horiz-adv-x="2269" d="M248 1556h319l72 -1142l539 1122h292l113 -1094l500 1114h340l-764 -1556h-291l-117 1124l-546 -1124h-297zM934 1710l342 309h272l227 -309h-264l-111 158l-176 -158h-290z" />
<glyph unicode="&#x175;" horiz-adv-x="1716" d="M143 1042h279l59 -708l330 708h254l80 -688l323 688h306l-549 -1042h-260l-84 705l-326 -705h-266zM584 1249l344 342h240l211 -342h-234l-115 187l-186 -187h-260z" />
<glyph unicode="&#x176;" horiz-adv-x="1478" d="M223 1556h326l248 -661l503 661h357l-742 -913l-124 -643h-312l127 651zM537 1710l342 309h272l227 -309h-264l-111 158l-176 -158h-290z" />
<glyph unicode="&#x177;" horiz-adv-x="1189" d="M-18 -502l383 594l-232 950h295l131 -671l387 671h311l-974 -1544h-301zM326 1249l344 342h240l211 -342h-234l-115 187l-186 -187h-260z" />
<glyph unicode="&#x178;" horiz-adv-x="1478" d="M223 1556h326l248 -661l503 661h357l-742 -913l-124 -643h-312l127 651zM614 1837q0 68 46.5 113t115.5 45q59 0 97 -36t38 -93q0 -70 -46 -115t-115 -45q-59 0 -97.5 37t-38.5 94zM1059 1837q0 68 46 113t116 45q59 0 97 -36t38 -93q0 -70 -46 -115t-116 -45 q-59 0 -97 37t-38 94z" />
<glyph unicode="&#x179;" horiz-adv-x="1480" d="M10 0l41 225l1010 1075h-764l49 256h1172l-43 -225l-1012 -1075h840l-52 -256h-1241zM752 1710l272 293h354l-356 -293h-270z" />
<glyph unicode="&#x17a;" horiz-adv-x="1079" d="M-8 0l37 203l604 604h-471l47 235h838l-35 -202l-609 -604h533l-47 -236h-897zM487 1249l270 342h322l-342 -342h-250z" />
<glyph unicode="&#x17b;" horiz-adv-x="1480" d="M10 0l41 225l1010 1075h-764l49 256h1172l-43 -225l-1012 -1075h840l-52 -256h-1241zM813 1847q0 76 51.5 125t128.5 49q68 0 109 -39.5t41 -105.5q0 -78 -51 -128t-131 -50q-66 0 -107 42t-41 107z" />
<glyph unicode="&#x17c;" horiz-adv-x="1079" d="M-8 0l37 203l604 604h-471l47 235h838l-35 -202l-609 -604h533l-47 -236h-897zM522 1397q0 74 49.5 122t124.5 48q66 0 106 -40t40 -102q0 -74 -50 -122t-126 -48q-63 0 -103.5 39t-40.5 103z" />
<glyph unicode="&#x17d;" horiz-adv-x="1480" d="M10 0l41 225l1010 1075h-764l49 256h1172l-43 -225l-1012 -1075h840l-52 -256h-1241zM576 2019h264l113 -161l176 161h289l-342 -309h-273z" />
<glyph unicode="&#x17e;" horiz-adv-x="1079" d="M-8 0l37 203l604 604h-471l47 235h838l-35 -202l-609 -604h533l-47 -236h-897zM336 1591h235l115 -186l186 186h261l-344 -342h-240z" />
<glyph unicode="&#x192;" horiz-adv-x="856" d="M-319 -457l59 226q68 -39 168 -39q90 0 144 61.5t81 194.5l158 821h-180l43 235h184l29 150q94 477 507 477q66 0 131.5 -16.5t106.5 -42.5l-59 -230q-78 41 -158 41q-102 0 -162.5 -64.5t-89.5 -203.5l-22 -111h272l-45 -235h-273l-159 -834q-51 -262 -165 -377.5 t-321 -115.5q-76 0 -143.5 17.5t-105.5 45.5z" />
<glyph unicode="&#x218;" horiz-adv-x="1331" d="M51 119l68 262q102 -72 221 -113t227 -41q141 0 225.5 56.5t84.5 150.5q0 70 -57.5 123t-209.5 121q-195 86 -276.5 187.5t-81.5 254.5q0 137 69.5 242.5t199.5 166t304 60.5q123 0 250 -35.5t219 -95.5l-69 -256q-100 61 -203.5 94t-194.5 33q-121 0 -195.5 -53 t-74.5 -139q0 -63 50 -111.5t181 -105.5q152 -68 238 -136.5t124 -149.5t38 -188q0 -141 -74 -249.5t-212.5 -169t-326.5 -60.5q-141 0 -282 41t-242 111zM236 -506q133 174 159 377h273q-16 -104 -72.5 -207.5t-134.5 -169.5h-225z" />
<glyph unicode="&#x219;" horiz-adv-x="976" d="M23 86l59 221q72 -53 159 -82.5t173 -29.5q72 0 114.5 25.5t42.5 66.5q0 37 -33.5 63.5t-134.5 69.5q-141 61 -204.5 139t-63.5 186q0 147 116 238.5t302 91.5q90 0 186.5 -26.5t167.5 -71.5l-53 -223q-68 43 -150.5 68.5t-152.5 25.5q-66 0 -103.5 -24.5t-37.5 -69.5 q0 -33 26.5 -55.5t108.5 -57.5q168 -72 237.5 -149.5t69.5 -190.5q0 -152 -117.5 -243t-312.5 -91q-109 0 -222.5 34t-176.5 85zM71 -506q137 186 160 377h264q-14 -102 -70.5 -205.5t-136.5 -171.5h-217z" />
<glyph unicode="&#x21a;" horiz-adv-x="1433" d="M223 1298l51 258h1287l-50 -258h-487l-254 -1298h-313l254 1298h-488zM297 -506q133 174 159 377h273q-16 -104 -72.5 -207.5t-134.5 -169.5h-225z" />
<glyph unicode="&#x21b;" horiz-adv-x="944" d="M82 807l45 235h199l55 283h285l-58 -283h295l-47 -235h-293l-74 -385q-10 -53 -10 -80q0 -66 32 -94q32 -29 99 -29q100 0 187 39l-2 -238q-45 -25 -115 -38q-69 -15 -139 -15q-350 0 -351 316q0 74 15 139l74 385h-197zM135 -506q137 186 160 377h264 q-14 -102 -70.5 -205.5t-136.5 -171.5h-217z" />
<glyph unicode="&#x237;" horiz-adv-x="587" d="M-406 -457l60 226q68 -39 168 -39q90 0 145.5 62.5t81.5 195.5l205 1054h285l-209 -1071q-51 -262 -165 -376.5t-321 -114.5q-76 0 -143.5 17.5t-106.5 45.5z" />
<glyph unicode="&#x2c6;" horiz-adv-x="1024" d="M299 1249l344 342h240l211 -342h-234l-115 187l-186 -187h-260z" />
<glyph unicode="&#x2c7;" horiz-adv-x="1024" d="M336 1591h235l115 -186l186 186h261l-344 -342h-240z" />
<glyph unicode="&#x2c9;" horiz-adv-x="1024" d="M379 1294l37 203h653l-37 -203h-653z" />
<glyph unicode="&#x2cb;" horiz-adv-x="1024" d="M463 1591h299l147 -342h-233z" />
<glyph unicode="&#x2d8;" horiz-adv-x="1024" d="M395 1466q0 49 15 90h188q-4 -35 -4 -47q0 -123 131 -123q78 0 122 42t58 128h195q-10 -164 -109.5 -254t-273.5 -90q-150 0 -236 69t-86 185z" />
<glyph unicode="&#x2d9;" horiz-adv-x="1024" d="M567 1397q0 74 49.5 122t124.5 48q66 0 106 -40t40 -102q0 -74 -50 -122t-126 -48q-63 0 -103.5 39t-40.5 103z" />
<glyph unicode="&#x2da;" horiz-adv-x="1024" d="M395 1458q0 117 82 195t207 78t207 -78t82 -195t-82 -194.5t-207 -77.5t-207 77.5t-82 194.5zM565 1458q0 -53 33 -86t86 -33q55 0 87 33t32 86q0 55 -32 87t-87 32t-87 -32t-32 -87z" />
<glyph unicode="&#x2db;" horiz-adv-x="1024" d="M295 -330q0 113 105.5 228.5t267.5 183.5l84 -82q-106 -70 -163.5 -138.5t-57.5 -125.5q0 -59 71 -60q43 0 99 23l-11 -195q-27 -14 -74 -24t-94 -10q-106 0 -166.5 53t-60.5 147z" />
<glyph unicode="&#x2dc;" horiz-adv-x="1024" d="M322 1260q20 156 88.5 235.5t181.5 79.5q55 0 93 -19.5t63.5 -43t51 -43t56.5 -19.5q37 0 57.5 27.5t32.5 93.5h189q-20 -156 -88 -236t-181 -80q-57 0 -94 19.5t-63.5 43t-51 43t-57.5 19.5q-37 0 -57.5 -28.5t-30.5 -91.5h-190z" />
<glyph unicode="&#x2dd;" horiz-adv-x="1024" d="M276 1249l219 342h281l-273 -342h-227zM663 1249l221 342h281l-273 -342h-229z" />
<glyph unicode="&#x300;" horiz-adv-x="0" d="M-100 1591h299l147 -342h-233z" />
<glyph unicode="&#x301;" horiz-adv-x="0" d="M-45 1249l270 342h322l-342 -342h-250z" />
<glyph unicode="&#x302;" horiz-adv-x="0" d="M-256 1249l344 342h240l211 -342h-234l-115 187l-186 -187h-260z" />
<glyph unicode="&#x303;" horiz-adv-x="0" d="M-233 1260q20 156 88.5 235.5t181.5 79.5q55 0 93 -19.5t63.5 -43t51 -43t56.5 -19.5q37 0 57.5 27.5t32.5 93.5h189q-20 -156 -88 -236t-181 -80q-57 0 -94 19.5t-63.5 43t-51 43t-57.5 19.5q-37 0 -57.5 -28.5t-30.5 -91.5h-190z" />
<glyph unicode="&#x304;" horiz-adv-x="0" d="M-176 1294l37 203h653l-37 -203h-653z" />
<glyph unicode="&#x306;" horiz-adv-x="0" d="M-162 1466q0 49 15 90h188q-4 -35 -4 -47q0 -123 131 -123q78 0 122 42t58 128h195q-10 -164 -109.5 -254t-273.5 -90q-150 0 -236 69t-86 185z" />
<glyph unicode="&#x307;" horiz-adv-x="0" d="M14 1397q0 74 49.5 122t124.5 48q66 0 106 -40t40 -102q0 -74 -50 -122t-126 -48q-63 0 -103.5 39t-40.5 103z" />
<glyph unicode="&#x308;" horiz-adv-x="0" d="M-195 1391q0 66 45.5 110.5t114.5 44.5q59 0 96 -35.5t37 -93.5q0 -68 -44.5 -111.5t-112.5 -43.5q-61 0 -98.5 35.5t-37.5 93.5zM244 1391q0 66 45 110.5t114 44.5q59 0 96.5 -35.5t37.5 -93.5q0 -68 -45 -111.5t-113 -43.5q-61 0 -98 35.5t-37 93.5z" />
<glyph unicode="&#x30a;" horiz-adv-x="0" d="M-117 1458q0 117 82 195t207 78t207 -78t82 -195t-82 -194.5t-207 -77.5t-207 77.5t-82 194.5zM53 1458q0 -53 33 -86t86 -33q55 0 87 33t32 86q0 55 -32 87t-87 32t-87 -32t-32 -87z" />
<glyph unicode="&#x30b;" horiz-adv-x="0" d="M-213 1249l219 342h281l-273 -342h-227zM174 1249l221 342h281l-273 -342h-229z" />
<glyph unicode="&#x30c;" horiz-adv-x="0" d="M-217 1591h235l115 -186l186 186h261l-344 -342h-240z" />
<glyph unicode="&#x312;" horiz-adv-x="0" d="M-12 1249q12 94 68.5 195.5t129.5 161.5h211q-59 -76 -98 -171.5t-47 -185.5h-264z" />
<glyph unicode="&#x315;" horiz-adv-x="0" d="M-27 1169l119 490h277l-203 -490h-193z" />
<glyph unicode="&#x326;" horiz-adv-x="0" d="M-418 -506q137 186 160 377h264q-14 -102 -70.5 -205.5t-136.5 -171.5h-217z" />
<glyph unicode="&#x327;" horiz-adv-x="0" d="M-455 -489l47 147q29 -14 69 -24.5t75 -10.5q59 0 92 21.5t33 60.5q0 61 -101 62q-43 0 -79 -9l114 262h168l-59 -137q164 -29 164 -182q0 -109 -85.5 -173.5t-228.5 -64.5q-63 0 -119.5 13.5t-89.5 34.5z" />
<glyph unicode="&#x328;" horiz-adv-x="0" d="M-377 -330q0 113 105.5 228.5t267.5 183.5l84 -82q-106 -70 -163.5 -138.5t-57.5 -125.5q0 -59 71 -60q43 0 99 23l-11 -195q-27 -14 -74 -24t-94 -10q-106 0 -166.5 53t-60.5 147z" />
<glyph unicode="&#x3c0;" horiz-adv-x="1396" d="M137 807l47 235h1209l-43 -235h-164l-88 -459q-6 -37 -6 -53q0 -39 16 -54.5t59 -15.5q37 0 70 13l-31 -236q-51 -22 -139 -22q-137 0 -201.5 54t-64.5 167q0 55 14 127l92 479h-327l-156 -807h-281l158 807h-164z" />
<glyph unicode="&#x1e80;" horiz-adv-x="2269" d="M248 1556h319l72 -1142l539 1122h292l113 -1094l500 1114h340l-764 -1556h-291l-117 1124l-546 -1124h-297zM1044 2003h328l170 -293h-258z" />
<glyph unicode="&#x1e81;" horiz-adv-x="1716" d="M143 1042h279l59 -708l330 708h254l80 -688l323 688h306l-549 -1042h-260l-84 705l-326 -705h-266zM688 1591h299l147 -342h-233z" />
<glyph unicode="&#x1e82;" horiz-adv-x="2269" d="M248 1556h319l72 -1142l539 1122h292l113 -1094l500 1114h340l-764 -1556h-291l-117 1124l-546 -1124h-297zM1157 1710l272 293h354l-356 -293h-270z" />
<glyph unicode="&#x1e83;" horiz-adv-x="1716" d="M143 1042h279l59 -708l330 708h254l80 -688l323 688h306l-549 -1042h-260l-84 705l-326 -705h-266zM801 1249l270 342h322l-342 -342h-250z" />
<glyph unicode="&#x1e84;" horiz-adv-x="2269" d="M248 1556h319l72 -1142l539 1122h292l113 -1094l500 1114h340l-764 -1556h-291l-117 1124l-546 -1124h-297zM1011 1837q0 68 46.5 113t115.5 45q59 0 97 -36t38 -93q0 -70 -46 -115t-115 -45q-59 0 -97.5 37t-38.5 94zM1456 1837q0 68 46 113t116 45q59 0 97 -36t38 -93 q0 -70 -46 -115t-116 -45q-59 0 -97 37t-38 94z" />
<glyph unicode="&#x1e85;" horiz-adv-x="1716" d="M143 1042h279l59 -708l330 708h254l80 -688l323 688h306l-549 -1042h-260l-84 705l-326 -705h-266zM645 1391q0 66 45.5 110.5t114.5 44.5q59 0 96 -35.5t37 -93.5q0 -68 -44.5 -111.5t-112.5 -43.5q-61 0 -98.5 35.5t-37.5 93.5zM1084 1391q0 66 45 110.5t114 44.5 q59 0 96.5 -35.5t37.5 -93.5q0 -68 -45 -111.5t-113 -43.5q-61 0 -98 35.5t-37 93.5z" />
<glyph unicode="&#x1e9e;" horiz-adv-x="1628" d="M70 0l178 907q66 332 257 507t492 175q104 0 207 -24.5t194 -71.5t156 -111l-30 -192l-297 -307q137 -47 208.5 -150.5t71.5 -249.5q0 -150 -69.5 -266.5t-201.5 -183t-306 -66.5q-111 0 -209 26.5t-158 72.5l68 247q125 -92 270 -92q139 0 223 74t84 192 q0 100 -63.5 160t-169.5 60q-14 0 -29.5 -1t-32.5 -6l-53 162l371 387q-113 68 -244 68q-348 0 -440 -471l-166 -846h-311z" />
<glyph unicode="&#x1ef2;" horiz-adv-x="1478" d="M223 1556h326l248 -661l503 661h357l-742 -913l-124 -643h-312l127 651zM647 2003h328l170 -293h-258z" />
<glyph unicode="&#x1ef3;" horiz-adv-x="1189" d="M-18 -502l383 594l-232 950h295l131 -671l387 671h311l-974 -1544h-301zM430 1591h299l147 -342h-233z" />
<glyph unicode="&#x2000;" horiz-adv-x="1024" />
<glyph unicode="&#x2001;" horiz-adv-x="2048" />
<glyph unicode="&#x2002;" horiz-adv-x="1024" />
<glyph unicode="&#x2003;" horiz-adv-x="2048" />
<glyph unicode="&#x2004;" horiz-adv-x="681" />
<glyph unicode="&#x2005;" horiz-adv-x="512" />
<glyph unicode="&#x2006;" horiz-adv-x="339" />
<glyph unicode="&#x2007;" horiz-adv-x="1269" />
<glyph unicode="&#x2008;" horiz-adv-x="614" />
<glyph unicode="&#x2009;" horiz-adv-x="409" />
<glyph unicode="&#x200a;" horiz-adv-x="112" />
<glyph unicode="&#x200b;" horiz-adv-x="0" />
<glyph unicode="&#x2010;" horiz-adv-x="870" d="M115 465l49 248h620l-49 -248h-620z" />
<glyph unicode="&#x2011;" horiz-adv-x="870" d="M115 465l49 248h620l-49 -248h-620z" />
<glyph unicode="&#x2012;" horiz-adv-x="1024" d="M-8 479l41 221h1024l-41 -221h-1024z" />
<glyph unicode="&#x2013;" horiz-adv-x="1024" d="M-8 479l41 221h1024l-41 -221h-1024z" />
<glyph unicode="&#x2014;" horiz-adv-x="2048" d="M-8 479l41 221h2048l-41 -221h-2048z" />
<glyph unicode="&#x2015;" horiz-adv-x="2048" d="M-8 479l41 221h2048l-41 -221h-2048z" />
<glyph unicode="&#x2018;" horiz-adv-x="458" d="M178 1049q12 145 70.5 279t150.5 228h219q-72 -96 -117.5 -231t-56.5 -276h-266z" />
<glyph unicode="&#x2019;" horiz-adv-x="458" d="M143 1049q72 100 119 234t55 273h267q-12 -141 -71.5 -276t-152.5 -231h-217z" />
<glyph unicode="&#x201a;" horiz-adv-x="458" d="M-111 -258q72 100 119 234.5t55 273.5h267q-12 -141 -71.5 -276.5t-152.5 -231.5h-217z" />
<glyph unicode="&#x201c;" horiz-adv-x="862" d="M178 1049q12 145 70.5 279t150.5 228h219q-72 -96 -117.5 -231t-56.5 -276h-266zM581 1049q12 145 70.5 279t150.5 228h219q-72 -96 -117.5 -231t-56.5 -276h-266z" />
<glyph unicode="&#x201d;" horiz-adv-x="862" d="M143 1049q72 100 119 234t55 273h267q-12 -141 -71.5 -276t-152.5 -231h-217zM549 1049q72 100 119 234t55 273h267q-12 -141 -71.5 -276t-152.5 -231h-217z" />
<glyph unicode="&#x201e;" horiz-adv-x="862" d="M-111 -258q72 100 119 234.5t55 273.5h267q-12 -141 -71.5 -276.5t-152.5 -231.5h-217zM295 -258q72 100 119 234.5t55 273.5h267q-12 -141 -71.5 -276.5t-152.5 -231.5h-217z" />
<glyph unicode="&#x2020;" horiz-adv-x="1044" d="M143 874l45 230h304l90 452h284l-90 -452h307l-45 -230h-305l-221 -1140h-285l222 1140h-306z" />
<glyph unicode="&#x2021;" horiz-adv-x="1044" d="M4 162l45 229h305l99 506h-306l46 227h303l86 432h284l-86 -432h307l-45 -227h-305l-100 -506h307l-45 -229h-305l-82 -428h-285l82 428h-305z" />
<glyph unicode="&#x2022;" horiz-adv-x="741" d="M111 559q0 72 33.5 132.5t95 97t137.5 36.5q113 0 190.5 -77.5t77.5 -188.5q0 -70 -33.5 -131t-96 -99t-138.5 -38q-111 0 -188.5 79t-77.5 189z" />
<glyph unicode="&#x2026;" horiz-adv-x="2048" d="M92 139q0 80 55.5 132.5t139.5 52.5q70 0 114 -42t44 -108q0 -82 -54.5 -134t-140.5 -52q-70 0 -114 42t-44 109zM774 139q0 80 55.5 132.5t139.5 52.5q70 0 114 -42t44 -108q0 -82 -54.5 -134t-140.5 -52q-70 0 -114 42t-44 109zM1460 139q0 80 55.5 132.5t139.5 52.5 q70 0 114 -42t44 -108q0 -82 -54.5 -134t-140.5 -52q-70 0 -114 42t-44 109z" />
<glyph unicode="&#x202f;" horiz-adv-x="444" />
<glyph unicode="&#x2030;" horiz-adv-x="3014" d="M238 1126q0 113 53 211.5t150.5 158.5t215.5 60q170 0 275.5 -99t105.5 -257q0 -113 -54 -210t-151.5 -158.5t-216.5 -61.5q-168 0 -273 99.5t-105 256.5zM305 0l1323 1524h273l-1323 -1524h-273zM455 1139q0 -80 44 -127t122 -47q84 0 142 64.5t58 158.5q0 80 -45 127 t-123 47q-84 0 -141 -64.5t-57 -158.5zM1174 332q0 113 53 211t150.5 158.5t215.5 60.5q170 0 275.5 -99.5t105.5 -256.5q0 -113 -54 -210.5t-151.5 -159t-216.5 -61.5q-168 0 -273 99.5t-105 257.5zM1391 344q0 -80 43.5 -127t121.5 -47q84 0 142.5 64.5t58.5 158.5 q0 80 -45 127t-123 47q-84 0 -141 -64.5t-57 -158.5zM2071 332q0 113 53 210t150.5 158.5t217.5 61.5q168 0 273.5 -99.5t105.5 -256.5q0 -113 -53 -210.5t-150.5 -159t-216.5 -61.5q-170 0 -275 99.5t-105 257.5zM2288 344q0 -82 46 -128t124 -46q84 0 141 64.5t57 158.5 q0 80 -45 127t-123 47q-84 0 -142 -64.5t-58 -158.5z" />
<glyph unicode="&#x2032;" horiz-adv-x="448" d="M127 961l201 595h280l-254 -595h-227z" />
<glyph unicode="&#x2033;" horiz-adv-x="886" d="M127 961l201 595h280l-254 -595h-227zM565 961l201 595h280l-254 -595h-227z" />
<glyph unicode="&#x2039;" horiz-adv-x="745" d="M57 526l387 449h318l-412 -471l207 -428h-291z" />
<glyph unicode="&#x203a;" horiz-adv-x="745" d="M-14 76l411 469l-207 430h291l209 -449l-387 -450h-317z" />
<glyph unicode="&#x2044;" horiz-adv-x="337" d="M-582 0l1323 1524h273l-1323 -1524h-273z" />
<glyph unicode="&#x205f;" horiz-adv-x="555" />
<glyph unicode="&#x2070;" d="M188 1260q0 68 14 131q39 186 146.5 292.5t257.5 106.5q145 0 233 -94t88 -252q0 -72 -14 -131q-41 -186 -148.5 -292.5t-254.5 -106.5t-234.5 94t-87.5 252zM405 1264q0 -78 31 -122t88 -44t102 59.5t70 163.5q14 68 14 119q0 78 -30.5 122t-87.5 44q-59 0 -106.5 -60.5 t-67.5 -162.5q-12 -63 -13 -119z" />
<glyph unicode="&#x2074;" d="M157 1104l31 178l459 488h225l-96 -500h109l-33 -166h-107l-33 -170h-192l33 170h-396zM393 1270h193l49 256z" />
<glyph unicode="&#x2075;" d="M188 983l47 174q94 -61 226 -61q72 0 117.5 29.5t45.5 76.5t-44 73t-124 26q-102 0 -176 -19l111 488h496l-35 -174h-312l-26 -119h28q137 0 214 -67.5t77 -186.5q0 -143 -102.5 -226t-278.5 -83q-76 0 -149.5 19t-114.5 50z" />
<glyph unicode="&#x2076;" d="M196 1202q0 141 108.5 298t289.5 276l270 -8q-115 -72 -211 -154t-158 -160q45 29 109 29q117 0 188.5 -68.5t71.5 -179.5q0 -141 -100 -231t-256 -90q-145 0 -228.5 76.5t-83.5 211.5zM397 1190q0 -49 32 -79t83 -30q63 0 105 41t42 101q0 49 -31.5 78.5t-82.5 29.5 q-63 0 -105.5 -40t-42.5 -101z" />
<glyph unicode="&#x2077;" d="M264 938l403 641h-372l37 191h612l-35 -172l-405 -668z" />
<glyph unicode="&#x2078;" d="M184 1149q0 82 50 146.5t130 87.5q-82 47 -82 153q0 113 92.5 183.5t237.5 70.5q133 0 214 -61.5t81 -159.5q0 -72 -37 -127t-104 -82q45 -25 69.5 -70t24.5 -102q0 -125 -97 -199.5t-259 -74.5q-150 0 -235 63t-85 172zM393 1170q0 -45 33 -73t86 -28q61 0 101 36t40 91 q0 45 -32.5 70.5t-88.5 25.5q-61 0 -100 -34.5t-39 -87.5zM477 1526q0 -43 27.5 -66.5t78.5 -23.5q53 0 89 31.5t36 80.5q0 43 -27.5 67t-78.5 24q-53 0 -89 -32t-36 -81z" />
<glyph unicode="&#x2079;" d="M246 936q250 158 368 311q-43 -27 -106 -26q-117 0 -188.5 67.5t-71.5 180.5q0 141 99 231t255 90q145 0 228 -75.5t83 -213.5q0 -141 -108.5 -297.5t-288.5 -275.5zM450 1481q0 -49 32 -79t83 -30q63 0 105 40t42 102q0 49 -30.5 78.5t-81.5 29.5q-63 0 -106.5 -40 t-43.5 -101z" />
<glyph unicode="&#x2080;" d="M-41 70q0 68 14 131q39 186 146.5 292.5t257.5 106.5q145 0 233 -94t88 -252q0 -72 -14 -131q-41 -186 -148.5 -292.5t-254.5 -106.5t-234.5 94t-87.5 252zM176 74q0 -78 31 -122t88 -44t102 59.5t70 163.5q14 68 14 119q0 78 -30.5 122t-87.5 44q-59 0 -106.5 -60.5 t-67.5 -162.5q-12 -63 -13 -119z" />
<glyph unicode="&#x2081;" d="M92 250l6 205l291 125h195l-164 -836h-215l117 602z" />
<glyph unicode="&#x2082;" d="M-49 -256l33 174q174 119 274 199q86 72 123 123t37 98q0 39 -28.5 60.5t-78.5 21.5q-53 0 -113.5 -26.5t-105.5 -69.5l-26 176q49 45 125.5 72.5t156.5 27.5q127 0 207 -65.5t80 -169.5q0 -84 -43 -159t-141 -159q-80 -66 -170 -123h323l-35 -180h-618z" />
<glyph unicode="&#x2083;" d="M-49 -203l39 170q49 -33 110.5 -51t118.5 -18q74 0 118 32.5t44 85.5q0 94 -131 95q-31 0 -72 -13l-39 111l232 197h-312l35 174h570l-31 -162l-211 -176q82 -20 128 -79t46 -145q0 -133 -103.5 -213.5t-271.5 -80.5q-76 0 -153.5 20t-116.5 53z" />
<glyph unicode="&#x2084;" d="M-72 -86l31 178l459 488h225l-96 -500h109l-33 -166h-107l-33 -170h-192l33 170h-396zM164 80h193l49 256z" />
<glyph unicode="&#x2085;" d="M-41 -207l47 174q94 -61 226 -61q72 0 117.5 29.5t45.5 76.5t-44 73t-124 26q-102 0 -176 -19l111 488h496l-35 -174h-312l-26 -119h28q137 0 214 -67.5t77 -186.5q0 -143 -102.5 -226t-278.5 -83q-76 0 -149.5 19t-114.5 50z" />
<glyph unicode="&#x2086;" d="M-33 12q0 141 108.5 298t289.5 276l270 -8q-115 -72 -211 -154t-158 -160q45 29 109 29q117 0 188.5 -68.5t71.5 -179.5q0 -141 -100 -231t-256 -90q-145 0 -228.5 76.5t-83.5 211.5zM168 0q0 -49 32 -79t83 -30q63 0 105 41t42 101q0 49 -31.5 78.5t-82.5 29.5 q-63 0 -105.5 -40t-42.5 -101z" />
<glyph unicode="&#x2087;" d="M35 -252l403 641h-372l37 191h612l-35 -172l-405 -668z" />
<glyph unicode="&#x2088;" d="M-45 -41q0 82 50 146.5t130 87.5q-82 47 -82 153q0 113 92.5 183.5t237.5 70.5q133 0 214 -61.5t81 -159.5q0 -72 -37 -127t-104 -82q45 -25 69.5 -70t24.5 -102q0 -125 -97 -199.5t-259 -74.5q-150 0 -235 63t-85 172zM164 -20q0 -45 33 -73t86 -28q61 0 101 36t40 91 q0 45 -32.5 70.5t-88.5 25.5q-61 0 -100 -34.5t-39 -87.5zM248 336q0 -43 27.5 -66.5t78.5 -23.5q53 0 89 31.5t36 80.5q0 43 -27.5 67t-78.5 24q-53 0 -89 -32t-36 -81z" />
<glyph unicode="&#x2089;" d="M17 -254q250 158 368 311q-43 -27 -106 -26q-117 0 -188.5 67.5t-71.5 180.5q0 141 99 231t255 90q145 0 228 -75.5t83 -213.5q0 -141 -108.5 -297.5t-288.5 -275.5zM221 291q0 -49 32 -79t83 -30q63 0 105 40t42 102q0 49 -30.5 78.5t-81.5 29.5q-63 0 -106.5 -40 t-43.5 -101z" />
<glyph unicode="&#x20ac;" horiz-adv-x="1269" d="M45 496l35 184h186q2 80 17 164h-170l34 184h183q55 160 157.5 278.5t241.5 184t303 65.5q104 0 197.5 -22.5t159.5 -63.5l-60 -229q-145 76 -303 76q-129 0 -238.5 -78t-169.5 -211h517l-35 -184h-539q-14 -74 -18 -164h524l-35 -184h-479q23 -147 106.5 -218t239.5 -71 q70 0 143.5 17.5t135.5 47.5v-239q-131 -66 -324 -66q-260 0 -409.5 136.5t-176.5 392.5h-223z" />
<glyph unicode="&#x20ba;" horiz-adv-x="1269" d="M53 492l35 190l201 72l30 155l-196 -71l37 190l194 72l84 424h279l-64 -324l338 121l-35 -188l-340 -123l-30 -154l336 119l-35 -189l-340 -120l-86 -453q207 4 334 123t163 342l259 -16q-41 -342 -254 -518.5t-584 -176.5q-137 0 -240 25l113 571z" />
<glyph unicode="&#x2122;" horiz-adv-x="1716" d="M193 1384l30 172h633l-33 -172h-211l-112 -585h-213l114 585h-208zM803 799l194 757h213l101 -409l264 409h217l-102 -757h-189l68 467l-221 -338h-152l-86 350l-115 -479h-192z" />
<glyph unicode="&#x2126;" horiz-adv-x="1898" d="M78 0l51 258h295q-215 197 -215 508q0 221 107.5 407.5t301 301t435.5 114.5q217 0 387 -83t266 -238.5t96 -362.5q0 -195 -92 -360.5t-268 -286.5h268l-51 -258h-690l47 246q139 61 242.5 159.5t161 222.5t57.5 259q0 190 -118 307t-312 117q-145 0 -263 -72t-188 -204 t-70 -302q0 -154 56.5 -270.5t181.5 -216.5l-47 -246h-639z" />
<glyph unicode="&#x2150;" horiz-adv-x="1918" d="M147 0l1323 1524h273l-1323 -1524h-273zM274 1194l6 205l291 125h195l-164 -836h-215l117 602zM1210 4l403 641h-372l37 191h612l-35 -172l-405 -668z" />
<glyph unicode="&#x2151;" horiz-adv-x="1918" d="M155 0l1323 1524h273l-1323 -1524h-273zM274 1194l6 205l291 125h195l-164 -836h-215l117 602zM1194 2q250 158 368 311q-43 -27 -106 -26q-117 0 -188.5 67.5t-71.5 180.5q0 141 99 231t255 90q145 0 228 -75.5t83 -213.5q0 -141 -108.5 -297.5t-288.5 -275.5zM1398 547 q0 -49 32 -79t83 -30q63 0 105 40t42 102q0 49 -30.5 78.5t-81.5 29.5q-63 0 -106.5 -40t-43.5 -101z" />
<glyph unicode="&#x2153;" horiz-adv-x="1918" d="M139 0l1323 1524h273l-1323 -1524h-273zM274 1194l6 205l291 125h195l-164 -836h-215l117 602zM1126 53l39 170q49 -33 110.5 -51t118.5 -18q74 0 118 32.5t44 85.5q0 94 -131 95q-31 0 -72 -13l-39 111l232 197h-312l35 174h570l-31 -162l-211 -176q82 -20 128 -79 t46 -145q0 -133 -103.5 -213.5t-271.5 -80.5q-76 0 -153.5 20t-116.5 53z" />
<glyph unicode="&#x2154;" horiz-adv-x="1918" d="M131 688l33 174q174 119 274 199q86 72 123 123t37 98q0 39 -28.5 60.5t-78.5 21.5q-53 0 -113.5 -26.5t-105.5 -69.5l-26 176q49 45 125.5 72.5t156.5 27.5q127 0 207 -65.5t80 -169.5q0 -84 -43 -159t-141 -159q-80 -66 -170 -123h323l-35 -180h-618zM206 0l1323 1524 h273l-1323 -1524h-273zM1126 53l39 170q49 -33 110.5 -51t118.5 -18q74 0 118 32.5t44 85.5q0 94 -131 95q-31 0 -72 -13l-39 111l232 197h-312l35 174h570l-31 -162l-211 -176q82 -20 128 -79t46 -145q0 -133 -103.5 -213.5t-271.5 -80.5q-76 0 -153.5 20t-116.5 53z" />
<glyph unicode="&#x2155;" horiz-adv-x="1918" d="M174 0l1323 1524h273l-1323 -1524h-273zM274 1194l6 205l291 125h195l-164 -836h-215l117 602zM1136 49l47 174q94 -61 226 -61q72 0 117.5 29.5t45.5 76.5t-44 73t-124 26q-102 0 -176 -19l111 488h496l-35 -174h-312l-26 -119h28q137 0 214 -67.5t77 -186.5 q0 -143 -102.5 -226t-278.5 -83q-76 0 -149.5 19t-114.5 50z" />
<glyph unicode="&#x2156;" horiz-adv-x="1918" d="M131 688l33 174q174 119 274 199q86 72 123 123t37 98q0 39 -28.5 60.5t-78.5 21.5q-53 0 -113.5 -26.5t-105.5 -69.5l-26 176q49 45 125.5 72.5t156.5 27.5q127 0 207 -65.5t80 -169.5q0 -84 -43 -159t-141 -159q-80 -66 -170 -123h323l-35 -180h-618zM241 0l1323 1524 h273l-1323 -1524h-273zM1136 49l47 174q94 -61 226 -61q72 0 117.5 29.5t45.5 76.5t-44 73t-124 26q-102 0 -176 -19l111 488h496l-35 -174h-312l-26 -119h28q137 0 214 -67.5t77 -186.5q0 -143 -102.5 -226t-278.5 -83q-76 0 -149.5 19t-114.5 50z" />
<glyph unicode="&#x2157;" horiz-adv-x="1918" d="M131 741l39 170q49 -33 110.5 -51t118.5 -18q74 0 118 32.5t44 85.5q0 94 -131 95q-31 0 -72 -13l-39 111l232 197h-312l35 174h570l-31 -162l-211 -176q82 -20 128 -79t46 -145q0 -133 -103.5 -213.5t-271.5 -80.5q-76 0 -153.5 20t-116.5 53zM194 0l1323 1524h273 l-1323 -1524h-273zM1136 49l47 174q94 -61 226 -61q72 0 117.5 29.5t45.5 76.5t-44 73t-124 26q-102 0 -176 -19l111 488h496l-35 -174h-312l-26 -119h28q137 0 214 -67.5t77 -186.5q0 -143 -102.5 -226t-278.5 -83q-76 0 -149.5 19t-114.5 50z" />
<glyph unicode="&#x2158;" horiz-adv-x="1918" d="M110 858l31 178l459 488h225l-96 -500h109l-33 -166h-107l-33 -170h-192l33 170h-396zM223 0l1323 1524h273l-1323 -1524h-273zM346 1024h193l49 256zM1136 49l47 174q94 -61 226 -61q72 0 117.5 29.5t45.5 76.5t-44 73t-124 26q-102 0 -176 -19l111 488h496l-35 -174 h-312l-26 -119h28q137 0 214 -67.5t77 -186.5q0 -143 -102.5 -226t-278.5 -83q-76 0 -149.5 19t-114.5 50z" />
<glyph unicode="&#x2159;" horiz-adv-x="1918" d="M219 0l1323 1524h273l-1323 -1524h-273zM274 1194l6 205l291 125h195l-164 -836h-215l117 602zM1144 268q0 141 108.5 298t289.5 276l270 -8q-115 -72 -211 -154t-158 -160q45 29 109 29q117 0 188.5 -68.5t71.5 -179.5q0 -141 -100 -231t-256 -90q-145 0 -228.5 76.5 t-83.5 211.5zM1345 256q0 -49 32 -79t83 -30q63 0 105 41t42 101q0 49 -31.5 78.5t-82.5 29.5q-63 0 -105.5 -40t-42.5 -101z" />
<glyph unicode="&#x215a;" horiz-adv-x="1918" d="M141 737l47 174q94 -61 226 -61q72 0 117.5 29.5t45.5 76.5t-44 73t-124 26q-102 0 -176 -19l111 488h496l-35 -174h-312l-26 -119h28q137 0 214 -67.5t77 -186.5q0 -143 -102.5 -226t-278.5 -83q-76 0 -149.5 19t-114.5 50zM237 0l1323 1524h273l-1323 -1524h-273z M1144 268q0 141 108.5 298t289.5 276l270 -8q-115 -72 -211 -154t-158 -160q45 29 109 29q117 0 188.5 -68.5t71.5 -179.5q0 -141 -100 -231t-256 -90q-145 0 -228.5 76.5t-83.5 211.5zM1345 256q0 -49 32 -79t83 -30q63 0 105 41t42 101q0 49 -31.5 78.5t-82.5 29.5 q-63 0 -105.5 -40t-42.5 -101z" />
<glyph unicode="&#x215b;" horiz-adv-x="1918" d="M163 0l1323 1524h273l-1323 -1524h-273zM274 1194l6 205l291 125h195l-164 -836h-215l117 602zM1130 215q0 82 50 146.5t130 87.5q-82 47 -82 153q0 113 92.5 183.5t237.5 70.5q133 0 214 -61.5t81 -159.5q0 -72 -37 -127t-104 -82q45 -25 69.5 -70t24.5 -102 q0 -125 -97 -199.5t-259 -74.5q-150 0 -235 63t-85 172zM1339 236q0 -45 33 -73t86 -28q61 0 101 36t40 91q0 45 -32.5 70.5t-88.5 25.5q-61 0 -100 -34.5t-39 -87.5zM1423 592q0 -43 27.5 -66.5t78.5 -23.5q53 0 89 31.5t36 80.5q0 43 -27.5 67t-78.5 24q-53 0 -89 -32 t-36 -81z" />
<glyph unicode="&#x215c;" horiz-adv-x="1918" d="M131 741l39 170q49 -33 110.5 -51t118.5 -18q74 0 118 32.5t44 85.5q0 94 -131 95q-31 0 -72 -13l-39 111l232 197h-312l35 174h570l-31 -162l-211 -176q82 -20 128 -79t46 -145q0 -133 -103.5 -213.5t-271.5 -80.5q-76 0 -153.5 20t-116.5 53zM184 0l1323 1524h273 l-1323 -1524h-273zM1130 215q0 82 50 146.5t130 87.5q-82 47 -82 153q0 113 92.5 183.5t237.5 70.5q133 0 214 -61.5t81 -159.5q0 -72 -37 -127t-104 -82q45 -25 69.5 -70t24.5 -102q0 -125 -97 -199.5t-259 -74.5q-150 0 -235 63t-85 172zM1339 236q0 -45 33 -73t86 -28 q61 0 101 36t40 91q0 45 -32.5 70.5t-88.5 25.5q-61 0 -100 -34.5t-39 -87.5zM1423 592q0 -43 27.5 -66.5t78.5 -23.5q53 0 89 31.5t36 80.5q0 43 -27.5 67t-78.5 24q-53 0 -89 -32t-36 -81z" />
<glyph unicode="&#x215d;" horiz-adv-x="1918" d="M141 737l47 174q94 -61 226 -61q72 0 117.5 29.5t45.5 76.5t-44 73t-124 26q-102 0 -176 -19l111 488h496l-35 -174h-312l-26 -119h28q137 0 214 -67.5t77 -186.5q0 -143 -102.5 -226t-278.5 -83q-76 0 -149.5 19t-114.5 50zM190 0l1323 1524h273l-1323 -1524h-273z M1130 215q0 82 50 146.5t130 87.5q-82 47 -82 153q0 113 92.5 183.5t237.5 70.5q133 0 214 -61.5t81 -159.5q0 -72 -37 -127t-104 -82q45 -25 69.5 -70t24.5 -102q0 -125 -97 -199.5t-259 -74.5q-150 0 -235 63t-85 172zM1339 236q0 -45 33 -73t86 -28q61 0 101 36t40 91 q0 45 -32.5 70.5t-88.5 25.5q-61 0 -100 -34.5t-39 -87.5zM1423 592q0 -43 27.5 -66.5t78.5 -23.5q53 0 89 31.5t36 80.5q0 43 -27.5 67t-78.5 24q-53 0 -89 -32t-36 -81z" />
<glyph unicode="&#x215e;" horiz-adv-x="1918" d="M110 0l1323 1524h273l-1323 -1524h-273zM215 692l403 641h-372l37 191h612l-35 -172l-405 -668zM1130 215q0 82 50 146.5t130 87.5q-82 47 -82 153q0 113 92.5 183.5t237.5 70.5q133 0 214 -61.5t81 -159.5q0 -72 -37 -127t-104 -82q45 -25 69.5 -70t24.5 -102 q0 -125 -97 -199.5t-259 -74.5q-150 0 -235 63t-85 172zM1339 236q0 -45 33 -73t86 -28q61 0 101 36t40 91q0 45 -32.5 70.5t-88.5 25.5q-61 0 -100 -34.5t-39 -87.5zM1423 592q0 -43 27.5 -66.5t78.5 -23.5q53 0 89 31.5t36 80.5q0 43 -27.5 67t-78.5 24q-53 0 -89 -32 t-36 -81z" />
<glyph unicode="&#x2202;" horiz-adv-x="1288" d="M66 395q0 147 71.5 274.5t199.5 206t286 78.5q109 0 196.5 -44t130.5 -119q18 94 19 167q0 350 -299 351q-158 0 -295 -103l-17 244q57 49 151.5 77.5t199.5 28.5q264 0 407.5 -154.5t143.5 -440.5q0 -281 -90.5 -506.5t-258.5 -356.5t-387 -131q-133 0 -236.5 52.5 t-162.5 149.5t-59 226zM350 410q0 -88 59.5 -142.5t153.5 -54.5q125 0 212 90t87 219q0 88 -58.5 142.5t-152.5 54.5q-78 0 -146.5 -39t-111.5 -110.5t-43 -159.5z" />
<glyph unicode="&#x2206;" horiz-adv-x="1626" d="M-53 0l907 1556h320l305 -1556h-1532zM389 242h739l-170 1034z" />
<glyph unicode="&#x220f;" horiz-adv-x="1525" d="M51 -164l334 1720h1157l-334 -1720h-313l281 1462h-531l-280 -1462h-314z" />
<glyph unicode="&#x2211;" horiz-adv-x="1257" d="M-59 -162l39 217l565 672l-293 612l41 217h1046l-51 -256h-700l284 -595l-514 -611h721l-49 -256h-1089z" />
<glyph unicode="&#x2212;" horiz-adv-x="1269" d="M180 565l47 242h926l-47 -242h-926z" />
<glyph unicode="&#x2215;" horiz-adv-x="337" d="M-582 0l1323 1524h273l-1323 -1524h-273z" />
<glyph unicode="&#x2219;" horiz-adv-x="614" d="M180 757q0 80 55.5 132.5t139.5 52.5q70 0 114 -42t44 -108q0 -82 -54.5 -134t-140.5 -52q-70 0 -114 42t-44 109z" />
<glyph unicode="&#x221a;" horiz-adv-x="1443" d="M106 721l44 233h428l106 -635l766 1364h297l-979 -1683h-270l-158 721h-234z" />
<glyph unicode="&#x221e;" horiz-adv-x="1486" d="M102 666q0 117 50.5 214t141.5 156.5t206 59.5q98 0 174 -45t123 -129q57 82 145 128t184 46q154 0 242 -90.5t88 -245.5q0 -119 -50 -217.5t-141 -156.5t-206 -58q-98 0 -175 44t-122 128q-57 -82 -144.5 -127t-183.5 -45q-152 0 -242 91t-90 247zM334 684 q0 -66 35 -103.5t94 -37.5q119 0 219 170q-66 166 -182 166q-70 0 -118 -56.5t-48 -138.5zM879 711q33 -86 77 -127t105 -41q70 0 117 56t47 138q0 68 -34 105t-93 37q-119 0 -219 -168z" />
<glyph unicode="&#x222b;" horiz-adv-x="884" d="M-248 -469l55 236q33 -18 74 -29.5t78 -11.5q100 0 154.5 75.5t76.5 245.5l144 1092q70 543 467 542q66 0 131 -16t106 -43l-53 -229q-76 43 -158 43q-92 0 -147 -79t-76 -243l-143 -1091q-37 -285 -153 -414t-331 -129q-61 0 -122.5 14t-102.5 37z" />
<glyph unicode="&#x2248;" horiz-adv-x="1269" d="M51 217q29 213 126 330t247 117q59 0 105.5 -19.5t84 -47.5t70.5 -56.5t64.5 -48t64.5 -19.5q111 0 148 191h231q-27 -213 -124 -330t-249 -117q-59 0 -105 19.5t-84 48t-71 56.5t-63.5 47.5t-65.5 19.5q-109 0 -145 -191h-234zM153 764q29 213 126 330t247 117 q59 0 105.5 -19.5t84 -47.5t70.5 -56.5t64.5 -48t64.5 -19.5q111 0 148 191h231q-27 -213 -124 -330t-249 -117q-59 0 -105 19.5t-84 48t-71 56.5t-63.5 47.5t-65.5 19.5q-109 0 -145 -191h-234z" />
<glyph unicode="&#x2260;" horiz-adv-x="1269" d="M160 322l45 233h282l154 252h-387l45 233h485l144 234h205l-144 -234h185l-46 -233h-282l-154 -252h387l-45 -233h-485l-141 -234h-205l141 234h-184z" />
<glyph unicode="&#x2264;" horiz-adv-x="1269" d="M74 2l47 242h926l-47 -242h-926zM240 723l53 270l944 371l-55 -278l-637 -240l545 -242l-49 -250z" />
<glyph unicode="&#x2265;" horiz-adv-x="1269" d="M74 2l47 242h926l-47 -242h-926zM168 354l53 279l637 238l-542 241l49 252l800 -371l-53 -270z" />
<glyph unicode="&#x25ca;" horiz-adv-x="1347" d="M147 829l627 832h242l303 -830l-627 -831h-241zM424 799l186 -514l432 573l-186 516z" />
<glyph unicode="&#x25fc;" horiz-adv-x="1044" d="M0 0v1044h1044v-1044h-1044z" />
<glyph unicode="&#xf507;" horiz-adv-x="1918" d="M131 688l33 174q174 119 274 199q86 72 123 123t37 98q0 39 -28.5 60.5t-78.5 21.5q-53 0 -113.5 -26.5t-105.5 -69.5l-26 176q49 45 125.5 72.5t156.5 27.5q127 0 207 -65.5t80 -169.5q0 -84 -43 -159t-141 -159q-80 -66 -170 -123h323l-35 -180h-618zM215 0l1323 1524 h273l-1323 -1524h-273zM1210 4l403 641h-372l37 191h612l-35 -172l-405 -668z" />
<glyph unicode="&#xf508;" horiz-adv-x="1918" d="M131 741l39 170q49 -33 110.5 -51t118.5 -18q74 0 118 32.5t44 85.5q0 94 -131 95q-31 0 -72 -13l-39 111l232 197h-312l35 174h570l-31 -162l-211 -176q82 -20 128 -79t46 -145q0 -133 -103.5 -213.5t-271.5 -80.5q-76 0 -153.5 20t-116.5 53zM163 0l1323 1524h273 l-1323 -1524h-273zM1210 4l403 641h-372l37 191h612l-35 -172l-405 -668z" />
<glyph unicode="&#xf509;" horiz-adv-x="1918" d="M110 858l31 178l459 488h225l-96 -500h109l-33 -166h-107l-33 -170h-192l33 170h-396zM182 0l1323 1524h273l-1323 -1524h-273zM346 1024h193l49 256zM1210 4l403 641h-372l37 191h612l-35 -172l-405 -668z" />
<glyph unicode="&#xf50a;" horiz-adv-x="1918" d="M141 737l47 174q94 -61 226 -61q72 0 117.5 29.5t45.5 76.5t-44 73t-124 26q-102 0 -176 -19l111 488h496l-35 -174h-312l-26 -119h28q137 0 214 -67.5t77 -186.5q0 -143 -102.5 -226t-278.5 -83q-76 0 -149.5 19t-114.5 50zM174 0l1323 1524h273l-1323 -1524h-273z M1210 4l403 641h-372l37 191h612l-35 -172l-405 -668z" />
<glyph unicode="&#xf50b;" horiz-adv-x="1918" d="M149 956q0 141 108.5 298t289.5 276l270 -8q-115 -72 -211 -154t-158 -160q45 29 109 29q117 0 188.5 -68.5t71.5 -179.5q0 -141 -100 -231t-256 -90q-145 0 -228.5 76.5t-83.5 211.5zM178 0l1323 1524h273l-1323 -1524h-273zM350 944q0 -49 32 -79t83 -30q63 0 105 41 t42 101q0 49 -31.5 78.5t-82.5 29.5q-63 0 -105.5 -40t-42.5 -101zM1210 4l403 641h-372l37 191h612l-35 -172l-405 -668z" />
<glyph unicode="&#xf50d;" horiz-adv-x="1918" d="M131 688l33 174q174 119 274 199q86 72 123 123t37 98q0 39 -28.5 60.5t-78.5 21.5q-53 0 -113.5 -26.5t-105.5 -69.5l-26 176q49 45 125.5 72.5t156.5 27.5q127 0 207 -65.5t80 -169.5q0 -84 -43 -159t-141 -159q-80 -66 -170 -123h323l-35 -180h-618zM233 0l1323 1524 h273l-1323 -1524h-273zM1194 2q250 158 368 311q-43 -27 -106 -26q-117 0 -188.5 67.5t-71.5 180.5q0 141 99 231t255 90q145 0 228 -75.5t83 -213.5q0 -141 -108.5 -297.5t-288.5 -275.5zM1398 547q0 -49 32 -79t83 -30q63 0 105 40t42 102q0 49 -30.5 78.5t-81.5 29.5 q-63 0 -106.5 -40t-43.5 -101z" />
<glyph unicode="&#xf50e;" horiz-adv-x="1918" d="M110 858l31 178l459 488h225l-96 -500h109l-33 -166h-107l-33 -170h-192l33 170h-396zM219 0l1323 1524h273l-1323 -1524h-273zM346 1024h193l49 256zM1194 2q250 158 368 311q-43 -27 -106 -26q-117 0 -188.5 67.5t-71.5 180.5q0 141 99 231t255 90q145 0 228 -75.5 t83 -213.5q0 -141 -108.5 -297.5t-288.5 -275.5zM1398 547q0 -49 32 -79t83 -30q63 0 105 40t42 102q0 49 -30.5 78.5t-81.5 29.5q-63 0 -106.5 -40t-43.5 -101z" />
<glyph unicode="&#xf50f;" horiz-adv-x="1918" d="M141 737l47 174q94 -61 226 -61q72 0 117.5 29.5t45.5 76.5t-44 73t-124 26q-102 0 -176 -19l111 488h496l-35 -174h-312l-26 -119h28q137 0 214 -67.5t77 -186.5q0 -143 -102.5 -226t-278.5 -83q-76 0 -149.5 19t-114.5 50zM200 0l1323 1524h273l-1323 -1524h-273z M1194 2q250 158 368 311q-43 -27 -106 -26q-117 0 -188.5 67.5t-71.5 180.5q0 141 99 231t255 90q145 0 228 -75.5t83 -213.5q0 -141 -108.5 -297.5t-288.5 -275.5zM1398 547q0 -49 32 -79t83 -30q63 0 105 40t42 102q0 49 -30.5 78.5t-81.5 29.5q-63 0 -106.5 -40 t-43.5 -101z" />
<glyph unicode="&#xf510;" horiz-adv-x="1918" d="M102 0l1323 1524h273l-1323 -1524h-273zM215 692l403 641h-372l37 191h612l-35 -172l-405 -668zM1194 2q250 158 368 311q-43 -27 -106 -26q-117 0 -188.5 67.5t-71.5 180.5q0 141 99 231t255 90q145 0 228 -75.5t83 -213.5q0 -141 -108.5 -297.5t-288.5 -275.5z M1398 547q0 -49 32 -79t83 -30q63 0 105 40t42 102q0 49 -30.5 78.5t-81.5 29.5q-63 0 -106.5 -40t-43.5 -101z" />
<glyph unicode="&#xf511;" horiz-adv-x="1918" d="M135 903q0 82 50 146.5t130 87.5q-82 47 -82 153q0 113 92.5 183.5t237.5 70.5q133 0 214 -61.5t81 -159.5q0 -72 -37 -127t-104 -82q45 -25 69.5 -70t24.5 -102q0 -125 -97 -199.5t-259 -74.5q-150 0 -235 63t-85 172zM206 0l1323 1524h273l-1323 -1524h-273zM344 924 q0 -45 33 -73t86 -28q61 0 101 36t40 91q0 45 -32.5 70.5t-88.5 25.5q-61 0 -100 -34.5t-39 -87.5zM428 1280q0 -43 27.5 -66.5t78.5 -23.5q53 0 89 31.5t36 80.5q0 43 -27.5 67t-78.5 24q-53 0 -89 -32t-36 -81zM1194 2q250 158 368 311q-43 -27 -106 -26 q-117 0 -188.5 67.5t-71.5 180.5q0 141 99 231t255 90q145 0 228 -75.5t83 -213.5q0 -141 -108.5 -297.5t-288.5 -275.5zM1398 547q0 -49 32 -79t83 -30q63 0 105 40t42 102q0 49 -30.5 78.5t-81.5 29.5q-63 0 -106.5 -40t-43.5 -101z" />
<glyph unicode="&#xfb01;" horiz-adv-x="1429" d="M113 807l43 235h184l29 150q94 477 505 477q123 0 201 -41l-59 -231q-61 25 -129 24q-190 0 -242 -268l-22 -111h272l-45 -235h-272l-156 -807h-285l156 807h-180zM891 0l203 1042h284l-202 -1042h-285zM1139 1407q0 78 52 128t132 50q70 0 112 -41t42 -108 q0 -78 -52.5 -129.5t-130.5 -51.5q-70 0 -112.5 42t-42.5 110z" />
<glyph unicode="&#xfb02;" horiz-adv-x="1427" d="M113 807l43 235h184l29 150q94 477 505 477q123 0 201 -41l-59 -231q-61 25 -129 24q-190 0 -242 -268l-22 -111h272l-45 -235h-272l-156 -807h-285l156 807h-180zM891 0l321 1659h285l-321 -1659h-285z" />
<glyph unicode="&#xfeff;" horiz-adv-x="0" />
<glyph horiz-adv-x="1314" d="M106 539q0 129 29 288q43 225 136.5 389t229.5 252t306 88q231 0 360 -149.5t129 -421.5q0 -129 -28 -289q-43 -225 -136.5 -389t-229.5 -252t-306 -88q-231 0 -360.5 149.5t-129.5 422.5zM412 545q0 -156 52 -237t152 -81q115 0 208.5 128t136.5 347q31 160 30 277 q0 156 -52 236.5t-153 80.5q-117 0 -210 -128t-134 -347q-31 -160 -30 -276z" />
<glyph horiz-adv-x="1026" d="M217 1049l12 272l510 203h248l-297 -1524h-291l238 1214z" />
<glyph horiz-adv-x="1325" d="M78 0l41 225q109 82 241 193.5t240 214.5q170 162 242 270.5t72 202.5t-59.5 147.5t-168.5 53.5q-193 0 -368 -168l-23 260q76 72 193.5 114.5t246.5 42.5q219 0 350.5 -113.5t131.5 -303.5q0 -133 -75 -264.5t-255 -311.5q-154 -158 -348 -305h588l-52 -258h-997z" />
<glyph horiz-adv-x="1226" d="M16 80l53 242q80 -49 183.5 -79t195.5 -30q150 0 242 76t92 200q0 100 -67.5 155.5t-192.5 55.5q-66 0 -121 -16l-57 160l455 428h-562l52 252h925l-41 -217l-440 -414q158 -23 251 -132.5t93 -273.5q0 -150 -75.5 -267.5t-218.5 -185t-331 -67.5q-121 0 -240.5 31 t-195.5 82z" />
<glyph horiz-adv-x="1312" d="M43 342l43 233l821 949h320l-183 -944h187l-45 -238h-189l-67 -342h-277l68 342h-678zM387 580h379l110 567z" />
<glyph horiz-adv-x="1218" d="M20 82l55 244q78 -53 179.5 -83t197.5 -30q156 0 249 78t93 209q0 109 -85 171t-234 62q-162 0 -285 -35l191 826h802l-51 -254h-540l-72 -312q41 4 67 5q231 0 367.5 -120t136.5 -323q0 -162 -76.5 -286.5t-221 -195.5t-337.5 -71q-127 0 -243.5 31t-192.5 84z" />
<glyph horiz-adv-x="1296" d="M106 457q0 162 85 351t245 377.5t373 342.5l375 -10q-203 -139 -377 -307.5t-275 -319.5q84 61 228 61q188 0 311 -121.5t123 -308.5q0 -154 -73 -279.5t-206 -200.5t-301 -75q-236 0 -372 131t-136 359zM393 436q0 -106 61.5 -167.5t163.5 -61.5q123 0 205 83t82 208 q0 104 -63.5 167.5t-165.5 63.5q-121 0 -202 -84t-81 -209z" />
<glyph horiz-adv-x="1191" d="M183 6l741 1247h-684l55 271h1008l-47 -240l-750 -1288z" />
<glyph horiz-adv-x="1294" d="M73 377q0 152 90.5 273.5t233.5 166.5q-74 47 -109.5 115.5t-35.5 165.5q0 127 67.5 231.5t193.5 165.5t285 61q141 0 250 -46t170.5 -133t61.5 -203q0 -133 -72 -240t-197 -160q78 -47 126.5 -130t48.5 -177q0 -141 -73 -255t-206 -179.5t-307 -65.5 q-246 0 -386.5 109.5t-140.5 300.5zM368 408q0 -94 63.5 -147.5t172.5 -53.5q127 0 207 73.5t80 188.5q0 94 -63.5 148.5t-172.5 54.5q-125 0 -206 -74t-81 -190zM528 1094q0 -88 59.5 -139.5t159.5 -51.5q109 0 182.5 68.5t73.5 169.5q0 84 -60.5 135t-160.5 51 q-109 0 -181.5 -67.5t-72.5 -165.5z" />
<glyph horiz-adv-x="1296" d="M197 1001q0 113 40 212.5t115.5 176t184 121.5t239.5 45q233 0 369.5 -131t136.5 -358q0 -162 -85 -351.5t-244.5 -377.5t-372.5 -342l-375 10q213 150 386 315.5t265 311.5q-82 -61 -227 -62q-119 0 -217 53.5t-156.5 151.5t-58.5 225zM484 1026q0 -104 63.5 -167.5 t165.5 -63.5q121 0 203 84t82 208q0 104 -61.5 167t-166.5 63q-123 0 -204.5 -83t-81.5 -208z" />
<glyph d="M6 326q0 68 14 131q39 186 146.5 292.5t257.5 106.5q145 0 233 -94t88 -252q0 -72 -14 -131q-41 -186 -148.5 -292.5t-254.5 -106.5t-234.5 94t-87.5 252zM223 330q0 -78 31 -122t88 -44t102 59.5t70 163.5q14 68 14 119q0 78 -30.5 122t-87.5 44q-59 0 -106.5 -60.5 t-67.5 -162.5q-12 -63 -13 -119z" />
<glyph d="M141 506l6 205l291 125h195l-164 -836h-215l117 602z" />
<glyph d="M-2 0l33 174q174 119 274 199q86 72 123 123t37 98q0 39 -28.5 60.5t-78.5 21.5q-53 0 -113.5 -26.5t-105.5 -69.5l-26 176q49 45 125.5 72.5t156.5 27.5q127 0 207 -65.5t80 -169.5q0 -84 -43 -159t-141 -159q-80 -66 -170 -123h323l-35 -180h-618z" />
<glyph d="M-2 53l39 170q49 -33 110.5 -51t118.5 -18q74 0 118 32.5t44 85.5q0 94 -131 95q-31 0 -72 -13l-39 111l232 197h-312l35 174h570l-31 -162l-211 -176q82 -20 128 -79t46 -145q0 -133 -103.5 -213.5t-271.5 -80.5q-76 0 -153.5 20t-116.5 53z" />
<glyph d="M-23 170l31 178l459 488h225l-96 -500h109l-33 -166h-107l-33 -170h-192l33 170h-396zM213 336h193l49 256z" />
<glyph d="M8 49l47 174q94 -61 226 -61q72 0 117.5 29.5t45.5 76.5t-44 73t-124 26q-102 0 -176 -19l111 488h496l-35 -174h-312l-26 -119h28q137 0 214 -67.5t77 -186.5q0 -143 -102.5 -226t-278.5 -83q-76 0 -149.5 19t-114.5 50z" />
<glyph d="M16 268q0 141 108.5 298t289.5 276l270 -8q-115 -72 -211 -154t-158 -160q45 29 109 29q117 0 188.5 -68.5t71.5 -179.5q0 -141 -100 -231t-256 -90q-145 0 -228.5 76.5t-83.5 211.5zM217 256q0 -49 32 -79t83 -30q63 0 105 41t42 101q0 49 -31.5 78.5t-82.5 29.5 q-63 0 -105.5 -40t-42.5 -101z" />
<glyph d="M82 4l403 641h-372l37 191h612l-35 -172l-405 -668z" />
<glyph d="M2 215q0 82 50 146.5t130 87.5q-82 47 -82 153q0 113 92.5 183.5t237.5 70.5q133 0 214 -61.5t81 -159.5q0 -72 -37 -127t-104 -82q45 -25 69.5 -70t24.5 -102q0 -125 -97 -199.5t-259 -74.5q-150 0 -235 63t-85 172zM211 236q0 -45 33 -73t86 -28q61 0 101 36t40 91 q0 45 -32.5 70.5t-88.5 25.5q-61 0 -100 -34.5t-39 -87.5zM295 592q0 -43 27.5 -66.5t78.5 -23.5q53 0 89 31.5t36 80.5q0 43 -27.5 67t-78.5 24q-53 0 -89 -32t-36 -81z" />
<glyph d="M66 2q250 158 368 311q-43 -27 -106 -26q-117 0 -188.5 67.5t-71.5 180.5q0 141 99 231t255 90q145 0 228 -75.5t83 -213.5q0 -141 -108.5 -297.5t-288.5 -275.5zM270 547q0 -49 32 -79t83 -30q63 0 105 40t42 102q0 49 -30.5 78.5t-81.5 29.5q-63 0 -106.5 -40 t-43.5 -101z" />
<glyph d="M139 1014q0 68 14 131q39 186 146.5 292.5t257.5 106.5q145 0 233 -94t88 -252q0 -72 -14 -131q-41 -186 -148.5 -292.5t-254.5 -106.5t-234.5 94t-87.5 252zM356 1018q0 -78 31 -122t88 -44t102 59.5t70 163.5q14 68 14 119q0 78 -30.5 122t-87.5 44q-59 0 -106.5 -60.5 t-67.5 -162.5q-12 -63 -13 -119z" />
<glyph d="M274 1194l6 205l291 125h195l-164 -836h-215l117 602z" />
<glyph d="M133 688l33 174q174 119 274 199q86 72 123 123t37 98q0 39 -28.5 60.5t-78.5 21.5q-53 0 -113.5 -26.5t-105.5 -69.5l-26 176q49 45 125.5 72.5t156.5 27.5q127 0 207 -65.5t80 -169.5q0 -84 -43 -159t-141 -159q-80 -66 -170 -123h323l-35 -180h-618z" />
<glyph d="M133 741l39 170q49 -33 110.5 -51t118.5 -18q74 0 118 32.5t44 85.5q0 94 -131 95q-31 0 -72 -13l-39 111l232 197h-312l35 174h570l-31 -162l-211 -176q82 -20 128 -79t46 -145q0 -133 -103.5 -213.5t-271.5 -80.5q-76 0 -153.5 20t-116.5 53z" />
<glyph d="M110 858l31 178l459 488h225l-96 -500h109l-33 -166h-107l-33 -170h-192l33 170h-396zM346 1024h193l49 256z" />
<glyph d="M141 737l47 174q94 -61 226 -61q72 0 117.5 29.5t45.5 76.5t-44 73t-124 26q-102 0 -176 -19l111 488h496l-35 -174h-312l-26 -119h28q137 0 214 -67.5t77 -186.5q0 -143 -102.5 -226t-278.5 -83q-76 0 -149.5 19t-114.5 50z" />
<glyph d="M149 956q0 141 108.5 298t289.5 276l270 -8q-115 -72 -211 -154t-158 -160q45 29 109 29q117 0 188.5 -68.5t71.5 -179.5q0 -141 -100 -231t-256 -90q-145 0 -228.5 76.5t-83.5 211.5zM350 944q0 -49 32 -79t83 -30q63 0 105 41t42 101q0 49 -31.5 78.5t-82.5 29.5 q-63 0 -105.5 -40t-42.5 -101z" />
<glyph d="M215 692l403 641h-372l37 191h612l-35 -172l-405 -668z" />
<glyph d="M135 903q0 82 50 146.5t130 87.5q-82 47 -82 153q0 113 92.5 183.5t237.5 70.5q133 0 214 -61.5t81 -159.5q0 -72 -37 -127t-104 -82q45 -25 69.5 -70t24.5 -102q0 -125 -97 -199.5t-259 -74.5q-150 0 -235 63t-85 172zM344 924q0 -45 33 -73t86 -28q61 0 101 36t40 91 q0 45 -32.5 70.5t-88.5 25.5q-61 0 -100 -34.5t-39 -87.5zM428 1280q0 -43 27.5 -66.5t78.5 -23.5q53 0 89 31.5t36 80.5q0 43 -27.5 67t-78.5 24q-53 0 -89 -32t-36 -81z" />
<glyph d="M199 690q250 158 368 311q-43 -27 -106 -26q-117 0 -188.5 67.5t-71.5 180.5q0 141 99 231t255 90q145 0 228 -75.5t83 -213.5q0 -141 -108.5 -297.5t-288.5 -275.5zM403 1235q0 -49 32 -79t83 -30q63 0 105 40t42 102q0 49 -30.5 78.5t-81.5 29.5q-63 0 -106.5 -40 t-43.5 -101z" />
<glyph horiz-adv-x="870" d="M152 653l49 248h620l-49 -248h-620z" />
<glyph horiz-adv-x="1024" d="M29 667l41 221h1024l-41 -221h-1024z" />
<glyph horiz-adv-x="2048" d="M29 667l41 221h2048l-41 -221h-2048z" />
<glyph horiz-adv-x="880" d="M207 605q0 348 152.5 671.5t427.5 552.5h327q-197 -145 -341 -338.5t-222 -418t-78 -455.5q0 -434 244 -739h-291q-66 88 -116 204.5t-76.5 251.5t-26.5 271z" />
<glyph horiz-adv-x="880" d="M-106 -122q197 145 341 338.5t222 418t78 455.5q0 434 -244 739h293q100 -133 158.5 -327.5t58.5 -399.5q0 -348 -152.5 -671.5t-426.5 -552.5h-328z" />
<glyph horiz-adv-x="1118" d="M-115 -188l1167 1931h281l-1167 -1931h-281z" />
<glyph horiz-adv-x="1118" d="M270 1743h262l416 -1931h-262z" />
<glyph horiz-adv-x="866" d="M92 -125l379 1951h557l-43 -231h-297l-290 -1487h309l-45 -233h-570z" />
<glyph horiz-adv-x="866" d="M-34 -125l45 231h297l290 1487h-309l45 233h569l-378 -1951h-559z" />
<glyph horiz-adv-x="886" d="M134 746l47 235h45q96 0 138 40t60 151q16 109 30.5 207t37 181t65.5 144.5t119 95t195 33.5q94 0 166 -16l-45 -221q-45 12 -90 12q-78 0 -118 -36t-55.5 -98t-22.5 -141t-22 -167q-23 -139 -71.5 -210t-141.5 -93q57 -16 89 -64.5t32 -116.5q0 -55 -19.5 -116.5 t-44 -125t-44 -120.5t-19.5 -102q0 -70 44 -101t143 -31q41 0 53 3l-43 -226q-39 -6 -90 -6q-168 0 -269.5 79t-101.5 210q0 66 19.5 133.5t43 134t43 125.5t19.5 109q0 53 -31.5 75.5t-111.5 22.5h-49z" />
<glyph horiz-adv-x="886" d="M-26 -127l45 222q45 -12 90 -13q78 0 118 36t55 98.5t22.5 141.5t21.5 167q23 139 72 209.5t141 93.5q-57 16 -89 64t-32 116q0 55 19.5 116.5t44 125t44 121t19.5 102.5q0 70 -44 100.5t-142 30.5q-41 0 -54 -2l43 225q41 6 91 6q168 0 269 -78.5t101 -209.5 q0 -66 -19.5 -133.5t-43 -134t-43 -126t-19.5 -108.5q0 -53 32 -75.5t112 -22.5h49l-47 -236h-45q-96 0 -138.5 -40t-60.5 -150q-16 -109 -30.5 -207.5t-37 -181t-65.5 -144t-118.5 -95.5t-194.5 -34q-94 0 -166 16z" />
<glyph horiz-adv-x="741" d="M134 670q0 72 33.5 132.5t95 97t137.5 36.5q113 0 190.5 -77.5t77.5 -188.5q0 -70 -33.5 -131t-96 -99t-138.5 -38q-111 0 -188.5 79t-77.5 189z" />
<glyph horiz-adv-x="745" d="M106 778l387 449h318l-412 -471l207 -428h-291z" />
<glyph horiz-adv-x="745" d="M35 328l411 469l-207 430h291l209 -449l-387 -450h-317z" />
<glyph horiz-adv-x="1247" d="M106 778l387 449h318l-412 -471l207 -428h-291zM608 778l387 449h318l-412 -471l207 -428h-291z" />
<glyph horiz-adv-x="1247" d="M33 328l411 469l-207 430h291l209 -449l-387 -450h-317zM535 328l411 469l-207 430h291l209 -449l-387 -450h-317z" />
<glyph horiz-adv-x="2097" d="M139 631q0 209 79 399t227.5 340.5t359 241t454.5 90.5q172 0 319.5 -48.5t259 -140.5t176 -225t64.5 -295q0 -188 -71.5 -346t-202.5 -253t-295 -95q-98 0 -163.5 34.5t-92.5 100.5q-109 -133 -299 -133q-158 0 -250 98t-92 268q0 141 65.5 269.5t181 209.5t255.5 81 q96 0 163.5 -38t100.5 -112l43 119h227l-168 -514q-20 -66 -20 -99q0 -45 23.5 -69.5t68.5 -24.5q76 0 145.5 65.5t115.5 180.5t46 246q0 158 -72.5 274.5t-212 181t-331.5 64.5q-236 0 -436.5 -108.5t-323.5 -306t-123 -443.5q0 -291 169 -446.5t484 -155.5q102 0 221 24.5 t209 63.5l-12 -211q-80 -37 -196.5 -58.5t-233.5 -21.5q-262 0 -455.5 93t-300 272.5t-106.5 427.5zM862 694q0 -82 46 -129t124 -47q47 0 93 22.5t84 64.5t61.5 101.5t23.5 124.5q0 82 -46 129t-126 47q-66 0 -125 -41t-97 -113.5t-38 -158.5z" />
<glyph horiz-adv-x="614" d="M186 798q0 80 55.5 132.5t139.5 52.5q70 0 114 -42t44 -108q0 -82 -54.5 -134t-140.5 -52q-70 0 -114 42t-44 109z" />
<glyph horiz-adv-x="1165" d="M51 274q0 168 126 272.5t331 104.5q145 0 270 -53q2 10 2 43q-4 102 -64.5 152.5t-185.5 50.5q-72 0 -151.5 -21.5t-138.5 -56.5l-4 229q59 35 153 57.5t184 22.5q225 0 350.5 -106.5t125.5 -296.5q0 -51 -13 -121l-106 -551h-256l12 90q-53 -57 -132 -90t-165 -33 q-158 0 -248 83t-90 224zM313 293q0 -55 40 -88t110 -33q96 0 173 66.5t107 177.5q-39 18 -97 30.5t-107 12.5q-100 0 -163 -46t-63 -120z" />
<glyph horiz-adv-x="1185" d="M-119 -227q0 100 63.5 173.5t184.5 110.5q-90 47 -90 152q0 66 51 129t135 102q-94 88 -94 228q0 113 61.5 205t176 147t262.5 55q145 0 241 -43l373 33l-33 -223l-153 10q27 -55 26 -117q0 -113 -62 -204t-179 -145t-266 -54q-98 0 -189 22q-82 -35 -82 -86 q0 -33 43 -50t156 -28l72 -6q215 -18 314 -95t99 -222q0 -178 -162 -282.5t-436 -104.5q-250 0 -381 74.5t-131 218.5zM168 -176q0 -121 240 -121q145 0 225 40t80 112q0 109 -258 108q-139 0 -213 -36t-74 -103zM401 684q0 -70 49.5 -108.5t139.5 -38.5q96 0 160.5 53 t64.5 133q0 70 -48 108.5t-138 38.5q-96 0 -162 -53t-66 -133z" />
<glyph horiz-adv-x="1202" d="M-147 -469l65 244q57 -37 131 -37q76 0 130 44t136 175l52 82l-236 1003h293l131 -747l401 747h314l-680 -1146q-135 -229 -254 -322.5t-275 -93.5q-59 0 -117.5 14t-90.5 37z" />
<glyph horiz-adv-x="614" d="M180 762q0 80 55.5 132t139.5 52q70 0 113.5 -42t43.5 -107q0 -82 -54 -134.5t-140 -52.5q-70 0 -114 42t-44 110z" />
<glyph horiz-adv-x="614" d="M193 821q0 80 55 132.5t139 52.5q70 0 114 -42t44 -108q0 -82 -54.5 -134t-140.5 -52q-70 0 -113.5 42t-43.5 109z" />
<glyph horiz-adv-x="1888" d="M51 274q0 168 126 272.5t331 104.5q145 0 270 -53q2 10 2 43q-4 102 -64.5 152.5t-185.5 50.5q-72 0 -151.5 -21.5t-138.5 -56.5l-4 229q59 35 153 57.5t184 22.5q287 0 392 -184q66 88 168 136t223 48q199 0 317.5 -114.5t118.5 -307.5q0 -98 -31 -219h-733 q10 -125 89 -179t245 -54q76 0 159 18.5t148 50.5l-2 -229q-59 -33 -155.5 -53.5t-198.5 -20.5q-365 0 -477 223q-55 -102 -172.5 -162.5t-260.5 -60.5q-166 0 -259 81t-93 226zM313 293q0 -55 40 -88t110 -33q100 0 175 65.5t105 178.5q-39 18 -97 30.5t-107 12.5 q-100 0 -163 -46t-63 -120zM1047 633h481q2 10 2 31q0 92 -52.5 143t-146.5 51q-100 0 -177 -60.5t-107 -164.5z" />
<glyph horiz-adv-x="0" d="M-469 -492l47 158q27 -16 66 -26.5t77 -10.5q117 0 117 74q0 57 -104 57q-45 0 -70 -6l115 266h174l-59 -137q82 -14 125.5 -62t43.5 -120q0 -113 -85.5 -175.5t-239.5 -62.5q-63 0 -120.5 12.5t-86.5 32.5z" />
<glyph horiz-adv-x="0" d="M-401 -506q133 174 159 377h273q-16 -104 -72.5 -207.5t-134.5 -169.5h-225z" />
<glyph horiz-adv-x="0" d="M-477 -328q0 115 107.5 220.5t295.5 173.5l70 -66q-111 -74 -169 -141.5t-58 -118.5q0 -57 69 -57q53 0 99 22l-11 -201q-74 -34 -168 -34q-111 0 -173 54t-62 148z" />
<glyph horiz-adv-x="0" d="M-348 -340q0 123 112.5 229.5t303.5 165.5l116 -18q-141 -76 -219 -155t-78 -144q0 -61 76 -62q43 0 96 23l-10 -195q-29 -16 -74 -25t-88 -9q-111 0 -173 50t-62 140z" />
<glyph horiz-adv-x="0" d="M-446 -330q0 119 117.5 231.5t316.5 186.5l110 -29q-141 -82 -220 -164.5t-79 -148.5t82 -65q57 0 105 24l-11 -201q-74 -34 -172 -34q-117 0 -183 53t-66 147z" />
<glyph horiz-adv-x="1185" d="M-119 -227q0 100 63.5 173.5t184.5 110.5q-90 47 -90 152q0 66 51 129t135 102q-94 88 -94 228q0 113 61.5 205t176 147t262.5 55q145 0 241 -43l373 33l-33 -223l-153 10q27 -55 26 -117q0 -113 -62 -204t-179 -145t-266 -54q-98 0 -189 22q-82 -35 -82 -86 q0 -33 43 -50t156 -28l72 -6q215 -18 314 -95t99 -222q0 -178 -162 -282.5t-436 -104.5q-250 0 -381 74.5t-131 218.5zM168 -176q0 -121 240 -121q145 0 225 40t80 112q0 109 -258 108q-139 0 -213 -36t-74 -103zM401 684q0 -70 49.5 -108.5t139.5 -38.5q96 0 160.5 53 t64.5 133q0 70 -48 108.5t-138 38.5q-96 0 -162 -53t-66 -133zM588 1249q12 94 68.5 195.5t129.5 161.5h211q-59 -76 -98 -171.5t-47 -185.5h-264z" />
<glyph horiz-adv-x="1165" d="M51 274q0 168 126 272.5t331 104.5q145 0 270 -53q2 10 2 43q-4 102 -64.5 152.5t-185.5 50.5q-72 0 -151.5 -21.5t-138.5 -56.5l-4 229q59 35 153 57.5t184 22.5q225 0 350.5 -106.5t125.5 -296.5q0 -51 -13 -121l-106 -551h-256l12 90q-53 -57 -132 -90t-165 -33 q-158 0 -248 83t-90 224zM313 293q0 -55 40 -88t110 -33q96 0 173 66.5t107 177.5q-39 18 -97 30.5t-107 12.5q-100 0 -163 -46t-63 -120zM473 -330q0 113 105.5 228.5t267.5 183.5l84 -82q-106 -70 -163.5 -138.5t-57.5 -125.5q0 -59 71 -60q43 0 99 23l-11 -195 q-27 -14 -74 -24t-94 -10q-106 0 -166.5 53t-60.5 147z" />
<glyph horiz-adv-x="0" d="M-8 1710l272 293h354l-356 -293h-270z" />
<glyph horiz-adv-x="0" d="M-178 1710l198 291h316l-254 -291h-260zM254 1710l201 291h313l-252 -291h-262z" />
<glyph horiz-adv-x="1165" d="M51 274q0 168 126 272.5t331 104.5q145 0 270 -53q2 10 2 43q-4 102 -64.5 152.5t-185.5 50.5q-72 0 -151.5 -21.5t-138.5 -56.5l-4 229q59 35 153 57.5t184 22.5q225 0 350.5 -106.5t125.5 -296.5q0 -51 -13 -121l-106 -551h-256l12 90q-53 -57 -132 -90t-165 -33 q-158 0 -248 83t-90 224zM313 293q0 -55 40 -88t110 -33q96 0 173 66.5t107 177.5q-39 18 -97 30.5t-107 12.5q-100 0 -163 -46t-63 -120zM496 1249l270 342h322l-342 -342h-250z" />
<glyph horiz-adv-x="1202" d="M-147 -469l65 244q57 -37 131 -37q76 0 130 44t136 175l52 82l-236 1003h293l131 -747l401 747h314l-680 -1146q-135 -229 -254 -322.5t-275 -93.5q-59 0 -117.5 14t-90.5 37zM537 1249l270 342h322l-342 -342h-250z" />
<glyph horiz-adv-x="0" d="M-33 2003h328l170 -293h-258z" />
<glyph horiz-adv-x="1165" d="M51 274q0 168 126 272.5t331 104.5q145 0 270 -53q2 10 2 43q-4 102 -64.5 152.5t-185.5 50.5q-72 0 -151.5 -21.5t-138.5 -56.5l-4 229q59 35 153 57.5t184 22.5q225 0 350.5 -106.5t125.5 -296.5q0 -51 -13 -121l-106 -551h-256l12 90q-53 -57 -132 -90t-165 -33 q-158 0 -248 83t-90 224zM313 293q0 -55 40 -88t110 -33q96 0 173 66.5t107 177.5q-39 18 -97 30.5t-107 12.5q-100 0 -163 -46t-63 -120zM383 1591h299l147 -342h-233z" />
<glyph horiz-adv-x="1202" d="M-147 -469l65 244q57 -37 131 -37q76 0 130 44t136 175l52 82l-236 1003h293l131 -747l401 747h314l-680 -1146q-135 -229 -254 -322.5t-275 -93.5q-59 0 -117.5 14t-90.5 37zM424 1591h299l147 -342h-233z" />
<glyph horiz-adv-x="0" d="M-190 1710l342 309h272l227 -309h-264l-111 158l-176 -158h-290z" />
<glyph horiz-adv-x="0" d="M-145 1708q20 158 88.5 239t179.5 81q57 0 94 -19.5t63.5 -43t51 -43t57.5 -19.5q37 0 57.5 28.5t30.5 91.5h191q-48 -319 -273 -319q-55 0 -92 18.5t-63.5 43t-51 43t-55.5 18.5q-37 0 -57.5 -26.5t-34.5 -92.5h-186z" />
<glyph horiz-adv-x="1165" d="M51 274q0 168 126 272.5t331 104.5q145 0 270 -53q2 10 2 43q-4 102 -64.5 152.5t-185.5 50.5q-72 0 -151.5 -21.5t-138.5 -56.5l-4 229q59 35 153 57.5t184 22.5q225 0 350.5 -106.5t125.5 -296.5q0 -51 -13 -121l-106 -551h-256l12 90q-53 -57 -132 -90t-165 -33 q-158 0 -248 83t-90 224zM279 1249l344 342h240l211 -342h-234l-115 187l-186 -187h-260zM313 293q0 -55 40 -88t110 -33q96 0 173 66.5t107 177.5q-39 18 -97 30.5t-107 12.5q-100 0 -163 -46t-63 -120z" />
<glyph horiz-adv-x="1202" d="M-147 -469l65 244q57 -37 131 -37q76 0 130 44t136 175l52 82l-236 1003h293l131 -747l401 747h314l-680 -1146q-135 -229 -254 -322.5t-275 -93.5q-59 0 -117.5 14t-90.5 37zM319 1249l344 342h240l211 -342h-234l-115 187l-186 -187h-260z" />
<glyph horiz-adv-x="1165" d="M51 274q0 168 126 272.5t331 104.5q145 0 270 -53q2 10 2 43q-4 102 -64.5 152.5t-185.5 50.5q-72 0 -151.5 -21.5t-138.5 -56.5l-4 229q59 35 153 57.5t184 22.5q225 0 350.5 -106.5t125.5 -296.5q0 -51 -13 -121l-106 -551h-256l12 90q-53 -57 -132 -90t-165 -33 q-158 0 -248 83t-90 224zM304 1260q20 156 88.5 235.5t181.5 79.5q55 0 93 -19.5t63.5 -43t51 -43t56.5 -19.5q37 0 57.5 27.5t32.5 93.5h189q-20 -156 -88 -236t-181 -80q-57 0 -94 19.5t-63.5 43t-51 43t-57.5 19.5q-37 0 -57.5 -28.5t-30.5 -91.5h-190zM313 293 q0 -55 40 -88t110 -33q96 0 173 66.5t107 177.5q-39 18 -97 30.5t-107 12.5q-100 0 -163 -46t-63 -120z" />
<glyph horiz-adv-x="0" d="M-131 2019h264l113 -161l176 161h289l-342 -309h-273z" />
<glyph horiz-adv-x="0" d="M-10 1219l104 440h264l-184 -440h-184z" />
<glyph horiz-adv-x="0" d="M-94 1733l39 206h659l-39 -206h-659z" />
<glyph horiz-adv-x="1165" d="M51 274q0 168 126 272.5t331 104.5q145 0 270 -53q2 10 2 43q-4 102 -64.5 152.5t-185.5 50.5q-72 0 -151.5 -21.5t-138.5 -56.5l-4 229q59 35 153 57.5t184 22.5q225 0 350.5 -106.5t125.5 -296.5q0 -51 -13 -121l-106 -551h-256l12 90q-53 -57 -132 -90t-165 -33 q-158 0 -248 83t-90 224zM313 293q0 -55 40 -88t110 -33q96 0 173 66.5t107 177.5q-39 18 -97 30.5t-107 12.5q-100 0 -163 -46t-63 -120zM361 1294l37 203h653l-37 -203h-653z" />
<glyph horiz-adv-x="0" d="M-113 1837q0 68 46.5 113t115.5 45q59 0 97 -36t38 -93q0 -70 -46 -115t-115 -45q-59 0 -97.5 37t-38.5 94zM332 1837q0 68 46 113t116 45q59 0 97 -36t38 -93q0 -70 -46 -115t-116 -45q-59 0 -97 37t-38 94z" />
<glyph horiz-adv-x="0" d="M-80 1931q0 41 12 80h201q-4 -20 -4 -41q0 -55 35 -83.5t98 -28.5q74 0 120 39.5t60 113.5h203q-6 -104 -54 -179t-135 -114t-210 -39q-147 0 -236.5 69t-89.5 183z" />
<glyph horiz-adv-x="1165" d="M51 274q0 168 126 272.5t331 104.5q145 0 270 -53q2 10 2 43q-4 102 -64.5 152.5t-185.5 50.5q-72 0 -151.5 -21.5t-138.5 -56.5l-4 229q59 35 153 57.5t184 22.5q225 0 350.5 -106.5t125.5 -296.5q0 -51 -13 -121l-106 -551h-256l12 90q-53 -57 -132 -90t-165 -33 q-158 0 -248 83t-90 224zM313 293q0 -55 40 -88t110 -33q96 0 173 66.5t107 177.5q-39 18 -97 30.5t-107 12.5q-100 0 -163 -46t-63 -120zM340 1391q0 66 45.5 110.5t114.5 44.5q59 0 96 -35.5t37 -93.5q0 -68 -44.5 -111.5t-112.5 -43.5q-61 0 -98.5 35.5t-37.5 93.5z M779 1391q0 66 45 110.5t114 44.5q59 0 96.5 -35.5t37.5 -93.5q0 -68 -45 -111.5t-113 -43.5q-61 0 -98 35.5t-37 93.5z" />
<glyph horiz-adv-x="1202" d="M-147 -469l65 244q57 -37 131 -37q76 0 130 44t136 175l52 82l-236 1003h293l131 -747l401 747h314l-680 -1146q-135 -229 -254 -322.5t-275 -93.5q-59 0 -117.5 14t-90.5 37zM380 1391q0 66 45.5 110.5t114.5 44.5q59 0 96 -35.5t37 -93.5q0 -68 -44.5 -111.5 t-112.5 -43.5q-61 0 -98.5 35.5t-37.5 93.5zM819 1391q0 66 45 110.5t114 44.5q59 0 96.5 -35.5t37.5 -93.5q0 -68 -45 -111.5t-113 -43.5q-61 0 -98 35.5t-37 93.5z" />
<glyph horiz-adv-x="1165" d="M51 274q0 168 126 272.5t331 104.5q145 0 270 -53q2 10 2 43q-4 102 -64.5 152.5t-185.5 50.5q-72 0 -151.5 -21.5t-138.5 -56.5l-4 229q59 35 153 57.5t184 22.5q225 0 350.5 -106.5t125.5 -296.5q0 -51 -13 -121l-106 -551h-256l12 90q-53 -57 -132 -90t-165 -33 q-158 0 -248 83t-90 224zM313 293q0 -55 40 -88t110 -33q96 0 173 66.5t107 177.5q-39 18 -97 30.5t-107 12.5q-100 0 -163 -46t-63 -120zM373 1466q0 49 15 90h188q-4 -35 -4 -47q0 -123 131 -123q78 0 122 42t58 128h195q-10 -164 -109.5 -254t-273.5 -90q-150 0 -236 69 t-86 185z" />
<glyph horiz-adv-x="1185" d="M-119 -227q0 100 63.5 173.5t184.5 110.5q-90 47 -90 152q0 66 51 129t135 102q-94 88 -94 228q0 113 61.5 205t176 147t262.5 55q145 0 241 -43l373 33l-33 -223l-153 10q27 -55 26 -117q0 -113 -62 -204t-179 -145t-266 -54q-98 0 -189 22q-82 -35 -82 -86 q0 -33 43 -50t156 -28l72 -6q215 -18 314 -95t99 -222q0 -178 -162 -282.5t-436 -104.5q-250 0 -381 74.5t-131 218.5zM168 -176q0 -121 240 -121q145 0 225 40t80 112q0 109 -258 108q-139 0 -213 -36t-74 -103zM401 684q0 -70 49.5 -108.5t139.5 -38.5q96 0 160.5 53 t64.5 133q0 70 -48 108.5t-138 38.5q-96 0 -162 -53t-66 -133zM430 1466q0 49 15 90h188q-4 -35 -4 -47q0 -123 131 -123q78 0 122 42t58 128h195q-10 -164 -109.5 -254t-273.5 -90q-150 0 -236 69t-86 185z" />
<glyph horiz-adv-x="0" d="M94 1847q0 76 51.5 125t128.5 49q68 0 109 -39.5t41 -105.5q0 -78 -51 -128t-131 -50q-66 0 -107 42t-41 107z" />
<glyph horiz-adv-x="1185" d="M-119 -227q0 100 63.5 173.5t184.5 110.5q-90 47 -90 152q0 66 51 129t135 102q-94 88 -94 228q0 113 61.5 205t176 147t262.5 55q145 0 241 -43l373 33l-33 -223l-153 10q27 -55 26 -117q0 -113 -62 -204t-179 -145t-266 -54q-98 0 -189 22q-82 -35 -82 -86 q0 -33 43 -50t156 -28l72 -6q215 -18 314 -95t99 -222q0 -178 -162 -282.5t-436 -104.5q-250 0 -381 74.5t-131 218.5zM168 -176q0 -121 240 -121q145 0 225 40t80 112q0 109 -258 108q-139 0 -213 -36t-74 -103zM401 684q0 -70 49.5 -108.5t139.5 -38.5q96 0 160.5 53 t64.5 133q0 70 -48 108.5t-138 38.5q-96 0 -162 -53t-66 -133zM587 1397q0 74 49.5 122t124.5 48q66 0 106 -40t40 -102q0 -74 -50 -122t-126 -48q-63 0 -103.5 39t-40.5 103z" />
<glyph horiz-adv-x="0" d="M-18 1948q0 117 81.5 194.5t206.5 77.5t207 -78t82 -194q0 -117 -83 -196t-206 -79t-205.5 79t-82.5 196zM152 1948q0 -53 32.5 -86t85.5 -33q55 0 87 32.5t32 86.5q0 55 -31.5 86.5t-87.5 31.5q-55 0 -86.5 -31.5t-31.5 -86.5z" />
<glyph horiz-adv-x="1165" d="M51 274q0 168 126 272.5t331 104.5q145 0 270 -53q2 10 2 43q-4 102 -64.5 152.5t-185.5 50.5q-72 0 -151.5 -21.5t-138.5 -56.5l-4 229q59 35 153 57.5t184 22.5q225 0 350.5 -106.5t125.5 -296.5q0 -51 -13 -121l-106 -551h-256l12 90q-53 -57 -132 -90t-165 -33 q-158 0 -248 83t-90 224zM313 293q0 -55 40 -88t110 -33q96 0 173 66.5t107 177.5q-39 18 -97 30.5t-107 12.5q-100 0 -163 -46t-63 -120zM409 1458q0 117 82 195t207 78t207 -78t82 -195t-82 -194.5t-207 -77.5t-207 77.5t-82 194.5zM579 1458q0 -53 33 -86t86 -33 q55 0 87 33t32 86q0 55 -32 87t-87 32t-87 -32t-32 -87z" />
</font>
</defs>
</svg>
