<?xml version="1.0" standalone="no"?>
<!DOCTYPE svg PUBLIC "-//W3C//DTD SVG 1.1//EN" "http://www.w3.org/Graphics/SVG/1.1/DTD/svg11.dtd" >
<svg xmlns="http://www.w3.org/2000/svg" xmlns:xlink="http://www.w3.org/1999/xlink" version="1.1">
<metadata></metadata>
<defs>
<font id="objektiv_mk1bold" horiz-adv-x="790" >
<font-face units-per-em="2048" ascent="1638" descent="-410" />
<missing-glyph horiz-adv-x="450" />
<glyph unicode=" "  horiz-adv-x="450" />
<glyph unicode="&#x09;" horiz-adv-x="450" />
<glyph unicode="&#xa0;" horiz-adv-x="450" />
<glyph unicode="!" horiz-adv-x="718" d="M184 158q0 72 49.5 119t124.5 47q76 0 126.5 -46.5t50.5 -119.5q0 -74 -49.5 -122t-127.5 -48q-76 0 -125 48t-49 122zM205 1618h307l-25 -1098h-256z" />
<glyph unicode="&#x22;" horiz-adv-x="872" d="M90 1556h279l-29 -624h-223zM504 1556h279l-29 -624h-223z" />
<glyph unicode="#" horiz-adv-x="1411" d="M84 328v190h227l76 350h-219v191h260l74 327h217l-70 -327h271l73 327h217l-71 -327h190v-191h-231l-78 -350h223v-190h-262l-74 -328h-225l74 328h-269l-69 -328h-219l71 328h-186zM528 518h271l80 350h-273z" />
<glyph unicode="$" horiz-adv-x="1269" d="M117 90l30 246q188 -121 402 -133v465q-223 82 -325.5 192.5t-102.5 269.5q0 168 115.5 282t312.5 136v250h153v-246q100 -8 196.5 -35.5t168.5 -70.5l-41 -232q-143 84 -324 103v-424q229 -82 337 -200t108 -285q0 -170 -121 -287t-324 -141v-250h-153v245 q-268 10 -432 115zM379 1143q0 -72 39 -117t131 -82v371q-80 -14 -125 -59.5t-45 -112.5zM702 213q84 20 130.5 70.5t46.5 117.5q0 72 -40 121t-137 90v-399z" />
<glyph unicode="%" horiz-adv-x="2002" d="M113 1163q0 106 50 195.5t143 143.5t208 54q109 0 201 -49t146 -140t54 -204q0 -109 -50 -197.5t-142 -142t-209 -53.5q-111 0 -202 49t-145 139.5t-54 204.5zM330 0l1085 1524h252l-1085 -1524h-252zM340 1163q0 -86 48 -138t126 -52t126 52t48 138q0 84 -48 137.5 t-126 53.5t-126 -53.5t-48 -137.5zM1087 369q0 106 50.5 195t143.5 143.5t208 54.5q109 0 201 -49t146 -140.5t54 -203.5q0 -109 -50 -198t-142 -142.5t-209 -53.5q-111 0 -202 49.5t-145.5 139.5t-54.5 205zM1315 369q0 -86 48 -138.5t126 -52.5t126 52.5t48 138.5 q0 84 -48 137t-126 53t-126 -53t-48 -137z" />
<glyph unicode="&#x26;" horiz-adv-x="1550" d="M98 406q0 274 318 444q-88 106 -125 192t-37 183q0 162 120 265t308 103q186 0 306 -101t120 -259q0 -264 -315 -430l292 -336q76 141 86 340l250 -27q-16 -295 -170 -504l244 -276h-344l-84 96q-188 -129 -426 -129q-160 0 -281.5 53.5t-191.5 152.5t-70 233zM385 424 q0 -96 78 -156.5t199 -60.5q143 0 249 67l-348 404q-178 -104 -178 -254zM524 1227q0 -59 27.5 -116.5t93.5 -137.5q102 57 147.5 117.5t45.5 136.5q0 72 -43 114.5t-113 42.5q-72 0 -115 -43t-43 -114z" />
<glyph unicode="'" horiz-adv-x="458" d="M90 1556h279l-29 -624h-223z" />
<glyph unicode="(" horiz-adv-x="874" d="M162 702q0 184 46 367.5t133 343.5t204 266h311q-205 -186 -315.5 -438t-110.5 -539t109.5 -538.5t316.5 -435.5h-311q-174 160 -278.5 426t-104.5 548z" />
<glyph unicode=")" horiz-adv-x="874" d="M18 -272q205 186 315.5 438t110.5 539t-109.5 538.5t-316.5 435.5h312q174 -160 278.5 -426t104.5 -548q0 -184 -46 -367.5t-133.5 -343.5t-203.5 -266h-312z" />
<glyph unicode="*" horiz-adv-x="970" d="M59 1169l82 220l256 -123l-30 290h237l-33 -290l258 123l80 -220l-280 -73l202 -228l-190 -131l-156 254l-151 -254l-191 131l199 228z" />
<glyph unicode="+" horiz-adv-x="1269" d="M156 567v238h352v379h254v-379h354v-238h-354v-379h-254v379h-352z" />
<glyph unicode="," horiz-adv-x="612" d="M0 -356q86 137 134 310t50 351h277q0 -117 -29 -241.5t-83 -236.5t-124 -183h-225z" />
<glyph unicode="-" horiz-adv-x="878" d="M125 465v248h629v-248h-629z" />
<glyph unicode="." horiz-adv-x="612" d="M131 158q0 74 50 120t126 46t125 -47.5t49 -118.5q0 -74 -49 -122t-125 -48q-78 0 -127 48t-49 122z" />
<glyph unicode="/" horiz-adv-x="1126" d="M23 -272l806 1931h273l-805 -1931h-274z" />
<glyph unicode="0" horiz-adv-x="1269" d="M76 762q0 375 147.5 584.5t411.5 209.5t412.5 -210.5t148.5 -583.5t-148.5 -584t-412.5 -211t-411.5 210t-147.5 585zM387 762q0 -535 248 -535q250 0 250 535t-250 534q-248 0 -248 -534z" />
<glyph unicode="1" horiz-adv-x="1269" d="M147 1303l502 221h230v-1524h-289v1227l-395 -176z" />
<glyph unicode="2" horiz-adv-x="1269" d="M127 0v225q248 223 395 393t202.5 271.5t55.5 200.5q0 100 -61.5 158.5t-163.5 58.5q-98 0 -192.5 -46.5t-172.5 -130.5l-51 248q84 84 207 131t256 47q219 0 349 -116.5t130 -313.5q0 -147 -74.5 -297.5t-238.5 -334.5q-70 -78 -236 -236h594v-258h-999z" />
<glyph unicode="3" horiz-adv-x="1269" d="M125 68l25 245q178 -100 382 -100q141 0 220 65.5t79 180.5q0 113 -75.5 176t-212.5 63q-55 0 -137 -16l-72 164l397 426h-579v252h929v-217l-379 -408q131 -10 227.5 -66.5t148.5 -151.5t52 -222q0 -227 -156.5 -359.5t-426.5 -132.5q-127 0 -237.5 26.5t-184.5 74.5z " />
<glyph unicode="4" horiz-adv-x="1269" d="M59 342v233l666 949h297v-944h186v-238h-186v-342h-277v342h-686zM336 580h409v581z" />
<glyph unicode="5" horiz-adv-x="1269" d="M119 61l24 250q82 -47 182.5 -72.5t194.5 -25.5q150 0 235 69.5t85 194.5q0 115 -95.5 184.5t-252.5 69.5q-63 0 -149.5 -11t-160.5 -28l33 832h825v-254h-573l-12 -318q68 12 133 13q252 0 400.5 -131.5t148.5 -350.5q0 -236 -160 -376t-430 -140q-119 0 -239 26.5 t-189 67.5z" />
<glyph unicode="6" horiz-adv-x="1269" d="M98 504q0 248 155 526.5t413 497.5l352 -10q-387 -317 -543 -637q90 72 246 71q127 0 233.5 -59t170 -168t63.5 -248q0 -143 -66.5 -259t-190.5 -183.5t-288 -67.5q-250 0 -397.5 145.5t-147.5 391.5zM385 467q0 -113 72.5 -186.5t185.5 -73.5q111 0 183.5 72.5 t72.5 187.5q0 117 -70.5 189.5t-185.5 72.5q-111 0 -184.5 -73.5t-73.5 -188.5z" />
<glyph unicode="7" horiz-adv-x="1269" d="M121 1253v271h1024v-242l-561 -1286l-305 10l552 1247h-710z" />
<glyph unicode="8" horiz-adv-x="1269" d="M78 416q0 131 66.5 233.5t179.5 147.5q-100 47 -153.5 136t-53.5 206q0 121 63.5 215t181 148t273.5 54q147 0 265 -51t185.5 -146t67.5 -220q0 -117 -54.5 -206t-154.5 -136q115 -45 181.5 -146.5t66.5 -234.5t-66.5 -234.5t-193.5 -158t-297 -56.5q-164 0 -290 54.5 t-196.5 156t-70.5 238.5zM373 438q0 -106 70.5 -168.5t191.5 -62.5t191.5 62.5t70.5 168.5t-71.5 170t-190.5 64t-190.5 -63.5t-71.5 -170.5zM395 1114q0 -96 64.5 -153.5t175.5 -57.5t175 57.5t64 153.5t-65.5 154.5t-173.5 58.5q-109 0 -174.5 -58.5t-65.5 -154.5z" />
<glyph unicode="9" horiz-adv-x="1269" d="M82 1047q0 143 66.5 258.5t190.5 183t288 67.5q250 0 397 -145t147 -391q0 -248 -154.5 -526.5t-412.5 -497.5l-352 10q389 322 541 635q-90 -70 -244 -70q-127 0 -233.5 59.5t-170 168t-63.5 248.5zM371 1057q0 -117 70.5 -189.5t185.5 -72.5q111 0 184.5 73.5 t73.5 188.5q0 113 -73 186.5t-185 73.5q-111 0 -183.5 -73t-72.5 -187z" />
<glyph unicode=":" horiz-adv-x="612" d="M131 158q0 74 50 120t126 46t125 -47.5t49 -118.5q0 -74 -49 -122t-125 -48q-78 0 -127 48t-49 122zM131 887q0 74 50 120t126 46t125 -47.5t49 -118.5q0 -74 -49 -122t-125 -48q-78 0 -127 48t-49 122z" />
<glyph unicode=";" horiz-adv-x="612" d="M0 -356q86 137 134 310t50 351h277q0 -117 -29 -241.5t-83 -236.5t-124 -183h-225zM131 887q0 74 50 120t126 46t125 -47.5t49 -118.5q0 -74 -49 -122t-125 -48q-78 0 -127 48t-49 122z" />
<glyph unicode="&#x3c;" horiz-adv-x="1269" d="M174 563v262l922 375v-262l-617 -240l617 -241v-267z" />
<glyph unicode="=" horiz-adv-x="1269" d="M193 322v233h886v-233h-886zM193 807v233h886v-233h-886z" />
<glyph unicode="&#x3e;" horiz-adv-x="1269" d="M174 190v263l617 239l-617 242v266l922 -373v-262z" />
<glyph unicode="?" horiz-adv-x="1044" d="M39 1444q76 90 203 141t272 51q135 0 239.5 -49t165 -140t60.5 -212q0 -88 -27.5 -153.5t-71.5 -117t-93.5 -97.5t-93.5 -95t-71.5 -109.5t-27.5 -142.5h-256q-6 29 -6 64q0 92 25.5 160.5t64.5 119.5t83 93t83 81t64.5 81t25.5 95q0 80 -56.5 126t-156.5 46 q-94 0 -190.5 -47t-168.5 -131zM289 158q0 74 50 120t126 46t125 -47.5t49 -118.5q0 -74 -49 -122t-125 -48q-78 0 -127 48t-49 122z" />
<glyph unicode="@" horiz-adv-x="2099" d="M98 389q0 272 133.5 499.5t375 366t544.5 138.5q246 0 439.5 -95.5t305 -273.5t111.5 -414q0 -174 -61.5 -314t-177 -223t-263.5 -83q-102 0 -173.5 35.5t-102.5 101.5q-45 -63 -124 -99t-173 -36q-162 0 -261.5 113.5t-99.5 297.5q0 137 56.5 254t159 189t227.5 72 q88 0 159.5 -36t112.5 -102l25 107h227l-88 -527q-6 -37 -6 -69q0 -111 96 -111q66 0 121 53.5t90 149.5t35 215q0 274 -174 434t-473 160q-227 0 -413.5 -99.5t-296.5 -281.5t-110 -418q0 -199 85 -347t246 -231t384 -83q248 0 469 98l19 -203q-242 -98 -496 -98 q-268 0 -478 103.5t-330 299t-120 457.5zM817 426q0 -104 49.5 -160.5t141.5 -56.5q102 0 166.5 78t64.5 198q0 102 -49 157.5t-139 55.5q-102 0 -168 -75.5t-66 -196.5z" />
<glyph unicode="A" horiz-adv-x="1662" d="M47 0l619 1556h331l619 -1556h-332l-147 410h-627l-150 -410h-313zM594 651h457l-230 627z" />
<glyph unicode="B" horiz-adv-x="1464" d="M186 0v1556h580q246 0 378 -103t132 -294q0 -106 -52.5 -194t-142.5 -136q127 -35 201 -137t74 -241q0 -219 -142.5 -335t-410.5 -116h-617zM483 244h297q125 0 192.5 58t67.5 165q0 213 -276 213h-281v-436zM483 920h238q127 0 190.5 49t63.5 151q0 94 -62.5 143.5 t-187.5 49.5h-242v-393z" />
<glyph unicode="C" horiz-adv-x="1560" d="M102 770q0 229 103.5 412.5t296 290t444.5 106.5q127 0 259 -34t227 -91l-52 -264q-221 110 -426 110h-4q-152 0 -270.5 -63t-186 -182t-67.5 -279q0 -240 143.5 -380t386.5 -140q106 0 227.5 30.5t227.5 86.5l33 -271q-104 -59 -239.5 -92t-274.5 -33 q-242 0 -428.5 95.5t-293 275.5t-106.5 422z" />
<glyph unicode="D" horiz-adv-x="1738" d="M186 0v1556h596q406 0 630 -203.5t224 -572.5q0 -371 -230 -575.5t-646 -204.5h-574zM498 252h256q559 0 559 526t-557 527h-258v-1053z" />
<glyph unicode="E" horiz-adv-x="1376" d="M186 0v1556h1028v-262h-725v-372h641v-260h-641v-400h754v-262h-1057z" />
<glyph unicode="F" horiz-adv-x="1282" d="M186 0v1556h1002v-262h-692v-415h598v-261h-598v-618h-310z" />
<glyph unicode="G" horiz-adv-x="1687" d="M102 762q0 240 106.5 424t306.5 288.5t466 104.5q141 0 280.5 -31.5t251.5 -91.5l-51 -270q-109 55 -236.5 84.5t-256.5 29.5q-160 0 -284 -63t-193.5 -183t-69.5 -280q0 -244 146.5 -383t400.5 -139q133 0 286 39v332h-311v249h602v-780q-266 -115 -596 -115 q-250 0 -441.5 94.5t-299 272.5t-107.5 418z" />
<glyph unicode="H" horiz-adv-x="1746" d="M186 0v1556h314v-624h747v624h314v-1556h-314v674h-747v-674h-314z" />
<glyph unicode="I" horiz-adv-x="686" d="M186 0v1556h314v-1556h-314z" />
<glyph unicode="J" horiz-adv-x="1159" d="M72 55l30 254q133 -78 295 -78q145 0 209 78t64 258v989h313v-1013q0 -291 -132.5 -433.5t-404.5 -142.5q-104 0 -206.5 23.5t-167.5 64.5z" />
<glyph unicode="K" horiz-adv-x="1597" d="M186 0v1556h312v-657l626 657h389l-729 -741l799 -815h-422l-663 694v-694h-312z" />
<glyph unicode="L" horiz-adv-x="1275" d="M186 0v1556h314v-1298h704v-258h-1018z" />
<glyph unicode="M" horiz-adv-x="2088" d="M154 0l84 1556h288l525 -991l510 991h288l86 -1556h-301l-41 1077l-428 -817h-241l-428 795l-41 -1055h-301z" />
<glyph unicode="N" horiz-adv-x="1763" d="M186 0v1556h279l815 -1081v1081h297v-1556h-279l-815 1077v-1077h-297z" />
<glyph unicode="O" horiz-adv-x="1849" d="M102 778q0 219 103.5 403.5t292 296t426.5 111.5q227 0 413.5 -101.5t298 -286.5t111.5 -423q0 -219 -103.5 -403.5t-292.5 -296t-427 -111.5q-225 0 -411.5 101.5t-298.5 287t-112 422.5zM426 778q0 -147 61.5 -268t175.5 -192.5t261 -71.5q139 0 252.5 65.5t180 188.5 t66.5 278q0 147 -61.5 268t-176 193t-261.5 72q-139 0 -252 -65.5t-179.5 -187.5t-66.5 -280z" />
<glyph unicode="P" horiz-adv-x="1341" d="M186 0v1556h508q170 0 299 -61t202 -176t73 -270q0 -236 -157 -376.5t-419 -140.5h-203v-532h-303zM489 784h162q154 0 235 68t81 195t-80 192.5t-236 65.5h-162v-521z" />
<glyph unicode="Q" horiz-adv-x="1849" d="M102 778q0 219 103.5 403.5t292 296t426.5 111.5q227 0 413.5 -101.5t298 -286.5t111.5 -423q0 -240 -123 -435.5t-336 -295.5l379 -420h-385l-289 344q-66 -4 -75 -4q-166 0 -312.5 56.5t-259.5 163t-178.5 258t-65.5 333.5zM426 778q0 -147 61.5 -268t175.5 -192.5 t261 -71.5q139 0 252.5 65.5t180 188.5t66.5 278q0 147 -61.5 268t-176 193t-261.5 72q-139 0 -252 -65.5t-179.5 -187.5t-66.5 -280z" />
<glyph unicode="R" horiz-adv-x="1474" d="M186 0v1556h506q268 0 422 -132t154 -363q0 -137 -67.5 -246.5t-192.5 -177.5l415 -637h-352l-334 559q-35 -2 -58.5 -3t-43.5 -1h-150v-555h-299zM485 807h154q322 0 322 252q0 121 -79 183.5t-233 62.5h-164v-498z" />
<glyph unicode="S" horiz-adv-x="1355" d="M115 96l30 269q98 -63 229.5 -100.5t252.5 -37.5q141 0 218 52.5t77 146.5q0 80 -64.5 129t-245.5 107q-254 80 -362.5 190.5t-108.5 292.5q0 131 66.5 231.5t193.5 156.5t297 56q121 0 246 -30.5t219 -83.5l-43 -261q-88 51 -199.5 83t-211.5 32q-131 0 -198 -47 t-67 -135q0 -55 26 -91t84 -64.5t167 -63.5q279 -88 395.5 -202t116.5 -296q0 -215 -159 -339t-435 -124q-145 0 -292.5 36t-231.5 93z" />
<glyph unicode="T" horiz-adv-x="1456" d="M72 1298v258h1312v-258h-499v-1298h-314v1298h-499z" />
<glyph unicode="U" horiz-adv-x="1730" d="M176 657v899h313v-874q0 -436 375 -436q377 0 377 436v874h313v-899q0 -330 -180 -510t-512 -180q-326 0 -506 180.5t-180 509.5z" />
<glyph unicode="V" horiz-adv-x="1593" d="M41 1556h346l416 -1216l414 1216h335l-591 -1556h-330z" />
<glyph unicode="W" horiz-adv-x="2301" d="M47 1556h330l299 -1161l340 1141h272l340 -1126l297 1146h330l-469 -1556h-297l-342 1118l-336 -1118h-299z" />
<glyph unicode="X" horiz-adv-x="1556" d="M31 0l565 809l-518 747h364l351 -534l340 534h358l-524 -751l559 -805h-371l-385 592l-381 -592h-358z" />
<glyph unicode="Y" horiz-adv-x="1501" d="M23 1556h348l385 -663l387 663h336l-574 -907v-649h-311v649z" />
<glyph unicode="Z" horiz-adv-x="1497" d="M109 0v225l858 1075h-809v256h1200v-225l-858 -1075h872v-256h-1263z" />
<glyph unicode="[" horiz-adv-x="868" d="M217 -272v1951h571v-233h-307v-1485h307v-233h-571z" />
<glyph unicode="\" horiz-adv-x="1126" d="M23 1659h272l807 -1931h-275z" />
<glyph unicode="]" horiz-adv-x="868" d="M80 -39h307v1485h-307v233h571v-1951h-571v233z" />
<glyph unicode="^" horiz-adv-x="1269" d="M94 629l418 815h242l422 -815h-281l-264 538l-264 -538h-273z" />
<glyph unicode="_" horiz-adv-x="1024" d="M0 -78h1024v-221h-1024v221z" />
<glyph unicode="`" horiz-adv-x="1024" d="M246 1591h315l217 -342h-243z" />
<glyph unicode="a" horiz-adv-x="1349" d="M92 518q0 152 62.5 278t177 202.5t258.5 76.5q106 0 193 -44t139 -124l4 135h272v-1042h-272l-4 133q-53 -82 -141.5 -124t-205.5 -42q-137 0 -246.5 67.5t-173 193.5t-63.5 290zM377 522q0 -133 77.5 -217t198.5 -84t199 84t78 217q0 131 -77 215t-200 84t-199.5 -84 t-76.5 -215z" />
<glyph unicode="b" horiz-adv-x="1349" d="M152 0v1659h284v-739q112 155 335 155h3q137 0 246.5 -67.5t173 -193.5t63.5 -290q0 -152 -62 -277.5t-177 -202.5t-258 -77q-109 0 -196 44t-136 124l-4 -135h-272zM420 520q0 -131 76.5 -215t199.5 -84t200 84t77 215q0 133 -78 217t-199 84t-198.5 -84t-77.5 -217z " />
<glyph unicode="c" horiz-adv-x="1107" d="M92 516q0 160 69.5 285t200 196.5t302.5 71.5q92 0 183 -20.5t152 -55.5l-34 -241q-135 65 -271 65h-4q-143 0 -228 -80t-85 -215q0 -139 86 -218t235 -79q131 0 285 64l29 -234q-66 -39 -158 -60.5t-188 -21.5q-170 0 -300 65.5t-202 188.5t-72 289z" />
<glyph unicode="d" horiz-adv-x="1349" d="M92 518q0 152 62.5 278t177 202.5t258.5 76.5q102 0 187 -41t136 -114v739h285v-1659h-272l-4 133q-53 -82 -141.5 -124t-205.5 -42q-137 0 -246.5 67.5t-173 193.5t-63.5 290zM377 522q0 -133 77.5 -217t198.5 -84t199 84t78 217q0 131 -77 215t-200 84t-199.5 -84 t-76.5 -215z" />
<glyph unicode="e" horiz-adv-x="1226" d="M92 520q0 158 65.5 284t186.5 198.5t281 72.5q147 0 258.5 -62.5t174 -179t62.5 -276.5q0 -68 -10 -123h-735q53 -233 354 -233q94 0 183 19.5t161 55.5l29 -223q-74 -41 -180.5 -63.5t-223.5 -22.5q-182 0 -318 65.5t-212 191.5t-76 296zM373 633h475q-10 109 -70.5 167 t-161.5 58q-98 0 -161.5 -58.5t-81.5 -166.5z" />
<glyph unicode="f" horiz-adv-x="876" d="M53 807v235h189v129q0 238 114.5 368t325.5 130q61 0 128 -12t112 -33l-31 -233q-83 30 -161 30h-5q-102 0 -150.5 -66.5t-48.5 -207.5v-105h281v-235h-281v-807h-284v807h-189z" />
<glyph unicode="g" horiz-adv-x="1349" d="M92 518q0 152 62.5 278t177 202.5t258.5 76.5q106 0 193 -44t139 -124l4 135h272v-968q0 -293 -147.5 -443.5t-438.5 -150.5q-106 0 -221 23.5t-180 60.5l31 258q63 -39 157.5 -63.5t182.5 -24.5q174 0 257 78.5t83 246.5v74q-53 -82 -141.5 -124t-205.5 -42 q-137 0 -246.5 67.5t-173 193.5t-63.5 290zM377 522q0 -133 77.5 -217t198.5 -84t199 84t78 217q0 131 -77 215t-200 84t-199.5 -84t-76.5 -215z" />
<glyph unicode="h" horiz-adv-x="1267" d="M152 0v1659h284v-731q45 72 124 109.5t183 37.5q184 0 281.5 -113.5t97.5 -328.5v-633h-284v580q0 243 -185 243h-2q-102 0 -158.5 -68.5t-56.5 -193.5v-561h-284z" />
<glyph unicode="i" horiz-adv-x="587" d="M123 1421q0 70 48 117t122 47t122 -47t48 -117q0 -72 -48 -119t-122 -47t-122 48.5t-48 117.5zM152 0v1042h284v-1042h-284z" />
<glyph unicode="j" horiz-adv-x="587" d="M-223 -471l28 238q74 -37 170 -37q90 0 133.5 51t43.5 162v1099h284v-1114q0 -221 -104 -334.5t-309 -113.5q-78 0 -143.5 13t-102.5 36zM123 1421q0 70 48 117t122 47t122 -47t48 -117q0 -72 -48 -119t-122 -47t-122 48.5t-48 117.5z" />
<glyph unicode="k" horiz-adv-x="1247" d="M152 0v1659h284v-1006l375 389h352l-469 -467l545 -575h-367l-436 475v-475h-284z" />
<glyph unicode="l" horiz-adv-x="587" d="M152 0v1659h284v-1659h-284z" />
<glyph unicode="m" horiz-adv-x="1927" d="M152 0v1042h274l2 -129q47 80 128 121t189 41q227 0 320 -186q43 84 134 135t200 51q186 0 284.5 -112.5t98.5 -329.5v-633h-285v580q0 125 -45 184t-139 59t-148.5 -69.5t-54.5 -192.5v-561h-285v580q0 125 -44 184t-140 59t-150.5 -69.5t-54.5 -190.5v-563h-284z" />
<glyph unicode="n" horiz-adv-x="1267" d="M152 0v1042h274l2 -129q45 78 126 120t189 42q184 0 281.5 -113.5t97.5 -328.5v-633h-284v580q0 243 -185 243h-2q-102 0 -158.5 -68.5t-56.5 -193.5v-561h-284z" />
<glyph unicode="o" horiz-adv-x="1306" d="M92 522q0 150 70.5 276t200 201.5t290.5 75.5q154 0 282 -68.5t203.5 -195.5t75.5 -289q0 -152 -70.5 -277.5t-199.5 -201.5t-291 -76q-154 0 -281.5 69.5t-203.5 196.5t-76 289zM377 522q0 -133 77.5 -217t198.5 -84t199 84t78 217q0 131 -77 215t-200 84t-199.5 -84 t-76.5 -215z" />
<glyph unicode="p" horiz-adv-x="1349" d="M152 -502v1544h272l4 -135q106 168 346 168q137 0 246.5 -67.5t173 -193.5t63.5 -290q0 -152 -62 -277.5t-177 -202.5t-258 -77q-104 0 -188.5 40t-135.5 114v-623h-284zM420 520q0 -131 76.5 -215t199.5 -84t200 84t77 215q0 133 -78 217t-199 84t-198.5 -84t-77.5 -217 z" />
<glyph unicode="q" horiz-adv-x="1349" d="M92 518q0 152 62.5 278t177 202.5t258.5 76.5q106 0 193 -44t139 -124l4 135h272v-1544h-285v625q-109 -156 -338 -156q-137 0 -246.5 67.5t-173 193.5t-63.5 290zM377 522q0 -133 77.5 -217t198.5 -84t199 84t78 217q0 131 -77 215t-200 84t-199.5 -84t-76.5 -215z" />
<glyph unicode="r" horiz-adv-x="890" d="M152 0v1042h274l2 -172q43 92 115.5 141.5t169.5 49.5q66 0 121 -23l-25 -268q-63 25 -127 25q-117 0 -181.5 -84t-64.5 -236v-475h-284z" />
<glyph unicode="s" horiz-adv-x="1009" d="M84 68l35 231q70 -47 163 -75.5t179 -28.5q174 0 174 88q0 47 -37 71.5t-154 57.5q-184 51 -263 130t-79 212q0 150 113 235.5t309 85.5q96 0 192.5 -22.5t157.5 -59.5l-32 -225q-63 37 -146.5 58.5t-158.5 21.5q-150 0 -150 -80q0 -45 36 -70.5t142 -56.5 q197 -57 278 -135t81 -215q0 -152 -120 -238t-331 -86q-119 0 -225.5 28t-163.5 73z" />
<glyph unicode="t" horiz-adv-x="944" d="M25 807v235h202v283h285v-283h326v-235h-326v-385q0 -109 37 -156t125 -47q100 0 184 45l31 -237q-47 -27 -122 -43.5t-157 -16.5q-195 0 -289 99.5t-94 304.5v436h-202z" />
<glyph unicode="u" horiz-adv-x="1265" d="M145 410v632h285v-579q0 -244 186 -244q102 0 157.5 68.5t55.5 193.5v561h285v-1042h-274l-2 127q-45 -78 -126.5 -119t-187.5 -41q-184 0 -281.5 114t-97.5 329z" />
<glyph unicode="v" horiz-adv-x="1167" d="M33 1042h313l242 -743l250 743h297l-404 -1042h-295z" />
<glyph unicode="w" horiz-adv-x="1751" d="M43 1042h297l190 -714l222 714h239l232 -716l192 716h293l-346 -1042h-258l-236 688l-225 -688h-254z" />
<glyph unicode="x" horiz-adv-x="1208" d="M49 0l391 539l-370 503h325l215 -319l207 319h313l-366 -507l395 -535h-325l-240 356l-232 -356h-313z" />
<glyph unicode="y" horiz-adv-x="1208" d="M33 1042h309l270 -669l258 669h306l-691 -1544h-295l277 574z" />
<glyph unicode="z" horiz-adv-x="1110" d="M90 0v203l533 604h-510v235h882v-202l-534 -604h549v-236h-920z" />
<glyph unicode="{" horiz-adv-x="907" d="M94 575v236h53q100 0 139.5 34t39.5 124q0 68 -13.5 132t-27 127.5t-13.5 123.5q0 168 100.5 248.5t313.5 80.5q20 0 54 -1t75 -3v-229q-10 2 -94 2q-96 0 -140 -36t-44 -111q0 -47 13 -108.5t25.5 -128.5t12.5 -134q0 -84 -40 -147.5t-108 -92.5q70 -29 109 -91t39 -146 q0 -68 -12.5 -134.5t-25.5 -128t-13 -108.5q0 -76 44 -111.5t140 -35.5q82 0 94 2v-230q-41 -2 -75 -3t-54 -1q-213 0 -313.5 81t-100.5 249q0 59 13.5 122.5t27 128t13.5 132.5q0 90 -39 123.5t-140 33.5h-53z" />
<glyph unicode="|" horiz-adv-x="673" d="M207 -465v2239h262v-2239h-262z" />
<glyph unicode="}" horiz-adv-x="907" d="M92 -61q10 -2 94 -2q96 0 140.5 35.5t44.5 111.5q0 47 -12.5 108.5t-26 128t-13.5 134.5q0 84 40 147.5t108 91.5q-70 27 -109 90.5t-39 147.5q0 68 13.5 134.5t26 127.5t12.5 109q0 76 -44 111.5t-141 35.5q-82 0 -94 -2v229q41 2 75 3t54 1q213 0 313.5 -80.5 t100.5 -248.5q0 -59 -13.5 -123t-26.5 -128.5t-13 -131.5q0 -90 38.5 -124t139.5 -34h53v-236h-53q-100 0 -139 -33.5t-39 -123.5q0 -68 13 -132.5t26.5 -128t13.5 -122.5q0 -168 -100.5 -249t-313.5 -81q-20 0 -54 1t-75 3v230z" />
<glyph unicode="~" horiz-adv-x="1269" d="M90 477v31q0 199 83 307.5t235 108.5q137 0 254 -93q84 -66 114.5 -83t59.5 -17q109 0 108 191h236v-31q0 -199 -83 -307.5t-235 -108.5q-137 0 -254 92q-84 66 -114.5 83.5t-59.5 17.5q-109 0 -108 -191h-236z" />
<glyph unicode="&#xa1;" horiz-adv-x="718" d="M184 885q0 74 49 122t127 48q76 0 125.5 -48.5t49.5 -121.5q0 -72 -49.5 -119t-125.5 -47t-126 46t-50 120zM207 -575l24 1097h256l27 -1097h-307z" />
<glyph unicode="&#xa2;" horiz-adv-x="1269" d="M172 512q0 217 125 366.5t332 180.5v256h153v-250q160 -8 283 -76l-37 -231q-115 59 -246 65v-604h17q111 2 248 64l28 -226q-119 -72 -293 -77v-250h-153v254q-137 18 -239.5 87.5t-160 182.5t-57.5 258zM438 522q0 -109 49.5 -182.5t141.5 -101.5v567 q-92 -29 -141.5 -101.5t-49.5 -181.5z" />
<glyph unicode="&#xa3;" horiz-adv-x="1269" d="M115 0v242h196v395h-186v225h186v96q0 287 142.5 442.5t404.5 155.5q182 0 326 -71l-43 -240q-137 66 -267 66q-141 0 -212.5 -92.5t-71.5 -272.5v-84h407v-225h-407v-395h604v-242h-1079z" />
<glyph unicode="&#xa4;" horiz-adv-x="1269" d="M55 440l176 189q-55 96 -55 225q0 125 55 225l-176 189l176 157l162 -182q55 35 118.5 54.5t123.5 19.5q59 0 122.5 -19.5t119.5 -54.5l163 182l177 -157l-179 -189q55 -98 56 -225q0 -129 -56 -225l179 -189l-177 -157l-163 180q-113 -72 -242 -72q-127 0 -242 72 l-162 -180zM401 854q0 -113 65 -183.5t169 -70.5t168.5 70.5t64.5 183.5t-64.5 183.5t-168.5 70.5t-169 -70.5t-65 -183.5z" />
<glyph unicode="&#xa5;" horiz-adv-x="1269" d="M10 1524h320l311 -633l309 633h312l-396 -705h308v-184h-396v-160h396v-184h-396v-291h-278v291h-408v184h408v160h-408v184h309z" />
<glyph unicode="&#xa6;" horiz-adv-x="673" d="M207 446h262v-911h-262v911zM207 862v912h262v-912h-262z" />
<glyph unicode="&#xa7;" horiz-adv-x="1091" d="M98 610q0 113 56.5 199t156.5 127q-86 47 -128 114.5t-42 161.5q0 150 114 236t308 86q96 0 192.5 -21.5t172.5 -60.5l-35 -211q-74 37 -158 58.5t-162 21.5q-80 0 -121.5 -26.5t-41.5 -75.5q0 -47 45 -80t170 -72q195 -63 280.5 -151.5t85.5 -225.5q0 -109 -52 -190.5 t-146 -126.5q86 -49 127 -114.5t41 -154.5q0 -164 -121 -259t-332 -95q-117 0 -229.5 30t-178.5 77l33 219q176 -113 371 -113q84 0 132 34t48 93q0 53 -46 88t-161 68q-201 57 -290 142t-89 222zM356 649q0 -78 53.5 -127t137.5 -49q82 0 135 53.5t53 135.5q0 78 -54 127 t-138 49q-82 0 -134.5 -53.5t-52.5 -135.5z" />
<glyph unicode="&#xa8;" horiz-adv-x="1024" d="M141 1405q0 61 42 101t106 40q66 0 106.5 -40t40.5 -101q0 -63 -40.5 -103t-106.5 -40q-68 0 -108 39.5t-40 103.5zM588 1405q0 61 42 101t105 40q66 0 107 -40t41 -101q0 -63 -41 -103t-107 -40q-68 0 -107.5 39.5t-39.5 103.5z" />
<glyph unicode="&#xa9;" horiz-adv-x="1628" d="M74 778q0 201 93 366t262 263t386 98q203 0 371 -90t268 -257t100 -380q0 -201 -92 -365.5t-262 -263t-385 -98.5q-205 0 -373 91t-268 258t-100 378zM250 778q0 -160 69.5 -288t198.5 -202.5t297 -74.5q160 0 288 69.5t202.5 198.5t74.5 297q0 160 -69.5 288 t-198.5 202.5t-297 74.5q-160 0 -288 -69.5t-202.5 -198.5t-74.5 -297zM442 778q0 176 114 286t296 110q61 0 125.5 -15.5t103.5 -38.5l-28 -192q-43 18 -94.5 30.5t-92.5 12.5q-86 0 -140 -51.5t-54 -135.5q0 -88 56 -137t153 -49q76 0 186 43l29 -190q-113 -54 -248 -54 q-186 0 -296 102.5t-110 278.5z" />
<glyph unicode="&#xaa;" horiz-adv-x="960" d="M90 1180q0 98 43 183t121 139t174 54q68 0 125 -26.5t96 -75.5l2 82h207v-717h-205l-4 84q-35 -51 -93 -79.5t-128 -28.5q-92 0 -169 48t-123 136t-46 201zM129 463v192h729v-192h-729zM313 1178q0 -82 46 -133.5t120 -51.5q76 0 122 51.5t46 133.5t-46 132t-120 50 q-76 0 -122 -50t-46 -132z" />
<glyph unicode="&#xab;" horiz-adv-x="1236" d="M57 526l303 449h312l-314 -449l314 -448h-312zM551 526l303 449h312l-314 -449l314 -448h-312z" />
<glyph unicode="&#xac;" horiz-adv-x="1269" d="M168 629v243h932v-548h-258v305h-674z" />
<glyph unicode="&#xad;" horiz-adv-x="878" d="M125 465v248h629v-248h-629z" />
<glyph unicode="&#xae;" horiz-adv-x="1042" d="M63 1241q0 123 57.5 224.5t163 164t236.5 62.5q125 0 228.5 -56.5t166 -160t62.5 -234.5q0 -123 -57.5 -225.5t-162 -163.5t-237.5 -61q-123 0 -226.5 57t-167 160.5t-63.5 232.5zM190 1241q0 -94 41 -170t116 -121t173 -45q145 0 238.5 94.5t93.5 241.5t-93 241.5 t-239 94.5q-92 0 -166.5 -42t-119 -119t-44.5 -175zM348 1036v428h170q88 0 137.5 -39t49.5 -108q0 -84 -66 -125l88 -156h-137l-62 121h-57v-121h-123zM471 1262h39q35 0 51.5 12t16.5 39q0 49 -68 49h-39v-100z" />
<glyph unicode="&#xaf;" horiz-adv-x="1024" d="M180 1294v203h664v-203h-664z" />
<glyph unicode="&#xb0;" horiz-adv-x="1005" d="M127 1219q0 100 47 183t134 134t196 51q102 0 187 -46t136.5 -131t51.5 -191q0 -98 -47.5 -181.5t-134.5 -134.5t-193 -51q-102 0 -188.5 46t-137.5 130t-51 191zM340 1219q0 -76 46 -124t118 -48q74 0 120 48t46 124q0 78 -46 127t-120 49q-72 0 -118 -49.5t-46 -126.5z " />
<glyph unicode="&#xb1;" horiz-adv-x="1269" d="M156 2v242h960v-242h-960zM156 743v238h352v379h254v-379h354v-238h-354v-379h-254v379h-352z" />
<glyph unicode="&#xb2;" d="M84 934v176q125 92 235 193q76 70 108 119t32 98q0 41 -33 66.5t-86 25.5q-113 0 -215 -100l-37 170q45 49 124 78.5t165 29.5q133 0 214 -67.5t81 -180.5q0 -166 -207 -348q-37 -33 -59.5 -50t-36.5 -30h331v-180h-616z" />
<glyph unicode="&#xb3;" d="M82 969l18 182q45 -27 104.5 -41t121.5 -14q74 0 114.5 27.5t40.5 76.5q0 47 -39 74t-106 27q-43 0 -84 -13l-45 107l213 201h-318v174h560v-162l-187 -170q100 -14 158.5 -80t58.5 -164q0 -127 -97 -203.5t-261 -76.5q-76 0 -142.5 14t-109.5 41z" />
<glyph unicode="&#xb4;" horiz-adv-x="1024" d="M289 1249l215 342h315l-287 -342h-243z" />
<glyph unicode="&#xb5;" horiz-adv-x="1267" d="M150 -502v1544h284v-585q0 -125 44 -181.5t143 -56.5q100 0 156.5 69.5t56.5 192.5v561h284v-1042h-274l-2 115q-39 -66 -111 -107t-149 -41q-100 0 -148 49v-518h-284z" />
<glyph unicode="&#xb6;" horiz-adv-x="1312" d="M57 1116q0 209 140.5 324.5t390.5 115.5h567v-1822h-248v1595h-180v-1595h-248v952q-201 23 -311.5 135.5t-110.5 294.5z" />
<glyph unicode="&#xb7;" horiz-adv-x="612" d="M131 776q0 74 50 120t126 46t125 -47.5t49 -118.5q0 -74 -49 -122t-125 -48q-78 0 -127 48t-49 122z" />
<glyph unicode="&#xb8;" horiz-adv-x="1024" d="M270 -498l33 150q57 -29 141 -29q113 0 113 74q0 68 -119 67q-43 0 -72 -4l72 260h164l-41 -135q96 -8 152.5 -62t56.5 -136q0 -102 -81 -163t-218 -61q-53 0 -113.5 11.5t-87.5 27.5z" />
<glyph unicode="&#xb9;" d="M106 1645l273 125h192v-836h-217v616l-217 -98z" />
<glyph unicode="&#xba;" horiz-adv-x="960" d="M90 1178q0 104 48 190t137.5 137t203.5 51q109 0 197 -47t141 -134t53 -197q0 -164 -111.5 -272.5t-279.5 -108.5q-109 0 -196.5 47t-140 134t-52.5 200zM115 463v192h729v-192h-729zM313 1178q0 -82 46 -133.5t120 -51.5q76 0 122 51.5t46 133.5t-46 132t-120 50 q-76 0 -122 -50t-46 -132z" />
<glyph unicode="&#xbb;" horiz-adv-x="1236" d="M72 78l313 448l-313 449h311l303 -449l-303 -448h-311zM566 78l313 448l-313 449h311l303 -449l-303 -448h-311z" />
<glyph unicode="&#xbc;" horiz-adv-x="1918" d="M106 1399l273 125h192v-836h-217v616l-217 -98zM342 0l1086 1524h252l-1086 -1524h-252zM1173 170v168l371 498h219v-502h98v-164h-98v-170h-195v170h-395zM1368 334h200v266z" />
<glyph unicode="&#xbd;" horiz-adv-x="1918" d="M106 1399l273 125h192v-836h-217v616l-217 -98zM254 0l1086 1524h252l-1086 -1524h-252zM1212 0v176q125 92 235 193q76 70 108 119t32 98q0 41 -33 66.5t-86 25.5q-113 0 -215 -100l-37 170q45 49 124 78.5t165 29.5q133 0 214 -67.5t81 -180.5q0 -166 -207 -348 q-37 -33 -59.5 -50t-36.5 -30h331v-180h-616z" />
<glyph unicode="&#xbe;" horiz-adv-x="1918" d="M82 723l18 182q45 -27 104.5 -41t121.5 -14q74 0 114.5 27.5t40.5 76.5q0 47 -39 74t-106 27q-43 0 -84 -13l-45 107l213 201h-318v174h560v-162l-187 -170q100 -14 158.5 -80t58.5 -164q0 -127 -97 -203.5t-261 -76.5q-76 0 -142.5 14t-109.5 41zM340 0l1086 1524h252 l-1086 -1524h-252zM1173 170v168l371 498h219v-502h98v-164h-98v-170h-195v170h-395zM1368 334h200v266z" />
<glyph unicode="&#xbf;" horiz-adv-x="1044" d="M66 -193q0 88 27.5 154t71.5 117t93 97t93 95t72 109.5t28 142.5h256q6 -27 6 -63q0 -92 -25.5 -161t-64.5 -120t-83 -93t-83 -81t-64.5 -81t-25.5 -95q0 -80 56 -126t157 -46q94 0 190 47t168 131l68 -235q-76 -90 -203.5 -141.5t-272.5 -51.5q-135 0 -239.5 49 t-164.5 140.5t-60 211.5zM406 885q0 74 49 122t125 48q78 0 127 -48.5t49 -121.5q0 -74 -50.5 -120t-125.5 -46q-76 0 -125 47t-49 119z" />
<glyph unicode="&#xc0;" horiz-adv-x="1662" d="M47 0l619 1556h331l619 -1556h-332l-147 410h-627l-150 -410h-313zM456 2003h344l236 -293h-268zM594 651h457l-230 627z" />
<glyph unicode="&#xc1;" horiz-adv-x="1662" d="M47 0l619 1556h331l619 -1556h-332l-147 410h-627l-150 -410h-313zM594 651h457l-230 627zM622 1710l234 293h344l-308 -293h-270z" />
<glyph unicode="&#xc2;" horiz-adv-x="1662" d="M47 0l619 1556h331l619 -1556h-332l-147 410h-627l-150 -410h-313zM401 1710l291 309h278l291 -309h-285l-145 156l-145 -156h-285zM594 651h457l-230 627z" />
<glyph unicode="&#xc3;" horiz-adv-x="1662" d="M47 0l619 1556h331l619 -1556h-332l-147 410h-627l-150 -410h-313zM448 1708v14q4 305 227 306q55 0 96.5 -18.5t72 -41t58 -41t56.5 -18.5q33 0 47 26.5t14 87.5h197v-14q-2 -150 -60 -227.5t-167 -77.5q-55 0 -96.5 18.5t-72 41t-58 41t-56.5 18.5q-33 0 -48 -28 t-15 -87h-195zM594 651h457l-230 627z" />
<glyph unicode="&#xc4;" horiz-adv-x="1662" d="M47 0l619 1556h331l619 -1556h-332l-147 410h-627l-150 -410h-313zM454 1849q0 63 41 104.5t109 41.5t109.5 -40t41.5 -106q0 -63 -42.5 -103t-108.5 -40q-68 0 -109 40t-41 103zM594 651h457l-230 627zM907 1849q0 63 42 104.5t107 41.5q68 0 110 -40t42 -106 q0 -63 -43 -103t-109 -40t-107.5 40t-41.5 103z" />
<glyph unicode="&#xc5;" horiz-adv-x="1662" d="M47 0l619 1556h331l619 -1556h-332l-147 410h-627l-150 -410h-313zM542 1946q0 117 82 194.5t207 77.5t207 -78t82 -194q0 -117 -82 -195t-207 -78t-207 78t-82 195zM594 651h457l-230 627zM712 1946q0 -53 32 -86t87 -33t87 32.5t32 86.5q0 55 -32 86.5t-87 31.5 t-87 -31.5t-32 -86.5z" />
<glyph unicode="&#xc6;" horiz-adv-x="2273" d="M16 0l942 1556h1153v-262h-725v-372h642v-260h-642v-400h754v-262h-1057v410h-505l-234 -410h-328zM711 651h372v645z" />
<glyph unicode="&#xc7;" horiz-adv-x="1560" d="M102 770q0 229 103.5 412.5t296 290t444.5 106.5q127 0 259 -34t227 -91l-52 -264q-223 111 -430 110q-152 0 -270.5 -63t-186 -182t-67.5 -279q0 -240 143.5 -380t386.5 -140q106 0 227.5 30.5t227.5 86.5l33 -271q-104 -59 -239.5 -92t-274.5 -33q-242 0 -428.5 95.5 t-293 275.5t-106.5 422zM602 -498l33 156q57 -29 135 -29q111 0 111 68q0 63 -113 63q-53 0 -74 -6l74 266h172l-41 -133q94 -8 151.5 -62t57.5 -136q0 -109 -81.5 -167.5t-233.5 -58.5q-47 0 -103.5 11.5t-87.5 27.5z" />
<glyph unicode="&#xc8;" horiz-adv-x="1376" d="M186 0v1556h1028v-262h-725v-372h641v-260h-641v-400h754v-262h-1057zM340 2003h344l236 -293h-268z" />
<glyph unicode="&#xc9;" horiz-adv-x="1376" d="M186 0v1556h1028v-262h-725v-372h641v-260h-641v-400h754v-262h-1057zM506 1710l234 293h344l-308 -293h-270z" />
<glyph unicode="&#xca;" horiz-adv-x="1376" d="M186 0v1556h1028v-262h-725v-372h641v-260h-641v-400h754v-262h-1057zM285 1710l291 309h278l291 -309h-285l-145 156l-145 -156h-285z" />
<glyph unicode="&#xcb;" horiz-adv-x="1376" d="M186 0v1556h1028v-262h-725v-372h641v-260h-641v-400h754v-262h-1057zM338 1849q0 63 41 104.5t109 41.5t109.5 -40t41.5 -106q0 -63 -42.5 -103t-108.5 -40q-68 0 -109 40t-41 103zM791 1849q0 63 42 104.5t107 41.5q68 0 110 -40t42 -106q0 -63 -43 -103t-109 -40 t-107.5 40t-41.5 103z" />
<glyph unicode="&#xcc;" horiz-adv-x="686" d="M-31 2003h344l236 -293h-268zM186 0v1556h314v-1556h-314z" />
<glyph unicode="&#xcd;" horiz-adv-x="686" d="M135 1710l234 293h344l-308 -293h-270zM186 0v1556h314v-1556h-314z" />
<glyph unicode="&#xce;" horiz-adv-x="686" d="M-86 1710l291 309h278l291 -309h-285l-145 156l-145 -156h-285zM186 0v1556h314v-1556h-314z" />
<glyph unicode="&#xcf;" horiz-adv-x="686" d="M-33 1849q0 63 41 104.5t109 41.5t109.5 -40t41.5 -106q0 -63 -42.5 -103t-108.5 -40q-68 0 -109 40t-41 103zM186 0v1556h314v-1556h-314zM420 1849q0 63 42 104.5t107 41.5q68 0 110 -40t42 -106q0 -63 -43 -103t-109 -40t-107.5 40t-41.5 103z" />
<glyph unicode="&#xd0;" horiz-adv-x="1759" d="M20 674v219h187v663h596q406 0 630 -203.5t224 -572.5q0 -371 -230.5 -575.5t-646.5 -204.5h-573v674h-187zM518 252h256q559 0 559 526t-557 527h-258v-412h334v-219h-334v-422z" />
<glyph unicode="&#xd1;" horiz-adv-x="1763" d="M186 0v1556h279l815 -1081v1081h297v-1556h-279l-815 1077v-1077h-297zM481 1708v14q4 305 227 306q55 0 96.5 -18.5t72 -41t58 -41t56.5 -18.5q33 0 47 26.5t14 87.5h197v-14q-2 -150 -60 -227.5t-167 -77.5q-55 0 -96.5 18.5t-72 41t-58 41t-56.5 18.5q-33 0 -48 -28 t-15 -87h-195z" />
<glyph unicode="&#xd2;" horiz-adv-x="1849" d="M102 778q0 219 103.5 403.5t292 296t426.5 111.5q227 0 413.5 -101.5t298 -286.5t111.5 -423q0 -219 -103.5 -403.5t-292.5 -296t-427 -111.5q-225 0 -411.5 101.5t-298.5 287t-112 422.5zM426 778q0 -147 61.5 -268t175.5 -192.5t261 -71.5q139 0 252.5 65.5t180 188.5 t66.5 278q0 147 -61.5 268t-176 193t-261.5 72q-139 0 -252 -65.5t-179.5 -187.5t-66.5 -280zM549 2003h344l236 -293h-268z" />
<glyph unicode="&#xd3;" horiz-adv-x="1849" d="M102 778q0 219 103.5 403.5t292 296t426.5 111.5q227 0 413.5 -101.5t298 -286.5t111.5 -423q0 -219 -103.5 -403.5t-292.5 -296t-427 -111.5q-225 0 -411.5 101.5t-298.5 287t-112 422.5zM426 778q0 -147 61.5 -268t175.5 -192.5t261 -71.5q139 0 252.5 65.5t180 188.5 t66.5 278q0 147 -61.5 268t-176 193t-261.5 72q-139 0 -252 -65.5t-179.5 -187.5t-66.5 -280zM715 1710l234 293h344l-308 -293h-270z" />
<glyph unicode="&#xd4;" horiz-adv-x="1849" d="M102 778q0 219 103.5 403.5t292 296t426.5 111.5q227 0 413.5 -101.5t298 -286.5t111.5 -423q0 -219 -103.5 -403.5t-292.5 -296t-427 -111.5q-225 0 -411.5 101.5t-298.5 287t-112 422.5zM426 778q0 -147 61.5 -268t175.5 -192.5t261 -71.5q139 0 252.5 65.5t180 188.5 t66.5 278q0 147 -61.5 268t-176 193t-261.5 72q-139 0 -252 -65.5t-179.5 -187.5t-66.5 -280zM494 1710l291 309h278l291 -309h-285l-145 156l-145 -156h-285z" />
<glyph unicode="&#xd5;" horiz-adv-x="1849" d="M102 778q0 219 103.5 403.5t292 296t426.5 111.5q227 0 413.5 -101.5t298 -286.5t111.5 -423q0 -219 -103.5 -403.5t-292.5 -296t-427 -111.5q-225 0 -411.5 101.5t-298.5 287t-112 422.5zM426 778q0 -147 61.5 -268t175.5 -192.5t261 -71.5q139 0 252.5 65.5t180 188.5 t66.5 278q0 147 -61.5 268t-176 193t-261.5 72q-139 0 -252 -65.5t-179.5 -187.5t-66.5 -280zM541 1708v14q4 305 227 306q55 0 96.5 -18.5t72 -41t58 -41t56.5 -18.5q33 0 47 26.5t14 87.5h197v-14q-2 -150 -60 -227.5t-167 -77.5q-55 0 -96.5 18.5t-72 41t-58 41 t-56.5 18.5q-33 0 -48 -28t-15 -87h-195z" />
<glyph unicode="&#xd6;" horiz-adv-x="1849" d="M102 778q0 219 103.5 403.5t292 296t426.5 111.5q227 0 413.5 -101.5t298 -286.5t111.5 -423q0 -219 -103.5 -403.5t-292.5 -296t-427 -111.5q-225 0 -411.5 101.5t-298.5 287t-112 422.5zM426 778q0 -147 61.5 -268t175.5 -192.5t261 -71.5q139 0 252.5 65.5t180 188.5 t66.5 278q0 147 -61.5 268t-176 193t-261.5 72q-139 0 -252 -65.5t-179.5 -187.5t-66.5 -280zM547 1849q0 63 41 104.5t109 41.5t109.5 -40t41.5 -106q0 -63 -42.5 -103t-108.5 -40q-68 0 -109 40t-41 103zM1000 1849q0 63 42 104.5t107 41.5q68 0 110 -40t42 -106 q0 -63 -43 -103t-109 -40t-107.5 40t-41.5 103z" />
<glyph unicode="&#xd7;" horiz-adv-x="1269" d="M182 406l285 284l-285 285l170 168l285 -285l283 285l163 -162l-284 -285l286 -284l-170 -170l-286 284l-283 -282z" />
<glyph unicode="&#xd8;" horiz-adv-x="1849" d="M94 98l174 174q-82 104 -124 233.5t-42 272.5q0 219 103.5 403.5t292 296t426.5 111.5q141 0 271 -42t237 -120l178 177l143 -142l-176 -176q82 -104 126 -234t44 -274q0 -219 -103.5 -403.5t-292.5 -296t-427 -111.5q-141 0 -271.5 42t-238.5 122l-176 -176zM426 778 q0 -162 68 -282l727 721q-129 94 -297 94q-139 0 -252 -65.5t-179.5 -187.5t-66.5 -280zM625 340q125 -94 299 -94q139 0 252.5 65.5t180 188.5t66.5 278q0 158 -71 285z" />
<glyph unicode="&#xd9;" horiz-adv-x="1730" d="M176 657v899h313v-874q0 -436 375 -436q377 0 377 436v874h313v-899q0 -330 -180 -510t-512 -180q-326 0 -506 180.5t-180 509.5zM489 2003h344l236 -293h-268z" />
<glyph unicode="&#xda;" horiz-adv-x="1730" d="M176 657v899h313v-874q0 -436 375 -436q377 0 377 436v874h313v-899q0 -330 -180 -510t-512 -180q-326 0 -506 180.5t-180 509.5zM655 1710l234 293h344l-308 -293h-270z" />
<glyph unicode="&#xdb;" horiz-adv-x="1730" d="M176 657v899h313v-874q0 -436 375 -436q377 0 377 436v874h313v-899q0 -330 -180 -510t-512 -180q-326 0 -506 180.5t-180 509.5zM434 1710l291 309h278l291 -309h-285l-145 156l-145 -156h-285z" />
<glyph unicode="&#xdc;" horiz-adv-x="1730" d="M176 657v899h313v-874q0 -436 375 -436q377 0 377 436v874h313v-899q0 -330 -180 -510t-512 -180q-326 0 -506 180.5t-180 509.5zM487 1849q0 63 41 104.5t109 41.5t109.5 -40t41.5 -106q0 -63 -42.5 -103t-108.5 -40q-68 0 -109 40t-41 103zM940 1849q0 63 42 104.5 t107 41.5q68 0 110 -40t42 -106q0 -63 -43 -103t-109 -40t-107.5 40t-41.5 103z" />
<glyph unicode="&#xdd;" horiz-adv-x="1501" d="M23 1556h348l385 -663l387 663h336l-574 -907v-649h-311v649zM541 1710l234 293h344l-308 -293h-270z" />
<glyph unicode="&#xde;" horiz-adv-x="1341" d="M186 0v1556h295v-245h213q170 0 299 -61.5t202 -176.5t73 -270q0 -236 -157 -376t-419 -140h-203v-287h-303zM489 539h162q154 0 235 67.5t81 194.5t-80 192.5t-236 65.5h-162v-520z" />
<glyph unicode="&#xdf;" horiz-adv-x="1376" d="M152 0v1108q0 264 141 412.5t393 148.5q147 0 262 -52t179.5 -150.5t64.5 -231.5q0 -119 -58.5 -215t-156.5 -137q145 -37 233 -156t88 -276q0 -141 -60 -251t-174.5 -171.5t-268.5 -61.5q-158 0 -269 62l31 231q39 -23 94.5 -37t106.5 -14q113 0 181.5 71.5t68.5 188.5 q0 121 -81 191.5t-220 70.5h-91v230h56q111 0 174 65.5t63 177.5q0 102 -60.5 162.5t-164.5 60.5q-119 0 -183.5 -87t-64.5 -248v-1092h-284z" />
<glyph unicode="&#xe0;" horiz-adv-x="1349" d="M92 518q0 152 62.5 278t177 202.5t258.5 76.5q106 0 193 -44t139 -124l4 135h272v-1042h-272l-4 133q-53 -82 -141.5 -124t-205.5 -42q-137 0 -246.5 67.5t-173 193.5t-63.5 290zM344 1591h315l217 -342h-243zM377 522q0 -133 77.5 -217t198.5 -84t199 84t78 217 q0 131 -77 215t-200 84t-199.5 -84t-76.5 -215z" />
<glyph unicode="&#xe1;" horiz-adv-x="1349" d="M92 518q0 152 62.5 278t177 202.5t258.5 76.5q106 0 193 -44t139 -124l4 135h272v-1042h-272l-4 133q-53 -82 -141.5 -124t-205.5 -42q-137 0 -246.5 67.5t-173 193.5t-63.5 290zM377 522q0 -133 77.5 -217t198.5 -84t199 84t78 217q0 131 -77 215t-200 84t-199.5 -84 t-76.5 -215zM498 1249l215 342h315l-287 -342h-243z" />
<glyph unicode="&#xe2;" horiz-adv-x="1349" d="M92 518q0 152 62.5 278t177 202.5t258.5 76.5q106 0 193 -44t139 -124l4 135h272v-1042h-272l-4 133q-53 -82 -141.5 -124t-205.5 -42q-137 0 -246.5 67.5t-173 193.5t-63.5 290zM280 1249l283 342h246l283 -342h-254l-152 183l-152 -183h-254zM377 522q0 -133 77.5 -217 t198.5 -84t199 84t78 217q0 131 -77 215t-200 84t-199.5 -84t-76.5 -215z" />
<glyph unicode="&#xe3;" horiz-adv-x="1349" d="M92 518q0 152 62.5 278t177 202.5t258.5 76.5q106 0 193 -44t139 -124l4 135h272v-1042h-272l-4 133q-53 -82 -141.5 -124t-205.5 -42q-137 0 -246.5 67.5t-173 193.5t-63.5 290zM305 1260v20q4 141 60.5 218t158.5 77q59 0 101.5 -18.5t74 -41t58 -41t57.5 -18.5 q35 0 49.5 27.5t14.5 87.5h188v-21q-2 -141 -58.5 -218t-158.5 -77q-59 0 -101.5 18.5t-74 41t-58 41t-57.5 18.5q-35 0 -49 -27.5t-14 -86.5h-191zM377 522q0 -133 77.5 -217t198.5 -84t199 84t78 217q0 131 -77 215t-200 84t-199.5 -84t-76.5 -215z" />
<glyph unicode="&#xe4;" horiz-adv-x="1349" d="M92 518q0 152 62.5 278t177 202.5t258.5 76.5q106 0 193 -44t139 -124l4 135h272v-1042h-272l-4 133q-53 -82 -141.5 -124t-205.5 -42q-137 0 -246.5 67.5t-173 193.5t-63.5 290zM315 1405q0 61 42 101t106 40q66 0 106.5 -40t40.5 -101q0 -63 -40.5 -103t-106.5 -40 q-68 0 -108 39.5t-40 103.5zM377 522q0 -133 77.5 -217t198.5 -84t199 84t78 217q0 131 -77 215t-200 84t-199.5 -84t-76.5 -215zM762 1405q0 61 42 101t105 40q66 0 107 -40t41 -101q0 -63 -41 -103t-107 -40q-68 0 -107.5 39.5t-39.5 103.5z" />
<glyph unicode="&#xe5;" horiz-adv-x="1349" d="M92 518q0 152 62.5 278t177 202.5t258.5 76.5q106 0 193 -44t139 -124l4 135h272v-1042h-272l-4 133q-53 -82 -141.5 -124t-205.5 -42q-137 0 -246.5 67.5t-173 193.5t-63.5 290zM377 522q0 -133 77.5 -217t198.5 -84t199 84t78 217q0 131 -77 215t-200 84t-199.5 -84 t-76.5 -215zM397 1458q0 117 82 195t207 78t207 -78t82 -195t-82 -194.5t-207 -77.5t-207 77.5t-82 194.5zM567 1458q0 -53 32 -86t87 -33t87 33t32 86q0 55 -32 87t-87 32t-87 -32t-32 -87z" />
<glyph unicode="&#xe6;" horiz-adv-x="2072" d="M92 518q0 152 62.5 278t177 202.5t258.5 76.5q106 0 193 -44t139 -124l4 135h260l2 -84q127 117 303 117q217 0 346 -141t129 -377q0 -72 -10 -123h-735q53 -233 354 -233q193 0 344 75l29 -223q-76 -41 -182.5 -63.5t-221.5 -22.5q-217 0 -356 123l-2 -90h-260l-4 133 q-53 -82 -141.5 -124t-205.5 -42q-137 0 -246.5 67.5t-173 193.5t-63.5 290zM377 522q0 -133 77.5 -217t198.5 -84t199 84t78 217q0 131 -77 215t-200 84t-199.5 -84t-76.5 -215zM1219 633h473q-12 111 -70.5 168t-159.5 57q-100 0 -162.5 -58.5t-80.5 -166.5z" />
<glyph unicode="&#xe7;" horiz-adv-x="1107" d="M92 516q0 160 69.5 285t200 196.5t302.5 71.5q92 0 183 -20.5t152 -55.5l-34 -241q-137 66 -275 65q-143 0 -228 -80t-85 -215q0 -139 86 -218t235 -79q131 0 285 64l29 -234q-66 -39 -158 -60.5t-188 -21.5q-170 0 -300 65.5t-202 188.5t-72 289zM369 -498l33 150 q57 -29 141 -29q113 0 113 74q0 68 -119 67q-43 0 -72 -4l72 260h164l-41 -135q96 -8 152.5 -62t56.5 -136q0 -102 -81 -163t-218 -61q-53 0 -113.5 11.5t-87.5 27.5z" />
<glyph unicode="&#xe8;" horiz-adv-x="1226" d="M92 520q0 158 65.5 284t186.5 198.5t281 72.5q147 0 258.5 -62.5t174 -179t62.5 -276.5q0 -68 -10 -123h-735q53 -233 354 -233q94 0 183 19.5t161 55.5l29 -223q-74 -41 -180.5 -63.5t-223.5 -22.5q-182 0 -318 65.5t-212 191.5t-76 296zM272 1591h315l217 -342h-243z M373 633h475q-10 109 -70.5 167t-161.5 58q-98 0 -161.5 -58.5t-81.5 -166.5z" />
<glyph unicode="&#xe9;" horiz-adv-x="1226" d="M92 520q0 158 65.5 284t186.5 198.5t281 72.5q147 0 258.5 -62.5t174 -179t62.5 -276.5q0 -68 -10 -123h-735q53 -233 354 -233q94 0 183 19.5t161 55.5l29 -223q-74 -41 -180.5 -63.5t-223.5 -22.5q-182 0 -318 65.5t-212 191.5t-76 296zM373 633h475q-10 109 -70.5 167 t-161.5 58q-98 0 -161.5 -58.5t-81.5 -166.5zM426 1249l215 342h315l-287 -342h-243z" />
<glyph unicode="&#xea;" horiz-adv-x="1226" d="M92 520q0 158 65.5 284t186.5 198.5t281 72.5q147 0 258.5 -62.5t174 -179t62.5 -276.5q0 -68 -10 -123h-735q53 -233 354 -233q94 0 183 19.5t161 55.5l29 -223q-74 -41 -180.5 -63.5t-223.5 -22.5q-182 0 -318 65.5t-212 191.5t-76 296zM208 1249l283 342h246l283 -342 h-254l-152 183l-152 -183h-254zM373 633h475q-10 109 -70.5 167t-161.5 58q-98 0 -161.5 -58.5t-81.5 -166.5z" />
<glyph unicode="&#xeb;" horiz-adv-x="1226" d="M92 520q0 158 65.5 284t186.5 198.5t281 72.5q147 0 258.5 -62.5t174 -179t62.5 -276.5q0 -68 -10 -123h-735q53 -233 354 -233q94 0 183 19.5t161 55.5l29 -223q-74 -41 -180.5 -63.5t-223.5 -22.5q-182 0 -318 65.5t-212 191.5t-76 296zM243 1405q0 61 42 101t106 40 q66 0 106.5 -40t40.5 -101q0 -63 -40.5 -103t-106.5 -40q-68 0 -108 39.5t-40 103.5zM373 633h475q-10 109 -70.5 167t-161.5 58q-98 0 -161.5 -58.5t-81.5 -166.5zM690 1405q0 61 42 101t105 40q66 0 107 -40t41 -101q0 -63 -41 -103t-107 -40q-68 0 -107.5 39.5 t-39.5 103.5z" />
<glyph unicode="&#xec;" horiz-adv-x="587" d="M-49 1591h315l217 -342h-243zM152 0v1042h284v-1042h-284z" />
<glyph unicode="&#xed;" horiz-adv-x="587" d="M105 1249l215 342h315l-287 -342h-243zM152 0v1042h284v-1042h-284z" />
<glyph unicode="&#xee;" horiz-adv-x="587" d="M-113 1249l283 342h246l283 -342h-254l-152 183l-152 -183h-254zM152 0v1042h284v-1042h-284z" />
<glyph unicode="&#xef;" horiz-adv-x="587" d="M-78 1405q0 61 42 101t106 40q66 0 106.5 -40t40.5 -101q0 -63 -40.5 -103t-106.5 -40q-68 0 -108 39.5t-40 103.5zM152 0v1042h284v-1042h-284zM369 1405q0 61 42 101t105 40q66 0 107 -40t41 -101q0 -63 -41 -103t-107 -40q-68 0 -107.5 39.5t-39.5 103.5z" />
<glyph unicode="&#xf0;" horiz-adv-x="1306" d="M92 514q0 145 65.5 271t184.5 204t264 78q66 0 128.5 -20.5t107.5 -57.5q-63 145 -176 291l-332 -150l-72 162l281 129q-100 104 -244 215l344 21q61 -47 143 -131l242 108l72 -161l-195 -89q150 -195 226.5 -398.5t76.5 -403.5q0 -287 -150.5 -451t-410.5 -164 q-117 0 -217 37t-176 108.5t-119 174t-43 227.5zM375 516q0 -131 77.5 -214t200.5 -83t201 83t78 214t-78 215t-201 84t-200.5 -84t-77.5 -215z" />
<glyph unicode="&#xf1;" horiz-adv-x="1267" d="M152 0v1042h274l2 -129q45 78 126 120t189 42q184 0 281.5 -113.5t97.5 -328.5v-633h-284v580q0 244 -187 243q-102 0 -158.5 -68.5t-56.5 -193.5v-561h-284zM258 1260v20q4 141 60.5 218t158.5 77q59 0 101.5 -18.5t74 -41t58 -41t57.5 -18.5q35 0 49.5 27.5t14.5 87.5 h188v-21q-2 -141 -58.5 -218t-158.5 -77q-59 0 -101.5 18.5t-74 41t-58 41t-57.5 18.5q-35 0 -49 -27.5t-14 -86.5h-191z" />
<glyph unicode="&#xf2;" horiz-adv-x="1306" d="M92 522q0 150 70.5 276t200 201.5t290.5 75.5q154 0 282 -68.5t203.5 -195.5t75.5 -289q0 -152 -70.5 -277.5t-199.5 -201.5t-291 -76q-154 0 -281.5 69.5t-203.5 196.5t-76 289zM311 1591h315l217 -342h-243zM377 522q0 -133 77.5 -217t198.5 -84t199 84t78 217 q0 131 -77 215t-200 84t-199.5 -84t-76.5 -215z" />
<glyph unicode="&#xf3;" horiz-adv-x="1306" d="M92 522q0 150 70.5 276t200 201.5t290.5 75.5q154 0 282 -68.5t203.5 -195.5t75.5 -289q0 -152 -70.5 -277.5t-199.5 -201.5t-291 -76q-154 0 -281.5 69.5t-203.5 196.5t-76 289zM377 522q0 -133 77.5 -217t198.5 -84t199 84t78 217q0 131 -77 215t-200 84t-199.5 -84 t-76.5 -215zM465 1249l215 342h315l-287 -342h-243z" />
<glyph unicode="&#xf4;" horiz-adv-x="1306" d="M92 522q0 150 70.5 276t200 201.5t290.5 75.5q154 0 282 -68.5t203.5 -195.5t75.5 -289q0 -152 -70.5 -277.5t-199.5 -201.5t-291 -76q-154 0 -281.5 69.5t-203.5 196.5t-76 289zM247 1249l283 342h246l283 -342h-254l-152 183l-152 -183h-254zM377 522q0 -133 77.5 -217 t198.5 -84t199 84t78 217q0 131 -77 215t-200 84t-199.5 -84t-76.5 -215z" />
<glyph unicode="&#xf5;" horiz-adv-x="1306" d="M92 522q0 150 70.5 276t200 201.5t290.5 75.5q154 0 282 -68.5t203.5 -195.5t75.5 -289q0 -152 -70.5 -277.5t-199.5 -201.5t-291 -76q-154 0 -281.5 69.5t-203.5 196.5t-76 289zM272 1260v20q4 141 60.5 218t158.5 77q59 0 101.5 -18.5t74 -41t58 -41t57.5 -18.5 q35 0 49.5 27.5t14.5 87.5h188v-21q-2 -141 -58.5 -218t-158.5 -77q-59 0 -101.5 18.5t-74 41t-58 41t-57.5 18.5q-35 0 -49 -27.5t-14 -86.5h-191zM377 522q0 -133 77.5 -217t198.5 -84t199 84t78 217q0 131 -77 215t-200 84t-199.5 -84t-76.5 -215z" />
<glyph unicode="&#xf6;" horiz-adv-x="1306" d="M92 522q0 150 70.5 276t200 201.5t290.5 75.5q154 0 282 -68.5t203.5 -195.5t75.5 -289q0 -152 -70.5 -277.5t-199.5 -201.5t-291 -76q-154 0 -281.5 69.5t-203.5 196.5t-76 289zM282 1405q0 61 42 101t106 40q66 0 106.5 -40t40.5 -101q0 -63 -40.5 -103t-106.5 -40 q-68 0 -108 39.5t-40 103.5zM377 522q0 -133 77.5 -217t198.5 -84t199 84t78 217q0 131 -77 215t-200 84t-199.5 -84t-76.5 -215zM729 1405q0 61 42 101t105 40q66 0 107 -40t41 -101q0 -63 -41 -103t-107 -40q-68 0 -107.5 39.5t-39.5 103.5z" />
<glyph unicode="&#xf7;" horiz-adv-x="1269" d="M156 571v230h960v-230h-960zM483 291q0 61 43 103t109 42q63 0 106 -42t43 -103q0 -63 -41.5 -104.5t-107.5 -41.5q-68 0 -110 41t-42 105zM483 1081q0 61 43 103.5t109 42.5q63 0 106 -42t43 -104q0 -63 -41.5 -104t-107.5 -41q-68 0 -110 41t-42 104z" />
<glyph unicode="&#xf8;" horiz-adv-x="1306" d="M82 74l115 114q-104 143 -105 334q0 150 70.5 276t200 201.5t290.5 75.5q184 0 332 -100l115 115l125 -123l-115 -115q104 -145 104 -330q0 -152 -70.5 -277.5t-199.5 -201.5t-291 -76q-190 0 -331 99l-115 -115zM360 522q0 -88 27 -143l420 420q-66 41 -154 41 q-129 0 -211 -88t-82 -230zM500 244q65 -41 153 -41q131 0 212 89t81 230q0 82 -26 142z" />
<glyph unicode="&#xf9;" horiz-adv-x="1265" d="M145 410v632h285v-579q0 -244 186 -244q102 0 158 69q55 69 55 193v561h285v-1042h-274l-2 127q-45 -78 -126 -119q-82 -41 -188 -41q-184 0 -281 114t-98 329zM283 1591h315l217 -342h-243z" />
<glyph unicode="&#xfa;" horiz-adv-x="1265" d="M145 410v632h285v-579q0 -244 186 -244q102 0 158 69q55 69 55 193v561h285v-1042h-274l-2 127q-45 -78 -126 -119q-82 -41 -188 -41q-184 0 -281 114t-98 329zM437 1249l215 342h315l-287 -342h-243z" />
<glyph unicode="&#xfb;" horiz-adv-x="1265" d="M145 410v632h285v-579q0 -244 186 -244q102 0 158 69q55 69 55 193v561h285v-1042h-274l-2 127q-45 -78 -126 -119q-82 -41 -188 -41q-184 0 -281 114t-98 329zM219 1249l283 342h246l283 -342h-254l-152 183l-152 -183h-254z" />
<glyph unicode="&#xfc;" horiz-adv-x="1265" d="M145 410v632h285v-579q0 -244 186 -244q102 0 158 69q55 69 55 193v561h285v-1042h-274l-2 127q-45 -78 -126 -119q-82 -41 -188 -41q-184 0 -281 114t-98 329zM254 1405q0 61 42 101t106 40q66 0 106.5 -40t40.5 -101q0 -63 -40.5 -103t-106.5 -40q-68 0 -108 39.5 t-40 103.5zM701 1405q0 61 42 101t105 40q66 0 107 -40t41 -101q0 -63 -41 -103t-107 -40q-68 0 -107.5 39.5t-39.5 103.5z" />
<glyph unicode="&#xfd;" horiz-adv-x="1208" d="M33 1042h309l270 -669l258 669h306l-691 -1544h-295l277 574zM424 1249l215 342h315l-287 -342h-243z" />
<glyph unicode="&#xfe;" horiz-adv-x="1349" d="M152 -502v2161h284v-739q106 156 338 155q137 0 246.5 -67.5t173 -193.5t63.5 -290q0 -152 -62 -277.5t-177 -202.5t-258 -77q-104 0 -188.5 40t-135.5 114v-623h-284zM420 520q0 -131 76.5 -215t199.5 -84t200 84t77 215q0 133 -78 217t-199 84t-198.5 -84t-77.5 -217z " />
<glyph unicode="&#xff;" horiz-adv-x="1208" d="M33 1042h309l270 -669l258 669h306l-691 -1544h-295l277 574zM241 1405q0 61 42 101t106 40q66 0 106.5 -40t40.5 -101q0 -63 -40.5 -103t-106.5 -40q-68 0 -108 39.5t-40 103.5zM688 1405q0 61 42 101t105 40q66 0 107 -40t41 -101q0 -63 -41 -103t-107 -40 q-68 0 -107.5 39.5t-39.5 103.5z" />
<glyph unicode="&#x100;" horiz-adv-x="1662" d="M47 0l619 1556h331l619 -1556h-332l-147 410h-627l-150 -410h-313zM497 1733v206h670v-206h-670zM594 651h457l-230 627z" />
<glyph unicode="&#x101;" horiz-adv-x="1349" d="M92 518q0 152 62.5 278t177 202.5t258.5 76.5q106 0 193 -44t139 -124l4 135h272v-1042h-272l-4 133q-53 -82 -141.5 -124t-205.5 -42q-137 0 -246.5 67.5t-173 193.5t-63.5 290zM354 1294v203h664v-203h-664zM377 522q0 -133 77.5 -217t198.5 -84t199 84t78 217 q0 131 -77 215t-200 84t-199.5 -84t-76.5 -215z" />
<glyph unicode="&#x102;" horiz-adv-x="1662" d="M47 0l619 1556h331l619 -1556h-332l-147 410h-627l-150 -410h-313zM466 1989q0 12 3 22h204q0 -74 41 -113.5t117 -39.5t117 39.5t41 113.5h204q2 -10 3 -22q0 -143 -97.5 -226.5t-267.5 -83.5t-267.5 83t-97.5 227zM594 651h457l-230 627z" />
<glyph unicode="&#x103;" horiz-adv-x="1349" d="M92 518q0 152 62.5 278t177 202.5t258.5 76.5q106 0 193 -44t139 -124l4 135h272v-1042h-272l-4 133q-53 -82 -141.5 -124t-205.5 -42q-137 0 -246.5 67.5t-173 193.5t-63.5 290zM332 1530q0 14 2 26h194q0 -170 158 -170t158 170h194q2 -12 2 -26q0 -147 -95 -232.5 t-259 -85.5t-259 85t-95 233zM377 522q0 -133 77.5 -217t198.5 -84t199 84t78 217q0 131 -77 215t-200 84t-199.5 -84t-76.5 -215z" />
<glyph unicode="&#x104;" horiz-adv-x="1662" d="M47 0l619 1556h331l619 -1556h-332l-147 410h-627l-150 -410h-313zM594 651h457l-230 627zM1198 -317q0 106 81 208.5t228 182.5l109 -74q-186 -139 -187 -250q0 -70 84 -69q49 0 99 24l18 -194q-29 -18 -77 -29.5t-99 -11.5q-121 0 -188.5 56t-67.5 157z" />
<glyph unicode="&#x105;" horiz-adv-x="1349" d="M92 518q0 152 62.5 278t177 202.5t258.5 76.5q106 0 193 -44t139 -124l4 135h272v-1042h-272l-4 133q-53 -82 -141.5 -124t-205.5 -42q-137 0 -246.5 67.5t-173 193.5t-63.5 290zM377 522q0 -133 77.5 -217t198.5 -84t199 84t78 217q0 131 -77 215t-200 84t-199.5 -84 t-76.5 -215zM783 -317q0 106 81.5 209.5t227.5 181.5l106 -74q-193 -139 -192 -250q0 -35 22.5 -54.5t63.5 -19.5q61 0 104 23l19 -188q-29 -18 -78 -29.5t-100 -11.5q-119 0 -186.5 56t-67.5 157z" />
<glyph unicode="&#x106;" horiz-adv-x="1560" d="M102 770q0 229 103.5 412.5t296 290t444.5 106.5q127 0 259 -34t227 -91l-52 -264q-223 111 -430 110q-152 0 -270.5 -63t-186 -182t-67.5 -279q0 -240 143.5 -380t386.5 -140q106 0 227.5 30.5t227.5 86.5l33 -271q-104 -59 -239.5 -92t-274.5 -33q-242 0 -428.5 95.5 t-293 275.5t-106.5 422zM653 1710l234 293h344l-308 -293h-270z" />
<glyph unicode="&#x107;" horiz-adv-x="1107" d="M92 516q0 160 69.5 285t200 196.5t302.5 71.5q92 0 183 -20.5t152 -55.5l-34 -241q-137 66 -275 65q-143 0 -228 -80t-85 -215q0 -139 86 -218t235 -79q131 0 285 64l29 -234q-66 -39 -158 -60.5t-188 -21.5q-170 0 -300 65.5t-202 188.5t-72 289zM418 1249l215 342h315 l-287 -342h-243z" />
<glyph unicode="&#x10a;" horiz-adv-x="1560" d="M102 770q0 229 103.5 412.5t296 290t444.5 106.5q127 0 259 -34t227 -91l-52 -264q-223 111 -430 110q-152 0 -270.5 -63t-186 -182t-67.5 -279q0 -240 143.5 -380t386.5 -140q106 0 227.5 30.5t227.5 86.5l33 -271q-104 -59 -239.5 -92t-274.5 -33q-242 0 -428.5 95.5 t-293 275.5t-106.5 422zM694 1860q0 72 47 116.5t121 44.5q76 0 122 -45t46 -116q0 -72 -47 -117t-121 -45q-76 0 -122 45t-46 117z" />
<glyph unicode="&#x10b;" horiz-adv-x="1107" d="M92 516q0 160 69.5 285t200 196.5t302.5 71.5q92 0 183 -20.5t152 -55.5l-34 -241q-137 66 -275 65q-143 0 -228 -80t-85 -215q0 -139 86 -218t235 -79q131 0 285 64l29 -234q-66 -39 -158 -60.5t-188 -21.5q-170 0 -300 65.5t-202 188.5t-72 289zM446 1411q0 70 44 113 t116 43t117 -43t45 -113t-45 -113t-117 -43t-116 43t-44 113z" />
<glyph unicode="&#x10c;" horiz-adv-x="1560" d="M102 770q0 229 103.5 412.5t296 290t444.5 106.5q127 0 259 -34t227 -91l-52 -264q-223 111 -430 110q-152 0 -270.5 -63t-186 -182t-67.5 -279q0 -240 143.5 -380t386.5 -140q106 0 227.5 30.5t227.5 86.5l33 -271q-104 -59 -239.5 -92t-274.5 -33q-242 0 -428.5 95.5 t-293 275.5t-106.5 422zM432 2019h285l145 -159l145 159h285l-291 -309h-278z" />
<glyph unicode="&#x10d;" horiz-adv-x="1107" d="M92 516q0 160 69.5 285t200 196.5t302.5 71.5q92 0 183 -20.5t152 -55.5l-34 -241q-137 66 -275 65q-143 0 -228 -80t-85 -215q0 -139 86 -218t235 -79q131 0 285 64l29 -234q-66 -39 -158 -60.5t-188 -21.5q-170 0 -300 65.5t-202 188.5t-72 289zM200 1591h254l152 -184 l152 184h254l-283 -342h-246z" />
<glyph unicode="&#x10e;" horiz-adv-x="1738" d="M186 0v1556h596q406 0 630 -203.5t224 -572.5q0 -371 -230 -575.5t-646 -204.5h-574zM381 2019h285l145 -159l145 159h285l-291 -309h-278zM498 252h256q559 0 559 526t-557 527h-258v-1053z" />
<glyph unicode="&#x10f;" horiz-adv-x="1349" d="M92 518q0 152 62.5 278t177 202.5t258.5 76.5q102 0 187 -41t136 -114v739h285v-1659h-272l-4 133q-53 -82 -141.5 -124t-205.5 -42q-137 0 -246.5 67.5t-173 193.5t-63.5 290zM377 522q0 -133 77.5 -217t198.5 -84t199 84t78 217q0 131 -77 215t-200 84t-199.5 -84 t-76.5 -215zM1331 1169l24 490h273l-111 -490h-186z" />
<glyph unicode="&#x110;" horiz-adv-x="1759" d="M20 674v219h187v663h596q406 0 630 -203.5t224 -572.5q0 -371 -230.5 -575.5t-646.5 -204.5h-573v674h-187zM518 252h256q559 0 559 526t-557 527h-258v-412h334v-219h-334v-422z" />
<glyph unicode="&#x111;" horiz-adv-x="1349" d="M92 518q0 152 62.5 278t177 202.5t258.5 76.5q102 0 187 -41t136 -114v327h-307v185h307v227h285v-227h162v-185h-162v-1247h-272l-4 133q-53 -82 -141.5 -124t-205.5 -42q-137 0 -246.5 67.5t-173 193.5t-63.5 290zM377 522q0 -133 77.5 -217t198.5 -84t199 84t78 217 q0 131 -77 215t-200 84t-199.5 -84t-76.5 -215z" />
<glyph unicode="&#x112;" horiz-adv-x="1376" d="M186 0v1556h1028v-262h-725v-372h641v-260h-641v-400h754v-262h-1057zM381 1733v206h670v-206h-670z" />
<glyph unicode="&#x113;" horiz-adv-x="1226" d="M92 520q0 158 65.5 284t186.5 198.5t281 72.5q147 0 258.5 -62.5t174 -179t62.5 -276.5q0 -68 -10 -123h-735q53 -233 354 -233q94 0 183 19.5t161 55.5l29 -223q-74 -41 -180.5 -63.5t-223.5 -22.5q-182 0 -318 65.5t-212 191.5t-76 296zM282 1294v203h664v-203h-664z M373 633h475q-10 109 -70.5 167t-161.5 58q-98 0 -161.5 -58.5t-81.5 -166.5z" />
<glyph unicode="&#x116;" horiz-adv-x="1376" d="M186 0v1556h1028v-262h-725v-372h641v-260h-641v-400h754v-262h-1057zM547 1860q0 72 47 116.5t121 44.5q76 0 122 -45t46 -116q0 -72 -47 -117t-121 -45q-76 0 -122 45t-46 117z" />
<glyph unicode="&#x117;" horiz-adv-x="1226" d="M92 520q0 158 65.5 284t186.5 198.5t281 72.5q147 0 258.5 -62.5t174 -179t62.5 -276.5q0 -68 -10 -123h-735q53 -233 354 -233q94 0 183 19.5t161 55.5l29 -223q-74 -41 -180.5 -63.5t-223.5 -22.5q-182 0 -318 65.5t-212 191.5t-76 296zM373 633h475q-10 109 -70.5 167 t-161.5 58q-98 0 -161.5 -58.5t-81.5 -166.5zM454 1411q0 70 44 113t116 43t117 -43t45 -113t-45 -113t-117 -43t-116 43t-44 113z" />
<glyph unicode="&#x118;" horiz-adv-x="1376" d="M186 0v1556h1028v-262h-725v-372h641v-260h-641v-400h754v-262h-1057zM825 -317q0 106 81 208.5t228 182.5l109 -74q-186 -139 -187 -250q0 -70 84 -69q49 0 99 24l18 -194q-29 -18 -77 -29.5t-99 -11.5q-121 0 -188.5 56t-67.5 157z" />
<glyph unicode="&#x119;" horiz-adv-x="1226" d="M92 520q0 158 65.5 284t186.5 198.5t281 72.5q147 0 258.5 -62.5t174 -179t62.5 -276.5q0 -68 -10 -123h-735q53 -233 354 -233q94 0 183 19.5t161 55.5l29 -223q-74 -41 -180.5 -63.5t-223.5 -22.5q-182 0 -318 65.5t-212 191.5t-76 296zM373 633h475q-10 109 -70.5 167 t-161.5 58q-98 0 -161.5 -58.5t-81.5 -166.5zM633 -319q0 115 87 220t234 167l148 -15q-246 -168 -246 -301q0 -76 88 -76q63 0 102 25l21 -190q-76 -41 -178 -41q-121 0 -188.5 55t-67.5 156z" />
<glyph unicode="&#x11a;" horiz-adv-x="1376" d="M186 0v1556h1028v-262h-725v-372h641v-260h-641v-400h754v-262h-1057zM285 2019h285l145 -159l145 159h285l-291 -309h-278z" />
<glyph unicode="&#x11b;" horiz-adv-x="1226" d="M92 520q0 158 65.5 284t186.5 198.5t281 72.5q147 0 258.5 -62.5t174 -179t62.5 -276.5q0 -68 -10 -123h-735q53 -233 354 -233q94 0 183 19.5t161 55.5l29 -223q-74 -41 -180.5 -63.5t-223.5 -22.5q-182 0 -318 65.5t-212 191.5t-76 296zM208 1591h254l152 -184l152 184 h254l-283 -342h-246zM373 633h475q-10 109 -70.5 167t-161.5 58q-98 0 -161.5 -58.5t-81.5 -166.5z" />
<glyph unicode="&#x11e;" horiz-adv-x="1687" d="M102 762q0 240 106.5 424t306.5 288.5t466 104.5q141 0 280.5 -31.5t251.5 -91.5l-51 -270q-109 55 -236.5 84.5t-256.5 29.5q-160 0 -284 -63t-193.5 -183t-69.5 -280q0 -244 146.5 -383t400.5 -139q133 0 286 39v332h-311v249h602v-780q-266 -115 -596 -115 q-250 0 -441.5 94.5t-299 272.5t-107.5 418zM516 1989q0 12 3 22h204q0 -74 41 -113.5t117 -39.5t117 39.5t41 113.5h204q2 -10 3 -22q0 -143 -97.5 -226.5t-267.5 -83.5t-267.5 83t-97.5 227z" />
<glyph unicode="&#x11f;" horiz-adv-x="1349" d="M92 518q0 152 62.5 278t177 202.5t258.5 76.5q106 0 193 -44t139 -124l4 135h272v-968q0 -293 -147.5 -443.5t-438.5 -150.5q-106 0 -221 23.5t-180 60.5l31 258q63 -39 157.5 -63.5t182.5 -24.5q174 0 257 78.5t83 246.5v74q-53 -82 -141.5 -124t-205.5 -42 q-137 0 -246.5 67.5t-173 193.5t-63.5 290zM332 1530q0 14 2 26h194q0 -170 158 -170t158 170h194q2 -12 2 -26q0 -147 -95 -232.5t-259 -85.5t-259 85t-95 233zM377 522q0 -133 77.5 -217t198.5 -84t199 84t78 217q0 131 -77 215t-200 84t-199.5 -84t-76.5 -215z" />
<glyph unicode="&#x120;" horiz-adv-x="1687" d="M102 762q0 240 106.5 424t306.5 288.5t466 104.5q141 0 280.5 -31.5t251.5 -91.5l-51 -270q-109 55 -236.5 84.5t-256.5 29.5q-160 0 -284 -63t-193.5 -183t-69.5 -280q0 -244 146.5 -383t400.5 -139q133 0 286 39v332h-311v249h602v-780q-266 -115 -596 -115 q-250 0 -441.5 94.5t-299 272.5t-107.5 418zM713 1860q0 72 47 116.5t121 44.5q76 0 122 -45t46 -116q0 -72 -47 -117t-121 -45q-76 0 -122 45t-46 117z" />
<glyph unicode="&#x121;" horiz-adv-x="1349" d="M92 518q0 152 62.5 278t177 202.5t258.5 76.5q106 0 193 -44t139 -124l4 135h272v-968q0 -293 -147.5 -443.5t-438.5 -150.5q-106 0 -221 23.5t-180 60.5l31 258q63 -39 157.5 -63.5t182.5 -24.5q174 0 257 78.5t83 246.5v74q-53 -82 -141.5 -124t-205.5 -42 q-137 0 -246.5 67.5t-173 193.5t-63.5 290zM377 522q0 -133 77.5 -217t198.5 -84t199 84t78 217q0 131 -77 215t-200 84t-199.5 -84t-76.5 -215zM526 1411q0 70 44 113t116 43t117 -43t45 -113t-45 -113t-117 -43t-116 43t-44 113z" />
<glyph unicode="&#x122;" horiz-adv-x="1687" d="M102 762q0 240 106.5 424t306.5 288.5t466 104.5q141 0 280.5 -31.5t251.5 -91.5l-51 -270q-109 55 -236.5 84.5t-256.5 29.5q-160 0 -284 -63t-193.5 -183t-69.5 -280q0 -244 146.5 -383t400.5 -139q133 0 286 39v332h-311v249h602v-780q-266 -115 -596 -115 q-250 0 -441.5 94.5t-299 272.5t-107.5 418zM668 -506q39 76 62.5 177.5t23.5 199.5h266q-2 -94 -42 -202.5t-97 -174.5h-213z" />
<glyph unicode="&#x123;" horiz-adv-x="1349" d="M92 518q0 152 62.5 278t177 202.5t258.5 76.5q106 0 193 -44t139 -124l4 135h272v-968q0 -293 -147.5 -443.5t-438.5 -150.5q-106 0 -221 23.5t-180 60.5l31 258q63 -39 157.5 -63.5t182.5 -24.5q174 0 257 78.5t83 246.5v74q-53 -82 -141.5 -124t-205.5 -42 q-137 0 -246.5 67.5t-173 193.5t-63.5 290zM377 522q0 -133 77.5 -217t198.5 -84t199 84t78 217q0 131 -77 215t-200 84t-199.5 -84t-76.5 -215zM530 1249q2 94 41 191.5t99 165.5h202q-80 -156 -82 -357h-260z" />
<glyph unicode="&#x126;" horiz-adv-x="1816" d="M35 1116v207h186v233h314v-233h747v233h313v-233h187v-207h-187v-1116h-313v651h-747v-651h-314v1116h-186zM535 909h747v207h-747v-207z" />
<glyph unicode="&#x127;" horiz-adv-x="1267" d="M-10 1247v185h162v227h284v-227h307v-185h-307v-307q49 66 128 100.5t179 34.5q184 0 281.5 -113.5t97.5 -328.5v-633h-284v580q0 244 -187 243q-102 0 -158.5 -68.5t-56.5 -193.5v-561h-284v1247h-162z" />
<glyph unicode="&#x128;" horiz-adv-x="686" d="M-39 1708v14q4 305 227 306q55 0 96.5 -18.5t72 -41t58 -41t56.5 -18.5q33 0 47 26.5t14 87.5h197v-14q-2 -150 -60 -227.5t-167 -77.5q-55 0 -96.5 18.5t-72 41t-58 41t-56.5 18.5q-33 0 -48 -28t-15 -87h-195zM186 0v1556h314v-1556h-314z" />
<glyph unicode="&#x129;" horiz-adv-x="587" d="M-88 1260v20q4 141 60.5 218t158.5 77q59 0 101.5 -18.5t74 -41t58 -41t57.5 -18.5q35 0 49.5 27.5t14.5 87.5h188v-21q-2 -141 -58.5 -218t-158.5 -77q-59 0 -101.5 18.5t-74 41t-58 41t-57.5 18.5q-35 0 -49 -27.5t-14 -86.5h-191zM152 0v1042h284v-1042h-284z" />
<glyph unicode="&#x12a;" horiz-adv-x="686" d="M10 1733v206h670v-206h-670zM186 0v1556h314v-1556h-314z" />
<glyph unicode="&#x12b;" horiz-adv-x="587" d="M-39 1294v203h664v-203h-664zM152 0v1042h284v-1042h-284z" />
<glyph unicode="&#x12e;" horiz-adv-x="686" d="M82 -317q0 106 81 208.5t228 182.5l109 -74q-186 -139 -187 -250q0 -70 84 -69q49 0 99 24l18 -194q-29 -18 -77 -29.5t-99 -11.5q-121 0 -188.5 56t-67.5 157zM186 0v1556h314v-1556h-314z" />
<glyph unicode="&#x12f;" horiz-adv-x="587" d="M21 -317q0 106 81.5 209.5t227.5 181.5l106 -74q-193 -139 -192 -250q0 -35 22.5 -54.5t63.5 -19.5q61 0 104 23l19 -188q-29 -18 -78 -29.5t-100 -11.5q-119 0 -186.5 56t-67.5 157zM123 1421q0 70 48 117t122 47t122 -47t48 -117q0 -72 -48 -119t-122 -47t-122 48.5 t-48 117.5zM152 0v1042h284v-1042h-284z" />
<glyph unicode="&#x130;" horiz-adv-x="686" d="M176 1860q0 72 47 116.5t121 44.5q76 0 122 -45t46 -116q0 -72 -47 -117t-121 -45q-76 0 -122 45t-46 117zM186 0v1556h314v-1556h-314z" />
<glyph unicode="&#x131;" horiz-adv-x="587" d="M152 0v1042h284v-1042h-284z" />
<glyph unicode="&#x132;" horiz-adv-x="1845" d="M186 0v1556h314v-1556h-314zM758 55l30 254q133 -78 295 -78q145 0 209 78t64 258v989h313v-1013q0 -291 -132.5 -433.5t-404.5 -142.5q-104 0 -206.5 23.5t-167.5 64.5z" />
<glyph unicode="&#x133;" horiz-adv-x="1173" d="M123 1421q0 70 48 117t122 47t122 -47t48 -117q0 -72 -48 -119t-122 -47t-122 48.5t-48 117.5zM152 0v1042h284v-1042h-284zM362 -471l29 238q74 -37 170 -37q90 0 133 51t43 162v1099h285v-1114q0 -221 -104 -335q-105 -113 -310 -113q-78 0 -143 13q-66 13 -103 36z M709 1421q0 70 48 117t122 47t121 -47q48 -47 49 -117q0 -72 -49 -118q-47 -48 -121 -48t-122 49q-48 48 -48 117z" />
<glyph unicode="&#x136;" horiz-adv-x="1597" d="M186 0v1556h312v-657l626 657h389l-729 -741l799 -815h-422l-663 694v-694h-312zM629 -506q39 76 62.5 177.5t23.5 199.5h266q-2 -94 -42 -202.5t-97 -174.5h-213z" />
<glyph unicode="&#x137;" horiz-adv-x="1247" d="M152 0v1659h284v-1006l375 389h352l-469 -467l545 -575h-367l-436 475v-475h-284zM418 -506q39 76 62.5 178.5t25.5 198.5h260q-2 -94 -42 -202.5t-97 -174.5h-209z" />
<glyph unicode="&#x138;" horiz-adv-x="1249" d="M152 0v1042h284v-411l381 411h346l-473 -485l551 -557h-377l-428 446v-446h-284z" />
<glyph unicode="&#x139;" horiz-adv-x="1275" d="M135 1710l234 293h344l-308 -293h-270zM186 0v1556h314v-1298h704v-258h-1018z" />
<glyph unicode="&#x13a;" horiz-adv-x="587" d="M84 1741l234 293h344l-308 -293h-270zM152 0v1659h284v-1659h-284z" />
<glyph unicode="&#x13b;" horiz-adv-x="1275" d="M186 0v1556h314v-1298h704v-258h-1018zM481 -506q39 76 62.5 177.5t23.5 199.5h266q-2 -94 -42 -202.5t-97 -174.5h-213z" />
<glyph unicode="&#x13c;" horiz-adv-x="587" d="M88 -506q39 76 62.5 178.5t25.5 198.5h260q-2 -94 -42 -202.5t-97 -174.5h-209zM152 0v1659h284v-1659h-284z" />
<glyph unicode="&#x13d;" horiz-adv-x="1275" d="M186 0v1556h314v-1298h704v-258h-1018zM682 1169l24 490h273l-111 -490h-186z" />
<glyph unicode="&#x13e;" horiz-adv-x="587" d="M152 0v1659h284v-1659h-284zM570 1169l24 490h273l-111 -490h-186z" />
<glyph unicode="&#x141;" horiz-adv-x="1335" d="M51 629l195 121v806h313v-614l389 242l8 -254l-397 -246v-426h705v-258h-1018v492l-187 -115z" />
<glyph unicode="&#x142;" horiz-adv-x="710" d="M31 745l182 91v823h285v-682l176 86l6 -227l-182 -91v-745h-285v604l-176 -86z" />
<glyph unicode="&#x143;" horiz-adv-x="1763" d="M186 0v1556h279l815 -1081v1081h297v-1556h-279l-815 1077v-1077h-297zM655 1710l234 293h344l-308 -293h-270z" />
<glyph unicode="&#x144;" horiz-adv-x="1267" d="M152 0v1042h274l2 -129q45 78 126 120t189 42q184 0 281.5 -113.5t97.5 -328.5v-633h-284v580q0 244 -187 243q-102 0 -158.5 -68.5t-56.5 -193.5v-561h-284zM451 1249l215 342h315l-287 -342h-243z" />
<glyph unicode="&#x145;" horiz-adv-x="1763" d="M186 0v1556h279l815 -1081v1081h297v-1556h-279l-815 1077v-1077h-297zM668 -506q39 76 62.5 177.5t23.5 199.5h266q-2 -94 -42 -202.5t-97 -174.5h-213z" />
<glyph unicode="&#x146;" horiz-adv-x="1267" d="M152 0v1042h274l2 -129q45 78 126 120t189 42q184 0 281.5 -113.5t97.5 -328.5v-633h-284v580q0 244 -187 243q-102 0 -158.5 -68.5t-56.5 -193.5v-561h-284zM407 -506q39 76 62.5 178.5t25.5 198.5h260q-2 -94 -42 -202.5t-97 -174.5h-209z" />
<glyph unicode="&#x147;" horiz-adv-x="1763" d="M186 0v1556h279l815 -1081v1081h297v-1556h-279l-815 1077v-1077h-297zM434 2019h285l145 -159l145 159h285l-291 -309h-278z" />
<glyph unicode="&#x148;" horiz-adv-x="1267" d="M152 0v1042h274l2 -129q45 78 126 120t189 42q184 0 281.5 -113.5t97.5 -328.5v-633h-284v580q0 244 -187 243q-102 0 -158.5 -68.5t-56.5 -193.5v-561h-284zM233 1591h254l152 -184l152 184h254l-283 -342h-246z" />
<glyph unicode="&#x14c;" horiz-adv-x="1849" d="M102 778q0 219 103.5 403.5t292 296t426.5 111.5q227 0 413.5 -101.5t298 -286.5t111.5 -423q0 -219 -103.5 -403.5t-292.5 -296t-427 -111.5q-225 0 -411.5 101.5t-298.5 287t-112 422.5zM426 778q0 -147 61.5 -268t175.5 -192.5t261 -71.5q139 0 252.5 65.5t180 188.5 t66.5 278q0 147 -61.5 268t-176 193t-261.5 72q-139 0 -252 -65.5t-179.5 -187.5t-66.5 -280zM590 1733v206h670v-206h-670z" />
<glyph unicode="&#x14d;" horiz-adv-x="1306" d="M92 522q0 150 70.5 276t200 201.5t290.5 75.5q154 0 282 -68.5t203.5 -195.5t75.5 -289q0 -152 -70.5 -277.5t-199.5 -201.5t-291 -76q-154 0 -281.5 69.5t-203.5 196.5t-76 289zM321 1294v203h664v-203h-664zM377 522q0 -133 77.5 -217t198.5 -84t199 84t78 217 q0 131 -77 215t-200 84t-199.5 -84t-76.5 -215z" />
<glyph unicode="&#x150;" horiz-adv-x="1849" d="M102 778q0 219 103.5 403.5t292 296t426.5 111.5q227 0 413.5 -101.5t298 -286.5t111.5 -423q0 -219 -103.5 -403.5t-292.5 -296t-427 -111.5q-225 0 -411.5 101.5t-298.5 287t-112 422.5zM426 778q0 -147 61.5 -268t175.5 -192.5t261 -71.5q139 0 252.5 65.5t180 188.5 t66.5 278q0 147 -61.5 268t-176 193t-261.5 72q-139 0 -252 -65.5t-179.5 -187.5t-66.5 -280zM539 1710l176 291h318l-234 -291h-260zM973 1710l178 291h318l-232 -291h-264z" />
<glyph unicode="&#x151;" horiz-adv-x="1306" d="M92 522q0 150 70.5 276t200 201.5t290.5 75.5q154 0 282 -68.5t203.5 -195.5t75.5 -289q0 -152 -70.5 -277.5t-199.5 -201.5t-291 -76q-154 0 -281.5 69.5t-203.5 196.5t-76 289zM311 1249l176 342h285l-234 -342h-227zM377 522q0 -133 77.5 -217t198.5 -84t199 84 t78 217q0 131 -77 215t-200 84t-199.5 -84t-76.5 -215zM702 1249l178 342h283l-234 -342h-227z" />
<glyph unicode="&#x152;" horiz-adv-x="2588" d="M102 778q0 219 99.5 403.5t282 296t409.5 111.5q164 0 294 -56t212 -159v182h1028v-262h-725v-372h641v-260h-641v-400h754v-262h-1057v178q-86 -102 -216 -156.5t-292 -54.5q-215 0 -394.5 101.5t-287 288t-107.5 421.5zM428 778q0 -147 61.5 -268t175.5 -192.5 t261 -71.5q139 0 252.5 65.5t180 188.5t66.5 278q0 147 -61 268t-176 193t-262 72q-139 0 -252 -65.5t-179.5 -187.5t-66.5 -280z" />
<glyph unicode="&#x153;" horiz-adv-x="2062" d="M92 522q0 150 70.5 276t200 201.5t290.5 75.5q127 0 234.5 -53t179.5 -154q66 100 168 153.5t225 53.5q147 0 259 -62.5t174.5 -179t62.5 -276.5q0 -68 -10 -123h-736q53 -233 355 -233q94 0 183 19.5t161 55.5l28 -223q-74 -41 -180 -63.5t-223 -22.5 q-156 0 -274.5 54.5t-192.5 156.5q-72 -100 -179.5 -155.5t-234.5 -55.5q-154 0 -281.5 69.5t-203.5 196.5t-76 289zM377 522q0 -133 77.5 -217t198.5 -84t199 84t78 217q0 131 -77 215t-200 84t-199.5 -84t-76.5 -215zM1208 633h475q-10 109 -70.5 167t-160.5 58 q-98 0 -161.5 -58.5t-82.5 -166.5z" />
<glyph unicode="&#x154;" horiz-adv-x="1474" d="M186 0v1556h506q268 0 422 -132t154 -363q0 -137 -67.5 -246.5t-192.5 -177.5l415 -637h-352l-334 559q-35 -2 -58.5 -3t-43.5 -1h-150v-555h-299zM471 1710l234 293h344l-308 -293h-270zM485 807h154q322 0 322 252q0 121 -79 183.5t-233 62.5h-164v-498z" />
<glyph unicode="&#x155;" horiz-adv-x="890" d="M152 0v1042h274l2 -172q43 92 115.5 141.5t169.5 49.5q66 0 121 -23l-25 -268q-63 25 -127 25q-117 0 -181.5 -84t-64.5 -236v-475h-284zM285 1249l215 342h315l-287 -342h-243z" />
<glyph unicode="&#x158;" horiz-adv-x="1474" d="M186 0v1556h506q268 0 422 -132t154 -363q0 -137 -67.5 -246.5t-192.5 -177.5l415 -637h-352l-334 559q-35 -2 -58.5 -3t-43.5 -1h-150v-555h-299zM250 2019h285l145 -159l145 159h285l-291 -309h-278zM485 807h154q322 0 322 252q0 121 -79 183.5t-233 62.5h-164v-498z " />
<glyph unicode="&#x159;" horiz-adv-x="890" d="M67 1591h254l152 -184l152 184h254l-283 -342h-246zM152 0v1042h274l2 -172q43 92 115.5 141.5t169.5 49.5q66 0 121 -23l-25 -268q-63 25 -127 25q-117 0 -181.5 -84t-64.5 -236v-475h-284z" />
<glyph unicode="&#x15a;" horiz-adv-x="1355" d="M115 96l30 269q98 -63 229.5 -100.5t252.5 -37.5q141 0 218 52.5t77 146.5q0 80 -64.5 129t-245.5 107q-254 80 -362.5 190.5t-108.5 292.5q0 131 66.5 231.5t193.5 156.5t297 56q121 0 246 -30.5t219 -83.5l-43 -261q-88 51 -199.5 83t-211.5 32q-131 0 -198 -47 t-67 -135q0 -55 26 -91t84 -64.5t167 -63.5q279 -88 395.5 -202t116.5 -296q0 -215 -159 -339t-435 -124q-145 0 -292.5 36t-231.5 93zM465 1710l234 293h344l-308 -293h-270z" />
<glyph unicode="&#x15b;" horiz-adv-x="1009" d="M84 68l35 231q70 -47 163 -75.5t179 -28.5q174 0 174 88q0 47 -37 71.5t-154 57.5q-184 51 -263 130t-79 212q0 150 113 235.5t309 85.5q96 0 192.5 -22.5t157.5 -59.5l-32 -225q-63 37 -146.5 58.5t-158.5 21.5q-150 0 -150 -80q0 -45 36 -70.5t142 -56.5 q197 -57 278 -135t81 -215q0 -152 -120 -238t-331 -86q-119 0 -225.5 28t-163.5 73zM330 1249l215 342h315l-287 -342h-243z" />
<glyph unicode="&#x15e;" horiz-adv-x="1355" d="M115 96l30 269q98 -63 229.5 -100.5t252.5 -37.5q141 0 218 52.5t77 146.5q0 80 -64.5 129t-245.5 107q-254 80 -362.5 190.5t-108.5 292.5q0 131 66.5 231.5t193.5 156.5t297 56q121 0 246 -30.5t219 -83.5l-43 -261q-88 51 -199.5 83t-211.5 32q-131 0 -198 -47 t-67 -135q0 -55 26 -91t84 -64.5t167 -63.5q279 -88 395.5 -202t116.5 -296q0 -215 -159 -339t-435 -124q-145 0 -292.5 36t-231.5 93zM412 -498l33 156q57 -29 135 -29q111 0 111 68q0 63 -113 63q-53 0 -74 -6l74 266h172l-41 -133q94 -8 151.5 -62t57.5 -136 q0 -109 -81.5 -167.5t-233.5 -58.5q-47 0 -103.5 11.5t-87.5 27.5z" />
<glyph unicode="&#x15f;" horiz-adv-x="1009" d="M84 68l35 231q70 -47 163 -75.5t179 -28.5q174 0 174 88q0 47 -37 71.5t-154 57.5q-184 51 -263 130t-79 212q0 150 113 235.5t309 85.5q96 0 192.5 -22.5t157.5 -59.5l-32 -225q-63 37 -146.5 58.5t-158.5 21.5q-150 0 -150 -80q0 -45 36 -70.5t142 -56.5 q197 -57 278 -135t81 -215q0 -152 -120 -238t-331 -86q-119 0 -225.5 28t-163.5 73zM246 -498l33 150q57 -29 141 -29q113 0 113 74q0 68 -119 67q-43 0 -72 -4l72 260h164l-41 -135q96 -8 152.5 -62t56.5 -136q0 -102 -81 -163t-218 -61q-53 0 -113.5 11.5t-87.5 27.5z" />
<glyph unicode="&#x160;" horiz-adv-x="1355" d="M115 96l30 269q98 -63 229.5 -100.5t252.5 -37.5q141 0 218 52.5t77 146.5q0 80 -64.5 129t-245.5 107q-254 80 -362.5 190.5t-108.5 292.5q0 131 66.5 231.5t193.5 156.5t297 56q121 0 246 -30.5t219 -83.5l-43 -261q-88 51 -199.5 83t-211.5 32q-131 0 -198 -47 t-67 -135q0 -55 26 -91t84 -64.5t167 -63.5q279 -88 395.5 -202t116.5 -296q0 -215 -159 -339t-435 -124q-145 0 -292.5 36t-231.5 93zM244 2019h285l145 -159l145 159h285l-291 -309h-278z" />
<glyph unicode="&#x161;" horiz-adv-x="1009" d="M84 68l35 231q70 -47 163 -75.5t179 -28.5q174 0 174 88q0 47 -37 71.5t-154 57.5q-184 51 -263 130t-79 212q0 150 113 235.5t309 85.5q96 0 192.5 -22.5t157.5 -59.5l-32 -225q-63 37 -146.5 58.5t-158.5 21.5q-150 0 -150 -80q0 -45 36 -70.5t142 -56.5 q197 -57 278 -135t81 -215q0 -152 -120 -238t-331 -86q-119 0 -225.5 28t-163.5 73zM112 1591h254l152 -184l152 184h254l-283 -342h-246z" />
<glyph unicode="&#x162;" horiz-adv-x="1456" d="M72 1298v258h1312v-258h-499v-1298h-314v1298h-499zM479 -498l33 156q57 -29 135 -29q111 0 111 68q0 63 -113 63q-53 0 -74 -6l74 266h172l-41 -133q94 -8 151.5 -62t57.5 -136q0 -109 -81.5 -167.5t-233.5 -58.5q-47 0 -103.5 11.5t-87.5 27.5z" />
<glyph unicode="&#x163;" horiz-adv-x="944" d="M25 807v235h202v283h285v-283h326v-235h-326v-385q0 -109 37 -156t125 -47q100 0 184 45l31 -237q-47 -27 -122 -43q-75 -17 -157 -17q-195 0 -288 100q-94 99 -95 304v436h-202zM285 -498l33 150q57 -29 141 -29q113 0 113 74q0 68 -119 67q-43 0 -72 -4l72 260h164 l-41 -135q96 -8 152.5 -62t56.5 -136q0 -102 -81 -163t-218 -61q-53 0 -113.5 11.5t-87.5 27.5z" />
<glyph unicode="&#x164;" horiz-adv-x="1456" d="M72 1298v258h1312v-258h-499v-1298h-314v1298h-499zM299 2019h285l145 -159l145 159h285l-291 -309h-278z" />
<glyph unicode="&#x165;" horiz-adv-x="944" d="M25 807v235h202v283h285v-283h326v-235h-326v-385q0 -109 37 -156t125 -47q100 0 184 45l31 -237q-47 -27 -122 -43q-75 -17 -157 -17q-195 0 -288 100q-94 99 -95 304v436h-202zM649 1219l25 440h262l-105 -440h-182z" />
<glyph unicode="&#x168;" horiz-adv-x="1730" d="M176 657v899h313v-874q0 -436 375 -436q377 0 377 436v874h313v-899q0 -330 -180 -510t-512 -180q-326 0 -506 180.5t-180 509.5zM481 1708v14q4 305 227 306q55 0 96.5 -18.5t72 -41t58 -41t56.5 -18.5q33 0 47 26.5t14 87.5h197v-14q-2 -150 -60 -227.5t-167 -77.5 q-55 0 -96.5 18.5t-72 41t-58 41t-56.5 18.5q-33 0 -48 -28t-15 -87h-195z" />
<glyph unicode="&#x169;" horiz-adv-x="1265" d="M145 410v632h285v-579q0 -244 186 -244q102 0 158 69q55 69 55 193v561h285v-1042h-274l-2 127q-45 -78 -126 -119q-82 -41 -188 -41q-184 0 -281 114t-98 329zM244 1260v20q4 141 60.5 218t158.5 77q59 0 101.5 -18.5t74 -41t58 -41t57.5 -18.5q35 0 49.5 27.5 t14.5 87.5h188v-21q-2 -141 -58.5 -218t-158.5 -77q-59 0 -101.5 18.5t-74 41t-58 41t-57.5 18.5q-35 0 -49 -27.5t-14 -86.5h-191z" />
<glyph unicode="&#x16a;" horiz-adv-x="1730" d="M176 657v899h313v-874q0 -436 375 -436q377 0 377 436v874h313v-899q0 -330 -180 -510t-512 -180q-326 0 -506 180.5t-180 509.5zM530 1733v206h670v-206h-670z" />
<glyph unicode="&#x16b;" horiz-adv-x="1265" d="M145 410v632h285v-579q0 -244 186 -244q102 0 158 69q55 69 55 193v561h285v-1042h-274l-2 127q-45 -78 -126 -119q-82 -41 -188 -41q-184 0 -281 114t-98 329zM293 1294v203h664v-203h-664z" />
<glyph unicode="&#x16e;" horiz-adv-x="1730" d="M176 657v899h313v-874q0 -436 375 -436q377 0 377 436v874h313v-899q0 -330 -180 -510t-512 -180q-326 0 -506 180.5t-180 509.5zM575 1946q0 117 82 194.5t207 77.5t207 -78t82 -194q0 -117 -82 -195t-207 -78t-207 78t-82 195zM745 1946q0 -53 32 -86t87 -33t87 32.5 t32 86.5q0 55 -32 86.5t-87 31.5t-87 -31.5t-32 -86.5z" />
<glyph unicode="&#x16f;" horiz-adv-x="1265" d="M145 410v632h285v-579q0 -244 186 -244q102 0 158 69q55 69 55 193v561h285v-1042h-274l-2 127q-45 -78 -126 -119q-82 -41 -188 -41q-184 0 -281 114t-98 329zM336 1458q0 117 82 195t207 78t207 -78t82 -195t-82 -194.5t-207 -77.5t-207 77.5t-82 194.5zM506 1458 q0 -53 32 -86t87 -33t87 33t32 86q0 55 -32 87t-87 32t-87 -32t-32 -87z" />
<glyph unicode="&#x170;" horiz-adv-x="1730" d="M176 657v899h313v-874q0 -436 375 -436q377 0 377 436v874h313v-899q0 -330 -180 -510t-512 -180q-326 0 -506 180.5t-180 509.5zM479 1710l176 291h318l-234 -291h-260zM913 1710l178 291h318l-232 -291h-264z" />
<glyph unicode="&#x171;" horiz-adv-x="1265" d="M145 410v632h285v-579q0 -244 186 -244q102 0 158 69q55 69 55 193v561h285v-1042h-274l-2 127q-45 -78 -126 -119q-82 -41 -188 -41q-184 0 -281 114t-98 329zM283 1249l176 342h285l-234 -342h-227zM674 1249l178 342h283l-234 -342h-227z" />
<glyph unicode="&#x172;" horiz-adv-x="1730" d="M176 657v899h313v-874q0 -436 375 -436q377 0 377 436v874h313v-899q0 -330 -180 -510t-512 -180q-326 0 -506 180.5t-180 509.5zM801 -322q0 117 94 232t246 182l133 -22q-115 -78 -178.5 -160t-63.5 -152q0 -78 90 -77q55 0 109 26l20 -194q-27 -18 -82 -30.5 t-110 -12.5q-119 0 -188.5 56t-69.5 152z" />
<glyph unicode="&#x173;" horiz-adv-x="1265" d="M145 410v632h285v-579q0 -244 186 -244q102 0 158 69q55 69 55 193v561h285v-1042h-274l-2 127q-45 -78 -126 -119q-82 -41 -188 -41q-184 0 -281 114t-98 329zM699 -317q0 106 81.5 209.5t227.5 181.5l106 -74q-193 -139 -192 -250q0 -35 22.5 -54.5t63.5 -19.5 q61 0 104 23l19 -188q-29 -18 -78 -29.5t-100 -11.5q-119 0 -186.5 56t-67.5 157z" />
<glyph unicode="&#x174;" horiz-adv-x="2301" d="M47 1556h330l299 -1161l340 1141h272l340 -1126l297 1146h330l-469 -1556h-297l-342 1118l-336 -1118h-299zM721 1710l291 309h278l291 -309h-285l-145 156l-145 -156h-285z" />
<glyph unicode="&#x175;" horiz-adv-x="1751" d="M43 1042h297l190 -714l222 714h239l232 -716l192 716h293l-346 -1042h-258l-236 688l-225 -688h-254zM468 1249l283 342h246l283 -342h-254l-152 183l-152 -183h-254z" />
<glyph unicode="&#x176;" horiz-adv-x="1501" d="M23 1556h348l385 -663l387 663h336l-574 -907v-649h-311v649zM320 1710l291 309h278l291 -309h-285l-145 156l-145 -156h-285z" />
<glyph unicode="&#x177;" horiz-adv-x="1208" d="M33 1042h309l270 -669l258 669h306l-691 -1544h-295l277 574zM206 1249l283 342h246l283 -342h-254l-152 183l-152 -183h-254z" />
<glyph unicode="&#x178;" horiz-adv-x="1501" d="M23 1556h348l385 -663l387 663h336l-574 -907v-649h-311v649zM373 1849q0 63 41 104.5t109 41.5t109.5 -40t41.5 -106q0 -63 -42.5 -103t-108.5 -40q-68 0 -109 40t-41 103zM826 1849q0 63 42 104.5t107 41.5q68 0 110 -40t42 -106q0 -63 -43 -103t-109 -40t-107.5 40 t-41.5 103z" />
<glyph unicode="&#x179;" horiz-adv-x="1497" d="M109 0v225l858 1075h-809v256h1200v-225l-858 -1075h872v-256h-1263zM530 1710l234 293h344l-308 -293h-270z" />
<glyph unicode="&#x17a;" horiz-adv-x="1110" d="M90 0v203l533 604h-510v235h882v-202l-534 -604h549v-236h-920zM359 1249l215 342h315l-287 -342h-243z" />
<glyph unicode="&#x17b;" horiz-adv-x="1497" d="M109 0v225l858 1075h-809v256h1200v-225l-858 -1075h872v-256h-1263zM571 1860q0 72 47 116.5t121 44.5q76 0 122 -45t46 -116q0 -72 -47 -117t-121 -45q-76 0 -122 45t-46 117z" />
<glyph unicode="&#x17c;" horiz-adv-x="1110" d="M90 0v203l533 604h-510v235h882v-202l-534 -604h549v-236h-920zM387 1411q0 70 44 113t116 43t117 -43t45 -113t-45 -113t-117 -43t-116 43t-44 113z" />
<glyph unicode="&#x17d;" horiz-adv-x="1497" d="M109 0v225l858 1075h-809v256h1200v-225l-858 -1075h872v-256h-1263zM309 2019h285l145 -159l145 159h285l-291 -309h-278z" />
<glyph unicode="&#x17e;" horiz-adv-x="1110" d="M90 0v203l533 604h-510v235h882v-202l-534 -604h549v-236h-920zM141 1591h254l152 -184l152 184h254l-283 -342h-246z" />
<glyph unicode="&#x192;" horiz-adv-x="876" d="M-133 -471l29 238q74 -37 170 -37q90 0 133 51t43 162v864h-189v235h189v129q0 238 114.5 368t325.5 130q61 0 128 -12t112 -33l-31 -233q-86 31 -166 30q-102 0 -150.5 -66.5t-48.5 -207.5v-105h281v-235h-281v-879q0 -221 -104 -334.5t-309 -113.5q-78 0 -144.5 13 t-101.5 36z" />
<glyph unicode="&#x218;" horiz-adv-x="1355" d="M115 96l30 269q98 -63 229.5 -100.5t252.5 -37.5q141 0 218 52.5t77 146.5q0 80 -64.5 129t-245.5 107q-254 80 -362.5 190.5t-108.5 292.5q0 131 66.5 231.5t193.5 156.5t297 56q121 0 246 -30.5t219 -83.5l-43 -261q-88 51 -199.5 83t-211.5 32q-131 0 -198 -47 t-67 -135q0 -55 26 -91t84 -64.5t167 -63.5q279 -88 395.5 -202t116.5 -296q0 -215 -159 -339t-435 -124q-145 0 -292.5 36t-231.5 93zM447 -506q39 76 62.5 177.5t23.5 199.5h266q-2 -94 -42 -202.5t-97 -174.5h-213z" />
<glyph unicode="&#x219;" horiz-adv-x="1009" d="M84 68l35 231q70 -47 163 -75.5t179 -28.5q174 0 174 88q0 47 -37 71.5t-154 57.5q-184 51 -263 130t-79 212q0 150 113 235.5t309 85.5q96 0 192.5 -22.5t157.5 -59.5l-32 -225q-63 37 -146.5 58.5t-158.5 21.5q-150 0 -150 -80q0 -45 36 -70.5t142 -56.5 q197 -57 278 -135t81 -215q0 -152 -120 -238t-331 -86q-119 0 -225.5 28t-163.5 73zM287 -506q39 76 62.5 178.5t25.5 198.5h260q-2 -94 -42 -202.5t-97 -174.5h-209z" />
<glyph unicode="&#x21a;" horiz-adv-x="1456" d="M72 1298v258h1312v-258h-499v-1298h-314v1298h-499zM512 -506q39 76 62.5 177.5t23.5 199.5h266q-2 -94 -42 -202.5t-97 -174.5h-213z" />
<glyph unicode="&#x21b;" horiz-adv-x="944" d="M25 807v235h202v283h285v-283h326v-235h-326v-385q0 -109 37 -156t125 -47q100 0 184 45l31 -237q-47 -27 -122 -43q-75 -17 -157 -17q-195 0 -288 100q-94 99 -95 304v436h-202zM317 -506q39 76 62.5 178.5t25.5 198.5h260q-2 -94 -42 -202.5t-97 -174.5h-209z" />
<glyph unicode="&#x237;" horiz-adv-x="587" d="M-223 -471l28 238q74 -37 170 -37q90 0 133.5 51t43.5 162v1099h284v-1114q0 -221 -104 -334.5t-309 -113.5q-78 0 -143.5 13t-102.5 36z" />
<glyph unicode="&#x2c6;" horiz-adv-x="1024" d="M106 1249l283 342h246l283 -342h-254l-152 183l-152 -183h-254z" />
<glyph unicode="&#x2c7;" horiz-adv-x="1024" d="M106 1591h254l152 -184l152 184h254l-283 -342h-246z" />
<glyph unicode="&#x2c9;" horiz-adv-x="1024" d="M180 1294v203h664v-203h-664z" />
<glyph unicode="&#x2cb;" horiz-adv-x="1024" d="M246 1591h315l217 -342h-243z" />
<glyph unicode="&#x2d8;" horiz-adv-x="1024" d="M158 1530q0 14 2 26h194q0 -170 158 -170t158 170h194q2 -12 2 -26q0 -147 -95 -232.5t-259 -85.5t-259 85t-95 233z" />
<glyph unicode="&#x2d9;" horiz-adv-x="1024" d="M350 1411q0 70 44 113t116 43t117 -43t45 -113t-45 -113t-117 -43t-116 43t-44 113z" />
<glyph unicode="&#x2da;" horiz-adv-x="1024" d="M223 1458q0 117 82 195t207 78t207 -78t82 -195t-82 -194.5t-207 -77.5t-207 77.5t-82 194.5zM393 1458q0 -53 32 -86t87 -33t87 33t32 86q0 55 -32 87t-87 32t-87 -32t-32 -87z" />
<glyph unicode="&#x2db;" horiz-adv-x="1024" d="M336 -317q0 106 81.5 209.5t227.5 181.5l106 -74q-193 -139 -192 -250q0 -35 22.5 -54.5t63.5 -19.5q61 0 104 23l19 -188q-29 -18 -78 -29.5t-100 -11.5q-119 0 -186.5 56t-67.5 157z" />
<glyph unicode="&#x2dc;" horiz-adv-x="1024" d="M131 1260v20q4 141 60.5 218t158.5 77q59 0 101.5 -18.5t74 -41t58 -41t57.5 -18.5q35 0 49.5 27.5t14.5 87.5h188v-21q-2 -141 -58.5 -218t-158.5 -77q-59 0 -101.5 18.5t-74 41t-58 41t-57.5 18.5q-35 0 -49 -27.5t-14 -86.5h-191z" />
<glyph unicode="&#x2dd;" horiz-adv-x="1024" d="M119 1249l176 342h285l-234 -342h-227zM510 1249l178 342h283l-234 -342h-227z" />
<glyph unicode="&#x300;" horiz-adv-x="0" d="M-342 1591h315l217 -342h-243z" />
<glyph unicode="&#x301;" horiz-adv-x="0" d="M-188 1249l215 342h315l-287 -342h-243z" />
<glyph unicode="&#x302;" horiz-adv-x="0" d="M-406 1249l283 342h246l283 -342h-254l-152 183l-152 -183h-254z" />
<glyph unicode="&#x303;" horiz-adv-x="0" d="M-381 1260v20q4 141 60.5 218t158.5 77q59 0 101.5 -18.5t74 -41t58 -41t57.5 -18.5q35 0 49.5 27.5t14.5 87.5h188v-21q-2 -141 -58.5 -218t-158.5 -77q-59 0 -101.5 18.5t-74 41t-58 41t-57.5 18.5q-35 0 -49 -27.5t-14 -86.5h-191z" />
<glyph unicode="&#x304;" horiz-adv-x="0" d="M-332 1294v203h664v-203h-664z" />
<glyph unicode="&#x306;" horiz-adv-x="0" d="M-354 1530q0 14 2 26h194q0 -170 158 -170t158 170h194q2 -12 2 -26q0 -147 -95 -232.5t-259 -85.5t-259 85t-95 233z" />
<glyph unicode="&#x307;" horiz-adv-x="0" d="M-160 1411q0 70 44 113t116 43t117 -43t45 -113t-45 -113t-117 -43t-116 43t-44 113z" />
<glyph unicode="&#x308;" horiz-adv-x="0" d="M-371 1405q0 61 42 101t106 40q66 0 106.5 -40t40.5 -101q0 -63 -40.5 -103t-106.5 -40q-68 0 -108 39.5t-40 103.5zM76 1405q0 61 42 101t105 40q66 0 107 -40t41 -101q0 -63 -41 -103t-107 -40q-68 0 -107.5 39.5t-39.5 103.5z" />
<glyph unicode="&#x30a;" horiz-adv-x="0" d="M-289 1458q0 117 82 195t207 78t207 -78t82 -195t-82 -194.5t-207 -77.5t-207 77.5t-82 194.5zM-119 1458q0 -53 32 -86t87 -33t87 33t32 86q0 55 -32 87t-87 32t-87 -32t-32 -87z" />
<glyph unicode="&#x30b;" horiz-adv-x="0" d="M-342 1249l176 342h285l-234 -342h-227zM49 1249l178 342h283l-234 -342h-227z" />
<glyph unicode="&#x30c;" horiz-adv-x="0" d="M-406 1591h254l152 -184l152 184h254l-283 -342h-246z" />
<glyph unicode="&#x312;" horiz-adv-x="0" d="M-156 1249q2 94 41 191.5t99 165.5h202q-80 -156 -82 -357h-260z" />
<glyph unicode="&#x315;" horiz-adv-x="0" d="M-137 1169l24 490h273l-111 -490h-186z" />
<glyph unicode="&#x326;" horiz-adv-x="0" d="M-205 -506q39 76 62.5 178.5t25.5 198.5h260q-2 -94 -42 -202.5t-97 -174.5h-209z" />
<glyph unicode="&#x327;" horiz-adv-x="0" d="M-256 -498l33 150q57 -29 141 -29q113 0 113 74q0 68 -119 67q-43 0 -72 -4l72 260h164l-41 -135q96 -8 152.5 -62t56.5 -136q0 -102 -81 -163t-218 -61q-53 0 -113.5 11.5t-87.5 27.5z" />
<glyph unicode="&#x328;" horiz-adv-x="0" d="M-272 -317q0 106 81.5 209.5t227.5 181.5l106 -74q-193 -139 -192 -250q0 -35 22.5 -54.5t63.5 -19.5q61 0 104 23l19 -188q-29 -18 -78 -29.5t-100 -11.5q-119 0 -186.5 56t-67.5 157z" />
<glyph unicode="&#x3c0;" horiz-adv-x="1419" d="M78 809v233h1243v-233h-178v-471q0 -66 18.5 -89.5t71.5 -23.5q33 0 67 11l11 -232q-78 -24 -164 -24q-111 0 -170 31.5t-84 100t-25 185.5v512h-342v-809h-280v809h-168z" />
<glyph unicode="&#x1e80;" horiz-adv-x="2301" d="M47 1556h330l299 -1161l340 1141h272l340 -1126l297 1146h330l-469 -1556h-297l-342 1118l-336 -1118h-299zM776 2003h344l236 -293h-268z" />
<glyph unicode="&#x1e81;" horiz-adv-x="1751" d="M43 1042h297l190 -714l222 714h239l232 -716l192 716h293l-346 -1042h-258l-236 688l-225 -688h-254zM532 1591h315l217 -342h-243z" />
<glyph unicode="&#x1e82;" horiz-adv-x="2301" d="M47 1556h330l299 -1161l340 1141h272l340 -1126l297 1146h330l-469 -1556h-297l-342 1118l-336 -1118h-299zM942 1710l234 293h344l-308 -293h-270z" />
<glyph unicode="&#x1e83;" horiz-adv-x="1751" d="M43 1042h297l190 -714l222 714h239l232 -716l192 716h293l-346 -1042h-258l-236 688l-225 -688h-254zM686 1249l215 342h315l-287 -342h-243z" />
<glyph unicode="&#x1e84;" horiz-adv-x="2301" d="M47 1556h330l299 -1161l340 1141h272l340 -1126l297 1146h330l-469 -1556h-297l-342 1118l-336 -1118h-299zM774 1849q0 63 41 104.5t109 41.5t109.5 -40t41.5 -106q0 -63 -42.5 -103t-108.5 -40q-68 0 -109 40t-41 103zM1227 1849q0 63 42 104.5t107 41.5q68 0 110 -40 t42 -106q0 -63 -43 -103t-109 -40t-107.5 40t-41.5 103z" />
<glyph unicode="&#x1e85;" horiz-adv-x="1751" d="M43 1042h297l190 -714l222 714h239l232 -716l192 716h293l-346 -1042h-258l-236 688l-225 -688h-254zM503 1405q0 61 42 101t106 40q66 0 106.5 -40t40.5 -101q0 -63 -40.5 -103t-106.5 -40q-68 0 -108 39.5t-40 103.5zM950 1405q0 61 42 101t105 40q66 0 107 -40 t41 -101q0 -63 -41 -103t-107 -40q-68 0 -107.5 39.5t-39.5 103.5z" />
<glyph unicode="&#x1e9e;" horiz-adv-x="1634" d="M176 0v881q0 334 179.5 521t500.5 187q154 0 305.5 -56t253.5 -153v-184l-237 -297q172 -41 265 -158.5t93 -291.5q0 -217 -146.5 -349.5t-388.5 -132.5q-94 0 -189 23.5t-161 64.5l29 248q123 -82 291 -82q123 0 191.5 64.5t68.5 183.5q0 109 -68.5 171t-187.5 62 q-35 0 -90 -10l-62 160l303 389q-121 76 -266 76q-180 0 -276.5 -120t-96.5 -345v-852h-311z" />
<glyph unicode="&#x1ef2;" horiz-adv-x="1501" d="M23 1556h348l385 -663l387 663h336l-574 -907v-649h-311v649zM375 2003h344l236 -293h-268z" />
<glyph unicode="&#x1ef3;" horiz-adv-x="1208" d="M33 1042h309l270 -669l258 669h306l-691 -1544h-295l277 574zM270 1591h315l217 -342h-243z" />
<glyph unicode="&#x2000;" horiz-adv-x="1024" />
<glyph unicode="&#x2001;" horiz-adv-x="2048" />
<glyph unicode="&#x2002;" horiz-adv-x="1024" />
<glyph unicode="&#x2003;" horiz-adv-x="2048" />
<glyph unicode="&#x2004;" horiz-adv-x="681" />
<glyph unicode="&#x2005;" horiz-adv-x="512" />
<glyph unicode="&#x2006;" horiz-adv-x="339" />
<glyph unicode="&#x2007;" horiz-adv-x="1269" />
<glyph unicode="&#x2008;" horiz-adv-x="612" />
<glyph unicode="&#x2009;" horiz-adv-x="409" />
<glyph unicode="&#x200a;" horiz-adv-x="112" />
<glyph unicode="&#x200b;" horiz-adv-x="0" />
<glyph unicode="&#x2010;" horiz-adv-x="878" d="M125 465v248h629v-248h-629z" />
<glyph unicode="&#x2011;" horiz-adv-x="878" d="M125 465v248h629v-248h-629z" />
<glyph unicode="&#x2012;" horiz-adv-x="1024" d="M0 479v221h1024v-221h-1024z" />
<glyph unicode="&#x2013;" horiz-adv-x="1024" d="M0 479v221h1024v-221h-1024z" />
<glyph unicode="&#x2014;" horiz-adv-x="2048" d="M0 479v221h2048v-221h-2048z" />
<glyph unicode="&#x2015;" horiz-adv-x="2048" d="M0 479v221h2048v-221h-2048z" />
<glyph unicode="&#x2018;" horiz-adv-x="462" d="M72 1049q2 131 40 266t99 241h211q-84 -240 -84 -507h-266z" />
<glyph unicode="&#x2019;" horiz-adv-x="462" d="M41 1049q84 240 84 507h266q-2 -131 -40 -266t-99 -241h-211z" />
<glyph unicode="&#x201a;" horiz-adv-x="462" d="M41 -258q84 240 84 508h266q-2 -131 -40 -266.5t-99 -241.5h-211z" />
<glyph unicode="&#x201c;" horiz-adv-x="868" d="M72 1049q2 131 40 266t99 241h211q-84 -240 -84 -507h-266zM478 1049q2 131 40 266t99 241h211q-84 -240 -84 -507h-266z" />
<glyph unicode="&#x201d;" horiz-adv-x="868" d="M41 1049q84 240 84 507h266q-2 -131 -40 -266t-99 -241h-211zM447 1049q84 240 84 507h266q-2 -131 -40 -266t-99 -241h-211z" />
<glyph unicode="&#x201e;" horiz-adv-x="868" d="M41 -258q84 240 84 508h266q-2 -131 -40 -266.5t-99 -241.5h-211zM447 -258q84 240 84 508h266q-2 -131 -40 -266.5t-99 -241.5h-211z" />
<glyph unicode="&#x2020;" horiz-adv-x="1075" d="M74 874v230h321v452h285v-452h319v-230h-319v-1140h-285v1140h-321z" />
<glyph unicode="&#x2021;" horiz-adv-x="1075" d="M74 162v229h321v506h-321v227h321v432h285v-432h319v-227h-319v-506h319v-229h-319v-428h-285v428h-321z" />
<glyph unicode="&#x2022;" horiz-adv-x="731" d="M98 559q0 72 34 132.5t95.5 97t137.5 36.5q113 0 190.5 -77.5t77.5 -188.5q0 -70 -34 -131t-96 -99t-138 -38q-111 0 -189 79t-78 189z" />
<glyph unicode="&#x2026;" horiz-adv-x="2048" d="M166 158q0 74 50 120t126 46t125 -47.5t49 -118.5q0 -74 -49 -122t-125 -48q-78 0 -127 48t-49 122zM846 158q0 74 50 120t126 46t125 -47.5t49 -118.5q0 -74 -49 -122t-125 -48q-78 0 -127 48t-49 122zM1530 158q0 74 50 120t126 46t125 -47.5t49 -118.5q0 -74 -49 -122 t-125 -48q-78 0 -127 48t-49 122z" />
<glyph unicode="&#x202f;" horiz-adv-x="443" />
<glyph unicode="&#x2030;" horiz-adv-x="2902" d="M113 1163q0 106 50 195.5t143 143.5t208 54q109 0 201 -49t146 -140t54 -204q0 -109 -50 -197.5t-142 -142t-209 -53.5q-111 0 -202 49t-145 139.5t-54 204.5zM330 0l1085 1524h252l-1085 -1524h-252zM340 1163q0 -86 48 -138t126 -52t126 52t48 138q0 84 -48 137.5 t-126 53.5t-126 -53.5t-48 -137.5zM1087 369q0 106 50.5 195t143.5 143.5t208 54.5q109 0 201 -49t146 -140.5t54 -203.5q0 -109 -50 -198t-142 -142.5t-209 -53.5q-111 0 -202 49.5t-145.5 139.5t-54.5 205zM1315 369q0 -86 48 -138.5t126 -52.5t126 52.5t48 138.5 q0 84 -48 137t-126 53t-126 -53t-48 -137zM1987 369q0 106 50 195t143 143.5t208 54.5q109 0 201 -49t146 -140.5t54 -203.5q0 -109 -50 -198t-142 -142.5t-209 -53.5q-111 0 -202 49.5t-145 139.5t-54 205zM2214 369q0 -86 48 -138.5t126 -52.5t126 52.5t48 138.5 q0 84 -48 137t-126 53t-126 -53t-48 -137z" />
<glyph unicode="&#x2032;" horiz-adv-x="561" d="M102 961l88 595h279l-141 -595h-226z" />
<glyph unicode="&#x2033;" horiz-adv-x="958" d="M102 961l88 595h279l-141 -595h-226zM499 961l88 595h279l-141 -595h-226z" />
<glyph unicode="&#x2039;" horiz-adv-x="743" d="M57 526l303 449h312l-314 -449l314 -448h-312z" />
<glyph unicode="&#x203a;" horiz-adv-x="743" d="M72 78l313 448l-313 449h311l303 -449l-303 -448h-311z" />
<glyph unicode="&#x2044;" horiz-adv-x="337" d="M-500 0l1086 1524h252l-1086 -1524h-252z" />
<glyph unicode="&#x205f;" horiz-adv-x="554" />
<glyph unicode="&#x2070;" d="M33 1352q0 203 98 320.5t266 117.5t265.5 -117.5t97.5 -320.5t-97.5 -320.5t-265.5 -117.5t-266 117.5t-98 320.5zM252 1352q0 -125 36.5 -189.5t108.5 -64.5q70 0 106 64.5t36 189.5t-36 189.5t-106 64.5q-72 0 -108.5 -64.5t-36.5 -189.5z" />
<glyph unicode="&#x2074;" d="M45 1104v168l371 498h219v-502h98v-164h-98v-170h-195v170h-395zM240 1268h200v266z" />
<glyph unicode="&#x2075;" d="M96 971l19 182q72 -57 217 -57q78 0 121 26.5t43 77.5q0 100 -162 101q-119 0 -203 -21l19 490h505v-174h-327l-6 -123q23 2 39 3t26 1q154 0 238 -73t84 -204q0 -133 -95.5 -209.5t-263.5 -76.5q-76 0 -148.5 16t-105.5 41z" />
<glyph unicode="&#x2076;" d="M61 1225q0 133 86 280.5t234 266.5l256 -7q-88 -63 -170 -147t-133 -166q43 31 119 31q119 0 197.5 -78t78.5 -192q0 -131 -93.5 -215t-240.5 -84t-240.5 87t-93.5 224zM262 1204q0 -55 37 -89t96 -34q57 0 94 35t37 88q0 55 -36.5 91t-94.5 36q-59 0 -96 -35.5 t-37 -91.5z" />
<glyph unicode="&#x2077;" d="M88 1579v191h617v-172l-322 -666l-231 6l321 641h-385z" />
<glyph unicode="&#x2078;" d="M57 1172q0 66 33 120t90 80q-98 55 -98 178q0 106 87 173t226 67t225.5 -66.5t86.5 -173.5q0 -123 -99 -178q59 -29 92 -82t33 -118q0 -121 -90 -189.5t-248 -68.5t-248 68.5t-90 189.5zM272 1184q0 -47 34 -77t89 -30q53 0 88 30t35 77q0 45 -34.5 74.5t-88.5 29.5 q-55 0 -89 -28.5t-34 -75.5zM287 1534q0 -41 30.5 -67.5t77.5 -26.5t77 26.5t30 67.5q0 43 -30 68.5t-77 25.5q-49 0 -78.5 -25.5t-29.5 -68.5z" />
<glyph unicode="&#x2079;" d="M61 1491q0 131 93.5 215t240.5 84t240.5 -87t93.5 -224q0 -133 -86 -280.5t-233 -266.5l-256 6q90 66 172 150t131 161q-43 -29 -119 -28q-119 0 -198 76.5t-79 193.5zM262 1499q0 -55 38 -91t95 -36q59 0 96 36t37 91t-36.5 89t-96.5 34q-57 0 -95 -35t-38 -88z" />
<glyph unicode="&#x2080;" d="M33 162q0 203 98 320.5t266 117.5t265.5 -117.5t97.5 -320.5t-97.5 -320.5t-265.5 -117.5t-266 117.5t-98 320.5zM252 162q0 -125 36.5 -189.5t108.5 -64.5q70 0 106 64.5t36 189.5t-36 189.5t-106 64.5q-72 0 -108.5 -64.5t-36.5 -189.5z" />
<glyph unicode="&#x2081;" d="M106 455l273 125h192v-836h-217v616l-217 -98z" />
<glyph unicode="&#x2082;" d="M84 -80q125 92 235 193q76 70 108 119t32 98q0 41 -33 66.5t-86 25.5q-113 0 -215 -100l-37 170q45 49 124 78.5t165 29.5q133 0 214 -67.5t81 -180.5q0 -166 -207 -348q-37 -33 -59.5 -50t-36.5 -30h331v-180h-616v176z" />
<glyph unicode="&#x2083;" d="M82 -221l18 182q45 -27 104.5 -41t121.5 -14q74 0 114.5 27.5t40.5 76.5q0 47 -39 74t-106 27q-43 0 -84 -13l-45 107l213 201h-318v174h560v-162l-187 -170q100 -14 158.5 -80t58.5 -164q0 -127 -97 -203.5t-261 -76.5q-76 0 -142.5 14t-109.5 41z" />
<glyph unicode="&#x2084;" d="M45 82l371 498h219v-502h98v-164h-98v-170h-195v170h-395v168zM240 78h200v266z" />
<glyph unicode="&#x2085;" d="M96 -219l19 182q72 -57 217 -57q78 0 121 26.5t43 77.5q0 100 -162 101q-119 0 -203 -21l19 490h505v-174h-327l-6 -123q23 2 39 3t26 1q154 0 238 -73t84 -204q0 -133 -95.5 -209.5t-263.5 -76.5q-76 0 -148.5 16t-105.5 41z" />
<glyph unicode="&#x2086;" d="M61 35q0 133 86 280.5t234 266.5l256 -7q-88 -63 -170 -147t-133 -166q43 31 119 31q119 0 197.5 -78t78.5 -192q0 -131 -93.5 -215t-240.5 -84t-240.5 87t-93.5 224zM262 14q0 -55 37 -89t96 -34q57 0 94 35t37 88q0 55 -36.5 91t-94.5 36q-59 0 -96 -35.5t-37 -91.5z " />
<glyph unicode="&#x2087;" d="M88 389v191h617v-172l-322 -666l-231 6l321 641h-385z" />
<glyph unicode="&#x2088;" d="M57 -18q0 66 33 120t90 80q-98 55 -98 178q0 106 87 173t226 67t225.5 -66.5t86.5 -173.5q0 -123 -99 -178q59 -29 92 -82t33 -118q0 -121 -90 -189.5t-248 -68.5t-248 68.5t-90 189.5zM272 -6q0 -47 34 -77t89 -30q53 0 88 30t35 77q0 45 -34.5 74.5t-88.5 29.5 q-55 0 -89 -28.5t-34 -75.5zM287 344q0 -41 30.5 -67.5t77.5 -26.5t77 26.5t30 67.5q0 43 -30 68.5t-77 25.5q-49 0 -78.5 -25.5t-29.5 -68.5z" />
<glyph unicode="&#x2089;" d="M61 301q0 131 93.5 215t240.5 84t240.5 -87t93.5 -224q0 -133 -86 -280.5t-233 -266.5l-256 6q90 66 172 150t131 161q-43 -29 -119 -28q-119 0 -198 76.5t-79 193.5zM262 309q0 -55 38 -91t95 -36q59 0 96 36t37 91t-36.5 89t-96.5 34q-57 0 -95 -35t-38 -88z" />
<glyph unicode="&#x20ac;" horiz-adv-x="1269" d="M59 496v184h193q-2 8 -2 72q0 76 2 92h-193v184h220q57 248 225 388t409 140q199 0 344 -75l-40 -230q-125 66 -287 66q-133 0 -227.5 -75t-137.5 -214h506v-184h-536q-2 -14 -3 -86q0 -63 3 -78h536v-184h-504q43 -141 140.5 -215t242.5 -74q72 0 149 18.5t140 48.5 l33 -229q-152 -78 -357 -78q-260 0 -424.5 136.5t-218.5 392.5h-213z" />
<glyph unicode="&#x20ba;" horiz-adv-x="1269" d="M55 453v186l178 78v164l-178 -78v186l178 78v457h277v-332l362 160v-187l-362 -159v-164l362 159v-186l-362 -160v-432q186 0 302 121t140 338l254 -14q-14 -229 -105 -385t-257 -236t-402 -80q-123 0 -209 19v544z" />
<glyph unicode="&#x2122;" horiz-adv-x="1751" d="M23 1384v172h645v-172h-217v-585h-211v585h-217zM768 799l47 757h215l189 -407l192 407h213l47 -757h-194l-25 469l-158 -340h-151l-160 336l-20 -465h-195z" />
<glyph unicode="&#x2126;" horiz-adv-x="1898" d="M150 852q0 203 100 370t283.5 267t416.5 100q223 0 404.5 -91t288 -260t106.5 -386q0 -190 -73.5 -342t-217.5 -252h287v-258h-666v246q160 84 248 233.5t88 337.5q0 143 -56 255t-161.5 175.5t-247.5 63.5q-135 0 -240.5 -59.5t-166 -172t-60.5 -262.5q0 -186 88 -335.5 t248 -235.5v-246h-663v258h284q-141 98 -215.5 251t-74.5 343z" />
<glyph unicode="&#x2150;" horiz-adv-x="1918" d="M106 1399l273 125h192v-836h-217v616l-217 -98zM223 0l1086 1524h252l-1086 -1524h-252zM1216 645v191h617v-172l-322 -666l-231 6l321 641h-385z" />
<glyph unicode="&#x2151;" horiz-adv-x="1918" d="M106 1399l273 125h192v-836h-217v616l-217 -98zM272 0l1086 1524h252l-1086 -1524h-252zM1189 557q0 131 93.5 215t240.5 84t240.5 -87t93.5 -224q0 -133 -86 -280.5t-233 -266.5l-256 6q90 66 172 150t131 161q-43 -29 -119 -28q-119 0 -198 76.5t-79 193.5zM1390 565 q0 -55 38 -91t95 -36q59 0 96 36t37 91t-36.5 89t-96.5 34q-57 0 -95 -35t-38 -88z" />
<glyph unicode="&#x2153;" horiz-adv-x="1918" d="M106 1399l273 125h192v-836h-217v616l-217 -98zM241 0l1086 1524h252l-1086 -1524h-252zM1210 35l18 182q45 -27 104.5 -41t121.5 -14q74 0 114.5 27.5t40.5 76.5q0 47 -39 74t-106 27q-43 0 -84 -13l-45 107l213 201h-318v174h560v-162l-187 -170q100 -14 158.5 -80 t58.5 -164q0 -127 -97 -203.5t-261 -76.5q-76 0 -142.5 14t-109.5 41z" />
<glyph unicode="&#x2154;" horiz-adv-x="1918" d="M84 688v176q125 92 235 193q76 70 108 119t32 98q0 41 -33 66.5t-86 25.5q-113 0 -215 -100l-37 170q45 49 124 78.5t165 29.5q133 0 214 -67.5t81 -180.5q0 -166 -207 -348q-37 -33 -59.5 -50t-36.5 -30h331v-180h-616zM297 0l1086 1524h252l-1086 -1524h-252zM1210 35 l18 182q45 -27 104.5 -41t121.5 -14q74 0 114.5 27.5t40.5 76.5q0 47 -39 74t-106 27q-43 0 -84 -13l-45 107l213 201h-318v174h560v-162l-187 -170q100 -14 158.5 -80t58.5 -164q0 -127 -97 -203.5t-261 -76.5q-76 0 -142.5 14t-109.5 41z" />
<glyph unicode="&#x2155;" horiz-adv-x="1918" d="M106 1399l273 125h192v-836h-217v616l-217 -98zM268 0l1086 1524h252l-1086 -1524h-252zM1224 37l19 182q72 -57 217 -57q78 0 121 26.5t43 77.5q0 100 -162 101q-119 0 -203 -21l19 490h505v-174h-327l-6 -123q23 2 39 3t26 1q154 0 238 -73t84 -204 q0 -133 -95.5 -209.5t-263.5 -76.5q-76 0 -148.5 16t-105.5 41z" />
<glyph unicode="&#x2156;" horiz-adv-x="1918" d="M84 688v176q125 92 235 193q76 70 108 119t32 98q0 41 -33 66.5t-86 25.5q-113 0 -215 -100l-37 170q45 49 124 78.5t165 29.5q133 0 214 -67.5t81 -180.5q0 -166 -207 -348q-37 -33 -59.5 -50t-36.5 -30h331v-180h-616zM317 0l1086 1524h252l-1086 -1524h-252zM1224 37 l19 182q72 -57 217 -57q78 0 121 26.5t43 77.5q0 100 -162 101q-119 0 -203 -21l19 490h505v-174h-327l-6 -123q23 2 39 3t26 1q154 0 238 -73t84 -204q0 -133 -95.5 -209.5t-263.5 -76.5q-76 0 -148.5 16t-105.5 41z" />
<glyph unicode="&#x2157;" horiz-adv-x="1918" d="M82 723l18 182q45 -27 104.5 -41t121.5 -14q74 0 114.5 27.5t40.5 76.5q0 47 -39 74t-106 27q-43 0 -84 -13l-45 107l213 201h-318v174h560v-162l-187 -170q100 -14 158.5 -80t58.5 -164q0 -127 -97 -203.5t-261 -76.5q-76 0 -142.5 14t-109.5 41zM264 0l1086 1524h252 l-1086 -1524h-252zM1224 37l19 182q72 -57 217 -57q78 0 121 26.5t43 77.5q0 100 -162 101q-119 0 -203 -21l19 490h505v-174h-327l-6 -123q23 2 39 3t26 1q154 0 238 -73t84 -204q0 -133 -95.5 -209.5t-263.5 -76.5q-76 0 -148.5 16t-105.5 41z" />
<glyph unicode="&#x2158;" horiz-adv-x="1918" d="M45 858v168l371 498h219v-502h98v-164h-98v-170h-195v170h-395zM240 1022h200v266zM288 0l1086 1524h252l-1086 -1524h-252zM1224 37l19 182q72 -57 217 -57q78 0 121 26.5t43 77.5q0 100 -162 101q-119 0 -203 -21l19 490h505v-174h-327l-6 -123q23 2 39 3t26 1 q154 0 238 -73t84 -204q0 -133 -95.5 -209.5t-263.5 -76.5q-76 0 -148.5 16t-105.5 41z" />
<glyph unicode="&#x2159;" horiz-adv-x="1918" d="M106 1399l273 125h192v-836h-217v616l-217 -98zM319 0l1086 1524h252l-1086 -1524h-252zM1189 291q0 133 86 280.5t234 266.5l256 -7q-88 -63 -170 -147t-133 -166q43 31 119 31q119 0 197.5 -78t78.5 -192q0 -131 -93.5 -215t-240.5 -84t-240.5 87t-93.5 224zM1390 270 q0 -55 37 -89t96 -34q57 0 94 35t37 88q0 55 -36.5 91t-94.5 36q-59 0 -96 -35.5t-37 -91.5z" />
<glyph unicode="&#x215a;" horiz-adv-x="1918" d="M96 725l19 182q72 -57 217 -57q78 0 121 26.5t43 77.5q0 100 -162 101q-119 0 -203 -21l19 490h505v-174h-327l-6 -123q23 2 39 3t26 1q154 0 238 -73t84 -204q0 -133 -95.5 -209.5t-263.5 -76.5q-76 0 -148.5 16t-105.5 41zM336 0l1086 1524h252l-1086 -1524h-252z M1189 291q0 133 86 280.5t234 266.5l256 -7q-88 -63 -170 -147t-133 -166q43 31 119 31q119 0 197.5 -78t78.5 -192q0 -131 -93.5 -215t-240.5 -84t-240.5 87t-93.5 224zM1390 270q0 -55 37 -89t96 -34q57 0 94 35t37 88q0 55 -36.5 91t-94.5 36q-59 0 -96 -35.5t-37 -91.5z " />
<glyph unicode="&#x215b;" horiz-adv-x="1918" d="M106 1399l273 125h192v-836h-217v616l-217 -98zM260 0l1086 1524h252l-1086 -1524h-252zM1185 238q0 66 33 120t90 80q-98 55 -98 178q0 106 87 173t226 67t225.5 -66.5t86.5 -173.5q0 -123 -99 -178q59 -29 92 -82t33 -118q0 -121 -90 -189.5t-248 -68.5t-248 68.5 t-90 189.5zM1400 250q0 -47 34 -77t89 -30q53 0 88 30t35 77q0 45 -34.5 74.5t-88.5 29.5q-55 0 -89 -28.5t-34 -75.5zM1415 600q0 -41 30.5 -67.5t77.5 -26.5t77 26.5t30 67.5q0 43 -30 68.5t-77 25.5q-49 0 -78.5 -25.5t-29.5 -68.5z" />
<glyph unicode="&#x215c;" horiz-adv-x="1918" d="M82 723l18 182q45 -27 104.5 -41t121.5 -14q74 0 114.5 27.5t40.5 76.5q0 47 -39 74t-106 27q-43 0 -84 -13l-45 107l213 201h-318v174h560v-162l-187 -170q100 -14 158.5 -80t58.5 -164q0 -127 -97 -203.5t-261 -76.5q-76 0 -142.5 14t-109.5 41zM266 0l1086 1524h252 l-1086 -1524h-252zM1185 238q0 66 33 120t90 80q-98 55 -98 178q0 106 87 173t226 67t225.5 -66.5t86.5 -173.5q0 -123 -99 -178q59 -29 92 -82t33 -118q0 -121 -90 -189.5t-248 -68.5t-248 68.5t-90 189.5zM1400 250q0 -47 34 -77t89 -30q53 0 88 30t35 77q0 45 -34.5 74.5 t-88.5 29.5q-55 0 -89 -28.5t-34 -75.5zM1415 600q0 -41 30.5 -67.5t77.5 -26.5t77 26.5t30 67.5q0 43 -30 68.5t-77 25.5q-49 0 -78.5 -25.5t-29.5 -68.5z" />
<glyph unicode="&#x215d;" horiz-adv-x="1918" d="M96 725l19 182q72 -57 217 -57q78 0 121 26.5t43 77.5q0 100 -162 101q-119 0 -203 -21l19 490h505v-174h-327l-6 -123q23 2 39 3t26 1q154 0 238 -73t84 -204q0 -133 -95.5 -209.5t-263.5 -76.5q-76 0 -148.5 16t-105.5 41zM280 0l1086 1524h252l-1086 -1524h-252z M1185 238q0 66 33 120t90 80q-98 55 -98 178q0 106 87 173t226 67t225.5 -66.5t86.5 -173.5q0 -123 -99 -178q59 -29 92 -82t33 -118q0 -121 -90 -189.5t-248 -68.5t-248 68.5t-90 189.5zM1400 250q0 -47 34 -77t89 -30q53 0 88 30t35 77q0 45 -34.5 74.5t-88.5 29.5 q-55 0 -89 -28.5t-34 -75.5zM1415 600q0 -41 30.5 -67.5t77.5 -26.5t77 26.5t30 67.5q0 43 -30 68.5t-77 25.5q-49 0 -78.5 -25.5t-29.5 -68.5z" />
<glyph unicode="&#x215e;" horiz-adv-x="1918" d="M88 1333v191h617v-172l-322 -666l-231 6l321 641h-385zM184 0l1086 1524h252l-1086 -1524h-252zM1185 238q0 66 33 120t90 80q-98 55 -98 178q0 106 87 173t226 67t225.5 -66.5t86.5 -173.5q0 -123 -99 -178q59 -29 92 -82t33 -118q0 -121 -90 -189.5t-248 -68.5 t-248 68.5t-90 189.5zM1400 250q0 -47 34 -77t89 -30q53 0 88 30t35 77q0 45 -34.5 74.5t-88.5 29.5q-55 0 -89 -28.5t-34 -75.5zM1415 600q0 -41 30.5 -67.5t77.5 -26.5t77 26.5t30 67.5q0 43 -30 68.5t-77 25.5q-49 0 -78.5 -25.5t-29.5 -68.5z" />
<glyph unicode="&#x2202;" horiz-adv-x="1269" d="M45 426q0 141 64.5 261t182.5 193.5t265 73.5q117 0 203 -40t131 -111q2 23 2 76q0 211 -86 320.5t-248 109.5q-86 0 -170 -32t-143 -87l-33 237q66 59 169 94t218 35q276 0 429 -183t153 -515q0 -262 -79 -463.5t-226.5 -314.5t-346.5 -113q-141 0 -250.5 55.5t-172 160 t-62.5 243.5zM326 440q0 -104 61 -165.5t170 -61.5q115 0 198 83t83 200q0 102 -64.5 162.5t-171.5 60.5q-119 0 -197.5 -80t-78.5 -199z" />
<glyph unicode="&#x2206;" horiz-adv-x="1662" d="M47 0l621 1556h327l621 -1556h-1569zM442 242h756l-377 1034z" />
<glyph unicode="&#x220f;" horiz-adv-x="1548" d="M186 -164v1720h1176v-1720h-311v1462h-553v-1462h-312z" />
<glyph unicode="&#x2211;" horiz-adv-x="1265" d="M72 55l442 658l-422 626v217h1069v-256h-694l385 -575l-424 -631h743v-256h-1099v217z" />
<glyph unicode="&#x2212;" horiz-adv-x="1269" d="M156 565v242h960v-242h-960z" />
<glyph unicode="&#x2215;" horiz-adv-x="337" d="M-500 0l1086 1524h252l-1086 -1524h-252z" />
<glyph unicode="&#x2219;" horiz-adv-x="612" d="M131 776q0 74 50 120t126 46t125 -47.5t49 -118.5q0 -74 -49 -122t-125 -48q-78 0 -127 48t-49 122z" />
<glyph unicode="&#x221a;" horiz-adv-x="1474" d="M68 721v233h456l234 -637l516 1366h278l-665 -1683h-277l-301 721h-241z" />
<glyph unicode="&#x221e;" horiz-adv-x="1490" d="M66 711q0 174 99 279.5t263 105.5q100 0 182 -45t135 -127q51 84 133.5 128t182.5 44q164 0 263 -105.5t99 -279.5t-99 -278.5t-263 -104.5q-102 0 -184 43t-132 125q-53 -82 -135 -125t-182 -43q-164 0 -263 104.5t-99 278.5zM299 711q0 -76 38.5 -119t108.5 -43 q59 0 107.5 42t77.5 118q-31 80 -79 121.5t-106 41.5q-70 0 -108.5 -43t-38.5 -118zM858 711q31 -78 79 -120t107 -42q70 0 109 43t39 119t-39 118.5t-109 42.5q-119 0 -186 -161z" />
<glyph unicode="&#x222b;" horiz-adv-x="905" d="M-55 -475l26 233q27 -14 72 -23t82 -9q88 0 128 55t40 178q0 66 -2 88l-68 1071q-2 25 -2 101q0 223 104.5 342.5t299.5 119.5q59 0 122.5 -12t98.5 -33l-27 -233q-29 14 -74 23.5t-79 9.5q-88 0 -128 -56.5t-40 -177.5q0 -61 2 -88l67 -1071q2 -18 2 -100 q0 -225 -103 -344t-300 -119q-59 0 -121.5 12t-99.5 33z" />
<glyph unicode="&#x2248;" horiz-adv-x="1269" d="M90 211v31q0 199 83 307.5t235 108.5q137 0 254 -93q84 -66 114.5 -83t59.5 -17q109 0 108 191h236v-31q0 -199 -83 -307.5t-235 -108.5q-137 0 -254 92q-84 66 -114.5 83.5t-59.5 17.5q-109 0 -108 -191h-236zM90 760v31q0 199 83 307.5t235 108.5q137 0 254 -93 q84 -66 114.5 -83t59.5 -17q109 0 108 191h236v-31q0 -199 -83 -307.5t-235 -108.5q-137 0 -254 92q-84 66 -114.5 83.5t-59.5 17.5q-109 0 -108 -191h-236z" />
<glyph unicode="&#x2260;" horiz-adv-x="1269" d="M193 322v233h284l119 252h-403v233h512l110 234h195l-111 -234h180v-233h-286l-121 -252h407v-233h-516l-108 -234h-195l109 234h-176z" />
<glyph unicode="&#x2264;" horiz-adv-x="1269" d="M156 2v242h960v-242h-960zM174 696v262l922 375v-262l-617 -240l617 -241v-267z" />
<glyph unicode="&#x2265;" horiz-adv-x="1269" d="M156 2v242h960v-242h-960zM174 323v263l617 239l-617 242v266l922 -373v-262z" />
<glyph unicode="&#x25ca;" horiz-adv-x="1368" d="M88 829l473 832h248l471 -832l-471 -829h-248zM383 829l299 -544l303 544l-303 549z" />
<glyph unicode="&#x25fc;" horiz-adv-x="1044" d="M0 0v1044h1044v-1044h-1044z" />
<glyph unicode="&#xf507;" horiz-adv-x="1918" d="M84 688v176q125 92 235 193q76 70 108 119t32 98q0 41 -33 66.5t-86 25.5q-113 0 -215 -100l-37 170q45 49 124 78.5t165 29.5q133 0 214 -67.5t81 -180.5q0 -166 -207 -348q-37 -33 -59.5 -50t-36.5 -30h331v-180h-616zM286 0l1086 1524h252l-1086 -1524h-252zM1216 645 v191h617v-172l-322 -666l-231 6l321 641h-385z" />
<glyph unicode="&#xf508;" horiz-adv-x="1918" d="M82 723l18 182q45 -27 104.5 -41t121.5 -14q74 0 114.5 27.5t40.5 76.5q0 47 -39 74t-106 27q-43 0 -84 -13l-45 107l213 201h-318v174h560v-162l-187 -170q100 -14 158.5 -80t58.5 -164q0 -127 -97 -203.5t-261 -76.5q-76 0 -142.5 14t-109.5 41zM235 0l1086 1524h252 l-1086 -1524h-252zM1216 645v191h617v-172l-322 -666l-231 6l321 641h-385z" />
<glyph unicode="&#xf509;" horiz-adv-x="1918" d="M45 858v168l371 498h219v-502h98v-164h-98v-170h-195v170h-395zM240 1022h200v266zM256 0l1086 1524h252l-1086 -1524h-252zM1216 645v191h617v-172l-322 -666l-231 6l321 641h-385z" />
<glyph unicode="&#xf50a;" horiz-adv-x="1918" d="M96 725l19 182q72 -57 217 -57q78 0 121 26.5t43 77.5q0 100 -162 101q-119 0 -203 -21l19 490h505v-174h-327l-6 -123q23 2 39 3t26 1q154 0 238 -73t84 -204q0 -133 -95.5 -209.5t-263.5 -76.5q-76 0 -148.5 16t-105.5 41zM250 0l1086 1524h252l-1086 -1524h-252z M1216 645v191h617v-172l-322 -666l-231 6l321 641h-385z" />
<glyph unicode="&#xf50b;" horiz-adv-x="1918" d="M61 979q0 133 86 280.5t234 266.5l256 -7q-88 -63 -170 -147t-133 -166q43 31 119 31q119 0 197.5 -78t78.5 -192q0 -131 -93.5 -215t-240.5 -84t-240.5 87t-93.5 224zM241 0l1086 1524h252l-1086 -1524h-252zM262 958q0 -55 37 -89t96 -34q57 0 94 35t37 88 q0 55 -36.5 91t-94.5 36q-59 0 -96 -35.5t-37 -91.5zM1216 645v191h617v-172l-322 -666l-231 6l321 641h-385z" />
<glyph unicode="&#xf50d;" horiz-adv-x="1918" d="M84 688v176q125 92 235 193q76 70 108 119t32 98q0 41 -33 66.5t-86 25.5q-113 0 -215 -100l-37 170q45 49 124 78.5t165 29.5q133 0 214 -67.5t81 -180.5q0 -166 -207 -348q-37 -33 -59.5 -50t-36.5 -30h331v-180h-616zM317 0l1086 1524h252l-1086 -1524h-252zM1189 557 q0 131 93.5 215t240.5 84t240.5 -87t93.5 -224q0 -133 -86 -280.5t-233 -266.5l-256 6q90 66 172 150t131 161q-43 -29 -119 -28q-119 0 -198 76.5t-79 193.5zM1390 565q0 -55 38 -91t95 -36q59 0 96 36t37 91t-36.5 89t-96.5 34q-57 0 -95 -35t-38 -88z" />
<glyph unicode="&#xf50e;" horiz-adv-x="1918" d="M45 858v168l371 498h219v-502h98v-164h-98v-170h-195v170h-395zM240 1022h200v266zM307 0l1086 1524h252l-1086 -1524h-252zM1189 557q0 131 93.5 215t240.5 84t240.5 -87t93.5 -224q0 -133 -86 -280.5t-233 -266.5l-256 6q90 66 172 150t131 161q-43 -29 -119 -28 q-119 0 -198 76.5t-79 193.5zM1390 565q0 -55 38 -91t95 -36q59 0 96 36t37 91t-36.5 89t-96.5 34q-57 0 -95 -35t-38 -88z" />
<glyph unicode="&#xf50f;" horiz-adv-x="1918" d="M96 725l19 182q72 -57 217 -57q78 0 121 26.5t43 77.5q0 100 -162 101q-119 0 -203 -21l19 490h505v-174h-327l-6 -123q23 2 39 3t26 1q154 0 238 -73t84 -204q0 -133 -95.5 -209.5t-263.5 -76.5q-76 0 -148.5 16t-105.5 41zM280 0l1086 1524h252l-1086 -1524h-252z M1189 557q0 131 93.5 215t240.5 84t240.5 -87t93.5 -224q0 -133 -86 -280.5t-233 -266.5l-256 6q90 66 172 150t131 161q-43 -29 -119 -28q-119 0 -198 76.5t-79 193.5zM1390 565q0 -55 38 -91t95 -36q59 0 96 36t37 91t-36.5 89t-96.5 34q-57 0 -95 -35t-38 -88z" />
<glyph unicode="&#xf510;" horiz-adv-x="1918" d="M88 1333v191h617v-172l-322 -666l-231 6l321 641h-385zM184 0l1086 1524h252l-1086 -1524h-252zM1189 557q0 131 93.5 215t240.5 84t240.5 -87t93.5 -224q0 -133 -86 -280.5t-233 -266.5l-256 6q90 66 172 150t131 161q-43 -29 -119 -28q-119 0 -198 76.5t-79 193.5z M1390 565q0 -55 38 -91t95 -36q59 0 96 36t37 91t-36.5 89t-96.5 34q-57 0 -95 -35t-38 -88z" />
<glyph unicode="&#xf511;" horiz-adv-x="1918" d="M57 926q0 66 33 120t90 80q-98 55 -98 178q0 106 87 173t226 67t225.5 -66.5t86.5 -173.5q0 -123 -99 -178q59 -29 92 -82t33 -118q0 -121 -90 -189.5t-248 -68.5t-248 68.5t-90 189.5zM272 938q0 -47 34 -77t89 -30q53 0 88 30t35 77q0 45 -34.5 74.5t-88.5 29.5 q-55 0 -89 -28.5t-34 -75.5zM287 1288q0 -41 30.5 -67.5t77.5 -26.5t77 26.5t30 67.5q0 43 -30 68.5t-77 25.5q-49 0 -78.5 -25.5t-29.5 -68.5zM299 0l1086 1524h252l-1086 -1524h-252zM1189 557q0 131 93.5 215t240.5 84t240.5 -87t93.5 -224q0 -133 -86 -280.5 t-233 -266.5l-256 6q90 66 172 150t131 161q-43 -29 -119 -28q-119 0 -198 76.5t-79 193.5zM1390 565q0 -55 38 -91t95 -36q59 0 96 36t37 91t-36.5 89t-96.5 34q-57 0 -95 -35t-38 -88z" />
<glyph unicode="&#xfb01;" horiz-adv-x="1447" d="M53 807v235h189v129q0 240 111.5 369t320.5 129q109 0 200 -33l-18 -239q-55 25 -129 24q-106 0 -153.5 -64.5t-47.5 -207.5v-107h281v-235h-281v-807h-284v807h-189zM983 1421q0 70 48 117t122 47t122 -47t48 -117q0 -72 -48 -119t-122 -47t-122 48.5t-48 117.5zM1012 0 v1042h284v-1042h-284z" />
<glyph unicode="&#xfb02;" horiz-adv-x="1447" d="M53 807v235h189v129q0 240 111.5 369t320.5 129q109 0 200 -33l-18 -239q-55 25 -129 24q-106 0 -153.5 -64.5t-47.5 -207.5v-107h281v-235h-281v-807h-284v807h-189zM1012 0v1659h284v-1659h-284z" />
<glyph unicode="&#xfeff;" horiz-adv-x="0" />
<glyph horiz-adv-x="1320" d="M80 762q0 375 153.5 584.5t425.5 209.5t427 -210.5t155 -583.5t-155 -584t-427 -211t-425.5 210t-153.5 585zM391 762q0 -535 268 -535q133 0 202 135.5t69 399.5t-68.5 399t-202.5 135q-268 0 -268 -534z" />
<glyph horiz-adv-x="1044" d="M75 1303l502 221h230v-1524h-289v1227l-395 -176z" />
<glyph horiz-adv-x="1269" d="M125 0v225q248 223 395 393t202.5 271.5t55.5 200.5q0 100 -61.5 158.5t-163.5 58.5q-98 0 -192.5 -46.5t-172.5 -130.5l-51 248q84 84 207 131t256 47q219 0 349 -116.5t130 -313.5q0 -147 -74.5 -297.5t-238.5 -334.5q-70 -78 -236 -236h594v-258h-999z" />
<glyph horiz-adv-x="1228" d="M92 68l25 245q178 -100 382 -100q141 0 220 65.5t79 180.5q0 113 -75.5 176t-212.5 63q-55 0 -137 -16l-72 164l397 426h-579v252h929v-217l-379 -408q131 -10 227.5 -66.5t148.5 -151.5t52 -222q0 -227 -156.5 -359.5t-426.5 -132.5q-127 0 -237.5 26.5t-184.5 74.5z " />
<glyph horiz-adv-x="1316" d="M75 342v233l666 949h297v-944h186v-238h-186v-342h-277v342h-686zM352 580h409v581z" />
<glyph horiz-adv-x="1241" d="M109 61l24 250q82 -47 182.5 -72.5t194.5 -25.5q150 0 235 69.5t85 194.5q0 115 -95.5 184.5t-252.5 69.5q-63 0 -149.5 -11t-160.5 -28l33 832h825v-254h-573l-12 -318q68 12 133 13q252 0 400.5 -131.5t148.5 -350.5q0 -236 -160 -376t-430 -140q-119 0 -239 26.5 t-189 67.5z" />
<glyph horiz-adv-x="1288" d="M106 504q0 248 155 526.5t413 497.5l352 -10q-387 -317 -543 -637q90 72 246 71q127 0 233.5 -59t170 -168t63.5 -248q0 -143 -66.5 -259t-190.5 -183.5t-288 -67.5q-250 0 -397.5 145.5t-147.5 391.5zM393 467q0 -113 72.5 -186.5t185.5 -73.5q111 0 183.5 72.5 t72.5 187.5q0 117 -70.5 189.5t-185.5 72.5q-111 0 -184.5 -73.5t-73.5 -188.5z" />
<glyph horiz-adv-x="1204" d="M96 1253v271h1024v-242l-561 -1286l-305 10l552 1247h-710z" />
<glyph horiz-adv-x="1302" d="M94 416q0 131 66.5 233.5t179.5 147.5q-100 47 -153.5 136t-53.5 206q0 121 63.5 215t181 148t273.5 54q147 0 265 -51t185.5 -146t67.5 -220q0 -117 -54.5 -206t-154.5 -136q115 -45 181.5 -146.5t66.5 -234.5t-66.5 -234.5t-193.5 -158t-297 -56.5q-164 0 -290 54.5 t-196.5 156t-70.5 238.5zM389 438q0 -106 70.5 -168.5t191.5 -62.5t191.5 62.5t70.5 168.5t-71.5 170t-190.5 64t-190.5 -63.5t-71.5 -170.5zM411 1114q0 -96 64.5 -153.5t175.5 -57.5t175 57.5t64 153.5t-65.5 154.5t-173.5 58.5q-109 0 -174.5 -58.5t-65.5 -154.5z" />
<glyph horiz-adv-x="1288" d="M92 1047q0 143 66.5 258.5t190.5 183t288 67.5q250 0 397 -145t147 -391q0 -248 -154.5 -526.5t-412.5 -497.5l-352 10q389 322 541 635q-90 -70 -244 -70q-127 0 -233.5 59.5t-170 168t-63.5 248.5zM381 1057q0 -117 70.5 -189.5t185.5 -72.5q111 0 184.5 73.5 t73.5 188.5q0 113 -73 186.5t-185 73.5q-111 0 -183.5 -73t-72.5 -187z" />
<glyph d="M33 418q0 203 98 320.5t266 117.5t265.5 -117.5t97.5 -320.5t-97.5 -320.5t-265.5 -117.5t-266 117.5t-98 320.5zM252 418q0 -125 36.5 -189.5t108.5 -64.5q70 0 106 64.5t36 189.5t-36 189.5t-106 64.5q-72 0 -108.5 -64.5t-36.5 -189.5z" />
<glyph d="M106 711l273 125h192v-836h-217v616l-217 -98z" />
<glyph d="M84 0v176q125 92 235 193q76 70 108 119t32 98q0 41 -33 66.5t-86 25.5q-113 0 -215 -100l-37 170q45 49 124 78.5t165 29.5q133 0 214 -67.5t81 -180.5q0 -166 -207 -348q-37 -33 -59.5 -50t-36.5 -30h331v-180h-616z" />
<glyph d="M82 35l18 182q45 -27 104.5 -41t121.5 -14q74 0 114.5 27.5t40.5 76.5q0 47 -39 74t-106 27q-43 0 -84 -13l-45 107l213 201h-318v174h560v-162l-187 -170q100 -14 158.5 -80t58.5 -164q0 -127 -97 -203.5t-261 -76.5q-76 0 -142.5 14t-109.5 41z" />
<glyph d="M45 170v168l371 498h219v-502h98v-164h-98v-170h-195v170h-395zM240 334h200v266z" />
<glyph d="M96 37l19 182q72 -57 217 -57q78 0 121 26.5t43 77.5q0 100 -162 101q-119 0 -203 -21l19 490h505v-174h-327l-6 -123q23 2 39 3t26 1q154 0 238 -73t84 -204q0 -133 -95.5 -209.5t-263.5 -76.5q-76 0 -148.5 16t-105.5 41z" />
<glyph d="M61 291q0 133 86 280.5t234 266.5l256 -7q-88 -63 -170 -147t-133 -166q43 31 119 31q119 0 197.5 -78t78.5 -192q0 -131 -93.5 -215t-240.5 -84t-240.5 87t-93.5 224zM262 270q0 -55 37 -89t96 -34q57 0 94 35t37 88q0 55 -36.5 91t-94.5 36q-59 0 -96 -35.5t-37 -91.5z " />
<glyph d="M88 645v191h617v-172l-322 -666l-231 6l321 641h-385z" />
<glyph d="M57 238q0 66 33 120t90 80q-98 55 -98 178q0 106 87 173t226 67t225.5 -66.5t86.5 -173.5q0 -123 -99 -178q59 -29 92 -82t33 -118q0 -121 -90 -189.5t-248 -68.5t-248 68.5t-90 189.5zM272 250q0 -47 34 -77t89 -30q53 0 88 30t35 77q0 45 -34.5 74.5t-88.5 29.5 q-55 0 -89 -28.5t-34 -75.5zM287 600q0 -41 30.5 -67.5t77.5 -26.5t77 26.5t30 67.5q0 43 -30 68.5t-77 25.5q-49 0 -78.5 -25.5t-29.5 -68.5z" />
<glyph d="M61 557q0 131 93.5 215t240.5 84t240.5 -87t93.5 -224q0 -133 -86 -280.5t-233 -266.5l-256 6q90 66 172 150t131 161q-43 -29 -119 -28q-119 0 -198 76.5t-79 193.5zM262 565q0 -55 38 -91t95 -36q59 0 96 36t37 91t-36.5 89t-96.5 34q-57 0 -95 -35t-38 -88z" />
<glyph d="M33 1106q0 203 98 320.5t266 117.5t265.5 -117.5t97.5 -320.5t-97.5 -320.5t-265.5 -117.5t-266 117.5t-98 320.5zM252 1106q0 -125 36.5 -189.5t108.5 -64.5q70 0 106 64.5t36 189.5t-36 189.5t-106 64.5q-72 0 -108.5 -64.5t-36.5 -189.5z" />
<glyph d="M106 1399l273 125h192v-836h-217v616l-217 -98z" />
<glyph d="M84 688v176q125 92 235 193q76 70 108 119t32 98q0 41 -33 66.5t-86 25.5q-113 0 -215 -100l-37 170q45 49 124 78.5t165 29.5q133 0 214 -67.5t81 -180.5q0 -166 -207 -348q-37 -33 -59.5 -50t-36.5 -30h331v-180h-616z" />
<glyph d="M82 723l18 182q45 -27 104.5 -41t121.5 -14q74 0 114.5 27.5t40.5 76.5q0 47 -39 74t-106 27q-43 0 -84 -13l-45 107l213 201h-318v174h560v-162l-187 -170q100 -14 158.5 -80t58.5 -164q0 -127 -97 -203.5t-261 -76.5q-76 0 -142.5 14t-109.5 41z" />
<glyph d="M45 858v168l371 498h219v-502h98v-164h-98v-170h-195v170h-395zM240 1022h200v266z" />
<glyph d="M96 725l19 182q72 -57 217 -57q78 0 121 26.5t43 77.5q0 100 -162 101q-119 0 -203 -21l19 490h505v-174h-327l-6 -123q23 2 39 3t26 1q154 0 238 -73t84 -204q0 -133 -95.5 -209.5t-263.5 -76.5q-76 0 -148.5 16t-105.5 41z" />
<glyph d="M61 979q0 133 86 280.5t234 266.5l256 -7q-88 -63 -170 -147t-133 -166q43 31 119 31q119 0 197.5 -78t78.5 -192q0 -131 -93.5 -215t-240.5 -84t-240.5 87t-93.5 224zM262 958q0 -55 37 -89t96 -34q57 0 94 35t37 88q0 55 -36.5 91t-94.5 36q-59 0 -96 -35.5t-37 -91.5z " />
<glyph d="M88 1333v191h617v-172l-322 -666l-231 6l321 641h-385z" />
<glyph d="M57 926q0 66 33 120t90 80q-98 55 -98 178q0 106 87 173t226 67t225.5 -66.5t86.5 -173.5q0 -123 -99 -178q59 -29 92 -82t33 -118q0 -121 -90 -189.5t-248 -68.5t-248 68.5t-90 189.5zM272 938q0 -47 34 -77t89 -30q53 0 88 30t35 77q0 45 -34.5 74.5t-88.5 29.5 q-55 0 -89 -28.5t-34 -75.5zM287 1288q0 -41 30.5 -67.5t77.5 -26.5t77 26.5t30 67.5q0 43 -30 68.5t-77 25.5q-49 0 -78.5 -25.5t-29.5 -68.5z" />
<glyph d="M61 1245q0 131 93.5 215t240.5 84t240.5 -87t93.5 -224q0 -133 -86 -280.5t-233 -266.5l-256 6q90 66 172 150t131 161q-43 -29 -119 -28q-119 0 -198 76.5t-79 193.5zM262 1253q0 -55 38 -91t95 -36q59 0 96 36t37 91t-36.5 89t-96.5 34q-57 0 -95 -35t-38 -88z" />
<glyph horiz-adv-x="878" d="M125 653v248h629v-248h-629z" />
<glyph horiz-adv-x="1024" d="M0 667v221h1024v-221h-1024z" />
<glyph horiz-adv-x="2048" d="M0 667v221h2048v-221h-2048z" />
<glyph horiz-adv-x="874" d="M162 852q0 184 46 367.5t133 343.5t204 266h311q-205 -186 -315.5 -438t-110.5 -539t109.5 -538.5t316.5 -435.5h-311q-174 160 -278.5 426t-104.5 548z" />
<glyph horiz-adv-x="874" d="M18 -122q205 186 315.5 438t110.5 539t-109.5 538.5t-316.5 435.5h312q174 -160 278.5 -426t104.5 -548q0 -184 -46 -367.5t-133.5 -343.5t-203.5 -266h-312z" />
<glyph horiz-adv-x="1126" d="M23 -188l806 1931h273l-805 -1931h-274z" />
<glyph horiz-adv-x="1126" d="M23 1743h272l807 -1931h-275z" />
<glyph horiz-adv-x="868" d="M217 -125v1951h571v-233h-307v-1485h307v-233h-571z" />
<glyph horiz-adv-x="868" d="M80 108h307v1485h-307v233h571v-1951h-571v233z" />
<glyph horiz-adv-x="907" d="M94 727v236h53q100 0 139.5 34t39.5 124q0 68 -13.5 132t-27 127.5t-13.5 123.5q0 168 100.5 248.5t313.5 80.5q20 0 54 -1t75 -3v-229q-10 2 -94 2q-96 0 -140 -36t-44 -111q0 -47 13 -108.5t25.5 -128.5t12.5 -134q0 -84 -40 -147.5t-108 -92.5q70 -29 109 -91t39 -146 q0 -68 -12.5 -134.5t-25.5 -128t-13 -108.5q0 -76 44 -111.5t140 -35.5q82 0 94 2v-230q-41 -2 -75 -3t-54 -1q-213 0 -313.5 81t-100.5 249q0 59 13.5 122.5t27 128t13.5 132.5q0 90 -39 123.5t-140 33.5h-53z" />
<glyph horiz-adv-x="907" d="M92 91q10 -2 94 -2q96 0 140.5 35.5t44.5 111.5q0 47 -12.5 108.5t-26 128t-13.5 134.5q0 84 40 147.5t108 91.5q-70 27 -109 90.5t-39 147.5q0 68 13.5 134.5t26 127.5t12.5 109q0 76 -44 111.5t-141 35.5q-82 0 -94 -2v229q41 2 75 3t54 1q213 0 313.5 -80.5 t100.5 -248.5q0 -59 -13.5 -123t-26.5 -128.5t-13 -131.5q0 -90 38.5 -124t139.5 -34h53v-236h-53q-100 0 -139 -33.5t-39 -123.5q0 -68 13 -132.5t26.5 -128t13.5 -122.5q0 -168 -100.5 -249t-313.5 -81q-20 0 -54 1t-75 3v230z" />
<glyph horiz-adv-x="731" d="M98 670q0 72 34 132.5t95.5 97t137.5 36.5q113 0 190.5 -77.5t77.5 -188.5q0 -70 -34 -131t-96 -99t-138 -38q-111 0 -189 79t-78 189z" />
<glyph horiz-adv-x="743" d="M57 778l303 449h312l-314 -449l314 -448h-312z" />
<glyph horiz-adv-x="743" d="M72 330l313 448l-313 449h311l303 -449l-303 -448h-311z" />
<glyph horiz-adv-x="1236" d="M57 778l303 449h312l-314 -449l314 -448h-312zM551 778l303 449h312l-314 -449l314 -448h-312z" />
<glyph horiz-adv-x="1236" d="M72 330l313 448l-313 449h311l303 -449l-303 -448h-311zM566 330l313 448l-313 449h311l303 -449l-303 -448h-311z" />
<glyph horiz-adv-x="2099" d="M98 698q0 272 133.5 499.5t375 366t544.5 138.5q246 0 439.5 -95.5t305 -273.5t111.5 -414q0 -174 -61.5 -314t-177 -223t-263.5 -83q-102 0 -173.5 35.5t-102.5 101.5q-45 -63 -124 -99t-173 -36q-162 0 -261.5 113.5t-99.5 297.5q0 137 56.5 254t159 189t227.5 72 q88 0 159.5 -36t112.5 -102l25 107h227l-88 -527q-6 -37 -6 -69q0 -111 96 -111q66 0 121 53.5t90 149.5t35 215q0 274 -174 434t-473 160q-227 0 -413.5 -99.5t-296.5 -281.5t-110 -418q0 -199 85 -347t246 -231t384 -83q248 0 469 98l19 -203q-242 -98 -496 -98 q-268 0 -478 103.5t-330 299t-120 457.5zM817 735q0 -104 49.5 -160.5t141.5 -56.5q102 0 166.5 78t64.5 198q0 102 -49 157.5t-139 55.5q-102 0 -168 -75.5t-66 -196.5z" />
<glyph horiz-adv-x="612" d="M131 817q0 74 50 120t126 46t125 -47.5t49 -118.5q0 -74 -49 -122t-125 -48q-78 0 -127 48t-49 122z" />
<glyph horiz-adv-x="1171" d="M90 295q0 160 116 258t302 98q66 0 136.5 -13t123.5 -34q0 240 -266 240q-174 0 -326 -111l-22 230q68 51 174 81.5t213 30.5q240 0 367.5 -122t127.5 -351v-602h-256l-4 102q-110 -135 -317 -135q-170 0 -269.5 88t-99.5 240zM360 313q0 -68 43 -105.5t119 -37.5 q111 0 175.5 65.5t70.5 184.5q-96 39 -209 39q-94 0 -146.5 -38t-52.5 -108z" />
<glyph horiz-adv-x="1212" d="M53 -219q0 90 45 156.5t129 101.5q-53 25 -83.5 70t-30.5 102q0 129 149 211q-147 100 -147 285q0 166 127 267t333 101q131 0 232 -43l367 25v-213l-173 12q47 -76 48 -164q0 -102 -55.5 -183t-159 -127t-242.5 -46q-92 0 -152 14q-39 -20 -56 -41.5t-17 -50.5 q0 -37 41 -52.5t139 -15.5h82q252 0 373.5 -82.5t121.5 -257.5q0 -178 -147.5 -274t-417.5 -96q-240 0 -373 79t-133 222zM328 -172q0 -59 67.5 -92t192.5 -33t190.5 34t65.5 99q0 63 -55.5 91t-182.5 28h-47q-121 0 -176 -30.5t-55 -96.5zM385 707q0 -76 53.5 -121 t143.5 -45q92 0 145 44t53 122q0 76 -54 119.5t-144 43.5t-143.5 -44t-53.5 -119z" />
<glyph horiz-adv-x="1212" d="M31 -475l37 244q61 -31 135 -31q78 0 126 48t103 181l37 88l-436 987h309l276 -702l256 702h306l-457 -1097q-76 -182 -146.5 -281.5t-150 -141.5t-190.5 -42q-61 0 -118 12t-87 33z" />
<glyph horiz-adv-x="612" d="M131 778q0 74 50 120t126 46t125 -47t49 -119q0 -74 -49 -122t-125 -48q-78 0 -127 48.5t-49 121.5z" />
<glyph horiz-adv-x="612" d="M131 838q0 74 50 120t126 46t125 -47.5t49 -118.5q0 -74 -49 -122t-125 -48q-78 0 -127 48t-49 122z" />
<glyph horiz-adv-x="1888" d="M90 295q0 160 116 258t302 98q66 0 136.5 -13t123.5 -34q0 240 -266 240q-174 0 -326 -111l-22 230q68 51 174 81.5t213 30.5q252 0 366 -149q72 72 169.5 110.5t209.5 38.5q147 0 259 -62.5t174.5 -179t62.5 -276.5q0 -68 -10 -123h-736q53 -233 355 -233q94 0 183 19.5 t161 55.5l28 -223q-74 -41 -180 -63.5t-223 -22.5q-162 0 -288 51.5t-206 149.5q-120 -201 -407 -201q-170 0 -269.5 88t-99.5 240zM360 313q0 -68 43 -105.5t119 -37.5q111 0 175.5 65.5t70.5 184.5q-96 39 -209 39q-94 0 -146.5 -38t-52.5 -108zM1034 633h475 q-10 109 -70.5 167t-160.5 58q-98 0 -161.5 -58.5t-82.5 -166.5z" />
<glyph horiz-adv-x="0" d="M-250 -498l33 156q57 -29 135 -29q111 0 111 68q0 63 -113 63q-53 0 -74 -6l74 266h172l-41 -133q94 -8 151.5 -62t57.5 -136q0 -109 -81.5 -167.5t-233.5 -58.5q-47 0 -103.5 11.5t-87.5 27.5z" />
<glyph horiz-adv-x="0" d="M-217 -506q39 76 62.5 177.5t23.5 199.5h266q-2 -94 -42 -202.5t-97 -174.5h-213z" />
<glyph horiz-adv-x="0" d="M-262 -317q0 106 81 208.5t228 182.5l109 -74q-186 -139 -187 -250q0 -70 84 -69q49 0 99 24l18 -194q-29 -18 -77 -29.5t-99 -11.5q-121 0 -188.5 56t-67.5 157z" />
<glyph horiz-adv-x="0" d="M-229 -319q0 115 87 220t234 167l148 -15q-246 -168 -246 -301q0 -76 88 -76q63 0 102 25l21 -190q-76 -41 -178 -41q-121 0 -188.5 55t-67.5 156z" />
<glyph horiz-adv-x="0" d="M-231 -322q0 117 94 232t246 182l133 -22q-115 -78 -178.5 -160t-63.5 -152q0 -78 90 -77q55 0 109 26l20 -194q-27 -18 -82 -30.5t-110 -12.5q-119 0 -188.5 56t-69.5 152z" />
<glyph horiz-adv-x="1212" d="M53 -219q0 90 45 156.5t129 101.5q-53 25 -83.5 70t-30.5 102q0 129 149 211q-147 100 -147 285q0 166 127 267t333 101q131 0 232 -43l367 25v-213l-173 12q47 -76 48 -164q0 -102 -55.5 -183t-159 -127t-242.5 -46q-92 0 -152 14q-39 -20 -56 -41.5t-17 -50.5 q0 -37 41 -52.5t139 -15.5h82q252 0 373.5 -82.5t121.5 -257.5q0 -178 -147.5 -274t-417.5 -96q-240 0 -373 79t-133 222zM328 -172q0 -59 67.5 -92t192.5 -33t190.5 34t65.5 99q0 63 -55.5 91t-182.5 28h-47q-121 0 -176 -30.5t-55 -96.5zM385 707q0 -76 53.5 -121 t143.5 -45q92 0 145 44t53 122q0 76 -54 119.5t-144 43.5t-143.5 -44t-53.5 -119zM458 1249q2 94 41 191.5t99 165.5h202q-80 -156 -82 -357h-260z" />
<glyph horiz-adv-x="1171" d="M90 295q0 160 116 258t302 98q66 0 136.5 -13t123.5 -34q0 240 -266 240q-174 0 -326 -111l-22 230q68 51 174 81.5t213 30.5q240 0 367.5 -122t127.5 -351v-602h-256l-4 102q-110 -135 -317 -135q-170 0 -269.5 88t-99.5 240zM360 313q0 -68 43 -105.5t119 -37.5 q111 0 175.5 65.5t70.5 184.5q-96 39 -209 39q-94 0 -146.5 -38t-52.5 -108zM621 -317q0 106 81.5 209.5t227.5 181.5l106 -74q-193 -139 -192 -250q0 -35 22.5 -54.5t63.5 -19.5q61 0 104 23l19 -188q-29 -18 -78 -29.5t-100 -11.5q-119 0 -186.5 56t-67.5 157z" />
<glyph horiz-adv-x="0" d="M-209 1710l234 293h344l-308 -293h-270z" />
<glyph horiz-adv-x="0" d="M-385 1710l176 291h318l-234 -291h-260zM49 1710l178 291h318l-232 -291h-264z" />
<glyph horiz-adv-x="1171" d="M90 295q0 160 116 258t302 98q66 0 136.5 -13t123.5 -34q0 240 -266 240q-174 0 -326 -111l-22 230q68 51 174 81.5t213 30.5q240 0 367.5 -122t127.5 -351v-602h-256l-4 102q-110 -135 -317 -135q-170 0 -269.5 88t-99.5 240zM360 313q0 -68 43 -105.5t119 -37.5 q111 0 175.5 65.5t70.5 184.5q-96 39 -209 39q-94 0 -146.5 -38t-52.5 -108zM369 1249l215 342h315l-287 -342h-243z" />
<glyph horiz-adv-x="1212" d="M31 -475l37 244q61 -31 135 -31q78 0 126 48t103 181l37 88l-436 987h309l276 -702l256 702h306l-457 -1097q-76 -182 -146.5 -281.5t-150 -141.5t-190.5 -42q-61 0 -118 12t-87 33zM420 1249l215 342h315l-287 -342h-243z" />
<glyph horiz-adv-x="0" d="M-375 2003h344l236 -293h-268z" />
<glyph horiz-adv-x="1171" d="M90 295q0 160 116 258t302 98q66 0 136.5 -13t123.5 -34q0 240 -266 240q-174 0 -326 -111l-22 230q68 51 174 81.5t213 30.5q240 0 367.5 -122t127.5 -351v-602h-256l-4 102q-110 -135 -317 -135q-170 0 -269.5 88t-99.5 240zM215 1591h315l217 -342h-243zM360 313 q0 -68 43 -105.5t119 -37.5q111 0 175.5 65.5t70.5 184.5q-96 39 -209 39q-94 0 -146.5 -38t-52.5 -108z" />
<glyph horiz-adv-x="1212" d="M31 -475l37 244q61 -31 135 -31q78 0 126 48t103 181l37 88l-436 987h309l276 -702l256 702h306l-457 -1097q-76 -182 -146.5 -281.5t-150 -141.5t-190.5 -42q-61 0 -118 12t-87 33zM266 1591h315l217 -342h-243z" />
<glyph horiz-adv-x="0" d="M-430 1710l291 309h278l291 -309h-285l-145 156l-145 -156h-285z" />
<glyph horiz-adv-x="0" d="M-383 1708v14q4 305 227 306q55 0 96.5 -18.5t72 -41t58 -41t56.5 -18.5q33 0 47 26.5t14 87.5h197v-14q-2 -150 -60 -227.5t-167 -77.5q-55 0 -96.5 18.5t-72 41t-58 41t-56.5 18.5q-33 0 -48 -28t-15 -87h-195z" />
<glyph horiz-adv-x="1171" d="M90 295q0 160 116 258t302 98q66 0 136.5 -13t123.5 -34q0 240 -266 240q-174 0 -326 -111l-22 230q68 51 174 81.5t213 30.5q240 0 367.5 -122t127.5 -351v-602h-256l-4 102q-110 -135 -317 -135q-170 0 -269.5 88t-99.5 240zM151 1249l283 342h246l283 -342h-254 l-152 183l-152 -183h-254zM360 313q0 -68 43 -105.5t119 -37.5q111 0 175.5 65.5t70.5 184.5q-96 39 -209 39q-94 0 -146.5 -38t-52.5 -108z" />
<glyph horiz-adv-x="1212" d="M31 -475l37 244q61 -31 135 -31q78 0 126 48t103 181l37 88l-436 987h309l276 -702l256 702h306l-457 -1097q-76 -182 -146.5 -281.5t-150 -141.5t-190.5 -42q-61 0 -118 12t-87 33zM202 1249l283 342h246l283 -342h-254l-152 183l-152 -183h-254z" />
<glyph horiz-adv-x="1171" d="M90 295q0 160 116 258t302 98q66 0 136.5 -13t123.5 -34q0 240 -266 240q-174 0 -326 -111l-22 230q68 51 174 81.5t213 30.5q240 0 367.5 -122t127.5 -351v-602h-256l-4 102q-110 -135 -317 -135q-170 0 -269.5 88t-99.5 240zM176 1260v20q4 141 60.5 218t158.5 77 q59 0 101.5 -18.5t74 -41t58 -41t57.5 -18.5q35 0 49.5 27.5t14.5 87.5h188v-21q-2 -141 -58.5 -218t-158.5 -77q-59 0 -101.5 18.5t-74 41t-58 41t-57.5 18.5q-35 0 -49 -27.5t-14 -86.5h-191zM360 313q0 -68 43 -105.5t119 -37.5q111 0 175.5 65.5t70.5 184.5 q-96 39 -209 39q-94 0 -146.5 -38t-52.5 -108z" />
<glyph horiz-adv-x="0" d="M-430 2019h285l145 -159l145 159h285l-291 -309h-278z" />
<glyph horiz-adv-x="0" d="M-131 1219l25 440h262l-105 -440h-182z" />
<glyph horiz-adv-x="0" d="M-334 1733v206h670v-206h-670z" />
<glyph horiz-adv-x="1171" d="M90 295q0 160 116 258t302 98q66 0 136.5 -13t123.5 -34q0 240 -266 240q-174 0 -326 -111l-22 230q68 51 174 81.5t213 30.5q240 0 367.5 -122t127.5 -351v-602h-256l-4 102q-110 -135 -317 -135q-170 0 -269.5 88t-99.5 240zM225 1294v203h664v-203h-664zM360 313 q0 -68 43 -105.5t119 -37.5q111 0 175.5 65.5t70.5 184.5q-96 39 -209 39q-94 0 -146.5 -38t-52.5 -108z" />
<glyph horiz-adv-x="0" d="M-377 1849q0 63 41 104.5t109 41.5t109.5 -40t41.5 -106q0 -63 -42.5 -103t-108.5 -40q-68 0 -109 40t-41 103zM76 1849q0 63 42 104.5t107 41.5q68 0 110 -40t42 -106q0 -63 -43 -103t-109 -40t-107.5 40t-41.5 103z" />
<glyph horiz-adv-x="0" d="M-365 1989q0 12 3 22h204q0 -74 41 -113.5t117 -39.5t117 39.5t41 113.5h204q2 -10 3 -22q0 -143 -97.5 -226.5t-267.5 -83.5t-267.5 83t-97.5 227z" />
<glyph horiz-adv-x="1171" d="M90 295q0 160 116 258t302 98q66 0 136.5 -13t123.5 -34q0 240 -266 240q-174 0 -326 -111l-22 230q68 51 174 81.5t213 30.5q240 0 367.5 -122t127.5 -351v-602h-256l-4 102q-110 -135 -317 -135q-170 0 -269.5 88t-99.5 240zM186 1405q0 61 42 101t106 40 q66 0 106.5 -40t40.5 -101q0 -63 -40.5 -103t-106.5 -40q-68 0 -108 39.5t-40 103.5zM360 313q0 -68 43 -105.5t119 -37.5q111 0 175.5 65.5t70.5 184.5q-96 39 -209 39q-94 0 -146.5 -38t-52.5 -108zM633 1405q0 61 42 101t105 40q66 0 107 -40t41 -101q0 -63 -41 -103 t-107 -40q-68 0 -107.5 39.5t-39.5 103.5z" />
<glyph horiz-adv-x="1212" d="M31 -475l37 244q61 -31 135 -31q78 0 126 48t103 181l37 88l-436 987h309l276 -702l256 702h306l-457 -1097q-76 -182 -146.5 -281.5t-150 -141.5t-190.5 -42q-61 0 -118 12t-87 33zM237 1405q0 61 42 101t106 40q66 0 106.5 -40t40.5 -101q0 -63 -40.5 -103t-106.5 -40 q-68 0 -108 39.5t-40 103.5zM684 1405q0 61 42 101t105 40q66 0 107 -40t41 -101q0 -63 -41 -103t-107 -40q-68 0 -107.5 39.5t-39.5 103.5z" />
<glyph horiz-adv-x="1171" d="M90 295q0 160 116 258t302 98q66 0 136.5 -13t123.5 -34q0 240 -266 240q-174 0 -326 -111l-22 230q68 51 174 81.5t213 30.5q240 0 367.5 -122t127.5 -351v-602h-256l-4 102q-110 -135 -317 -135q-170 0 -269.5 88t-99.5 240zM203 1530q0 14 2 26h194q0 -170 158 -170 t158 170h194q2 -12 2 -26q0 -147 -95 -232.5t-259 -85.5t-259 85t-95 233zM360 313q0 -68 43 -105.5t119 -37.5q111 0 175.5 65.5t70.5 184.5q-96 39 -209 39q-94 0 -146.5 -38t-52.5 -108z" />
<glyph horiz-adv-x="1212" d="M53 -219q0 90 45 156.5t129 101.5q-53 25 -83.5 70t-30.5 102q0 129 149 211q-147 100 -147 285q0 166 127 267t333 101q131 0 232 -43l367 25v-213l-173 12q47 -76 48 -164q0 -102 -55.5 -183t-159 -127t-242.5 -46q-92 0 -152 14q-39 -20 -56 -41.5t-17 -50.5 q0 -37 41 -52.5t139 -15.5h82q252 0 373.5 -82.5t121.5 -257.5q0 -178 -147.5 -274t-417.5 -96q-240 0 -373 79t-133 222zM260 1530q0 14 2 26h194q0 -170 158 -170t158 170h194q2 -12 2 -26q0 -147 -95 -232.5t-259 -85.5t-259 85t-95 233zM328 -172q0 -59 67.5 -92 t192.5 -33t190.5 34t65.5 99q0 63 -55.5 91t-182.5 28h-47q-121 0 -176 -30.5t-55 -96.5zM385 707q0 -76 53.5 -121t143.5 -45q92 0 145 44t53 122q0 76 -54 119.5t-144 43.5t-143.5 -44t-53.5 -119z" />
<glyph horiz-adv-x="0" d="M-168 1860q0 72 47 116.5t121 44.5q76 0 122 -45t46 -116q0 -72 -47 -117t-121 -45q-76 0 -122 45t-46 117z" />
<glyph horiz-adv-x="1212" d="M53 -219q0 90 45 156.5t129 101.5q-53 25 -83.5 70t-30.5 102q0 129 149 211q-147 100 -147 285q0 166 127 267t333 101q131 0 232 -43l367 25v-213l-173 12q47 -76 48 -164q0 -102 -55.5 -183t-159 -127t-242.5 -46q-92 0 -152 14q-39 -20 -56 -41.5t-17 -50.5 q0 -37 41 -52.5t139 -15.5h82q252 0 373.5 -82.5t121.5 -257.5q0 -178 -147.5 -274t-417.5 -96q-240 0 -373 79t-133 222zM328 -172q0 -59 67.5 -92t192.5 -33t190.5 34t65.5 99q0 63 -55.5 91t-182.5 28h-47q-121 0 -176 -30.5t-55 -96.5zM385 707q0 -76 53.5 -121 t143.5 -45q92 0 145 44t53 122q0 76 -54 119.5t-144 43.5t-143.5 -44t-53.5 -119zM454 1411q0 70 44 113t116 43t117 -43t45 -113t-45 -113t-117 -43t-116 43t-44 113z" />
<glyph horiz-adv-x="0" d="M-289 1946q0 117 82 194.5t207 77.5t207 -78t82 -194q0 -117 -82 -195t-207 -78t-207 78t-82 195zM-119 1946q0 -53 32 -86t87 -33t87 32.5t32 86.5q0 55 -32 86.5t-87 31.5t-87 -31.5t-32 -86.5z" />
<glyph horiz-adv-x="1171" d="M90 295q0 160 116 258t302 98q66 0 136.5 -13t123.5 -34q0 240 -266 240q-174 0 -326 -111l-22 230q68 51 174 81.5t213 30.5q240 0 367.5 -122t127.5 -351v-602h-256l-4 102q-110 -135 -317 -135q-170 0 -269.5 88t-99.5 240zM268 1458q0 117 82 195t207 78t207 -78 t82 -195t-82 -194.5t-207 -77.5t-207 77.5t-82 194.5zM360 313q0 -68 43 -105.5t119 -37.5q111 0 175.5 65.5t70.5 184.5q-96 39 -209 39q-94 0 -146.5 -38t-52.5 -108zM438 1458q0 -53 32 -86t87 -33t87 33t32 86q0 55 -32 87t-87 32t-87 -32t-32 -87z" />
</font>
</defs>
</svg>
