<?xml version="1.0" standalone="no"?>
<!DOCTYPE svg PUBLIC "-//W3C//DTD SVG 1.1//EN" "http://www.w3.org/Graphics/SVG/1.1/DTD/svg11.dtd" >
<svg xmlns="http://www.w3.org/2000/svg" xmlns:xlink="http://www.w3.org/1999/xlink" version="1.1">
<metadata></metadata>
<defs>
<font id="better_togetherregular" horiz-adv-x="0" >
<font-face units-per-em="2048" ascent="1638" descent="-410" />
<missing-glyph horiz-adv-x="454" />
<glyph unicode="&#xd;" horiz-adv-x="454" />
<glyph unicode=" "  horiz-adv-x="454" />
<glyph unicode="&#x09;" horiz-adv-x="454" />
<glyph unicode="&#xa0;" horiz-adv-x="454" />
<glyph unicode="!" horiz-adv-x="483" d="M129 104q0 54 30.5 84.5t84.5 30.5t84 -30.5t30 -84.5t-30 -84t-84 -30t-84.5 30t-30.5 84zM143 1462h201l-10 -1038h-182z" />
<glyph unicode="&#x22;" horiz-adv-x="704" d="M80 1454h194l-14 -520h-166zM430 1454h195l-15 -520h-166z" />
<glyph unicode="#" horiz-adv-x="1212" d="M37 356v144h215l65 393h-208v143h233l57 353h170l-59 -353h311l58 353h170l-58 -353h183v-143h-207l-66 -393h199v-144h-221l-60 -356h-170l60 356h-312l-59 -356h-168l59 356h-192zM422 500h309l66 393h-310z" />
<glyph unicode="$" horiz-adv-x="1212" d="M72 395h188q25 -242 272 -268v516l-24 4q-203 37 -301 131.5t-98 282.5q0 161 114 266.5t309 124.5v172h134v-172q365 -27 428 -375l-183 -33q-29 119 -87 178.5t-158 71.5v-491l47 -8q194 -34 292.5 -132t98.5 -284q0 -179 -117.5 -287t-320.5 -123v-196h-134v196 q-212 15 -328.5 125.5t-131.5 300.5zM295 1071q0 -103 52 -161t185 -85v469q-110 -11 -173.5 -66.5t-63.5 -156.5zM666 127q243 25 243 250q0 201 -227 237l-16 4v-491z" />
<glyph unicode="%" horiz-adv-x="1908" d="M78 1014q0 214 97.5 327t260.5 113q164 0 261.5 -111.5t97.5 -328.5q0 -219 -96 -330t-263 -111q-162 0 -260 111.5t-98 329.5zM254 1014q0 -287 182 -287t182 287q0 286 -182 286t-182 -286zM506 0l713 1415h188l-713 -1415h-188zM1114 408q0 214 97.5 327t261.5 113 t261 -111.5t97 -328.5q0 -219 -95.5 -330t-262.5 -111q-162 0 -260.5 111.5t-98.5 329.5zM1290 408q0 -287 183 -287q182 0 182 287q0 286 -182 286q-183 0 -183 -286z" />
<glyph unicode="&#x26;" horiz-adv-x="1316" d="M70 385q0 145 85 248t234 184q-149 178 -149 334q0 142 99 232t251 90q164 0 254 -86.5t90 -219.5q0 -69 -21.5 -126t-65.5 -103.5t-90.5 -81t-115.5 -74.5l342 -397q59 133 59 307h177q0 -251 -119 -442l215 -250h-223l-103 119q-168 -152 -407 -152q-116 0 -209 24.5 t-161 75t-105 131t-37 187.5zM268 410q0 -287 332 -287q171 0 285 117l-398 465q-47 -28 -81.5 -54.5t-68 -63t-51.5 -81.5t-18 -96zM420 1149q0 -63 34.5 -124.5t94.5 -133.5q101 54 157 115.5t56 146.5q0 86 -45.5 131t-122.5 45q-82 0 -128 -47t-46 -133z" />
<glyph unicode="'" horiz-adv-x="354" d="M80 1454h194l-14 -520h-166z" />
<glyph unicode="(" horiz-adv-x="552" d="M106 625q0 242 62.5 472t177.5 406h186q-219 -387 -219 -878q0 -492 219 -879h-186q-115 176 -177.5 406t-62.5 473z" />
<glyph unicode=")" horiz-adv-x="552" d="M20 -254q220 389 220 879q0 489 -220 878h187q115 -176 177 -405.5t62 -472.5t-62 -473t-177 -406h-187z" />
<glyph unicode="*" horiz-adv-x="804" d="M57 1155l70 160l217 -117l-31 264h181l-31 -262l217 115l70 -158l-252 -74l194 -206l-141 -103l-145 227l-148 -227l-141 103l192 206z" />
<glyph unicode="+" horiz-adv-x="1212" d="M129 612v170h389v418h176v-418h389v-170h-389v-417h-176v417h-389z" />
<glyph unicode="," horiz-adv-x="466" d="M90 -199l62 455h202l-110 -455h-154z" />
<glyph unicode="-" horiz-adv-x="802" d="M96 504v192h611v-192h-611z" />
<glyph unicode="." horiz-adv-x="466" d="M119 104q0 54 30 84.5t84 30.5t84.5 -30.5t30.5 -84.5t-30.5 -84t-84.5 -30t-84 30t-30 84z" />
<glyph unicode="/" horiz-adv-x="694" d="M14 0l467 1503h199l-467 -1503h-199z" />
<glyph unicode="0" horiz-adv-x="1253" d="M84 707q0 189 39.5 333t112.5 234t172.5 135t222.5 45q254 0 395 -186t141 -561q0 -372 -143.5 -558t-400.5 -186q-254 0 -396.5 186t-142.5 558zM291 707q0 -572 336 -572q166 0 251 146.5t85 425.5t-85 426t-251 147q-336 0 -336 -573z" />
<glyph unicode="1" horiz-adv-x="1046" d="M133 1149l426 266h178v-1415h-200v1200l-318 -194z" />
<glyph unicode="2" horiz-adv-x="1253" d="M117 1059q43 187 170.5 291t349.5 104q216 0 344.5 -115t128.5 -301q0 -59 -14 -116t-33 -102.5t-56.5 -97.5t-66.5 -87t-82.5 -85.5t-84.5 -77.5t-92 -78q-9 -7 -13 -11q-25 -21 -65 -54.5t-95 -80t-86 -72.5h702v-176h-974v158q70 60 197 171t153 134q21 19 66 57.5 t71 61t66.5 61t65 67.5t54 69.5t46 76t27.5 79t11 87.5q0 123 -75.5 190.5t-198.5 67.5q-138 0 -216.5 -59.5t-115.5 -188.5z" />
<glyph unicode="3" horiz-adv-x="1273" d="M127 397h192q17 -134 93.5 -199t218.5 -65t224.5 69.5t82.5 196.5q0 129 -80 189.5t-219 60.5h-158v172h164q119 0 190.5 63t71.5 179q0 104 -75.5 161.5t-206.5 57.5q-122 0 -195 -55.5t-108 -175.5l-183 26q37 179 166.5 278t327.5 99q217 0 344 -104t127 -265 q0 -222 -219 -331q252 -101 252 -348q0 -87 -29.5 -164.5t-88.5 -141t-158 -100.5t-226 -37q-107 0 -193.5 25.5t-142.5 68t-94.5 99.5t-56.5 116.5t-21 124.5z" />
<glyph unicode="4" horiz-adv-x="1253" d="M78 346v146l688 923h188v-913h213v-156h-213v-346h-184v346h-692zM279 502h491v665z" />
<glyph unicode="5" horiz-adv-x="1253" d="M131 367h193q22 -120 96 -177t205 -57q135 0 220 86.5t85 243.5q0 141 -76.5 225t-220.5 84q-184 0 -301 -127h-168l63 770h797v-174h-637l-37 -414q133 103 322 103q213 0 332.5 -130t119.5 -335q0 -233 -137.5 -367.5t-357.5 -134.5q-219 0 -350 104t-148 300z" />
<glyph unicode="6" horiz-adv-x="1251" d="M125 444q0 123 39.5 223.5t126.5 243.5l307 504h207l-305 -506q68 19 145 19q215 0 347 -134t132 -348q0 -219 -140.5 -351t-367.5 -132q-214 0 -352.5 136.5t-138.5 344.5zM315 444q0 -144 85 -231.5t216 -87.5q140 0 229 84.5t89 230.5q0 140 -80 235t-227 95 q-140 0 -226 -91.5t-86 -234.5z" />
<glyph unicode="7" horiz-adv-x="1130" d="M49 1241v174h987v-162q-328 -612 -504 -1253h-215q199 666 502 1241h-770z" />
<glyph unicode="8" horiz-adv-x="1253" d="M104 393q0 71 23 131.5t61.5 103t82 71.5t91.5 46q-83 40 -139.5 120t-56.5 204q0 171 129 278t332 107q221 0 339.5 -105t118.5 -280q0 -119 -54 -199t-142 -118q113 -36 186.5 -129t73.5 -230q0 -191 -135 -310.5t-387 -119.5q-253 0 -388 119.5t-135 310.5zM303 395 q0 -123 83 -197.5t243 -74.5q159 0 241 74.5t82 199.5q0 262 -323 262q-326 0 -326 -264zM352 1057q0 -234 275 -234q135 0 204.5 59.5t69.5 176.5q0 107 -69.5 172t-204.5 65q-131 0 -203 -65.5t-72 -173.5z" />
<glyph unicode="9" horiz-adv-x="1251" d="M119 971q0 219 140.5 351t367.5 132q214 0 351.5 -136t137.5 -343q0 -86 -25 -168.5t-56.5 -141.5t-94.5 -159l-324 -506h-206l325 508q-65 -19 -139 -19q-214 0 -345.5 134t-131.5 348zM309 977q0 -91 32.5 -164t103 -119.5t169.5 -46.5q141 0 226.5 92t85.5 236 q0 143 -84 230t-215 87q-140 0 -229 -84.5t-89 -230.5z" />
<glyph unicode=":" horiz-adv-x="466" d="M119 104q0 54 30 84.5t84 30.5t84.5 -30.5t30.5 -84.5t-30.5 -84t-84.5 -30t-84 30t-30 84zM119 909q0 54 30 84.5t84 30.5t84.5 -30.5t30.5 -84.5t-30.5 -84t-84.5 -30t-84 30t-30 84z" />
<glyph unicode=";" horiz-adv-x="466" d="M88 -199l62 455h202l-110 -455h-154zM119 963q0 54 30 84t84 30t84.5 -30t30.5 -84t-30.5 -84.5t-84.5 -30.5t-84 30.5t-30 84.5z" />
<glyph unicode="&#x3c;" horiz-adv-x="1212" d="M156 618v152l921 424v-184l-700 -314l700 -311v-190z" />
<glyph unicode="=" horiz-adv-x="1212" d="M164 383v172h885v-172h-885zM164 842v170h885v-170h-885z" />
<glyph unicode="&#x3e;" horiz-adv-x="1212" d="M135 195v184l696 311l-696 314v190l922 -424v-152z" />
<glyph unicode="?" horiz-adv-x="1032" d="M41 1104q15 81 48 147.5t88.5 121t141.5 84.5t197 30q205 0 318.5 -104t113.5 -275q0 -111 -42 -189.5t-122 -158.5q-78 -74 -115 -117.5t-58 -90.5t-21 -103v-25h-189v31q0 67 17 114q17 49 61 105.5t139 152.5q35 38 48.5 54t38 51.5t34 71.5t9.5 79q0 114 -61 176 t-173 62q-127 0 -194.5 -57.5t-100.5 -186.5zM381 104q0 54 30.5 84.5t84.5 30.5t84 -30.5t30 -84.5t-30 -84t-84 -30t-84.5 30t-30.5 84z" />
<glyph unicode="@" horiz-adv-x="1964" d="M90 393q0 193 54 357.5t145.5 279t212.5 196t255.5 120t274.5 38.5q181 0 335.5 -50t270 -143.5t181 -238.5t65.5 -325q0 -128 -29 -238t-85.5 -195t-147 -133.5t-205.5 -48.5q-96 0 -158 37.5t-79 114.5q-97 -162 -295 -162q-160 0 -263.5 108.5t-103.5 278.5 q0 238 123 384.5t330 146.5q92 0 163.5 -38.5t112.5 -109.5l21 125h174l-109 -618q-4 -20 -4 -35q0 -99 101 -99q74 0 131 38t91 104t51 148t17 177q0 293 -183.5 460t-504.5 167q-164 0 -306.5 -60.5t-244.5 -169t-160.5 -265.5t-58.5 -343q0 -323 186.5 -509.5 t512.5 -186.5q185 0 296.5 44.5t194.5 137.5h193q-201 -327 -697 -327q-187 0 -345.5 58t-272 164t-177 263t-63.5 348zM707 406q0 -120 58 -186t150 -66q125 0 190.5 80.5t78.5 209.5l4 60q12 118 -43 195t-164 77q-124 0 -199 -95.5t-75 -274.5z" />
<glyph unicode="A" horiz-adv-x="1394" d="M25 0l563 1462h221l561 -1462h-221l-148 397h-616l-149 -397h-211zM444 573h498l-250 668z" />
<glyph unicode="B" horiz-adv-x="1323" d="M160 0v1462h518q118 0 208.5 -19.5t161.5 -62.5t108.5 -119t37.5 -182q0 -221 -199 -313q244 -90 244 -342q0 -211 -135.5 -317.5t-392.5 -106.5h-551zM358 166h344q183 0 258.5 63.5t75.5 190.5q0 128 -76 190t-245 62h-357v-506zM358 840h338q156 0 227.5 56.5 t71.5 172.5q0 117 -76 172t-251 55h-310v-456z" />
<glyph unicode="C" horiz-adv-x="1517" d="M109 729q0 163 44.5 302.5t128 244t213 164t289.5 59.5q256 0 426 -128t207 -367l-200 -41q-29 161 -141.5 259.5t-293.5 98.5q-215 0 -336.5 -155.5t-121.5 -434.5q0 -276 133.5 -433t351.5 -157q180 0 285 93t123 251h208q-7 -107 -52 -201t-122 -166t-191.5 -113.5 t-252.5 -41.5q-316 0 -507 205.5t-191 560.5z" />
<glyph unicode="D" horiz-adv-x="1468" d="M160 0v1462h456q358 0 552 -181.5t194 -539.5q0 -363 -208 -552t-583 -189h-411zM365 178h217q287 0 427 145t140 414q0 549 -531 549h-253v-1108z" />
<glyph unicode="E" horiz-adv-x="1222" d="M162 0v1462h962v-178h-757v-442h716v-178h-716v-486h774v-178h-979z" />
<glyph unicode="F" horiz-adv-x="1159" d="M160 0v1462h915v-178h-710v-465h665v-182h-665v-637h-205z" />
<glyph unicode="G" horiz-adv-x="1495" d="M90 729q0 356 183 563t485 207q253 0 419.5 -116t198.5 -316l-200 -41q-24 138 -132.5 217.5t-285.5 79.5q-213 0 -334 -157t-121 -435q0 -298 122 -444t347 -146q203 0 313.5 123.5t110.5 319.5h-389v174h592v-176q0 -272 -174 -445.5t-453 -173.5q-153 0 -278 50.5 t-215 146t-139.5 241t-49.5 328.5z" />
<glyph unicode="H" horiz-adv-x="1470" d="M160 0v1462h205v-612h741v612h205v-1462h-205v662h-741v-662h-205z" />
<glyph unicode="I" horiz-adv-x="524" d="M160 0v1462h205v-1462h-205z" />
<glyph unicode="J" horiz-adv-x="1232" d="M55 446h207q20 -151 92.5 -228t225.5 -77q160 0 231.5 91t71.5 268v962h204v-975q0 -258 -132 -391t-371 -133q-237 0 -372.5 119.5t-156.5 363.5z" />
<glyph unicode="K" horiz-adv-x="1343" d="M160 0v1462h207v-686l667 686h234l-627 -649l678 -813h-238l-575 680l-139 -139v-541h-207z" />
<glyph unicode="L" horiz-adv-x="1157" d="M160 0v1462h205v-1280h747v-182h-952z" />
<glyph unicode="M" horiz-adv-x="1779" d="M162 0v1462h252l477 -1214l485 1214h244v-1462h-190v1128l-461 -1128h-168l-453 1126v-1126h-186z" />
<glyph unicode="N" horiz-adv-x="1480" d="M162 0v1462h198l762 -1134v1134h199v-1462h-195l-768 1130v-1130h-196z" />
<glyph unicode="O" horiz-adv-x="1607" d="M109 731q0 167 47 307.5t134.5 243t219.5 160t295 57.5q318 0 506 -205t188 -559q0 -355 -187 -562.5t-509 -207.5q-321 0 -507.5 208t-186.5 558zM326 731q0 -271 124 -427.5t355 -156.5q229 0 353 157t124 427q0 275 -123.5 430.5t-353.5 155.5t-354.5 -157 t-124.5 -429z" />
<glyph unicode="P" horiz-adv-x="1286" d="M160 0v1462h473q272 0 418.5 -118.5t146.5 -339.5q0 -233 -146.5 -358.5t-418.5 -125.5h-271v-520h-202zM362 692h271q362 0 362 305q0 293 -364 293h-269v-598z" />
<glyph unicode="Q" horiz-adv-x="1607" d="M109 731q0 164 47 304.5t134.5 243.5t220 161.5t294.5 58.5q315 0 504.5 -206.5t189.5 -555.5q0 -193 -56 -347.5t-161 -244.5l180 -217h-211l-100 123q-140 -86 -348 -86q-212 0 -370 96t-241 269t-83 401zM326 731q0 -271 127 -429.5t352 -158.5q135 0 223 56l-194 237 h204l107 -129q65 71 102 182t37 242q0 272 -127.5 429t-351.5 157t-351.5 -159t-127.5 -427z" />
<glyph unicode="R" horiz-adv-x="1302" d="M160 0v1462h487q253 0 398 -106.5t145 -321.5q0 -174 -80.5 -281.5t-224.5 -152.5l344 -600h-228l-319 567h-41h-281v-567h-200zM360 739h304q171 0 245 75t74 214q0 132 -79 198t-265 66h-279v-553z" />
<glyph unicode="S" horiz-adv-x="1323" d="M78 420h205q25 -148 119.5 -215.5t281.5 -67.5q326 0 326 254q0 98 -58.5 157.5t-199.5 86.5l-187 33q-86 15 -148.5 33.5t-123.5 50.5t-98.5 75t-60.5 108t-23 150q0 188 141.5 301t392.5 113q263 0 403.5 -113.5t153.5 -302.5l-192 -20q-15 125 -107.5 194.5 t-251.5 69.5q-156 0 -245 -57t-89 -176q0 -102 57.5 -154t203.5 -78l204 -37q232 -43 337.5 -144.5t105.5 -291.5q0 -136 -72.5 -233.5t-193.5 -145t-277 -47.5q-269 0 -425 112t-179 345z" />
<glyph unicode="T" horiz-adv-x="1239" d="M37 1280v182h1165v-182h-481v-1280h-205v1280h-479z" />
<glyph unicode="U" horiz-adv-x="1406" d="M125 571v891h205v-901q0 -207 94 -313.5t281 -106.5q185 0 278.5 106.5t93.5 313.5v901h205v-899q0 -287 -150 -443.5t-430 -156.5t-428.5 158t-148.5 450z" />
<glyph unicode="V" horiz-adv-x="1376" d="M27 1462h231l432 -1206l440 1206h220l-553 -1462h-215z" />
<glyph unicode="W" horiz-adv-x="1918" d="M27 1462h229l295 -1188l309 1182h215l307 -1182l293 1188h217l-401 -1462h-217l-316 1202l-309 -1202h-211z" />
<glyph unicode="X" horiz-adv-x="1320" d="M23 0l512 770l-474 692h240l358 -547l365 547h219l-469 -698l524 -764h-235l-414 616l-403 -616h-223z" />
<glyph unicode="Y" horiz-adv-x="1267" d="M27 1462h233l377 -671l387 671h215l-498 -846v-616h-206v614z" />
<glyph unicode="Z" horiz-adv-x="1208" d="M66 0v158l827 1126h-813v178h1053v-157l-826 -1125h852v-180h-1093z" />
<glyph unicode="[" horiz-adv-x="595" d="M152 -254v1757h419v-166h-221v-1425h221v-166h-419z" />
<glyph unicode="\" horiz-adv-x="694" d="M14 1503h199l467 -1503h-197z" />
<glyph unicode="]" horiz-adv-x="595" d="M25 -88h223v1425h-223v166h419v-1757h-419v166z" />
<glyph unicode="^" horiz-adv-x="1212" d="M111 625l413 837h164l414 -837h-205l-295 618l-293 -618h-198z" />
<glyph unicode="_" horiz-adv-x="1024" d="M0 -252h1024v-106h-1024v106z" />
<glyph unicode="`" horiz-adv-x="1173" d="M283 1507h233l236 -297h-189z" />
<glyph unicode="a" horiz-adv-x="1107" d="M70 297q0 161 114 247t328 89l276 2v63q0 129 -59.5 187.5t-185.5 58.5q-218 0 -250 -164l-176 23q24 131 137.5 211t296.5 80q224 0 326 -104t102 -304v-686h-186v133q-53 -74 -144.5 -116t-214.5 -42q-164 0 -264 84t-100 238zM264 303q0 -80 50 -127t153 -47 q154 0 237.5 74t83.5 209v90l-266 -2q-130 -2 -194 -47.5t-64 -149.5z" />
<glyph unicode="b" horiz-adv-x="1269" d="M135 0v1462h195v-524q137 156 364 156q220 0 348.5 -146.5t128.5 -408.5q0 -259 -139 -415.5t-358 -156.5q-221 0 -348 146v-113h-191zM328 502q0 -189 85 -282t224 -93q159 0 244.5 112t85.5 296q0 109 -33.5 197.5t-107 145t-175.5 56.5q-141 0 -232 -95t-91 -268v-69z " />
<glyph unicode="c" horiz-adv-x="1208" d="M100 526q0 257 144 412.5t381 155.5q195 0 329.5 -100t155.5 -275l-190 -23q-21 109 -99.5 173.5t-202.5 64.5q-153 0 -234 -109.5t-81 -294.5q0 -180 84 -291.5t248 -111.5q123 0 199.5 62.5t91.5 172.5h194q-23 -183 -153.5 -289t-335.5 -106q-240 0 -385.5 152 t-145.5 407z" />
<glyph unicode="d" horiz-adv-x="1265" d="M100 524q0 259 141.5 414.5t364.5 155.5q218 0 328 -123v491h194v-1462h-188v113q-121 -146 -352 -146q-210 0 -349 155t-139 402zM303 530q0 -110 34.5 -199.5t107 -145.5t173.5 -56q145 0 233.5 94.5t88.5 268.5v69q0 187 -84 280t-225 93q-154 0 -241 -110.5 t-87 -293.5z" />
<glyph unicode="e" horiz-adv-x="1191" d="M102 522q0 258 137.5 415t364.5 157q235 0 362.5 -139.5t127.5 -379.5v-92h-797q9 -174 93 -268t226 -94q234 0 277 180h186q-28 -157 -148 -245.5t-315 -88.5q-238 0 -376 150t-138 405zM299 621h602q-21 325 -299 325q-271 0 -303 -325z" />
<glyph unicode="f" horiz-adv-x="696" d="M35 903v154h166v88q0 161 90 247.5t239 86.5q102 0 187 -25l-31 -149q-57 16 -121 16q-77 0 -123.5 -40.5t-46.5 -131.5v-92h267v-154h-267v-903h-194v903h-166z" />
<glyph unicode="g" horiz-adv-x="1261" d="M100 555q0 240 143.5 389.5t362.5 149.5q91 0 182 -39.5t148 -114.5v121h190v-969q0 -263 -115.5 -387.5t-381.5 -124.5q-455 0 -490 326h191q22 -90 93 -131t204 -41q156 0 231.5 73.5t75.5 243.5v131q-48 -74 -131.5 -116.5t-196.5 -42.5q-227 0 -366.5 147.5 t-139.5 384.5zM303 557q0 -104 34 -187t107 -134.5t177 -51.5q156 0 235.5 96t79.5 257v34q0 169 -76.5 266t-226.5 97q-149 0 -239.5 -93.5t-90.5 -283.5z" />
<glyph unicode="h" horiz-adv-x="1177" d="M135 0v1462h195v-522q72 77 166 115.5t192 38.5q182 0 290.5 -101.5t108.5 -285.5v-707h-192v668q0 135 -68.5 197.5t-181.5 62.5q-127 0 -217 -84q-51 -44 -74.5 -94.5t-23.5 -122.5v-627h-195z" />
<glyph unicode="i" horiz-adv-x="471" d="M117 1372q0 56 32 88.5t89 32.5t88.5 -32.5t31.5 -88.5q0 -55 -32 -87t-88 -32t-88.5 32.5t-32.5 86.5zM139 0v1061h195v-1061h-195z" />
<glyph unicode="j" horiz-adv-x="473" d="M-135 -387l33 151q78 -20 116 -20q66 0 95.5 35.5t29.5 118.5v1163h195v-1157q0 -157 -71 -240.5t-234 -83.5q-62 0 -164 33zM117 1372q0 56 32 88.5t89 32.5t88.5 -32.5t31.5 -88.5q0 -55 -32 -87t-88 -32t-88.5 32.5t-32.5 86.5z" />
<glyph unicode="k" horiz-adv-x="1099" d="M133 0v1462h195v-864l485 463h234l-451 -436l494 -625h-228l-391 506l-143 -133v-373h-195z" />
<glyph unicode="l" horiz-adv-x="471" d="M139 0v1462h195v-1462h-195z" />
<glyph unicode="m" horiz-adv-x="1808" d="M135 0v1061h191v-119q123 152 325 152q109 0 191 -45t123 -129q62 85 156.5 129.5t205.5 44.5q163 0 257.5 -89.5t94.5 -271.5v-733h-194v690q0 131 -55 184.5t-152 53.5q-108 0 -191 -72q-81 -72 -81 -188v-668h-195v688q0 240 -201 240q-107 0 -194 -84 q-86 -82 -86 -211v-633h-195z" />
<glyph unicode="n" horiz-adv-x="1193" d="M135 0v1061h191v-125q135 158 366 158q181 0 278 -99.5t97 -287.5v-707h-193v668q0 260 -229 260q-127 0 -217 -84q-51 -44 -74.5 -94.5t-23.5 -122.5v-627h-195z" />
<glyph unicode="o" horiz-adv-x="1259" d="M100 526q0 262 148 415t385 153q240 0 383 -150.5t143 -408.5q0 -260 -145 -414t-387 -154q-243 0 -385 150t-142 409zM303 530q0 -185 82.5 -294t243.5 -109q158 0 241.5 107.5t83.5 297.5q0 186 -82 294t-243 108q-160 0 -243 -109t-83 -295z" />
<glyph unicode="p" horiz-adv-x="1269" d="M135 -397v1458h191v-141q66 83 166 128.5t217 45.5q221 0 350 -147t129 -408q0 -259 -140 -415.5t-360 -156.5q-100 0 -196 38t-162 116v-518h-195zM328 502q0 -173 89 -274t240 -101q154 0 240 113t86 295q0 80 -20 151.5t-58 127t-98.5 88t-136.5 32.5 q-152 0 -247 -102t-95 -261v-69z" />
<glyph unicode="q" horiz-adv-x="1269" d="M100 524q0 262 135 416t355 154q102 0 195 -37t157 -115v119h191v-1458h-195v516q-59 -72 -150 -112t-200 -40q-222 0 -355 153t-133 404zM303 530q0 -111 31.5 -199.5t102.5 -145t171 -56.5q147 0 240.5 95t93.5 268v69q0 186 -89.5 279.5t-231.5 93.5 q-153 0 -235.5 -109.5t-82.5 -294.5z" />
<glyph unicode="r" horiz-adv-x="759" d="M135 0v1061h191v-135q52 77 131.5 115t169.5 38q61 0 92 -8l-21 -174q-34 6 -86 6q-111 0 -198 -76q-84 -75 -84 -204v-623h-195z" />
<glyph unicode="s" horiz-adv-x="1069" d="M76 307h190q15 -99 83.5 -143.5t195.5 -44.5q241 0 241 168q0 73 -47 112t-155 58l-115 18q-188 30 -277.5 101.5t-89.5 205.5q0 144 115 228t309 84q187 0 300 -71.5t137 -219.5l-183 -27q-35 170 -250 170q-124 0 -182.5 -41.5t-58.5 -111.5q0 -67 45.5 -103.5 t154.5 -56.5l127 -23q194 -33 280.5 -104.5t86.5 -216.5q0 -148 -112 -235t-322 -87q-209 0 -334.5 82.5t-138.5 257.5z" />
<glyph unicode="t" horiz-adv-x="724" d="M35 907v154h164v287h194v-287h277v-154h-277v-620q0 -77 37.5 -113.5t97.5 -36.5t140 23l22 -148q-75 -35 -184 -35q-307 0 -307 316v614h-164z" />
<glyph unicode="u" horiz-adv-x="1175" d="M127 356v705h195v-668q0 -134 64 -197t173 -63q117 0 207 84q48 42 64 89.5t16 125.5v629h194v-1061h-190v129q-54 -80 -146.5 -121t-193.5 -41q-182 0 -282.5 99.5t-100.5 289.5z" />
<glyph unicode="v" horiz-adv-x="1077" d="M14 1061h224l303 -850l313 850h211l-422 -1061h-209z" />
<glyph unicode="w" horiz-adv-x="1513" d="M16 1061h209l207 -830l238 824h188l232 -817l206 823h201l-309 -1061h-201l-231 825l-234 -825h-198z" />
<glyph unicode="x" horiz-adv-x="1042" d="M23 0l389 555l-353 506h226l243 -367l254 367h205l-348 -502l383 -559h-221l-283 420l-285 -420h-210z" />
<glyph unicode="y" horiz-adv-x="1083" d="M14 1061h224l323 -813l295 813h211l-461 -1153l-125 -328h-198l180 455z" />
<glyph unicode="z" horiz-adv-x="964" d="M57 0v141l609 764h-596v156h833v-141l-606 -764h637v-156h-877z" />
<glyph unicode="{" horiz-adv-x="608" d="M53 543v164h13q71 0 103 38t32 113v383q0 138 68 200t198 62h127v-162h-98q-107 0 -107 -108v-418q0 -154 -121 -190q121 -33 121 -191v-418q0 -106 107 -106h98v-164h-127q-130 0 -198 62t-68 200v383q0 75 -32 113.5t-103 38.5h-13z" />
<glyph unicode="|" horiz-adv-x="479" d="M143 -254v1757h191v-1757h-191z" />
<glyph unicode="}" horiz-adv-x="608" d="M14 -90h97q108 0 108 106v418q0 159 121 191q-121 35 -121 190v418q0 108 -108 108h-97v162h125q130 0 198.5 -62t68.5 -200v-383q0 -75 32 -113t105 -38h10v-164h-10q-73 0 -105 -38.5t-32 -113.5v-383q0 -138 -68.5 -200t-198.5 -62h-125v164z" />
<glyph unicode="~" horiz-adv-x="1212" d="M84 506q0 371 299 371q59 0 117.5 -27t142.5 -92q58 -45 97.5 -67.5t78.5 -22.5q72 0 104.5 44t32.5 144h168q0 -371 -293 -371q-109 0 -262 121q-63 49 -102.5 69.5t-73.5 20.5q-73 0 -105 -45t-32 -145h-172z" />
<glyph unicode="&#xa1;" horiz-adv-x="483" d="M137 817v246h211v-246h-211zM143 -395l9 1032h182l10 -1032h-201z" />
<glyph unicode="&#xa2;" horiz-adv-x="1212" d="M135 711q0 237 116.5 385.5t321.5 173.5v182h134v-180q160 -14 258 -100t127 -246l-191 -33q-31 188 -194 219v-790q93 14 140.5 72t63.5 153h193q-52 -352 -397 -385v-180h-134v178q-210 19 -324 162.5t-114 388.5zM334 715q0 -166 61 -267t178 -124v786 q-239 -48 -239 -395z" />
<glyph unicode="&#xa3;" horiz-adv-x="1212" d="M133 629v157h131q-22 150 -22 224q0 201 117.5 322.5t320.5 121.5q185 0 288 -79.5t136 -256.5l-172 -33q-32 114 -84 159.5t-162 45.5q-130 0 -194 -75t-64 -203q0 -47 23 -226h454v-157h-432q4 -62 4 -88q0 -114 -20 -204t-78 -165h745v-172h-948v154q121 134 121 358 q0 42 -10 117h-154z" />
<glyph unicode="&#xa4;" horiz-adv-x="1212" d="M115 272l118 127q-86 125 -86 306q0 184 86 309l-116 127l119 116l118 -129q109 68 252 68q139 0 250 -68l121 129l121 -116l-123 -129q82 -124 82 -301q0 -186 -84 -308l125 -131l-121 -112l-123 127q-111 -68 -256 -68q-140 0 -244 66l-118 -125zM322 707 q0 -156 68.5 -247t211.5 -91q147 0 215 90.5t68 247.5q0 159 -68 250.5t-215 91.5q-143 0 -211.5 -92t-68.5 -250z" />
<glyph unicode="&#xa5;" horiz-adv-x="1212" d="M45 1415h211l356 -651l359 651h196l-356 -627h264v-139h-346l-22 -39v-153h368v-140h-368v-317h-195v317h-367v140h367v153l-23 39h-344v139h263z" />
<glyph unicode="&#xa6;" horiz-adv-x="479" d="M143 -254v715h191v-715h-191zM143 799v704h191v-704h-191z" />
<glyph unicode="&#xa7;" horiz-adv-x="1087" d="M82 115h190q18 -114 86 -160.5t203 -46.5q137 0 192.5 42.5t55.5 121.5q0 32 -7 56.5t-26.5 49t-57.5 44t-95 34.5l-181 47q-84 22 -141.5 46.5t-106 63.5t-72.5 96.5t-24 135.5q0 92 51.5 163.5t147.5 109.5q-96 40 -144.5 103t-48.5 163q0 150 121 232.5t322 82.5 q380 0 450 -297l-176 -37q-21 61 -49 97.5t-83 58.5t-140 22q-258 0 -258 -161q0 -61 39 -102t149 -70l185 -47q174 -44 258 -121.5t84 -206.5q0 -97 -52 -170.5t-151 -112.5q192 -87 192 -280q0 -85 -33 -148t-92.5 -100t-135.5 -54.5t-169 -17.5q-97 0 -175 16.5t-146 56 t-110 112.5t-52 178zM270 649q0 -69 42.5 -116.5t152.5 -79.5l63 -17q44 -12 84 -12q92 0 154.5 54t62.5 136q0 72 -43 119.5t-151 75.5l-86 22q-44 13 -76 13q-95 0 -149 -54t-54 -141z" />
<glyph unicode="&#xa8;" horiz-adv-x="1173" d="M326 1360q0 51 29 80.5t81 29.5t81.5 -29.5t29.5 -80.5q0 -50 -29.5 -79.5t-81.5 -29.5t-81 29.5t-29 79.5zM694 1360q0 51 29.5 80.5t81.5 29.5t81 -29.5t29 -80.5q0 -50 -29 -79.5t-81 -29.5t-81.5 29.5t-29.5 79.5z" />
<glyph unicode="&#xa9;" horiz-adv-x="1624" d="M90 731q0 162 58 300t156.5 232t230 146.5t276.5 52.5q208 0 371 -89.5t255.5 -256.5t92.5 -385q0 -162 -57.5 -300t-155.5 -232t-229 -146.5t-277 -52.5q-208 0 -371.5 89.5t-256.5 257t-93 384.5zM246 731q0 -174 73.5 -309.5t201.5 -209t288 -73.5q245 0 405 164.5 t160 427.5q0 175 -73.5 310t-202 207.5t-289.5 72.5q-246 0 -404.5 -163t-158.5 -427zM422 727q0 183 111.5 297.5t285.5 114.5q144 0 235.5 -71.5t112.5 -193.5l-157 -26q-14 72 -64.5 112.5t-128.5 40.5q-108 0 -166.5 -75.5t-58.5 -194.5q0 -121 59.5 -195.5t163.5 -74.5 q78 0 134 39t67 114h162q-20 -137 -115.5 -214.5t-247.5 -77.5q-181 0 -287 110t-106 295z" />
<glyph unicode="&#xaa;" horiz-adv-x="872" d="M80 920q0 248 338 254l190 4v30q0 89 -39 130.5t-127 41.5q-84 0 -124.5 -28t-55.5 -82l-139 16q44 213 326 213q167 0 240 -76t73 -223v-500h-150v93q-101 -113 -252 -113q-126 0 -203 63t-77 177zM240 930q0 -125 149 -125q103 0 170 67q49 55 49 127v68l-172 -2 q-102 -2 -149 -34t-47 -101z" />
<glyph unicode="&#xab;" horiz-adv-x="1040" d="M86 526l279 457h196l-254 -455l254 -460h-201zM508 526l278 457h197l-254 -455l254 -460h-201z" />
<glyph unicode="&#xac;" horiz-adv-x="1212" d="M135 717v170h909v-551h-176v381h-733z" />
<glyph unicode="&#xad;" horiz-adv-x="802" d="M96 504v192h611v-192h-611z" />
<glyph unicode="&#xae;" horiz-adv-x="993" d="M68 1057q0 199 120.5 320.5t307.5 121.5q196 0 312 -119.5t116 -322.5q0 -199 -119 -322t-309 -123q-196 0 -312 121t-116 324zM178 1057q0 -163 85.5 -254.5t230.5 -91.5q144 0 231.5 92.5t87.5 253.5t-87.5 252.5t-231.5 91.5q-146 0 -231 -91t-85 -253zM330 852v424 h162q180 0 180 -131q0 -85 -70 -117l90 -176h-110l-76 154h-76v-154h-100zM430 1090h70q33 0 50 8.5t20 18.5t3 28q0 49 -84 49h-59v-104z" />
<glyph unicode="&#xaf;" horiz-adv-x="1173" d="M350 1274v149h543v-149h-543z" />
<glyph unicode="&#xb0;" horiz-adv-x="694" d="M55 1171q0 124 83.5 206.5t209.5 82.5q127 0 209 -82t82 -207q0 -126 -82 -208t-209 -82q-126 0 -209.5 82t-83.5 208zM201 1171q0 -71 40 -112t107 -41q66 0 106 41t40 112q0 68 -41 111t-105 43q-66 0 -106.5 -43t-40.5 -111z" />
<glyph unicode="&#xb1;" horiz-adv-x="1212" d="M129 659v168h389v373h178v-373h387v-168h-387v-372h-178v372h-389zM162 0v170h889v-170h-889z" />
<glyph unicode="&#xb2;" horiz-adv-x="843" d="M106 1423q67 254 322 254q133 0 210 -66t77 -181q0 -102 -50 -181t-173 -178q-13 -11 -130 -102h353v-140h-592v125q61 49 237 195q76 64 112 101t55.5 77t19.5 90q0 58 -32.5 89.5t-90.5 31.5q-127 0 -164 -137z" />
<glyph unicode="&#xb3;" horiz-adv-x="843" d="M104 1077h150q9 -74 47.5 -111.5t118.5 -37.5q151 0 151 135q0 123 -141 123h-94v131h94q59 0 93 29.5t34 89.5q0 112 -137 112q-69 0 -106.5 -31t-55.5 -100l-147 23q9 46 29 85t55 75t92.5 56.5t132.5 20.5q144 0 219.5 -61.5t75.5 -163.5q0 -64 -26 -107.5t-79 -80.5 q123 -55 123 -201q0 -123 -77 -194.5t-232 -71.5q-141 0 -226 72.5t-94 207.5z" />
<glyph unicode="&#xb4;" horiz-adv-x="1173" d="M498 1210l235 297h234l-281 -297h-188z" />
<glyph unicode="&#xb5;" horiz-adv-x="1204" d="M135 -397v1458h195v-676q0 -133 67.5 -192.5t180.5 -59.5q125 0 215 90q81 78 81 193v645h195v-1061h-192v137q-56 -82 -142.5 -124t-181.5 -42q-146 0 -223 74v-442h-195z" />
<glyph unicode="&#xb6;" horiz-adv-x="1261" d="M43 1026q0 222 150 329t423 107h502v-1747h-190v1585h-236v-1585h-190v881q-215 8 -337 117.5t-122 312.5z" />
<glyph unicode="&#xb7;" horiz-adv-x="466" d="M119 782q0 54 30 84.5t84 30.5t84.5 -30.5t30.5 -84.5t-30.5 -84t-84.5 -30t-84 30t-30 84z" />
<glyph unicode="&#xb8;" horiz-adv-x="1173" d="M434 -301q68 -8 123 -8q113 0 113 61q0 22 -12 36.5t-35.5 20.5t-43 7.5t-49.5 1.5h-45l72 192h121l-39 -106q186 -24 186 -164q0 -89 -67.5 -128.5t-196.5 -39.5q-68 0 -127 10v117z" />
<glyph unicode="&#xb9;" horiz-adv-x="843" d="M133 1501l258 148h166v-820h-172v648l-186 -99z" />
<glyph unicode="&#xba;" horiz-adv-x="880" d="M55 1083q0 192 105.5 304t281.5 112q177 0 279 -110.5t102 -301.5t-103.5 -303t-281.5 -112q-177 0 -280 110.5t-103 300.5zM219 1083q0 -128 54.5 -202t166.5 -74q113 0 167.5 74t54.5 204q0 129 -55 205t-167 76q-111 0 -166 -76.5t-55 -206.5z" />
<glyph unicode="&#xbb;" horiz-adv-x="1040" d="M59 68l254 452l-254 463h201l275 -461l-279 -454h-197zM485 68l254 452l-254 463h201l275 -461l-279 -454h-197z" />
<glyph unicode="&#xbc;" horiz-adv-x="1873" d="M133 1264l258 147h166v-819h-172v647l-186 -98zM485 0l713 1415h188l-712 -1415h-189zM1114 188v107l404 524h151v-506h103l-21 -125h-82v-188h-156v188h-399zM1282 313h231v301z" />
<glyph unicode="&#xbd;" horiz-adv-x="1873" d="M133 1264l258 147h166v-819h-172v647l-186 -98zM485 0l713 1415h188l-712 -1415h-189zM1137 594q67 254 321 254q132 0 209.5 -66.5t77.5 -181.5q0 -102 -50 -180.5t-173 -177.5q-29 -25 -129 -103h352v-139h-592v125q137 110 238 194q110 93 148 145t38 124 q0 58 -32.5 89.5t-90.5 31.5q-126 0 -164 -138z" />
<glyph unicode="&#xbe;" horiz-adv-x="1873" d="M104 840h150q9 -74 47.5 -112t118.5 -38q151 0 151 135q0 123 -141 123h-94v131h94q59 0 93 29.5t34 89.5q0 113 -137 113q-69 0 -106.5 -31t-55.5 -100l-147 22q9 46 29 85.5t55 75.5t92.5 56.5t132.5 20.5q144 0 219.5 -62t75.5 -164q0 -64 -26 -107.5t-79 -80.5 q123 -55 123 -201q0 -123 -77 -194.5t-232 -71.5q-141 0 -226 73t-94 208zM485 0l713 1415h188l-712 -1415h-189zM1114 188v107l404 524h151v-506h103l-21 -125h-82v-188h-156v188h-399zM1282 313h231v301z" />
<glyph unicode="&#xbf;" horiz-adv-x="1021" d="M78 -47q0 111 42 189.5t122 158.5q78 74 115 117.5t58 90.5t21 103v25h189v-31q0 -67 -17 -114q-17 -49 -61.5 -106t-138.5 -153q-34 -37 -48.5 -54t-38 -52t-33 -71t-9.5 -79q0 -114 60.5 -175.5t172.5 -61.5q127 0 194.5 57.5t100.5 186.5l178 -27q-15 -81 -48 -147.5 t-88.5 -121t-141.5 -84.5t-197 -30q-205 0 -318.5 104t-113.5 275zM416 956q0 54 30 84.5t84 30.5t84.5 -30.5t30.5 -84.5t-30.5 -84t-84.5 -30t-84 30t-30 84z" />
<glyph unicode="&#xc0;" horiz-adv-x="1394" d="M25 0l563 1462h221l561 -1462h-221l-148 397h-616l-149 -397h-211zM342 1864h238l239 -281h-190zM444 573h498l-250 668z" />
<glyph unicode="&#xc1;" horiz-adv-x="1394" d="M25 0l563 1462h221l561 -1462h-221l-148 397h-616l-149 -397h-211zM444 573h498l-250 668zM573 1583l240 281h238l-287 -281h-191z" />
<glyph unicode="&#xc2;" horiz-adv-x="1394" d="M25 0l563 1462h221l561 -1462h-221l-148 397h-616l-149 -397h-211zM365 1614l235 297h191l235 -297h-182l-150 174l-149 -174h-180zM444 573h498l-250 668z" />
<glyph unicode="&#xc3;" horiz-adv-x="1394" d="M25 0l563 1462h221l561 -1462h-221l-148 397h-616l-149 -397h-211zM354 1585q0 281 193 281q53 0 93.5 -19.5t92.5 -70.5q66 -66 103 -66q22 0 36 14t19.5 39.5t7.5 46.5t2 50h135q0 -281 -192 -281q-55 0 -94.5 19t-92.5 71l-5 5q-18 18 -29 28t-31 21.5t-37 11.5 q-66 0 -66 -150h-135zM444 573h498l-250 668z" />
<glyph unicode="&#xc4;" horiz-adv-x="1394" d="M25 0l563 1462h221l561 -1462h-221l-148 397h-616l-149 -397h-211zM399 1763q0 51 29.5 81t81.5 30t81.5 -30t29.5 -81q0 -50 -29.5 -79t-81.5 -29t-81.5 29t-29.5 79zM444 573h498l-250 668zM768 1763q0 51 29.5 81t81.5 30t81 -30t29 -81q0 -50 -29 -79t-81 -29 t-81.5 29t-29.5 79z" />
<glyph unicode="&#xc5;" horiz-adv-x="1394" d="M25 0l563 1462h221l561 -1462h-221l-148 397h-616l-149 -397h-211zM444 573h498l-250 668zM483 1817q0 99 61 155t150 56q90 0 152.5 -56.5t62.5 -154.5q0 -99 -62.5 -154t-152.5 -55t-150.5 54.5t-60.5 154.5zM600 1817q0 -50 24.5 -76.5t69.5 -26.5q47 0 73 26.5 t26 76.5q0 104 -99 104q-94 0 -94 -104z" />
<glyph unicode="&#xc6;" horiz-adv-x="2136" d="M12 0l885 1462h1131v-178h-703v-442h662v-178h-662v-486h727v-178h-924v477h-606l-280 -477h-230zM623 651h505v633h-133z" />
<glyph unicode="&#xc7;" horiz-adv-x="1517" d="M109 729q0 163 44.5 302.5t128 244t213 164t289.5 59.5q256 0 426 -128t207 -367l-200 -41q-29 161 -141.5 259.5t-293.5 98.5q-215 0 -336.5 -155.5t-121.5 -434.5q0 -276 133.5 -433t351.5 -157q180 0 285 93t123 251h208q-7 -107 -52 -201t-122 -166t-191.5 -113.5 t-252.5 -41.5h-16l-23 -59q186 -24 186 -164q0 -89 -67.5 -128.5t-196.5 -39.5q-68 0 -127 10v117q68 -8 123 -8q113 0 113 61q0 22 -12 36.5t-35.5 20.5t-43 7.5t-49.5 1.5h-45l58 155q-259 43 -411 242t-152 514z" />
<glyph unicode="&#xc8;" horiz-adv-x="1222" d="M162 0v1462h962v-178h-757v-442h716v-178h-716v-486h774v-178h-979zM256 1864h238l239 -281h-190z" />
<glyph unicode="&#xc9;" horiz-adv-x="1222" d="M162 0v1462h962v-178h-757v-442h716v-178h-716v-486h774v-178h-979zM487 1583l240 281h238l-287 -281h-191z" />
<glyph unicode="&#xca;" horiz-adv-x="1222" d="M162 0v1462h962v-178h-757v-442h716v-178h-716v-486h774v-178h-979zM279 1614l235 297h191l235 -297h-182l-150 174l-149 -174h-180z" />
<glyph unicode="&#xcb;" horiz-adv-x="1222" d="M162 0v1462h962v-178h-757v-442h716v-178h-716v-486h774v-178h-979zM313 1763q0 51 29.5 81t81.5 30t81.5 -30t29.5 -81q0 -50 -29.5 -79t-81.5 -29t-81.5 29t-29.5 79zM682 1763q0 51 29.5 81t81.5 30t81 -30t29 -81q0 -50 -29 -79t-81 -29t-81.5 29t-29.5 79z" />
<glyph unicode="&#xcc;" horiz-adv-x="524" d="M-92 1864h237l240 -281h-190zM160 0v1462h205v-1462h-205z" />
<glyph unicode="&#xcd;" horiz-adv-x="524" d="M139 1583l240 281h237l-286 -281h-191zM160 0v1462h205v-1462h-205z" />
<glyph unicode="&#xce;" horiz-adv-x="524" d="M-70 1614l236 297h190l236 -297h-182l-150 174l-149 -174h-181zM160 0v1462h205v-1462h-205z" />
<glyph unicode="&#xcf;" horiz-adv-x="524" d="M-35 1763q0 51 29.5 81t81.5 30t81 -30t29 -81q0 -50 -29 -79t-81 -29t-81.5 29t-29.5 79zM160 0v1462h205v-1462h-205zM334 1763q0 51 29 81t81 30t81.5 -30t29.5 -81q0 -50 -29.5 -79t-81.5 -29t-81 29t-29 79z" />
<glyph unicode="&#xd0;" horiz-adv-x="1497" d="M20 668v172h168v622h457q358 0 552 -181.5t194 -539.5q0 -363 -208 -552t-583 -189h-412v668h-168zM393 178h217q287 0 427.5 145t140.5 414q0 549 -531 549h-254v-446h361v-172h-361v-490z" />
<glyph unicode="&#xd1;" horiz-adv-x="1480" d="M162 0v1462h198l762 -1134v1134h199v-1462h-195l-768 1130v-1130h-196zM399 1585q0 281 193 281q53 0 93.5 -19.5t92.5 -70.5q66 -66 103 -66q22 0 36 14t19.5 39.5t7.5 46.5t2 50h135q0 -281 -192 -281q-55 0 -94.5 19t-92.5 71l-5 5q-18 18 -29 28t-31 21.5t-37 11.5 q-22 0 -36 -14t-19.5 -39.5t-7.5 -46.5t-2 -50h-136z" />
<glyph unicode="&#xd2;" horiz-adv-x="1607" d="M109 731q0 167 47 307.5t134.5 243t219.5 160t295 57.5q318 0 506 -205t188 -559q0 -355 -187 -562.5t-509 -207.5q-321 0 -507.5 208t-186.5 558zM326 731q0 -271 124 -427.5t355 -156.5q229 0 353 157t124 427q0 275 -123.5 430.5t-353.5 155.5t-354.5 -157 t-124.5 -429zM451 1864h237l240 -281h-191z" />
<glyph unicode="&#xd3;" horiz-adv-x="1607" d="M109 731q0 167 47 307.5t134.5 243t219.5 160t295 57.5q318 0 506 -205t188 -559q0 -355 -187 -562.5t-509 -207.5q-321 0 -507.5 208t-186.5 558zM326 731q0 -271 124 -427.5t355 -156.5q229 0 353 157t124 427q0 275 -123.5 430.5t-353.5 155.5t-354.5 -157 t-124.5 -429zM682 1583l240 281h237l-287 -281h-190z" />
<glyph unicode="&#xd4;" horiz-adv-x="1607" d="M109 731q0 167 47 307.5t134.5 243t219.5 160t295 57.5q318 0 506 -205t188 -559q0 -355 -187 -562.5t-509 -207.5q-321 0 -507.5 208t-186.5 558zM326 731q0 -271 124 -427.5t355 -156.5q229 0 353 157t124 427q0 275 -123.5 430.5t-353.5 155.5t-354.5 -157 t-124.5 -429zM473 1614l236 297h190l236 -297h-183l-149 174l-150 -174h-180z" />
<glyph unicode="&#xd5;" horiz-adv-x="1607" d="M109 731q0 167 47 307.5t134.5 243t219.5 160t295 57.5q318 0 506 -205t188 -559q0 -355 -187 -562.5t-509 -207.5q-321 0 -507.5 208t-186.5 558zM326 731q0 -271 124 -427.5t355 -156.5q229 0 353 157t124 427q0 275 -123.5 430.5t-353.5 155.5t-354.5 -157 t-124.5 -429zM463 1585q0 281 192 281q53 0 94 -19.5t93 -70.5q66 -66 102 -66q66 0 66 150h135q0 -281 -193 -281q-55 0 -94 19t-92 71l-5 5q-18 18 -29 28t-31 21.5t-37 11.5q-66 0 -66 -150h-135z" />
<glyph unicode="&#xd6;" horiz-adv-x="1607" d="M109 731q0 167 47 307.5t134.5 243t219.5 160t295 57.5q318 0 506 -205t188 -559q0 -355 -187 -562.5t-509 -207.5q-321 0 -507.5 208t-186.5 558zM326 731q0 -271 124 -427.5t355 -156.5q229 0 353 157t124 427q0 275 -123.5 430.5t-353.5 155.5t-354.5 -157 t-124.5 -429zM508 1763q0 51 29 81t81 30t81.5 -30t29.5 -81q0 -50 -29.5 -79t-81.5 -29t-81 29t-29 79zM877 1763q0 51 29 81t81 30t81.5 -30t29.5 -81q0 -50 -29.5 -79t-81.5 -29t-81 29t-29 79z" />
<glyph unicode="&#xd7;" horiz-adv-x="1212" d="M162 1020l119 117l325 -324l326 324l119 -117l-326 -328l313 -313l-118 -121l-314 313l-313 -313l-117 121l313 313z" />
<glyph unicode="&#xd8;" horiz-adv-x="1605" d="M109 731q0 167 47 307.5t134.5 243t219.5 160t295 57.5q213 0 373 -94l114 168l121 -84l-121 -176q207 -204 207 -578q0 -355 -187 -562.5t-509 -207.5q-214 0 -371 94l-117 -170l-120 82l122 179q-208 208 -208 581zM326 731q0 -258 110 -407l631 921q-107 72 -262 72 q-230 0 -354.5 -157t-124.5 -429zM543 219q107 -72 262 -72q229 0 353 157t124 427q0 260 -108 410z" />
<glyph unicode="&#xd9;" horiz-adv-x="1406" d="M125 571v891h205v-901q0 -207 94 -313.5t281 -106.5q185 0 278.5 106.5t93.5 313.5v901h205v-899q0 -287 -150 -443.5t-430 -156.5t-428.5 158t-148.5 450zM348 1864h238l239 -281h-190z" />
<glyph unicode="&#xda;" horiz-adv-x="1406" d="M125 571v891h205v-901q0 -207 94 -313.5t281 -106.5q185 0 278.5 106.5t93.5 313.5v901h205v-899q0 -287 -150 -443.5t-430 -156.5t-428.5 158t-148.5 450zM580 1583l239 281h238l-287 -281h-190z" />
<glyph unicode="&#xdb;" horiz-adv-x="1406" d="M125 571v891h205v-901q0 -207 94 -313.5t281 -106.5q185 0 278.5 106.5t93.5 313.5v901h205v-899q0 -287 -150 -443.5t-430 -156.5t-428.5 158t-148.5 450zM371 1614l235 297h191l235 -297h-182l-148 174l-151 -174h-180z" />
<glyph unicode="&#xdc;" horiz-adv-x="1406" d="M125 571v891h205v-901q0 -207 94 -313.5t281 -106.5q185 0 278.5 106.5t93.5 313.5v901h205v-899q0 -287 -150 -443.5t-430 -156.5t-428.5 158t-148.5 450zM406 1763q0 51 29 81t81 30t81.5 -30t29.5 -81q0 -50 -29.5 -79t-81.5 -29t-81 29t-29 79zM774 1763 q0 51 29.5 81t81.5 30t81 -30t29 -81q0 -50 -29 -79t-81 -29t-81.5 29t-29.5 79z" />
<glyph unicode="&#xdd;" horiz-adv-x="1267" d="M27 1462h233l377 -671l387 671h215l-498 -846v-616h-206v614zM512 1583l240 281h237l-287 -281h-190z" />
<glyph unicode="&#xde;" horiz-adv-x="1286" d="M160 0v1462h200v-268h293q127 0 224 -23.5t170.5 -74t112 -136t38.5 -204.5q0 -243 -140.5 -354t-404.5 -111h-293v-291h-200zM360 463h291q192 0 268 70t76 217q0 144 -77.5 208t-268.5 64h-289v-559z" />
<glyph unicode="&#xdf;" horiz-adv-x="1189" d="M137 0v1051q0 197 126 312.5t329 115.5q206 0 325 -107.5t119 -277.5q0 -120 -56.5 -204.5t-154.5 -125.5q130 -33 209.5 -132.5t79.5 -242.5q0 -184 -116 -298t-322 -114q-118 0 -225 35l30 150q79 -27 176 -27q128 0 196.5 68.5t68.5 193.5q0 129 -89.5 194.5 t-250.5 65.5h-99v156h82q133 0 207 69.5t74 194.5q0 111 -64.5 179.5t-183.5 68.5q-127 0 -199.5 -71.5t-72.5 -204.5v-1049h-189z" />
<glyph unicode="&#xe0;" horiz-adv-x="1107" d="M70 297q0 161 114 247t328 89l276 2v63q0 129 -59.5 187.5t-185.5 58.5q-218 0 -250 -164l-176 23q24 131 137.5 211t296.5 80q224 0 326 -104t102 -304v-686h-186v133q-53 -74 -144.5 -116t-214.5 -42q-164 0 -264 84t-100 238zM211 1507h233l236 -297h-188zM264 303 q0 -80 50 -127t153 -47q154 0 237.5 74t83.5 209v90l-266 -2q-130 -2 -194 -47.5t-64 -149.5z" />
<glyph unicode="&#xe1;" horiz-adv-x="1107" d="M70 297q0 161 114 247t328 89l276 2v63q0 129 -59.5 187.5t-185.5 58.5q-218 0 -250 -164l-176 23q24 131 137.5 211t296.5 80q224 0 326 -104t102 -304v-686h-186v133q-53 -74 -144.5 -116t-214.5 -42q-164 0 -264 84t-100 238zM264 303q0 -80 50 -127t153 -47 q154 0 237.5 74t83.5 209v90l-266 -2q-130 -2 -194 -47.5t-64 -149.5zM438 1210l236 297h233l-280 -297h-189z" />
<glyph unicode="&#xe2;" horiz-adv-x="1107" d="M70 297q0 161 114 247t328 89l276 2v63q0 129 -59.5 187.5t-185.5 58.5q-218 0 -250 -164l-176 23q24 131 137.5 211t296.5 80q224 0 326 -104t102 -304v-686h-186v133q-53 -74 -144.5 -116t-214.5 -42q-164 0 -264 84t-100 238zM223 1210l236 297h190l236 -297h-183 l-149 174l-150 -174h-180zM264 303q0 -80 50 -127t153 -47q154 0 237.5 74t83.5 209v90l-266 -2q-130 -2 -194 -47.5t-64 -149.5z" />
<glyph unicode="&#xe3;" horiz-adv-x="1107" d="M70 297q0 161 114 247t328 89l276 2v63q0 129 -59.5 187.5t-185.5 58.5q-218 0 -250 -164l-176 23q24 131 137.5 211t296.5 80q224 0 326 -104t102 -304v-686h-186v133q-53 -74 -144.5 -116t-214.5 -42q-164 0 -264 84t-100 238zM219 1221q0 282 193 282q53 0 91 -19 t89 -71q1 -2 10.5 -12t13 -13.5l12 -12t14 -12t13.5 -8.5t15.5 -7t15.5 -2q70 0 70 151h133q0 -140 -49 -211.5t-144 -71.5q-54 0 -91.5 20.5t-86.5 72.5q-19 20 -29 30t-30 22.5t-37 12.5q-68 0 -68 -151h-135zM264 303q0 -80 50 -127t153 -47q154 0 237.5 74t83.5 209v90 l-266 -2q-130 -2 -194 -47.5t-64 -149.5z" />
<glyph unicode="&#xe4;" horiz-adv-x="1107" d="M70 297q0 161 114 247t328 89l276 2v63q0 129 -59.5 187.5t-185.5 58.5q-218 0 -250 -164l-176 23q24 131 137.5 211t296.5 80q224 0 326 -104t102 -304v-686h-186v133q-53 -74 -144.5 -116t-214.5 -42q-164 0 -264 84t-100 238zM258 1360q0 51 29.5 80.5t81.5 29.5 t81 -29.5t29 -80.5q0 -50 -29 -79.5t-81 -29.5t-81.5 29.5t-29.5 79.5zM264 303q0 -80 50 -127t153 -47q154 0 237.5 74t83.5 209v90l-266 -2q-130 -2 -194 -47.5t-64 -149.5zM627 1360q0 51 29 80.5t81 29.5t81.5 -29.5t29.5 -80.5q0 -50 -29.5 -79.5t-81.5 -29.5t-81 29.5 t-29 79.5z" />
<glyph unicode="&#xe5;" horiz-adv-x="1107" d="M70 297q0 161 114 247t328 89l276 2v63q0 129 -59.5 187.5t-185.5 58.5q-218 0 -250 -164l-176 23q24 131 137.5 211t296.5 80q224 0 326 -104t102 -304v-686h-186v133q-53 -74 -144.5 -116t-214.5 -42q-164 0 -264 84t-100 238zM264 303q0 -80 50 -127t153 -47 q154 0 237.5 74t83.5 209v90l-266 -2q-130 -2 -194 -47.5t-64 -149.5zM342 1413q0 99 61 155t150 56q90 0 152.5 -56.5t62.5 -154.5q0 -99 -62.5 -154t-152.5 -55t-150.5 54.5t-60.5 154.5zM459 1413q0 -50 24.5 -76t69.5 -26q47 0 72.5 26t25.5 76q0 105 -98 105 q-94 0 -94 -105z" />
<glyph unicode="&#xe6;" horiz-adv-x="1832" d="M70 293q0 100 41.5 170.5t117.5 109.5t164.5 57t202.5 21l182 6v33q0 135 -53 194.5t-178 59.5q-114 0 -172 -38.5t-76 -114.5l-176 20q37 148 141 215.5t295 67.5q125 0 214.5 -48t129.5 -137q132 185 365 185q230 0 348.5 -138.5t118.5 -380.5v-92h-772 q9 -170 86.5 -266t220.5 -96q118 0 178.5 45t85.5 135h184q-27 -161 -138.5 -247.5t-309.5 -86.5q-274 0 -400 215q-119 -207 -426 -207q-172 0 -273 81t-101 237zM264 299q0 -92 56 -131t159 -39q136 0 217.5 76.5t81.5 206.5v112l-170 -6q-60 -2 -103 -7t-91.5 -19 t-79 -36.5t-50.5 -62.5t-20 -94zM967 621h579q-5 160 -71 242.5t-209 82.5q-268 0 -299 -325z" />
<glyph unicode="&#xe7;" horiz-adv-x="1208" d="M100 526q0 257 144 412.5t381 155.5q195 0 329.5 -100t155.5 -275l-190 -23q-21 109 -99.5 173.5t-202.5 64.5q-153 0 -234 -109.5t-81 -294.5q0 -180 84 -291.5t248 -111.5q123 0 199.5 62.5t91.5 172.5h194q-23 -182 -151 -288t-330 -107l-25 -63q187 -25 187 -164 q0 -89 -67.5 -128.5t-196.5 -39.5q-68 0 -127 10v117q68 -8 122 -8q113 0 113 61q0 22 -12 36.5t-35 20.5t-42.5 7.5t-49.5 1.5h-45l59 159q-194 33 -307 179t-113 370z" />
<glyph unicode="&#xe8;" horiz-adv-x="1191" d="M102 522q0 258 137.5 415t364.5 157q235 0 362.5 -139.5t127.5 -379.5v-92h-797q9 -174 93 -268t226 -94q234 0 277 180h186q-28 -157 -148 -245.5t-315 -88.5q-238 0 -376 150t-138 405zM252 1507h233l236 -297h-189zM299 621h602q-21 325 -299 325q-271 0 -303 -325z " />
<glyph unicode="&#xe9;" horiz-adv-x="1191" d="M102 522q0 258 137.5 415t364.5 157q235 0 362.5 -139.5t127.5 -379.5v-92h-797q9 -174 93 -268t226 -94q234 0 277 180h186q-28 -157 -148 -245.5t-315 -88.5q-238 0 -376 150t-138 405zM299 621h602q-21 325 -299 325q-271 0 -303 -325zM479 1210l236 297h233 l-280 -297h-189z" />
<glyph unicode="&#xea;" horiz-adv-x="1191" d="M102 522q0 258 137.5 415t364.5 157q235 0 362.5 -139.5t127.5 -379.5v-92h-797q9 -174 93 -268t226 -94q234 0 277 180h186q-28 -157 -148 -245.5t-315 -88.5q-238 0 -376 150t-138 405zM264 1210l236 297h190l236 -297h-183l-149 174l-150 -174h-180zM299 621h602 q-21 325 -299 325q-271 0 -303 -325z" />
<glyph unicode="&#xeb;" horiz-adv-x="1191" d="M102 522q0 258 137.5 415t364.5 157q235 0 362.5 -139.5t127.5 -379.5v-92h-797q9 -174 93 -268t226 -94q234 0 277 180h186q-28 -157 -148 -245.5t-315 -88.5q-238 0 -376 150t-138 405zM299 621h602q-21 325 -299 325q-271 0 -303 -325zM299 1360q0 51 29.5 80.5 t81.5 29.5t81 -29.5t29 -80.5q0 -50 -29 -79.5t-81 -29.5t-81.5 29.5t-29.5 79.5zM668 1360q0 51 29 80.5t81 29.5t81.5 -29.5t29.5 -80.5q0 -50 -29.5 -79.5t-81.5 -29.5t-81 29.5t-29 79.5z" />
<glyph unicode="&#xec;" horiz-adv-x="471" d="M-106 1507h233l235 -297h-188zM139 0v1061h195v-1061h-195z" />
<glyph unicode="&#xed;" horiz-adv-x="471" d="M121 1210l235 297h234l-281 -297h-188zM139 0v1061h195v-1061h-195z" />
<glyph unicode="&#xee;" horiz-adv-x="471" d="M-94 1210l235 297h191l235 -297h-182l-149 174l-150 -174h-180zM139 0v1061h195v-1061h-195z" />
<glyph unicode="&#xef;" horiz-adv-x="471" d="M-59 1360q0 51 29 80.5t81 29.5t81.5 -29.5t29.5 -80.5q0 -50 -29.5 -79.5t-81.5 -29.5t-81 29.5t-29 79.5zM139 0v1061h195v-1061h-195zM309 1360q0 51 29.5 80.5t81.5 29.5t81 -29.5t29 -80.5q0 -50 -29 -79.5t-81 -29.5t-81.5 29.5t-29.5 79.5z" />
<glyph unicode="&#xf0;" horiz-adv-x="1234" d="M100 481q0 101 32 193.5t91.5 166.5t154 118.5t210.5 44.5q211 0 321 -119q-70 268 -280 372l-156 -153l-82 86l117 117q-108 30 -238 39l29 151q189 -13 332 -67l131 129l82 -89l-96 -96q385 -215 385 -801q0 -100 -18 -188.5t-58.5 -165.5t-100.5 -132.5t-148 -87.5 t-196 -32q-234 0 -373 139t-139 375zM303 487q0 -163 81 -261.5t232 -98.5q155 0 234.5 103t79.5 272t-83 256.5t-241 87.5q-146 0 -224.5 -100.5t-78.5 -258.5z" />
<glyph unicode="&#xf1;" horiz-adv-x="1193" d="M135 0v1061h191v-125q135 158 366 158q181 0 278 -99.5t97 -287.5v-707h-193v668q0 260 -229 260q-127 0 -217 -84q-51 -44 -74.5 -94.5t-23.5 -122.5v-627h-195zM262 1221q0 282 193 282q53 0 91 -19t89 -71q1 -2 10.5 -12t13 -13.5l12 -12t14 -12t13.5 -8.5t15.5 -7 t15.5 -2q70 0 70 151h133q0 -140 -49 -211.5t-144 -71.5q-54 0 -91.5 20.5t-86.5 72.5q-19 20 -29 30t-30 22.5t-37 12.5q-68 0 -68 -151h-135z" />
<glyph unicode="&#xf2;" horiz-adv-x="1259" d="M100 526q0 262 148 415t385 153q240 0 383 -150.5t143 -408.5q0 -260 -145 -414t-387 -154q-243 0 -385 150t-142 409zM287 1507h233l236 -297h-189zM303 530q0 -185 82.5 -294t243.5 -109q158 0 241.5 107.5t83.5 297.5q0 186 -82 294t-243 108q-160 0 -243 -109 t-83 -295z" />
<glyph unicode="&#xf3;" horiz-adv-x="1259" d="M100 526q0 262 148 415t385 153q240 0 383 -150.5t143 -408.5q0 -260 -145 -414t-387 -154q-243 0 -385 150t-142 409zM303 530q0 -185 82.5 -294t243.5 -109q158 0 241.5 107.5t83.5 297.5q0 186 -82 294t-243 108q-160 0 -243 -109t-83 -295zM514 1210l236 297h233 l-281 -297h-188z" />
<glyph unicode="&#xf4;" horiz-adv-x="1259" d="M100 526q0 262 148 415t385 153q240 0 383 -150.5t143 -408.5q0 -260 -145 -414t-387 -154q-243 0 -385 150t-142 409zM299 1210l236 297h190l236 -297h-183l-149 174l-150 -174h-180zM303 530q0 -185 82.5 -294t243.5 -109q158 0 241.5 107.5t83.5 297.5q0 186 -82 294 t-243 108q-160 0 -243 -109t-83 -295z" />
<glyph unicode="&#xf5;" horiz-adv-x="1259" d="M100 526q0 262 148 415t385 153q240 0 383 -150.5t143 -408.5q0 -260 -145 -414t-387 -154q-243 0 -385 150t-142 409zM295 1221q0 282 192 282q53 0 92 -19t89 -71q1 -2 10.5 -12t13 -13.5l12 -12t14 -12t13.5 -8.5t15.5 -7t15.5 -2q69 0 69 151h134q0 -140 -49 -211.5 t-144 -71.5q-54 0 -91.5 20.5t-86.5 72.5q-19 20 -29 30t-30 22.5t-37 12.5q-68 0 -68 -151h-135zM303 530q0 -185 82.5 -294t243.5 -109q158 0 241.5 107.5t83.5 297.5q0 186 -82 294t-243 108q-160 0 -243 -109t-83 -295z" />
<glyph unicode="&#xf6;" horiz-adv-x="1259" d="M100 526q0 262 148 415t385 153q240 0 383 -150.5t143 -408.5q0 -260 -145 -414t-387 -154q-243 0 -385 150t-142 409zM303 530q0 -185 82.5 -294t243.5 -109q158 0 241.5 107.5t83.5 297.5q0 186 -82 294t-243 108q-160 0 -243 -109t-83 -295zM334 1360q0 51 29 80.5 t81 29.5t81.5 -29.5t29.5 -80.5q0 -50 -29.5 -79.5t-81.5 -29.5t-81 29.5t-29 79.5zM702 1360q0 51 29.5 80.5t81.5 29.5t81.5 -29.5t29.5 -80.5q0 -50 -29.5 -79.5t-81.5 -29.5t-81.5 29.5t-29.5 79.5z" />
<glyph unicode="&#xf7;" horiz-adv-x="1212" d="M160 610v174h893v-174h-893zM508 213v223h199v-223h-199zM508 958v224h199v-224h-199z" />
<glyph unicode="&#xf8;" horiz-adv-x="1259" d="M100 526q0 262 148 415t385 153q152 0 264 -62l94 135l113 -77l-96 -138q151 -151 151 -417q0 -260 -145 -414t-387 -154q-148 0 -262 60l-103 -148l-110 80l102 147q-154 151 -154 420zM303 530q0 -158 62 -264l434 625q-67 43 -170 43q-160 0 -243 -109t-83 -295z M463 168q68 -41 166 -41q158 0 241.5 107.5t83.5 297.5q0 160 -57 259z" />
<glyph unicode="&#xf9;" horiz-adv-x="1175" d="M127 356v705h195v-668q0 -134 64 -197t173 -63q117 0 207 84q48 42 64 89.5t16 125.5v629h194v-1061h-190v129q-54 -80 -146.5 -121t-193.5 -41q-182 0 -282.5 99.5t-100.5 289.5zM246 1507h233l236 -297h-189z" />
<glyph unicode="&#xfa;" horiz-adv-x="1175" d="M127 356v705h195v-668q0 -134 64 -197t173 -63q117 0 207 84q48 42 64 89.5t16 125.5v629h194v-1061h-190v129q-54 -80 -146.5 -121t-193.5 -41q-182 0 -282.5 99.5t-100.5 289.5zM473 1210l236 297h233l-280 -297h-189z" />
<glyph unicode="&#xfb;" horiz-adv-x="1175" d="M127 356v705h195v-668q0 -134 64 -197t173 -63q117 0 207 84q48 42 64 89.5t16 125.5v629h194v-1061h-190v129q-54 -80 -146.5 -121t-193.5 -41q-182 0 -282.5 99.5t-100.5 289.5zM258 1210l236 297h190l236 -297h-183l-149 174l-150 -174h-180z" />
<glyph unicode="&#xfc;" horiz-adv-x="1175" d="M127 356v705h195v-668q0 -134 64 -197t173 -63q117 0 207 84q48 42 64 89.5t16 125.5v629h194v-1061h-190v129q-54 -80 -146.5 -121t-193.5 -41q-182 0 -282.5 99.5t-100.5 289.5zM293 1360q0 51 29 80.5t81 29.5t81.5 -29.5t29.5 -80.5q0 -50 -29.5 -79.5t-81.5 -29.5 t-81 29.5t-29 79.5zM662 1360q0 51 29 80.5t81 29.5t81.5 -29.5t29.5 -80.5q0 -50 -29.5 -79.5t-81.5 -29.5t-81 29.5t-29 79.5z" />
<glyph unicode="&#xfd;" horiz-adv-x="1083" d="M14 1061h224l323 -813l295 813h211l-461 -1153l-125 -328h-198l180 455zM426 1210l236 297h233l-281 -297h-188z" />
<glyph unicode="&#xfe;" horiz-adv-x="1253" d="M135 -397v1859h193v-542q126 174 381 174q224 0 351.5 -146t127.5 -409q0 -260 -138.5 -416t-361.5 -156q-243 0 -358 156v-520h-195zM328 502q0 -173 89 -274t240 -101q158 0 242 112t84 296q0 81 -19 151.5t-56.5 126.5t-98.5 88.5t-139 32.5q-152 0 -247 -102 t-95 -261v-69z" />
<glyph unicode="&#xff;" horiz-adv-x="1083" d="M14 1061h224l323 -813l295 813h211l-461 -1153l-125 -328h-198l180 455zM246 1360q0 51 29 80.5t81 29.5t81.5 -29.5t29.5 -80.5q0 -50 -29.5 -79.5t-81.5 -29.5t-81 29.5t-29 79.5zM614 1360q0 51 29.5 80.5t81.5 29.5t81.5 -29.5t29.5 -80.5q0 -50 -29.5 -79.5 t-81.5 -29.5t-81.5 29.5t-29.5 79.5z" />
<glyph unicode="&#x100;" horiz-adv-x="1394" d="M25 0l563 1462h221l561 -1462h-221l-148 397h-616l-149 -397h-211zM424 1677v150h543v-150h-543zM444 573h498l-250 668z" />
<glyph unicode="&#x101;" horiz-adv-x="1107" d="M70 297q0 161 114 247t328 89l276 2v63q0 129 -59.5 187.5t-185.5 58.5q-218 0 -250 -164l-176 23q24 131 137.5 211t296.5 80q224 0 326 -104t102 -304v-686h-186v133q-53 -74 -144.5 -116t-214.5 -42q-164 0 -264 84t-100 238zM264 303q0 -80 50 -127t153 -47 q154 0 237.5 74t83.5 209v90l-266 -2q-130 -2 -194 -47.5t-64 -149.5zM283 1274v149h542v-149h-542z" />
<glyph unicode="&#x102;" horiz-adv-x="1394" d="M25 0l563 1462h221l561 -1462h-221l-148 397h-616l-149 -397h-211zM410 1905h143q0 -84 39.5 -126t101.5 -42q63 0 103.5 42.5t40.5 125.5h145q0 -139 -76.5 -216t-212.5 -77q-135 0 -209.5 77t-74.5 216zM444 573h498l-250 668z" />
<glyph unicode="&#x103;" horiz-adv-x="1107" d="M70 297q0 161 114 247t328 89l276 2v63q0 129 -59.5 187.5t-185.5 58.5q-218 0 -250 -164l-176 23q24 131 137.5 211t296.5 80q224 0 326 -104t102 -304v-686h-186v133q-53 -74 -144.5 -116t-214.5 -42q-164 0 -264 84t-100 238zM264 303q0 -80 50 -127t153 -47 q154 0 237.5 74t83.5 209v90l-266 -2q-130 -2 -194 -47.5t-64 -149.5zM268 1501h144q0 -84 39.5 -126t101.5 -42q63 0 103 42.5t40 125.5h146q0 -139 -76.5 -216t-212.5 -77q-135 0 -210 77t-75 216z" />
<glyph unicode="&#x104;" horiz-adv-x="1394" d="M25 0l563 1462h221l561 -1462h-74q-102 -82 -102 -154q0 -69 84 -69q17 0 53 4v-129q-46 -4 -71 -4q-125 0 -180.5 41t-55.5 123q0 104 123 196l-146 389h-616l-149 -397h-211zM444 573h498l-250 668z" />
<glyph unicode="&#x105;" horiz-adv-x="1107" d="M70 297q0 161 114 247t328 89l276 2v63q0 129 -59.5 187.5t-185.5 58.5q-218 0 -250 -164l-176 23q24 131 137.5 211t296.5 80q224 0 326 -104t102 -304v-666h12l-12 -10v-10h-14q-103 -83 -103 -154q0 -69 84 -69q17 0 53 4v-129q-46 -4 -71 -4q-125 0 -180.5 41 t-55.5 123q0 100 113 188h-12v133q-53 -74 -144.5 -116t-214.5 -42q-164 0 -264 84t-100 238zM264 303q0 -80 50 -127t153 -47q154 0 237.5 74t83.5 209v90l-266 -2q-130 -2 -194 -47.5t-64 -149.5z" />
<glyph unicode="&#x106;" horiz-adv-x="1517" d="M109 729q0 163 44.5 302.5t128 244t213 164t289.5 59.5q256 0 426 -128t207 -367l-200 -41q-29 161 -141.5 259.5t-293.5 98.5q-215 0 -336.5 -155.5t-121.5 -434.5q0 -276 133.5 -433t351.5 -157q180 0 285 93t123 251h208q-7 -107 -52 -201t-122 -166t-191.5 -113.5 t-252.5 -41.5q-316 0 -507 205.5t-191 560.5zM637 1583l240 281h237l-287 -281h-190z" />
<glyph unicode="&#x107;" horiz-adv-x="1208" d="M100 526q0 257 144 412.5t381 155.5q195 0 329.5 -100t155.5 -275l-190 -23q-21 109 -99.5 173.5t-202.5 64.5q-153 0 -234 -109.5t-81 -294.5q0 -180 84 -291.5t248 -111.5q123 0 199.5 62.5t91.5 172.5h194q-23 -183 -153.5 -289t-335.5 -106q-240 0 -385.5 152 t-145.5 407zM487 1210l236 297h233l-280 -297h-189z" />
<glyph unicode="&#x108;" horiz-adv-x="1517" d="M109 729q0 163 44.5 302.5t128 244t213 164t289.5 59.5q256 0 426 -128t207 -367l-200 -41q-29 161 -141.5 259.5t-293.5 98.5q-215 0 -336.5 -155.5t-121.5 -434.5q0 -276 133.5 -433t351.5 -157q180 0 285 93t123 251h208q-7 -107 -52 -201t-122 -166t-191.5 -113.5 t-252.5 -41.5q-316 0 -507 205.5t-191 560.5zM428 1614l236 297h190l236 -297h-183l-149 174l-150 -174h-180z" />
<glyph unicode="&#x109;" horiz-adv-x="1208" d="M100 526q0 257 144 412.5t381 155.5q195 0 329.5 -100t155.5 -275l-190 -23q-21 109 -99.5 173.5t-202.5 64.5q-153 0 -234 -109.5t-81 -294.5q0 -180 84 -291.5t248 -111.5q123 0 199.5 62.5t91.5 172.5h194q-23 -183 -153.5 -289t-335.5 -106q-240 0 -385.5 152 t-145.5 407zM272 1210l236 297h190l236 -297h-182l-150 174l-149 -174h-181z" />
<glyph unicode="&#x10a;" horiz-adv-x="1517" d="M109 729q0 163 44.5 302.5t128 244t213 164t289.5 59.5q256 0 426 -128t207 -367l-200 -41q-29 161 -141.5 259.5t-293.5 98.5q-215 0 -336.5 -155.5t-121.5 -434.5q0 -276 133.5 -433t351.5 -157q180 0 285 93t123 251h208q-7 -107 -52 -201t-122 -166t-191.5 -113.5 t-252.5 -41.5q-316 0 -507 205.5t-191 560.5zM639 1776q0 56 32 88t89 32t89 -32t32 -88q0 -54 -32.5 -86.5t-88.5 -32.5t-88.5 32.5t-32.5 86.5z" />
<glyph unicode="&#x10b;" horiz-adv-x="1208" d="M100 526q0 257 144 412.5t381 155.5q195 0 329.5 -100t155.5 -275l-190 -23q-21 109 -99.5 173.5t-202.5 64.5q-153 0 -234 -109.5t-81 -294.5q0 -180 84 -291.5t248 -111.5q123 0 199.5 62.5t91.5 172.5h194q-23 -183 -153.5 -289t-335.5 -106q-240 0 -385.5 152 t-145.5 407zM483 1372q0 56 32 88.5t89 32.5t89 -32.5t32 -88.5q0 -54 -32.5 -86.5t-88.5 -32.5t-88.5 32.5t-32.5 86.5z" />
<glyph unicode="&#x10c;" horiz-adv-x="1517" d="M109 729q0 163 44.5 302.5t128 244t213 164t289.5 59.5q256 0 426 -128t207 -367l-200 -41q-29 161 -141.5 259.5t-293.5 98.5q-215 0 -336.5 -155.5t-121.5 -434.5q0 -276 133.5 -433t351.5 -157q180 0 285 93t123 251h208q-7 -107 -52 -201t-122 -166t-191.5 -113.5 t-252.5 -41.5q-316 0 -507 205.5t-191 560.5zM428 1911h182l150 -176l149 176h181l-236 -297h-190z" />
<glyph unicode="&#x10d;" horiz-adv-x="1208" d="M100 526q0 257 144 412.5t381 155.5q195 0 329.5 -100t155.5 -275l-190 -23q-21 109 -99.5 173.5t-202.5 64.5q-153 0 -234 -109.5t-81 -294.5q0 -180 84 -291.5t248 -111.5q123 0 199.5 62.5t91.5 172.5h194q-23 -183 -153.5 -289t-335.5 -106q-240 0 -385.5 152 t-145.5 407zM272 1507h183l149 -176l150 176h180l-236 -297h-190z" />
<glyph unicode="&#x10e;" horiz-adv-x="1468" d="M160 0v1462h456q358 0 552 -181.5t194 -539.5q0 -363 -208 -552t-583 -189h-411zM365 178h217q287 0 427 145t140 414q0 549 -531 549h-253v-1108zM403 1911h183l149 -176l150 176h180l-236 -297h-190z" />
<glyph unicode="&#x10f;" horiz-adv-x="1241" d="M100 524q0 259 141.5 414.5t364.5 155.5q218 0 328 -123v491h194v-1462h-188v113q-121 -146 -352 -146q-210 0 -349 155t-139 402zM303 530q0 -110 34.5 -199.5t107 -145.5t173.5 -56q145 0 233.5 94.5t88.5 268.5v69q0 187 -84 280t-225 93q-154 0 -241 -110.5 t-87 -293.5zM1266 1008l61 454h203l-111 -454h-153z" />
<glyph unicode="&#x110;" horiz-adv-x="1497" d="M20 668v172h168v622h457q358 0 552 -181.5t194 -539.5q0 -363 -208 -552t-583 -189h-412v668h-168zM393 178h217q287 0 427.5 145t140.5 414q0 549 -531 549h-254v-446h361v-172h-361v-490z" />
<glyph unicode="&#x111;" horiz-adv-x="1249" d="M100 500q0 106 30 202t87.5 173t151.5 123t213 46q208 0 315 -145v279h-342v135h342v149h195v-149h139v-135h-139v-1178h-189v129q-103 -162 -342 -162q-145 0 -250.5 69t-158 188.5t-52.5 275.5zM303 502q0 -76 17.5 -142.5t51 -118.5t90 -82t128.5 -30q138 0 224.5 95 t86.5 243v57q0 178 -81.5 269.5t-219.5 91.5q-79 0 -137.5 -31t-92.5 -85.5t-50.5 -121t-16.5 -145.5z" />
<glyph unicode="&#x112;" horiz-adv-x="1222" d="M162 0v1462h962v-178h-757v-442h716v-178h-716v-486h774v-178h-979zM338 1677v150h543v-150h-543z" />
<glyph unicode="&#x113;" horiz-adv-x="1191" d="M102 522q0 258 137.5 415t364.5 157q235 0 362.5 -139.5t127.5 -379.5v-92h-797q9 -174 93 -268t226 -94q234 0 277 180h186q-28 -157 -148 -245.5t-315 -88.5q-238 0 -376 150t-138 405zM299 621h602q-21 325 -299 325q-271 0 -303 -325zM324 1274v149h542v-149h-542z " />
<glyph unicode="&#x114;" horiz-adv-x="1222" d="M162 0v1462h962v-178h-757v-442h716v-178h-716v-486h774v-178h-979zM324 1905h143q0 -84 39.5 -126t101.5 -42q63 0 103.5 42.5t40.5 125.5h145q0 -139 -76.5 -216t-212.5 -77q-135 0 -209.5 77t-74.5 216z" />
<glyph unicode="&#x115;" horiz-adv-x="1191" d="M102 522q0 258 137.5 415t364.5 157q235 0 362.5 -139.5t127.5 -379.5v-92h-797q9 -174 93 -268t226 -94q234 0 277 180h186q-28 -157 -148 -245.5t-315 -88.5q-238 0 -376 150t-138 405zM299 621h602q-21 325 -299 325q-271 0 -303 -325zM309 1501h144q0 -84 39.5 -126 t101.5 -42q63 0 103 42.5t40 125.5h146q0 -139 -76.5 -216t-212.5 -77q-135 0 -210 77t-75 216z" />
<glyph unicode="&#x116;" horiz-adv-x="1222" d="M162 0v1462h962v-178h-757v-442h716v-178h-716v-486h774v-178h-979zM489 1776q0 56 32 88t89 32t89 -32t32 -88q0 -54 -32.5 -86.5t-88.5 -32.5t-88.5 32.5t-32.5 86.5z" />
<glyph unicode="&#x117;" horiz-adv-x="1191" d="M102 522q0 258 137.5 415t364.5 157q235 0 362.5 -139.5t127.5 -379.5v-92h-797q9 -174 93 -268t226 -94q234 0 277 180h186q-28 -157 -148 -245.5t-315 -88.5q-238 0 -376 150t-138 405zM299 621h602q-21 325 -299 325q-271 0 -303 -325zM475 1372q0 56 32 88.5t89 32.5 t89 -32.5t32 -88.5q0 -54 -32.5 -86.5t-88.5 -32.5t-88.5 32.5t-32.5 86.5z" />
<glyph unicode="&#x118;" horiz-adv-x="1222" d="M162 0v1462h962v-178h-757v-442h716v-178h-716v-486h774v-178h-74q-102 -82 -102 -154q0 -69 84 -69q17 0 53 4v-129q-46 -4 -72 -4q-125 0 -180 41t-55 123q0 101 112 188h-745z" />
<glyph unicode="&#x119;" horiz-adv-x="1191" d="M102 522q0 258 137.5 415t364.5 157q235 0 362.5 -139.5t127.5 -379.5v-92h-797q9 -174 93 -268t226 -94q234 0 277 180h186q-24 -131 -111.5 -215.5t-230.5 -108.5q-75 -69 -75 -131q0 -69 83 -69q18 0 54 4v-129q-46 -4 -72 -4q-125 0 -180 41t-55 123q0 80 77 157 q-218 15 -342.5 163t-124.5 390zM299 621h602q-21 325 -299 325q-271 0 -303 -325z" />
<glyph unicode="&#x11a;" horiz-adv-x="1222" d="M162 0v1462h962v-178h-757v-442h716v-178h-716v-486h774v-178h-979zM279 1911h182l149 -176l150 176h180l-235 -297h-191z" />
<glyph unicode="&#x11b;" horiz-adv-x="1191" d="M102 522q0 258 137.5 415t364.5 157q235 0 362.5 -139.5t127.5 -379.5v-92h-797q9 -174 93 -268t226 -94q234 0 277 180h186q-28 -157 -148 -245.5t-315 -88.5q-238 0 -376 150t-138 405zM264 1507h182l150 -176l149 176h181l-236 -297h-190zM299 621h602 q-21 325 -299 325q-271 0 -303 -325z" />
<glyph unicode="&#x11c;" horiz-adv-x="1495" d="M90 729q0 356 183 563t485 207q253 0 419.5 -116t198.5 -316l-200 -41q-24 138 -132.5 217.5t-285.5 79.5q-213 0 -334 -157t-121 -435q0 -298 122 -444t347 -146q203 0 313.5 123.5t110.5 319.5h-389v174h592v-176q0 -272 -174 -445.5t-453 -173.5q-153 0 -278 50.5 t-215 146t-139.5 241t-49.5 328.5zM416 1614l235 297h191l235 -297h-182l-147 174l-152 -174h-180z" />
<glyph unicode="&#x11d;" horiz-adv-x="1261" d="M100 555q0 240 143.5 389.5t362.5 149.5q91 0 182 -39.5t148 -114.5v121h190v-969q0 -263 -115.5 -387.5t-381.5 -124.5q-455 0 -490 326h191q22 -90 93 -131t204 -41q156 0 231.5 73.5t75.5 243.5v131q-48 -74 -131.5 -116.5t-196.5 -42.5q-227 0 -366.5 147.5 t-139.5 384.5zM301 1210l236 297h190l236 -297h-183l-149 174l-150 -174h-180zM303 557q0 -104 34 -187t107 -134.5t177 -51.5q156 0 235.5 96t79.5 257v34q0 169 -76.5 266t-226.5 97q-149 0 -239.5 -93.5t-90.5 -283.5z" />
<glyph unicode="&#x11e;" horiz-adv-x="1495" d="M90 729q0 356 183 563t485 207q253 0 419.5 -116t198.5 -316l-200 -41q-24 138 -132.5 217.5t-285.5 79.5q-213 0 -334 -157t-121 -435q0 -298 122 -444t347 -146q203 0 313.5 123.5t110.5 319.5h-389v174h592v-176q0 -272 -174 -445.5t-453 -173.5q-153 0 -278 50.5 t-215 146t-139.5 241t-49.5 328.5zM461 1905h143q0 -84 39.5 -126t101.5 -42q63 0 103.5 42.5t40.5 125.5h145q0 -139 -76.5 -216t-212.5 -77q-135 0 -209.5 77t-74.5 216z" />
<glyph unicode="&#x11f;" horiz-adv-x="1261" d="M100 555q0 240 143.5 389.5t362.5 149.5q91 0 182 -39.5t148 -114.5v121h190v-969q0 -263 -115.5 -387.5t-381.5 -124.5q-455 0 -490 326h191q22 -90 93 -131t204 -41q156 0 231.5 73.5t75.5 243.5v131q-48 -74 -131.5 -116.5t-196.5 -42.5q-227 0 -366.5 147.5 t-139.5 384.5zM303 557q0 -104 34 -187t107 -134.5t177 -51.5q156 0 235.5 96t79.5 257v34q0 169 -76.5 266t-226.5 97q-149 0 -239.5 -93.5t-90.5 -283.5zM346 1501h143q0 -83 39.5 -125.5t102.5 -42.5t103 42.5t40 125.5h146q0 -139 -76.5 -216t-212.5 -77q-135 0 -210 77 t-75 216z" />
<glyph unicode="&#x120;" horiz-adv-x="1495" d="M90 729q0 356 183 563t485 207q253 0 419.5 -116t198.5 -316l-200 -41q-24 138 -132.5 217.5t-285.5 79.5q-213 0 -334 -157t-121 -435q0 -298 122 -444t347 -146q203 0 313.5 123.5t110.5 319.5h-389v174h592v-176q0 -272 -174 -445.5t-453 -173.5q-153 0 -278 50.5 t-215 146t-139.5 241t-49.5 328.5zM627 1776q0 56 32 88t89 32t88.5 -32t31.5 -88q0 -55 -32 -87t-88 -32t-88.5 32.5t-32.5 86.5z" />
<glyph unicode="&#x121;" horiz-adv-x="1261" d="M100 555q0 240 143.5 389.5t362.5 149.5q91 0 182 -39.5t148 -114.5v121h190v-969q0 -263 -115.5 -387.5t-381.5 -124.5q-455 0 -490 326h191q22 -90 93 -131t204 -41q156 0 231.5 73.5t75.5 243.5v131q-48 -74 -131.5 -116.5t-196.5 -42.5q-227 0 -366.5 147.5 t-139.5 384.5zM303 557q0 -104 34 -187t107 -134.5t177 -51.5q156 0 235.5 96t79.5 257v34q0 169 -76.5 266t-226.5 97q-149 0 -239.5 -93.5t-90.5 -283.5zM512 1372q0 56 32 88.5t89 32.5t89 -32.5t32 -88.5q0 -54 -32 -86.5t-89 -32.5t-89 32.5t-32 86.5z" />
<glyph unicode="&#x122;" horiz-adv-x="1490" d="M90 729q0 356 183 563t485 207q253 0 419.5 -116t198.5 -316l-200 -41q-24 138 -132.5 217.5t-285.5 79.5q-213 0 -334 -157t-121 -435q0 -298 122 -444t347 -146q203 0 313.5 123.5t110.5 319.5h-389v174h592v-176q0 -272 -174 -445.5t-453 -173.5q-153 0 -278 50.5 t-215 146t-139.5 241t-49.5 328.5zM555 -451l158 314h219l-201 -314h-176z" />
<glyph unicode="&#x123;" horiz-adv-x="1261" d="M100 555q0 240 143.5 389.5t362.5 149.5q91 0 182 -39.5t148 -114.5v121h190v-969q0 -263 -115.5 -387.5t-381.5 -124.5q-455 0 -490 326h191q22 -90 93 -131t204 -41q156 0 231.5 73.5t75.5 243.5v131q-48 -74 -131.5 -116.5t-196.5 -42.5q-227 0 -366.5 147.5 t-139.5 384.5zM303 557q0 -104 34 -187t107 -134.5t177 -51.5q156 0 235.5 96t79.5 257v34q0 169 -76.5 266t-226.5 97q-149 0 -239.5 -93.5t-90.5 -283.5zM494 1210l194 297h170l-153 -297h-211z" />
<glyph unicode="&#x124;" horiz-adv-x="1470" d="M160 0v1462h205v-612h741v612h205v-1462h-205v662h-741v-662h-205zM403 1614l236 297h190l236 -297h-182l-148 174l-151 -174h-181z" />
<glyph unicode="&#x125;" horiz-adv-x="1177" d="M-98 1614l235 297h191l235 -297h-182l-150 174l-149 -174h-180zM135 0v1462h195v-522q72 77 166 115.5t192 38.5q182 0 290.5 -101.5t108.5 -285.5v-707h-192v668q0 135 -68.5 197.5t-181.5 62.5q-127 0 -217 -84q-51 -44 -74.5 -94.5t-23.5 -122.5v-627h-195z" />
<glyph unicode="&#x126;" horiz-adv-x="1505" d="M20 1067v162h168v233h205v-233h719v233h205v-233h168v-162h-168v-1067h-205v641h-719v-641h-205v1067h-168zM393 829h719v238h-719v-238z" />
<glyph unicode="&#x127;" horiz-adv-x="1198" d="M18 1178v135h140v149h194v-149h342v-135h-342v-320q147 186 363 186q356 0 356 -389v-655h-197v616q0 140 -50 201.5t-156 61.5q-124 0 -219 -86q-51 -46 -74 -94t-23 -121v-578h-194v1178h-140z" />
<glyph unicode="&#x128;" horiz-adv-x="524" d="M-80 1585q0 281 193 281q53 0 93.5 -19.5t92.5 -70.5q66 -66 102 -66q66 0 66 150h135q0 -281 -192 -281q-55 0 -94.5 19t-92.5 71l-5 5q-18 18 -29 28t-31 21.5t-37 11.5q-66 0 -66 -150h-135zM160 0v1462h205v-1462h-205z" />
<glyph unicode="&#x129;" horiz-adv-x="471" d="M-98 1221q0 282 192 282q53 0 91 -19t89 -71q2 -2 8.5 -9.5t9.5 -10t9.5 -9.5t10.5 -10t10.5 -8.5t11.5 -8t11 -6t12 -4.5t12 -1q69 0 69 151h133q0 -283 -192 -283q-54 0 -91.5 20.5t-86.5 72.5q-60 65 -97 65q-67 0 -67 -151h-135zM139 0v1061h195v-1061h-195z" />
<glyph unicode="&#x12a;" horiz-adv-x="524" d="M-10 1677v150h542v-150h-542zM160 0v1462h205v-1462h-205z" />
<glyph unicode="&#x12b;" horiz-adv-x="471" d="M-23 1274v149h543v-149h-543zM139 0v1061h195v-1061h-195z" />
<glyph unicode="&#x12c;" horiz-adv-x="524" d="M-25 1905h144q0 -84 39.5 -126t101.5 -42q63 0 103 42.5t40 125.5h146q0 -139 -76.5 -216t-212.5 -77q-135 0 -210 77t-75 216zM160 0v1462h205v-1462h-205z" />
<glyph unicode="&#x12d;" horiz-adv-x="471" d="M-49 1501h143q0 -83 39.5 -125.5t102.5 -42.5t103 42.5t40 125.5h145q0 -139 -76 -216t-212 -77q-135 0 -210 77t-75 216zM139 0v1061h195v-1061h-195z" />
<glyph unicode="&#x12e;" horiz-adv-x="524" d="M160 0v1462h205v-1442h100q-129 -96 -129 -174q0 -69 84 -69q17 0 53 4v-129q-46 -4 -72 -4q-125 0 -180 41t-55 123q0 100 113 188h-119z" />
<glyph unicode="&#x12f;" horiz-adv-x="471" d="M23 -188q0 101 116 192v1057h195v-1061h-39q-102 -82 -102 -154q0 -69 83 -69q18 0 54 4v-129q-46 -4 -72 -4q-125 0 -180 41t-55 123zM117 1372q0 56 32 88.5t89 32.5t88.5 -32.5t31.5 -88.5q0 -55 -32 -87t-88 -32t-88.5 32.5t-32.5 86.5z" />
<glyph unicode="&#x130;" horiz-adv-x="524" d="M141 1776q0 56 32 88t89 32t89 -32t32 -88q0 -54 -32.5 -86.5t-88.5 -32.5t-88.5 32.5t-32.5 86.5zM160 0v1462h205v-1462h-205z" />
<glyph unicode="&#x131;" horiz-adv-x="471" d="M139 0v1061h195v-1061h-195z" />
<glyph unicode="&#x132;" horiz-adv-x="1757" d="M160 0v1462h205v-1462h-205zM610 446h207q20 -151 92.5 -228t225.5 -77q160 0 231.5 91t71.5 268v962h204v-975q0 -258 -132 -391t-371 -133q-237 0 -372.5 119.5t-156.5 363.5z" />
<glyph unicode="&#x133;" horiz-adv-x="944" d="M129 1372q0 56 32 88.5t89 32.5t89 -32.5t32 -88.5q0 -54 -32.5 -86.5t-88.5 -32.5t-88.5 32.5t-32.5 86.5zM139 0v1061h195v-1061h-195zM365 -387l32 151q77 -20 117 -20q66 0 95.5 35.5t29.5 118.5v1163h195v-1157q0 -156 -71.5 -240t-234.5 -84q-61 0 -163 33z M629 1372q0 56 32 88.5t89 32.5t88.5 -32.5t31.5 -88.5q0 -55 -32 -87t-88 -32t-88.5 32.5t-32.5 86.5z" />
<glyph unicode="&#x134;" horiz-adv-x="1232" d="M55 446h207q20 -151 92.5 -228t225.5 -77q160 0 231.5 91t71.5 268v962h204v-975q0 -258 -132 -391t-371 -133q-237 0 -372.5 119.5t-156.5 363.5zM653 1614l236 297h190l236 -297h-182l-148 174l-151 -174h-181z" />
<glyph unicode="&#x135;" horiz-adv-x="473" d="M-135 -387l33 151q78 -20 116 -20q66 0 95.5 35.5t29.5 118.5v1163h195v-1157q0 -157 -71 -240.5t-234 -83.5q-62 0 -164 33zM-94 1210l235 297h191l235 -297h-182l-149 174l-150 -174h-180z" />
<glyph unicode="&#x136;" horiz-adv-x="1343" d="M160 0v1462h207v-686l667 686h234l-627 -649l678 -813h-238l-575 680l-139 -139v-541h-207zM479 -451l158 314h219l-201 -314h-176z" />
<glyph unicode="&#x137;" horiz-adv-x="1099" d="M133 0v1462h195v-864l485 463h234l-451 -436l494 -625h-228l-391 506l-143 -133v-373h-195zM389 -440l154 303h211l-195 -303h-170z" />
<glyph unicode="&#x139;" horiz-adv-x="1157" d="M139 1583l240 281h237l-286 -281h-191zM160 0v1462h205v-1280h747v-182h-952z" />
<glyph unicode="&#x13a;" horiz-adv-x="471" d="M121 1614l235 297h234l-281 -297h-188zM139 0v1462h195v-1462h-195z" />
<glyph unicode="&#x13b;" horiz-adv-x="1157" d="M160 0v1462h205v-1280h747v-182h-952zM391 -451l158 314h219l-201 -314h-176z" />
<glyph unicode="&#x13c;" horiz-adv-x="471" d="M57 -440l154 303h211l-195 -303h-170zM139 0v1462h195v-1462h-195z" />
<glyph unicode="&#x13d;" horiz-adv-x="1157" d="M160 0v1462h205v-1280h747v-182h-952zM758 1008l61 454h203l-111 -454h-153z" />
<glyph unicode="&#x13e;" horiz-adv-x="442" d="M139 0v1462h195v-1462h-195zM473 1008l62 454h202l-110 -454h-154z" />
<glyph unicode="&#x141;" horiz-adv-x="1185" d="M20 381v190l168 115v776h205v-635l402 279v-188l-402 -279v-457h750l-31 -182h-924v498z" />
<glyph unicode="&#x142;" horiz-adv-x="589" d="M12 524v168l187 129v641h192v-524l187 131v-170l-187 -129v-770h-192v653z" />
<glyph unicode="&#x143;" horiz-adv-x="1480" d="M162 0v1462h198l762 -1134v1134h199v-1462h-195l-768 1130v-1130h-196zM618 1583l240 281h238l-287 -281h-191z" />
<glyph unicode="&#x144;" horiz-adv-x="1193" d="M135 0v1061h191v-125q135 158 366 158q181 0 278 -99.5t97 -287.5v-707h-193v668q0 260 -229 260q-127 0 -217 -84q-51 -44 -74.5 -94.5t-23.5 -122.5v-627h-195zM481 1210l236 297h233l-280 -297h-189z" />
<glyph unicode="&#x145;" horiz-adv-x="1476" d="M162 0v1462h198l762 -1134v1134h199v-1462h-195l-768 1130v-1130h-196zM551 -451l158 314h219l-201 -314h-176z" />
<glyph unicode="&#x146;" horiz-adv-x="1191" d="M135 0v1061h191v-125q135 158 366 158q181 0 278 -99.5t97 -287.5v-707h-193v668q0 260 -229 260q-127 0 -217 -84q-51 -44 -74.5 -94.5t-23.5 -122.5v-627h-195zM440 -440l154 303h211l-195 -303h-170z" />
<glyph unicode="&#x147;" horiz-adv-x="1480" d="M162 0v1462h198l762 -1134v1134h199v-1462h-195l-768 1130v-1130h-196zM410 1911h182l149 -176l150 176h180l-235 -297h-191z" />
<glyph unicode="&#x148;" horiz-adv-x="1193" d="M135 0v1061h191v-125q135 158 366 158q181 0 278 -99.5t97 -287.5v-707h-193v668q0 260 -229 260q-127 0 -217 -84q-51 -44 -74.5 -94.5t-23.5 -122.5v-627h-195zM266 1507h183l147 -176l152 176h180l-236 -297h-190z" />
<glyph unicode="&#x14a;" horiz-adv-x="1482" d="M160 0v1462h198l768 -1145v1145h197v-1435q0 -447 -467 -447q-180 0 -293 49l49 170q101 -43 232 -43q141 0 207.5 62.5t68.5 193.5l-764 1131v-1143h-196z" />
<glyph unicode="&#x14b;" horiz-adv-x="1193" d="M135 0v1061h191v-158q149 191 366 191q180 0 277.5 -100t97.5 -287v-758q0 -65 -6.5 -115.5t-25.5 -100t-51 -81.5t-84.5 -52t-123.5 -20q-96 0 -201 33l31 151q74 -20 135 -20q70 0 101.5 40t31.5 124v760q0 137 -59 198.5t-170 61.5q-121 0 -217 -84q-52 -43 -75 -93 t-23 -124v-627h-195z" />
<glyph unicode="&#x14c;" horiz-adv-x="1607" d="M109 731q0 167 47 307.5t134.5 243t219.5 160t295 57.5q318 0 506 -205t188 -559q0 -355 -187 -562.5t-509 -207.5q-321 0 -507.5 208t-186.5 558zM326 731q0 -271 124 -427.5t355 -156.5q229 0 353 157t124 427q0 275 -123.5 430.5t-353.5 155.5t-354.5 -157 t-124.5 -429zM532 1677v150h543v-150h-543z" />
<glyph unicode="&#x14d;" horiz-adv-x="1259" d="M100 526q0 262 148 415t385 153q240 0 383 -150.5t143 -408.5q0 -260 -145 -414t-387 -154q-243 0 -385 150t-142 409zM303 530q0 -185 82.5 -294t243.5 -109q158 0 241.5 107.5t83.5 297.5q0 186 -82 294t-243 108q-160 0 -243 -109t-83 -295zM358 1274v149h543v-149 h-543z" />
<glyph unicode="&#x14e;" horiz-adv-x="1607" d="M109 731q0 167 47 307.5t134.5 243t219.5 160t295 57.5q318 0 506 -205t188 -559q0 -355 -187 -562.5t-509 -207.5q-321 0 -507.5 208t-186.5 558zM326 731q0 -271 124 -427.5t355 -156.5q229 0 353 157t124 427q0 275 -123.5 430.5t-353.5 155.5t-354.5 -157 t-124.5 -429zM518 1905h144q0 -84 39.5 -126t101.5 -42q63 0 103 42.5t40 125.5h146q0 -139 -76.5 -216t-212.5 -77q-135 0 -210 77t-75 216z" />
<glyph unicode="&#x14f;" horiz-adv-x="1259" d="M100 526q0 262 148 415t385 153q240 0 383 -150.5t143 -408.5q0 -260 -145 -414t-387 -154q-243 0 -385 150t-142 409zM303 530q0 -185 82.5 -294t243.5 -109q158 0 241.5 107.5t83.5 297.5q0 186 -82 294t-243 108q-160 0 -243 -109t-83 -295zM344 1501h143 q0 -83 39.5 -125.5t102.5 -42.5t103 42.5t40 125.5h146q0 -139 -76.5 -216t-212.5 -77q-135 0 -210 77t-75 216z" />
<glyph unicode="&#x150;" horiz-adv-x="1607" d="M109 731q0 167 47 307.5t134.5 243t219.5 160t295 57.5q318 0 506 -205t188 -559q0 -355 -187 -562.5t-509 -207.5q-321 0 -507.5 208t-186.5 558zM326 731q0 -271 124 -427.5t355 -156.5q229 0 353 157t124 427q0 275 -123.5 430.5t-353.5 155.5t-354.5 -157 t-124.5 -429zM408 1614l213 297h215l-256 -297h-172zM772 1614l213 297h215l-258 -297h-170z" />
<glyph unicode="&#x151;" horiz-adv-x="1259" d="M100 526q0 262 148 415t385 153q240 0 383 -150.5t143 -408.5q0 -260 -145 -414t-387 -154q-243 0 -385 150t-142 409zM233 1210l213 297h216l-256 -297h-173zM303 530q0 -185 82.5 -294t243.5 -109q158 0 241.5 107.5t83.5 297.5q0 186 -82 294t-243 108 q-160 0 -243 -109t-83 -295zM598 1210l213 297h215l-258 -297h-170z" />
<glyph unicode="&#x152;" horiz-adv-x="2320" d="M109 729q0 160 46 299t132.5 244t221 166t300.5 61q179 0 308.5 -57t197.5 -170v190h907v-178h-709v-442h668v-178h-668v-486h725v-178h-923v195q-69 -113 -197.5 -172.5t-302.5 -59.5q-161 0 -294.5 57.5t-223.5 159t-139 242.5t-49 307zM324 731q0 -276 135 -434 t362 -158q226 0 360 160.5t134 431.5q0 268 -137.5 430t-358.5 162q-102 0 -185.5 -33t-140 -89.5t-95.5 -133t-56.5 -161t-17.5 -175.5z" />
<glyph unicode="&#x153;" horiz-adv-x="2101" d="M100 526q0 259 152 413.5t401 154.5q154 0 267 -60.5t176 -175.5q60 115 169.5 175.5t254.5 60.5q232 0 358.5 -140.5t126.5 -378.5v-92h-811q9 -174 89.5 -268t236.5 -94q236 0 282 180h187q-27 -158 -147.5 -246t-321.5 -88q-303 0 -426 242q-135 -242 -447 -242 q-252 0 -399.5 150t-147.5 409zM303 530q0 -185 88 -294t260 -109q170 0 259 109.5t89 293.5q0 188 -88.5 296t-259.5 108q-170 0 -259 -109t-89 -295zM1198 621h614q-5 157 -78.5 241t-215.5 84q-79 0 -138 -24t-96 -68.5t-57.5 -101.5t-28.5 -131z" />
<glyph unicode="&#x154;" horiz-adv-x="1302" d="M160 0v1462h487q253 0 398 -106.5t145 -321.5q0 -174 -80.5 -281.5t-224.5 -152.5l344 -600h-228l-319 567h-41h-281v-567h-200zM360 739h304q171 0 245 75t74 214q0 132 -79 198t-265 66h-279v-553zM528 1583l240 281h238l-287 -281h-191z" />
<glyph unicode="&#x155;" horiz-adv-x="759" d="M135 0v1061h191v-135q52 77 131.5 115t169.5 38q61 0 92 -8l-21 -174q-34 6 -86 6q-111 0 -198 -76q-84 -75 -84 -204v-623h-195zM264 1210l236 297h233l-280 -297h-189z" />
<glyph unicode="&#x156;" horiz-adv-x="1302" d="M160 0v1462h487q253 0 398 -106.5t145 -321.5q0 -174 -80.5 -281.5t-224.5 -152.5l344 -600h-228l-319 567h-41h-281v-567h-200zM360 739h304q171 0 245 75t74 214q0 132 -79 198t-265 66h-279v-553zM465 -451l158 314h219l-201 -314h-176z" />
<glyph unicode="&#x157;" horiz-adv-x="759" d="M27 -440l153 303h211l-194 -303h-170zM135 0v1061h191v-135q52 77 131.5 115t169.5 38q61 0 92 -8l-21 -174q-34 6 -86 6q-111 0 -198 -76q-84 -75 -84 -204v-623h-195z" />
<glyph unicode="&#x158;" horiz-adv-x="1302" d="M160 0v1462h487q253 0 398 -106.5t145 -321.5q0 -174 -80.5 -281.5t-224.5 -152.5l344 -600h-228l-319 567h-41h-281v-567h-200zM319 1911h183l149 -176l150 176h180l-236 -297h-190zM360 739h304q171 0 245 75t74 214q0 132 -79 198t-265 66h-279v-553z" />
<glyph unicode="&#x159;" horiz-adv-x="759" d="M49 1507h182l150 -176l149 176h181l-236 -297h-190zM135 0v1061h191v-135q52 77 131.5 115t169.5 38q61 0 92 -8l-21 -174q-34 6 -86 6q-111 0 -198 -76q-84 -75 -84 -204v-623h-195z" />
<glyph unicode="&#x15a;" horiz-adv-x="1323" d="M78 420h205q25 -148 119.5 -215.5t281.5 -67.5q326 0 326 254q0 98 -58.5 157.5t-199.5 86.5l-187 33q-86 15 -148.5 33.5t-123.5 50.5t-98.5 75t-60.5 108t-23 150q0 188 141.5 301t392.5 113q263 0 403.5 -113.5t153.5 -302.5l-192 -20q-15 125 -107.5 194.5 t-251.5 69.5q-156 0 -245 -57t-89 -176q0 -102 57.5 -154t203.5 -78l204 -37q232 -43 337.5 -144.5t105.5 -291.5q0 -136 -72.5 -233.5t-193.5 -145t-277 -47.5q-269 0 -425 112t-179 345zM539 1583l239 281h238l-287 -281h-190z" />
<glyph unicode="&#x15b;" horiz-adv-x="1069" d="M76 307h190q15 -99 83.5 -143.5t195.5 -44.5q241 0 241 168q0 73 -47 112t-155 58l-115 18q-188 30 -277.5 101.5t-89.5 205.5q0 144 115 228t309 84q187 0 300 -71.5t137 -219.5l-183 -27q-35 170 -250 170q-124 0 -182.5 -41.5t-58.5 -111.5q0 -67 45.5 -103.5 t154.5 -56.5l127 -23q194 -33 280.5 -104.5t86.5 -216.5q0 -148 -112 -235t-322 -87q-209 0 -334.5 82.5t-138.5 257.5zM418 1210l235 297h234l-281 -297h-188z" />
<glyph unicode="&#x15c;" horiz-adv-x="1323" d="M78 420h205q25 -148 119.5 -215.5t281.5 -67.5q326 0 326 254q0 98 -58.5 157.5t-199.5 86.5l-187 33q-86 15 -148.5 33.5t-123.5 50.5t-98.5 75t-60.5 108t-23 150q0 188 141.5 301t392.5 113q263 0 403.5 -113.5t153.5 -302.5l-192 -20q-15 125 -107.5 194.5 t-251.5 69.5q-156 0 -245 -57t-89 -176q0 -102 57.5 -154t203.5 -78l204 -37q232 -43 337.5 -144.5t105.5 -291.5q0 -136 -72.5 -233.5t-193.5 -145t-277 -47.5q-269 0 -425 112t-179 345zM330 1614l235 297h191l235 -297h-182l-147 174l-152 -174h-180z" />
<glyph unicode="&#x15d;" horiz-adv-x="1069" d="M76 307h190q15 -99 83.5 -143.5t195.5 -44.5q241 0 241 168q0 73 -47 112t-155 58l-115 18q-188 30 -277.5 101.5t-89.5 205.5q0 144 115 228t309 84q187 0 300 -71.5t137 -219.5l-183 -27q-35 170 -250 170q-124 0 -182.5 -41.5t-58.5 -111.5q0 -67 45.5 -103.5 t154.5 -56.5l127 -23q194 -33 280.5 -104.5t86.5 -216.5q0 -148 -112 -235t-322 -87q-209 0 -334.5 82.5t-138.5 257.5zM203 1210l235 297h191l235 -297h-182l-150 174l-149 -174h-180z" />
<glyph unicode="&#x15e;" horiz-adv-x="1323" d="M78 420h205q25 -148 119.5 -215.5t281.5 -67.5q326 0 326 254q0 98 -58.5 157.5t-199.5 86.5l-187 33q-86 15 -148.5 33.5t-123.5 50.5t-98.5 75t-60.5 108t-23 150q0 188 141.5 301t392.5 113q263 0 403.5 -113.5t153.5 -302.5l-192 -20q-15 125 -107.5 194.5 t-251.5 69.5q-156 0 -245 -57t-89 -176q0 -102 57.5 -154t203.5 -78l204 -37q232 -43 337.5 -144.5t105.5 -291.5q0 -199 -148.5 -311t-382.5 -115l-22 -59q186 -24 186 -164q0 -89 -67.5 -128.5t-196.5 -39.5q-68 0 -127 10v117q68 -8 123 -8q112 0 112 61q0 22 -12 36.5 t-35 20.5t-42.5 7.5t-49.5 1.5h-45l55 149q-456 43 -495 453z" />
<glyph unicode="&#x15f;" horiz-adv-x="1069" d="M76 307h190q15 -99 83.5 -143.5t195.5 -44.5q241 0 241 168q0 73 -47 112t-155 58l-115 18q-188 30 -277.5 101.5t-89.5 205.5q0 144 115 228t309 84q187 0 300 -71.5t137 -219.5l-183 -27q-35 170 -250 170q-124 0 -182.5 -41.5t-58.5 -111.5q0 -67 45.5 -103.5 t154.5 -56.5l127 -23q194 -33 280.5 -104.5t86.5 -216.5q0 -144 -107 -231t-307 -91l-24 -63q186 -24 186 -164q0 -89 -67.5 -128.5t-196.5 -39.5q-68 0 -127 10v117q68 -8 123 -8q112 0 112 61q0 22 -12 36.5t-35 20.5t-42.5 7.5t-49.5 1.5h-45l58 153q-351 42 -373 336z " />
<glyph unicode="&#x160;" horiz-adv-x="1323" d="M78 420h205q25 -148 119.5 -215.5t281.5 -67.5q326 0 326 254q0 98 -58.5 157.5t-199.5 86.5l-187 33q-86 15 -148.5 33.5t-123.5 50.5t-98.5 75t-60.5 108t-23 150q0 188 141.5 301t392.5 113q263 0 403.5 -113.5t153.5 -302.5l-192 -20q-15 125 -107.5 194.5 t-251.5 69.5q-156 0 -245 -57t-89 -176q0 -102 57.5 -154t203.5 -78l204 -37q232 -43 337.5 -144.5t105.5 -291.5q0 -136 -72.5 -233.5t-193.5 -145t-277 -47.5q-269 0 -425 112t-179 345zM330 1911h182l150 -176l149 176h180l-235 -297h-191z" />
<glyph unicode="&#x161;" horiz-adv-x="1069" d="M76 307h190q15 -99 83.5 -143.5t195.5 -44.5q241 0 241 168q0 73 -47 112t-155 58l-115 18q-188 30 -277.5 101.5t-89.5 205.5q0 144 115 228t309 84q187 0 300 -71.5t137 -219.5l-183 -27q-35 170 -250 170q-124 0 -182.5 -41.5t-58.5 -111.5q0 -67 45.5 -103.5 t154.5 -56.5l127 -23q194 -33 280.5 -104.5t86.5 -216.5q0 -148 -112 -235t-322 -87q-209 0 -334.5 82.5t-138.5 257.5zM203 1507h182l150 -176l149 176h180l-235 -297h-191z" />
<glyph unicode="&#x162;" horiz-adv-x="1239" d="M37 1280v182h1165v-182h-481v-1280h-55l-35 -96q186 -24 186 -164q0 -89 -67.5 -128.5t-196.5 -39.5q-68 0 -127 10v117q68 -8 123 -8q113 0 113 61q0 22 -12 36.5t-35.5 20.5t-43 7.5t-49.5 1.5h-45l68 182h-29v1280h-479z" />
<glyph unicode="&#x163;" horiz-adv-x="724" d="M35 907v154h164v287h194v-287h277v-154h-277v-620q0 -77 37.5 -113.5t97.5 -36.5t140 23l22 -148q-75 -35 -184 -35q-46 0 -103 11l-30 -84q186 -24 186 -164q0 -89 -67.5 -128.5t-196.5 -39.5q-68 0 -127 10v117q68 -8 123 -8q112 0 112 61q0 22 -12 36.5t-35 20.5 t-42.5 7.5t-49.5 1.5h-45l72 192h49q-141 69 -141 283v614h-164z" />
<glyph unicode="&#x164;" horiz-adv-x="1239" d="M37 1280v182h1165v-182h-481v-1280h-205v1280h-479zM289 1911h182l150 -176l149 176h180l-235 -297h-191z" />
<glyph unicode="&#x165;" horiz-adv-x="724" d="M35 907v154h164v287h194v-287h277v-154h-277v-620q0 -77 37.5 -113.5t97.5 -36.5t140 23l22 -148q-75 -35 -184 -35q-307 0 -307 316v614h-164zM545 1194l61 455h203l-111 -455h-153z" />
<glyph unicode="&#x166;" horiz-adv-x="1239" d="M37 1280v182h1165v-182h-481v-485h307v-172h-307v-623h-205v623h-307v172h307v485h-479z" />
<glyph unicode="&#x167;" horiz-adv-x="727" d="M37 487v148h164v276h-164v150h164v287h194v-287h277v-150h-277v-276h277v-148h-277v-200q0 -77 37.5 -113.5t97.5 -36.5t140 23l22 -148q-75 -35 -186 -35q-305 0 -305 316v194h-164z" />
<glyph unicode="&#x168;" horiz-adv-x="1406" d="M125 571v891h205v-901q0 -207 94 -313.5t281 -106.5q185 0 278.5 106.5t93.5 313.5v901h205v-899q0 -287 -150 -443.5t-430 -156.5t-428.5 158t-148.5 450zM360 1585q0 281 193 281q53 0 93.5 -19.5t92.5 -70.5q66 -66 103 -66q22 0 36 14t19.5 39.5t7.5 46.5t2 50h135 q0 -281 -192 -281q-55 0 -94 19t-92 71q-20 20 -30.5 29.5t-32.5 23t-40 13.5q-22 0 -36 -14t-19.5 -39.5t-7.5 -46.5t-2 -50h-136z" />
<glyph unicode="&#x169;" horiz-adv-x="1175" d="M127 356v705h195v-668q0 -134 64 -197t173 -63q117 0 207 84q48 42 64 89.5t16 125.5v629h194v-1061h-190v129q-54 -80 -146.5 -121t-193.5 -41q-182 0 -282.5 99.5t-100.5 289.5zM254 1221q0 282 192 282q53 0 92 -19t89 -71q1 -2 10.5 -12t13 -13.5l12 -12t14 -12 t13.5 -8.5t15.5 -7t15.5 -2q70 0 70 151h133q0 -140 -49 -211.5t-144 -71.5q-54 0 -91.5 20.5t-86.5 72.5q-19 20 -29 30t-30 22.5t-37 12.5q-68 0 -68 -151h-135z" />
<glyph unicode="&#x16a;" horiz-adv-x="1406" d="M125 571v891h205v-901q0 -207 94 -313.5t281 -106.5q185 0 278.5 106.5t93.5 313.5v901h205v-899q0 -287 -150 -443.5t-430 -156.5t-428.5 158t-148.5 450zM430 1677v150h543v-150h-543z" />
<glyph unicode="&#x16b;" horiz-adv-x="1175" d="M127 356v705h195v-668q0 -134 64 -197t173 -63q117 0 207 84q48 42 64 89.5t16 125.5v629h194v-1061h-190v129q-54 -80 -146.5 -121t-193.5 -41q-182 0 -282.5 99.5t-100.5 289.5zM317 1274v149h543v-149h-543z" />
<glyph unicode="&#x16c;" horiz-adv-x="1406" d="M125 571v891h205v-901q0 -207 94 -313.5t281 -106.5q185 0 278.5 106.5t93.5 313.5v901h205v-899q0 -287 -150 -443.5t-430 -156.5t-428.5 158t-148.5 450zM416 1905h143q0 -84 39.5 -126t101.5 -42q63 0 103.5 42.5t40.5 125.5h145q0 -139 -76.5 -216t-212.5 -77 q-135 0 -209.5 77t-74.5 216z" />
<glyph unicode="&#x16d;" horiz-adv-x="1175" d="M127 356v705h195v-668q0 -134 64 -197t173 -63q117 0 207 84q48 42 64 89.5t16 125.5v629h194v-1061h-190v129q-54 -80 -146.5 -121t-193.5 -41q-182 0 -282.5 99.5t-100.5 289.5zM303 1501h143q0 -83 39.5 -125.5t102.5 -42.5t103 42.5t40 125.5h146q0 -139 -76.5 -216 t-212.5 -77q-135 0 -210 77t-75 216z" />
<glyph unicode="&#x16e;" horiz-adv-x="1406" d="M125 571v891h205v-901q0 -207 94 -313.5t281 -106.5q185 0 278.5 106.5t93.5 313.5v901h205v-899q0 -287 -150 -443.5t-430 -156.5t-428.5 158t-148.5 450zM489 1817q0 99 61 155t150 56q90 0 152.5 -56.5t62.5 -154.5q0 -99 -62.5 -154t-152.5 -55t-150.5 54.5 t-60.5 154.5zM606 1817q0 -50 24.5 -76.5t69.5 -26.5q47 0 73 26.5t26 76.5q0 104 -99 104q-94 0 -94 -104z" />
<glyph unicode="&#x16f;" horiz-adv-x="1175" d="M127 356v705h195v-668q0 -134 64 -197t173 -63q117 0 207 84q48 42 64 89.5t16 125.5v629h194v-1061h-190v129q-54 -80 -146.5 -121t-193.5 -41q-182 0 -282.5 99.5t-100.5 289.5zM375 1413q0 99 61 155t150 56q90 0 152.5 -56.5t62.5 -154.5q0 -99 -62.5 -154 t-152.5 -55t-150.5 54.5t-60.5 154.5zM492 1413q0 -50 24.5 -76t69.5 -26q47 0 72.5 26t25.5 76q0 105 -98 105q-94 0 -94 -105z" />
<glyph unicode="&#x170;" horiz-adv-x="1406" d="M125 571v891h205v-901q0 -207 94 -313.5t281 -106.5q185 0 278.5 106.5t93.5 313.5v901h205v-899q0 -287 -150 -443.5t-430 -156.5t-428.5 158t-148.5 450zM305 1614l213 297h215l-256 -297h-172zM670 1614l213 297h215l-258 -297h-170z" />
<glyph unicode="&#x171;" horiz-adv-x="1175" d="M127 356v705h195v-668q0 -134 64 -197t173 -63q117 0 207 84q48 42 64 89.5t16 125.5v629h194v-1061h-190v129q-54 -80 -146.5 -121t-193.5 -41q-182 0 -282.5 99.5t-100.5 289.5zM190 1210l213 297h215l-256 -297h-172zM555 1210l213 297h215l-258 -297h-170z" />
<glyph unicode="&#x172;" horiz-adv-x="1406" d="M125 571v891h205v-901q0 -207 94 -313.5t281 -106.5q185 0 278.5 106.5t93.5 313.5v901h205v-899q0 -261 -125.5 -415.5t-361.5 -180.5q-68 -65 -68 -121q0 -69 84 -69q17 0 53 4v-129q-46 -4 -71 -4q-125 0 -180.5 41t-55.5 123q0 79 74 153q-245 20 -375.5 177 t-130.5 429z" />
<glyph unicode="&#x173;" horiz-adv-x="1175" d="M127 356v705h195v-668q0 -134 64 -197t173 -63q117 0 207 84q48 42 64 89.5t16 125.5v629h194v-1041h11q-2 -1 -5.5 -4t-5.5 -4v-12h-16q-102 -82 -102 -154q0 -69 84 -69q17 0 53 4v-129q-46 -4 -72 -4q-125 0 -180 41t-55 123q0 101 112 188h-14v129 q-54 -80 -146.5 -121t-193.5 -41q-182 0 -282.5 99.5t-100.5 289.5z" />
<glyph unicode="&#x174;" horiz-adv-x="1918" d="M27 1462h229l295 -1188l309 1182h215l307 -1182l293 1188h217l-401 -1462h-217l-316 1202l-309 -1202h-211zM629 1614l235 297h191l235 -297h-182l-150 174l-149 -174h-180z" />
<glyph unicode="&#x175;" horiz-adv-x="1513" d="M16 1061h209l207 -830l238 824h188l232 -817l206 823h201l-309 -1061h-201l-231 825l-234 -825h-198zM426 1210l236 297h190l235 -297h-182l-149 174l-150 -174h-180z" />
<glyph unicode="&#x176;" horiz-adv-x="1267" d="M27 1462h233l377 -671l387 671h215l-498 -846v-616h-206v614zM303 1614l236 297h190l236 -297h-183l-149 174l-150 -174h-180z" />
<glyph unicode="&#x177;" horiz-adv-x="1083" d="M14 1061h224l323 -813l295 813h211l-461 -1153l-125 -328h-198l180 455zM211 1210l235 297h191l235 -297h-182l-149 174l-150 -174h-180z" />
<glyph unicode="&#x178;" horiz-adv-x="1267" d="M27 1462h233l377 -671l387 671h215l-498 -846v-616h-206v614zM338 1763q0 51 29.5 81t81.5 30t81 -30t29 -81q0 -50 -29 -79t-81 -29t-81.5 29t-29.5 79zM707 1763q0 51 29 81t81 30t81.5 -30t29.5 -81q0 -50 -29.5 -79t-81.5 -29t-81 29t-29 79z" />
<glyph unicode="&#x179;" horiz-adv-x="1208" d="M66 0v158l827 1126h-813v178h1053v-157l-826 -1125h852v-180h-1093zM481 1583l240 281h237l-286 -281h-191z" />
<glyph unicode="&#x17a;" horiz-adv-x="964" d="M57 0v141l609 764h-596v156h833v-141l-606 -764h637v-156h-877zM367 1210l235 297h234l-281 -297h-188z" />
<glyph unicode="&#x17b;" horiz-adv-x="1208" d="M66 0v158l827 1126h-813v178h1053v-157l-826 -1125h852v-180h-1093zM483 1776q0 56 32 88t89 32t89 -32t32 -88q0 -54 -32.5 -86.5t-88.5 -32.5t-88.5 32.5t-32.5 86.5z" />
<glyph unicode="&#x17c;" horiz-adv-x="964" d="M57 0v141l609 764h-596v156h833v-141l-606 -764h637v-156h-877zM362 1372q0 56 32 88.5t89 32.5t89 -32.5t32 -88.5q0 -54 -32 -86.5t-89 -32.5t-89 32.5t-32 86.5z" />
<glyph unicode="&#x17d;" horiz-adv-x="1208" d="M66 0v158l827 1126h-813v178h1053v-157l-826 -1125h852v-180h-1093zM272 1911h183l149 -176l150 176h180l-236 -297h-190z" />
<glyph unicode="&#x17e;" horiz-adv-x="964" d="M57 0v141l609 764h-596v156h833v-141l-606 -764h637v-156h-877zM152 1507h182l149 -176l150 176h180l-235 -297h-191z" />
<glyph unicode="&#x17f;" horiz-adv-x="477" d="M141 0v1145q0 161 90 247.5t238 86.5q94 0 186 -25l-30 -149q-55 16 -121 16q-76 0 -123 -40.5t-47 -131.5v-1149h-193z" />
<glyph unicode="&#x192;" horiz-adv-x="712" d="M-88 -383l33 150q82 -21 137 -21q72 0 103.5 40.5t31.5 125.5v991h-168v154h168v88q0 161 89.5 247.5t238.5 86.5q101 0 188 -25l-31 -149q-60 16 -120 16q-172 0 -172 -172v-92h266v-154h-266v-948q0 -65 -6.5 -116t-26 -101t-51 -83t-84.5 -53t-125 -20q-105 0 -205 35 z" />
<glyph unicode="&#x218;" horiz-adv-x="1323" d="M78 420h205q25 -148 119.5 -215.5t281.5 -67.5q326 0 326 254q0 98 -58.5 157.5t-199.5 86.5l-187 33q-86 15 -148.5 33.5t-123.5 50.5t-98.5 75t-60.5 108t-23 150q0 188 141.5 301t392.5 113q263 0 403.5 -113.5t153.5 -302.5l-192 -20q-15 125 -107.5 194.5 t-251.5 69.5q-156 0 -245 -57t-89 -176q0 -102 57.5 -154t203.5 -78l204 -37q232 -43 337.5 -144.5t105.5 -291.5q0 -136 -72.5 -233.5t-193.5 -145t-277 -47.5q-269 0 -425 112t-179 345zM471 -451l158 314h219l-201 -314h-176z" />
<glyph unicode="&#x219;" horiz-adv-x="1069" d="M76 307h190q15 -99 83.5 -143.5t195.5 -44.5q241 0 241 168q0 73 -47 112t-155 58l-115 18q-188 30 -277.5 101.5t-89.5 205.5q0 144 115 228t309 84q187 0 300 -71.5t137 -219.5l-183 -27q-35 170 -250 170q-124 0 -182.5 -41.5t-58.5 -111.5q0 -67 45.5 -103.5 t154.5 -56.5l127 -23q194 -33 280.5 -104.5t86.5 -216.5q0 -148 -112 -235t-322 -87q-209 0 -334.5 82.5t-138.5 257.5zM373 -440l153 303h211l-194 -303h-170z" />
<glyph unicode="&#x21a;" horiz-adv-x="1239" d="M37 1280v182h1165v-182h-481v-1280h-205v1280h-479zM426 -451l158 314h219l-201 -314h-176z" />
<glyph unicode="&#x21b;" horiz-adv-x="724" d="M35 907v154h164v287h194v-287h277v-154h-277v-620q0 -77 37.5 -113.5t97.5 -36.5t140 23l22 -148q-75 -35 -184 -35q-307 0 -307 316v614h-164zM207 -440l153 303h211l-194 -303h-170z" />
<glyph unicode="&#x237;" horiz-adv-x="473" d="M-135 -387l33 151q78 -20 116 -20q66 0 95.5 35.5t29.5 118.5v1163h195v-1157q0 -157 -71 -240.5t-234 -83.5q-62 0 -164 33z" />
<glyph unicode="&#x2bc;" horiz-adv-x="1173" d="M453 1008l61 454h203l-111 -454h-153z" />
<glyph unicode="&#x2c6;" horiz-adv-x="1173" d="M291 1210l235 297h191l235 -297h-182l-149 174l-150 -174h-180z" />
<glyph unicode="&#x2c7;" horiz-adv-x="1173" d="M291 1507h182l148 -176l151 176h180l-235 -297h-191z" />
<glyph unicode="&#x2c9;" horiz-adv-x="1173" d="M350 1274v149h543v-149h-543z" />
<glyph unicode="&#x2cb;" horiz-adv-x="1173" d="M283 1507h233l236 -297h-189z" />
<glyph unicode="&#x2d8;" horiz-adv-x="1173" d="M336 1501h143q0 -83 39.5 -125.5t102.5 -42.5t103 42.5t40 125.5h145q0 -139 -76 -216t-212 -77q-135 0 -210 77t-75 216z" />
<glyph unicode="&#x2d9;" horiz-adv-x="1173" d="M467 1372q0 56 32 88.5t89 32.5t89 -32.5t32 -88.5q0 -54 -32.5 -86.5t-88.5 -32.5t-88.5 32.5t-32.5 86.5z" />
<glyph unicode="&#x2da;" horiz-adv-x="1173" d="M410 1413q0 99 61 155t150 56q90 0 152.5 -56.5t62.5 -154.5q0 -99 -62.5 -154t-152.5 -55t-150.5 54.5t-60.5 154.5zM526 1413q0 -50 25 -76t70 -26q47 0 72.5 26t25.5 76q0 105 -98 105q-95 0 -95 -105z" />
<glyph unicode="&#x2db;" horiz-adv-x="1173" d="M422 -209q0 109 139 209h160q-129 -96 -129 -174q0 -37 24 -53.5t60 -16.5q17 0 53 4v-129q-46 -4 -72 -4q-125 0 -180 41t-55 123z" />
<glyph unicode="&#x2dc;" horiz-adv-x="1173" d="M285 1221q0 282 192 282q53 0 91 -19t89 -71q2 -2 8.5 -9.5t9.5 -10t9.5 -9.5t10.5 -10t10.5 -8.5t11.5 -8t11 -6t12 -4.5t12 -1q69 0 69 151h133q0 -283 -192 -283q-54 0 -91.5 20.5t-86.5 72.5q-60 65 -97 65q-67 0 -67 -151h-135z" />
<glyph unicode="&#x2dd;" horiz-adv-x="1173" d="M326 1210l213 297h215l-256 -297h-172zM690 1210l213 297h215l-258 -297h-170z" />
<glyph unicode="&#x300;" d="M-344 1507h233l236 -297h-188z" />
<glyph unicode="&#x301;" d="M-117 1210l236 297h233l-280 -297h-189z" />
<glyph unicode="&#x302;" d="M-332 1210l236 297h190l236 -297h-183l-149 174l-150 -174h-180z" />
<glyph unicode="&#x303;" d="M-336 1221q0 282 193 282q53 0 91 -19t89 -71q1 -2 10.5 -12t13 -13.5l12 -12t14 -12t13.5 -8.5t15.5 -7t15.5 -2q70 0 70 151h133q0 -140 -49 -211.5t-144 -71.5q-54 0 -91.5 20.5t-86.5 72.5q-19 20 -29 30t-30 22.5t-37 12.5q-68 0 -68 -151h-135z" />
<glyph unicode="&#x304;" d="M-272 1274v149h542v-149h-542z" />
<glyph unicode="&#x306;" d="M-287 1501h144q0 -84 39.5 -126t101.5 -42q63 0 103 42.5t40 125.5h146q0 -139 -76.5 -216t-212.5 -77q-135 0 -210 77t-75 216z" />
<glyph unicode="&#x307;" d="M-121 1372q0 56 32 88.5t89 32.5t89 -32.5t32 -88.5q0 -54 -32.5 -86.5t-88.5 -32.5t-88.5 32.5t-32.5 86.5z" />
<glyph unicode="&#x308;" d="M-297 1360q0 51 29.5 80.5t81.5 29.5t81 -29.5t29 -80.5q0 -50 -29 -79.5t-81 -29.5t-81.5 29.5t-29.5 79.5zM72 1360q0 51 29 80.5t81 29.5t81.5 -29.5t29.5 -80.5q0 -50 -29.5 -79.5t-81.5 -29.5t-81 29.5t-29 79.5z" />
<glyph unicode="&#x309;" d="M-139 1460v111q55 20 129 20q101 0 159 -50t58 -126q0 -94 -72.5 -149t-220.5 -62v109q145 17 145 92q0 32 -27.5 51t-74.5 19q-30 0 -96 -15z" />
<glyph unicode="&#x30a;" d="M-213 1413q0 99 61 155t150 56q90 0 152.5 -56.5t62.5 -154.5q0 -99 -62.5 -154t-152.5 -55t-150.5 54.5t-60.5 154.5zM-96 1413q0 -50 24.5 -76t69.5 -26q47 0 72.5 26t25.5 76q0 105 -98 105q-94 0 -94 -105z" />
<glyph unicode="&#x30b;" d="M-287 1210l213 297h215l-256 -297h-172zM78 1210l213 297h215l-258 -297h-170z" />
<glyph unicode="&#x30c;" d="M-332 1507h182l150 -176l150 176h180l-236 -297h-190z" />
<glyph unicode="&#x312;" d="M-178 1210l194 297h170l-153 -297h-211z" />
<glyph unicode="&#x315;" d="M-121 1010l58 452h190l-100 -452h-148z" />
<glyph unicode="&#x323;" d="M-121 -307q0 56 32 88.5t89 32.5t89 -32.5t32 -88.5q0 -57 -32 -90t-89 -33t-89 33t-32 90z" />
<glyph unicode="&#x326;" d="M-266 -440l153 303h211l-194 -303h-170z" />
<glyph unicode="&#x327;" d="M-186 -301q68 -8 123 -8q112 0 112 61q0 22 -12 36.5t-35 20.5t-42.5 7.5t-49.5 1.5h-45l72 192h120l-39 -106q187 -25 187 -164q0 -89 -67.5 -128.5t-196.5 -39.5q-68 0 -127 10v117z" />
<glyph unicode="&#x328;" d="M-205 -209q0 109 139 209h160q-129 -96 -129 -174q0 -37 24 -53.5t60 -16.5q17 0 53 4v-129q-46 -4 -71 -4q-125 0 -180.5 41t-55.5 123z" />
<glyph unicode="&#x3c0;" horiz-adv-x="1228" />
<glyph unicode="&#xe01;" horiz-adv-x="1298" d="M55 801v24q52 178 200 292t363 114q259 0 399 -135.5t140 -374.5v-721h-190v723q0 160 -89 251t-260 91q-142 0 -238 -66t-128 -174l84 -75q22 -19 28.5 -35.5t6.5 -50.5v-664h-191v686z" />
<glyph unicode="&#xe02;" horiz-adv-x="1232" d="M133 1186q82 28 176 28q118 0 182 -52t64 -154q0 -55 -21.5 -107t-52.5 -96.5t-62.5 -90.5t-53 -106.5t-21.5 -126.5v-59q0 -149 68.5 -222t212.5 -73q145 0 210.5 74.5t65.5 228.5v768h191v-764q0 -231 -121 -349t-346 -118t-348 117.5t-123 339.5v57q0 72 21.5 136.5 t52 111t61 87.5t52 83t21.5 80q0 40 -26 60t-68 20q-58 0 -114 -17z" />
<glyph unicode="&#xe03;" horiz-adv-x="1259" d="M74 1151v47h147v-35q0 -133 125 -133q137 0 137 144v24h150v-35q0 -201 -148 -418q-61 -87 -87.5 -148.5t-26.5 -143.5v-31q0 -149 68.5 -222t213.5 -73q144 0 210.5 75t66.5 228v768h188v-764q0 -231 -121 -349t-344 -118q-226 0 -348.5 117t-122.5 340v31 q0 170 131 336q60 77 88 129q-43 -15 -92 -15q-107 0 -171 67.5t-64 178.5z" />
<glyph unicode="&#xe04;" horiz-adv-x="1312" d="M141 0v717q0 243 133.5 378.5t382.5 135.5q246 0 380 -135t134 -379v-717h-190v713q0 178 -77.5 268t-246.5 90q-173 0 -249 -88t-76 -270v-209q42 85 130.5 134.5t203.5 49.5q65 0 98 -8l-14 -166q-46 8 -99 8q-149 0 -234 -95.5t-85 -250.5v-176h-191z" />
<glyph unicode="&#xe05;" horiz-adv-x="1349" d="M141 0v831q0 171 99 276t274 112l156 -115l164 115q176 -7 275 -112t99 -276v-831h-190v829q0 100 -42 160.5t-120 69.5l-166 -113h-41l-155 113q-78 -9 -120 -69.5t-42 -160.5v-321q41 84 128 132t208 48q66 0 102 -8l-20 -166q-46 8 -97 8q-154 0 -237.5 -98.5 t-83.5 -247.5v-176h-191z" />
<glyph unicode="&#xe06;" horiz-adv-x="1327" d="M90 1153v45h152v-33q0 -66 26 -100.5t86 -34.5q129 0 129 146v22h156v-29q0 -110 -40 -208.5t-114 -212.5q-58 -85 -83 -147.5t-25 -147.5v-35q0 -131 98.5 -213t237.5 -82q154 0 218 81t64 245v749h191v-786q0 -214 -116 -329.5t-320 -115.5q-247 0 -379 172v-139h-187 v446q0 94 31.5 175.5t97.5 166.5q61 78 93 134q-46 -17 -91 -17q-104 0 -164.5 66t-60.5 182z" />
<glyph unicode="&#xe07;" horiz-adv-x="1191" d="M41 864h205l344 -700q148 83 228.5 220t80.5 314q0 176 -85.5 264.5t-250.5 88.5q-50 0 -133 -17l-27 158q88 20 175 20q251 0 384.5 -138t133.5 -374q0 -242 -120 -423.5t-337 -276.5h-166z" />
<glyph unicode="&#xe08;" horiz-adv-x="1208" d="M53 872q36 168 174.5 263.5t337.5 95.5q258 0 400.5 -148t142.5 -403q0 -118 -34 -224.5t-94.5 -190.5t-137.5 -150t-170 -115h-168l-170 385q-21 42 -38 57t-56 15q-50 0 -68 -2v151q47 6 104 6q89 0 137.5 -34t82.5 -117l127 -293q130 82 209 213t79 297 q0 186 -89.5 289.5t-256.5 103.5q-131 0 -212 -59t-109 -168z" />
<glyph unicode="&#xe09;" horiz-adv-x="1241" d="M123 891q22 153 151.5 246.5t341.5 93.5q230 0 357 -109.5t127 -322.5v-799h-187v188q-121 -221 -378 -221q-188 0 -296 106.5t-108 317.5v189h191v-158q0 -154 62 -224.5t189 -70.5q141 0 238.5 105t97.5 288v285q0 272 -299 272q-130 0 -204.5 -56t-92.5 -159z" />
<glyph unicode="&#xe0a;" horiz-adv-x="1271" d="M133 1186q86 28 170 28q119 0 184.5 -51.5t65.5 -154.5q0 -59 -21.5 -115t-52.5 -102t-61.5 -94t-52 -111t-21.5 -133v-31q0 -141 74 -218t225 -77q153 0 226 80t73 227v111q0 116 -48.5 170.5t-166.5 54.5v148q215 0 215 237v43h191v-47q0 -123 -52.5 -203.5 t-162.5 -101.5q215 -42 215 -309v-103q0 -230 -127.5 -348.5t-362.5 -118.5t-362 117t-127 340v31q0 78 21.5 145.5t52 114t61 88t52 85.5t21.5 87q0 40 -26 62t-72 22q-48 0 -110 -15z" />
<glyph unicode="&#xe0b;" horiz-adv-x="1298" d="M90 1163v35h156v-27q0 -127 116 -127q65 0 93 34.5t28 103.5v16h152v-24q0 -107 -40.5 -210.5t-113.5 -218.5q-59 -89 -84.5 -151.5t-25.5 -140.5v-31q0 -141 75 -218t228 -77q152 0 224.5 80.5t72.5 226.5v111q0 114 -50 169.5t-167 55.5v148q217 0 217 237v43h188v-47 q0 -123 -51.5 -205t-157.5 -104q209 -38 209 -305v-103q0 -230 -126 -348.5t-359 -118.5q-236 0 -364 117t-128 340v31q0 162 127 340q50 67 84 129q-27 -9 -63 -9q-113 0 -176.5 67t-63.5 181z" />
<glyph unicode="&#xe0c;" horiz-adv-x="2062" d="M55 801v24q44 179 192 292.5t365 113.5q248 0 383 -140.5t135 -388.5v-182q0 -189 84.5 -291t233.5 -102t216 82t67 260v729h190v-768q0 -234 -114.5 -348.5t-317.5 -114.5q-134 0 -230 61t-133 158v-186h-186v705q0 172 -84 267t-244 95q-140 0 -235 -67.5t-125 -174.5 l84 -75q22 -19 28.5 -35.5t6.5 -50.5v-342q0 -90 29 -136.5t106 -46.5q29 0 57 4v-147q-46 -8 -88 -8q-157 0 -226 83t-69 246v369z" />
<glyph unicode="&#xe0d;" horiz-adv-x="2062" d="M55 801v24q44 179 192 292.5t365 113.5q248 0 383 -140.5t135 -388.5v-192q0 -179 63 -254.5t212 -75.5q148 0 237 102.5t89 290.5v625h190v-1116q0 -248 -119.5 -375t-374.5 -127q-209 0 -331 82.5t-140 247.5h189q20 -92 87.5 -135t192.5 -43q159 0 234.5 80.5 t75.5 244.5v179q-36 -94 -137.5 -153.5t-235.5 -59.5q-202 0 -312 111t-110 345v226q0 173 -84 267.5t-244 94.5q-140 0 -235 -67.5t-125 -174.5l84 -75q22 -19 28.5 -35.5t6.5 -50.5v-342q0 -90 29 -136.5t106 -46.5q29 0 57 4v-147q-46 -8 -88 -8q-157 0 -226 83t-69 246 v369z" />
<glyph unicode="&#xe0e;" horiz-adv-x="1357" d="M102 -4v147q32 -4 56 -4q33 0 55 9t34.5 23t19 40t8 49.5t1.5 61.5v329l-161 150v24q46 179 195.5 292.5t371.5 113.5q261 0 398 -139t137 -390v-833q0 -159 -92 -235t-240 -76q-64 0 -183.5 20.5t-179.5 20.5q-101 0 -237 -37l-23 149q43 19 115 31t143 12 q59 0 172 -19.5t168 -19.5q85 0 125.5 38.5t40.5 127.5v824q0 174 -85.5 267t-260.5 93q-141 0 -240 -68t-129 -174l121 -108q22 -20 28.5 -36t6.5 -50v-312q0 -167 -59.5 -248t-214.5 -81q-41 0 -91 8z" />
<glyph unicode="&#xe0f;" horiz-adv-x="1357" d="M102 -4v147q32 -4 56 -4q33 0 55 9t34.5 23t19 40t8 49.5t1.5 61.5v329l-161 150v24q46 179 195.5 292.5t371.5 113.5q261 0 398 -139t137 -390v-792q0 -169 -85 -260.5t-243 -91.5q-83 0 -152 33t-104 98q-27 -64 -96 -97.5t-160 -33.5q-117 0 -178 28l30 154 q59 -23 142 -23q174 0 186 133h145q7 -63 51 -98t111 -35q162 0 162 199v789q0 174 -85.5 267t-260.5 93q-141 0 -240 -68t-129 -174l121 -108q22 -20 28.5 -36t6.5 -50v-312q0 -167 -59.5 -248t-214.5 -81q-41 0 -91 8z" />
<glyph unicode="&#xe10;" horiz-adv-x="1208" d="M45 872q36 168 174.5 263.5t337.5 95.5q161 0 281 -60l88 129h196l-157 -225q135 -147 135 -395q0 -118 -34 -224.5t-94.5 -190.5t-137.5 -150t-170 -115h-168l-170 385q-20 42 -38 57t-57 15q-49 0 -67 -2v151q46 6 104 6q89 0 137 -34t82 -117l127 -293 q130 82 209.5 213t79.5 297q0 186 -89.5 289.5t-256.5 103.5q-131 0 -212 -59t-109 -168zM98 -424l31 154q72 -21 119 -21q69 0 116 37t54 98h151q9 -66 49 -100.5t107 -34.5q145 0 158 135h186q-10 -138 -94 -216.5t-221 -78.5q-87 0 -154.5 33t-101.5 99 q-25 -64 -93.5 -99t-150.5 -35q-80 0 -156 29z" />
<glyph unicode="&#xe11;" horiz-adv-x="1437" d="M92 1149v49h148v-37q0 -123 110 -123q121 0 121 136v24h147v-78q0 -25 -2 -41q57 70 139 111t175 41q179 0 271.5 -108t92.5 -310v-813h-190v797q0 141 -50 203.5t-153 62.5q-95 0 -159 -51t-142 -178q-69 -112 -93 -179t-24 -172v-483h-190v485q0 108 23 180.5t73 145.5 q51 78 57 123q-53 -29 -118 -29q-109 0 -172.5 63.5t-63.5 180.5z" />
<glyph unicode="&#xe12;" horiz-adv-x="2088" d="M123 604q0 308 92.5 452.5t304.5 157.5l148 -116l153 116q177 -9 274 -111t97 -272v-303q0 -189 83 -295t224 -106q138 0 198 79.5t60 248.5v743h191v-786q0 -209 -108 -327t-304 -118q-248 0 -348 199v-166h-184v831q0 98 -42.5 153.5t-117.5 66.5l-156 -111h-41 l-145 111q-106 -15 -144.5 -113t-38.5 -336q0 -179 32.5 -285.5t93.5 -151t161 -44.5q64 0 135 22l25 -145q-74 -31 -170 -31q-239 0 -356 152t-117 485z" />
<glyph unicode="&#xe13;" horiz-adv-x="2062" d="M55 801v24q44 179 192 292.5t365 113.5q248 0 382 -140t134 -389v-233q0 -180 63 -261t210 -81q151 0 240.5 102.5t89.5 290.5v678h190v-1198h-186v186q-36 -96 -138 -157.5t-237 -61.5q-203 0 -311.5 117t-108.5 356v265q0 173 -84 267t-244 95q-140 0 -235 -67.5 t-125 -174.5l84 -75q22 -19 28.5 -35.5t6.5 -50.5v-342q0 -90 29 -136.5t106 -46.5q29 0 57 4v-147q-46 -8 -88 -8q-157 0 -226 83t-69 246v369z" />
<glyph unicode="&#xe14;" horiz-adv-x="1349" d="M121 602q0 287 143.5 458t415.5 171q264 0 395 -140.5t131 -412.5v-678h-190v686q0 189 -79.5 284t-256.5 95q-186 0 -274.5 -122t-88.5 -335q0 -104 19.5 -188t60 -149.5t109 -101.5t160.5 -36q63 0 106 14l25 -149q-67 -23 -158 -23q-171 0 -289 81t-173.5 220 t-55.5 326z" />
<glyph unicode="&#xe15;" horiz-adv-x="1388" d="M121 604q0 296 112.5 448.5t309.5 161.5l162 -122l167 122q177 -9 276 -111t99 -272v-831h-190v829q0 198 -162 220l-170 -119h-41l-164 119q-93 -11 -148 -118.5t-55 -328.5q0 -242 75 -358.5t231 -116.5q90 0 151 23l25 -152q-73 -31 -185 -31q-493 0 -493 637z" />
<glyph unicode="&#xe16;" horiz-adv-x="1298" d="M55 801v24q44 182 191.5 294t371.5 112q259 0 399 -135.5t140 -374.5v-721h-190v723q0 160 -89 251t-260 91q-143 0 -240 -66.5t-126 -173.5l84 -75q22 -19 28.5 -35.5t6.5 -50.5v-342q0 -90 29 -136.5t106 -46.5q29 0 57 4v-147q-46 -8 -88 -8q-157 0 -226 83t-69 246 v369z" />
<glyph unicode="&#xe17;" horiz-adv-x="1288" d="M141 0v1198h187v-199q67 109 176.5 170.5t243.5 61.5q198 0 298.5 -115t100.5 -332v-784h-191v741q0 164 -55.5 245t-198.5 81q-140 0 -251 -102q-119 -113 -119 -291v-674h-191z" />
<glyph unicode="&#xe18;" horiz-adv-x="1200" d="M111 911q0 105 65.5 178.5t169.5 107.5t236 34q435 0 501 -309l-184 -29q-49 184 -311 184q-141 0 -215 -34t-74 -119q0 -74 51 -109.5t152 -48.5l217 -27q177 -23 269.5 -111t92.5 -261q0 -197 -130 -298.5t-353 -101.5q-233 0 -357 94t-124 306v141h188v-129 q0 -139 68.5 -197.5t224.5 -58.5q143 0 219 59t76 180q0 116 -55.5 167t-180.5 63l-204 24q-162 19 -252 93t-90 202z" />
<glyph unicode="&#xe19;" horiz-adv-x="1323" d="M141 424v774h189v-729q0 -179 74 -260.5t233 -81.5q69 0 132 26t113 74t79.5 124t29.5 169v678h191v-1198h-187v199q-56 -110 -160 -171t-239 -61q-216 0 -335.5 112t-119.5 345z" />
<glyph unicode="&#xe1a;" horiz-adv-x="1304" d="M141 479v719h191v-719q0 -352 321 -352q157 0 238.5 90.5t81.5 261.5v719h190v-719q0 -249 -137 -380.5t-373 -131.5q-239 0 -375.5 130.5t-136.5 381.5z" />
<glyph unicode="&#xe1b;" horiz-adv-x="1306" d="M141 479v719h191v-719q0 -352 321 -352q159 0 240.5 90.5t81.5 261.5v1106h190v-1106q0 -249 -137 -380.5t-375 -131.5t-375 130.5t-137 381.5z" />
<glyph unicode="&#xe1c;" horiz-adv-x="1370" d="M141 0v899q0 158 70.5 234.5t222.5 76.5q58 0 105 -12l-21 -143q-34 6 -69 6q-63 0 -92 -37t-29 -121v-674l282 422h154l278 -422v969h187v-1198h-213l-330 512l-334 -512h-211z" />
<glyph unicode="&#xe1d;" horiz-adv-x="1370" d="M141 0v899q0 158 70.5 234.5t222.5 76.5q58 0 105 -12l-21 -143q-34 6 -69 6q-63 0 -92 -37t-29 -121v-674l282 422h154l278 -422v1356h187v-1585h-213l-330 512l-334 -512h-211z" />
<glyph unicode="&#xe1e;" horiz-adv-x="1478" d="M37 1198l254 -1198h198l252 922l258 -922h199l242 1198h-195l-162 -917l-249 909h-183l-239 -911l-174 919h-201z" />
<glyph unicode="&#xe1f;" horiz-adv-x="1476" d="M37 1198h201l194 -922l215 914h182l236 -911l223 1306h193l-301 -1585h-199l-248 940l-225 -940h-197z" />
<glyph unicode="&#xe20;" horiz-adv-x="1357" d="M102 -4v147q32 -4 56 -4q33 0 55 9t34.5 23t19 40t8 49.5t1.5 61.5v329l-161 150v24q46 179 195.5 292.5t371.5 113.5q261 0 398 -139t137 -390v-702h-191v705q0 174 -85.5 267t-260.5 93q-141 0 -240 -68t-129 -174l121 -108q22 -20 28.5 -36t6.5 -50v-312 q0 -167 -59.5 -248t-214.5 -81q-41 0 -91 8z" />
<glyph unicode="&#xe21;" horiz-adv-x="1284" d="M141 0h187v195q60 -108 160 -168t231 -60q198 0 311 119t113 326v786h-191v-743q0 -166 -66 -247t-204 -81q-146 0 -248 108.5t-102 292.5v670h-191v-1198z" />
<glyph unicode="&#xe22;" horiz-adv-x="1288" d="M125 342q0 119 63.5 196t171.5 99q-101 30 -166 103t-65 180q0 139 97.5 219t256.5 80q105 0 156 -19l-14 -149q-46 14 -125 14q-88 0 -138.5 -40.5t-50.5 -121.5q0 -94 67.5 -142t172.5 -48h96v-154h-92q-238 0 -238 -209q0 -116 83.5 -169.5t228.5 -53.5q327 0 327 303 v768h191v-766q0 -221 -141 -343t-381 -122q-102 0 -190.5 22.5t-158.5 67t-110.5 118t-40.5 167.5z" />
<glyph unicode="&#xe23;" horiz-adv-x="1169" d="M109 340h184q19 -121 95.5 -170t215.5 -49q121 0 192.5 50.5t71.5 147.5q0 93 -54 139t-159 60l-137 23q-89 13 -155 36t-119.5 62t-81 101t-27.5 145q0 69 24 126.5t66 97.5t98.5 68t121.5 41t135 13q189 0 309 -75t151 -234l-180 -27q-23 95 -89 138.5t-185 43.5 t-193 -44t-74 -140q0 -49 14.5 -83t46 -55t67 -32t90.5 -21l159 -26q90 -16 154 -41.5t112 -66.5t71.5 -102t23.5 -144q0 -170 -127 -262.5t-322 -92.5q-105 0 -190.5 20.5t-153.5 63.5t-108 116.5t-47 172.5z" />
<glyph unicode="&#xe24;" horiz-adv-x="1298" d="M55 801v24q44 182 191.5 294t371.5 112q259 0 399 -135.5t140 -374.5v-1131h-190v1133q0 160 -89 251t-260 91q-143 0 -240 -66.5t-126 -173.5l84 -75q22 -19 28.5 -35.5t6.5 -50.5v-342q0 -90 29 -136.5t106 -46.5q29 0 57 4v-147q-46 -8 -88 -8q-157 0 -226 83t-69 246 v369z" />
<glyph unicode="&#xe25;" horiz-adv-x="1245" d="M121 313q0 102 37.5 176t105.5 115.5t151.5 60.5t188.5 19h316v125q0 266 -293 266q-130 0 -206 -55t-97 -158l-185 29q21 153 151 246.5t341 93.5q230 0 353.5 -106.5t123.5 -319.5v-805h-188v539h-304q-52 0 -92 -4.5t-81.5 -18t-68.5 -36.5t-44 -62.5t-17 -93.5 q0 -96 58 -144.5t153 -48.5q80 0 158 19l25 -148q-100 -29 -207 -29q-170 0 -274.5 89t-104.5 251z" />
<glyph unicode="&#xe26;" horiz-adv-x="1347" d="M102 -4v147q32 -4 56 -4q33 0 55 9t34.5 23t19 40t8 49.5t1.5 61.5v329l-161 150v24q46 179 195.5 292.5t371.5 113.5q261 0 398 -139t137 -390v-1112h-191v1115q0 174 -85.5 267t-260.5 93q-141 0 -240 -68t-129 -174l121 -108q22 -20 28.5 -36t6.5 -50v-312 q0 -167 -59.5 -248t-214.5 -81q-41 0 -91 8z" />
<glyph unicode="&#xe27;" horiz-adv-x="1228" d="M70 836q35 184 173.5 289.5t348.5 105.5q262 0 400 -170.5t138 -458.5q0 -140 -32 -254.5t-96 -200.5t-168.5 -133t-241.5 -47q-226 0 -363 118t-151 321h196q18 -133 99 -208t219 -75q117 0 195.5 65t112.5 170t34 244q0 215 -87 342t-259 127q-136 0 -218.5 -71 t-111.5 -199z" />
<glyph unicode="&#xe28;" horiz-adv-x="1312" d="M141 0v717q0 243 133.5 378.5t382.5 135.5q161 0 283 -64l90 133h197l-162 -233q106 -133 106 -350v-717h-190v713q0 178 -77.5 268t-246.5 90q-173 0 -249 -88t-76 -270v-209q42 85 130.5 134.5t203.5 49.5q65 0 98 -8l-14 -166q-46 8 -99 8q-149 0 -234 -95.5 t-85 -250.5v-176h-191z" />
<glyph unicode="&#xe29;" horiz-adv-x="1304" d="M141 479v719h191v-719q0 -352 321 -352q157 0 238.5 90.5t81.5 261.5v125h-264v146h264v448h190v-448h101v-146h-101v-125q0 -249 -137 -380.5t-373 -131.5q-239 0 -375.5 130.5t-136.5 381.5z" />
<glyph unicode="&#xe2a;" horiz-adv-x="1251" d="M121 313q0 102 37.5 176t105.5 115.5t151.5 60.5t188.5 19h316v125q0 132 -75 199t-218 67q-260 0 -303 -213l-185 29q21 153 151 246.5t341 93.5q150 0 264 -60l88 129h197l-160 -227q88 -112 88 -266v-807h-188v539h-304q-52 0 -92 -4.5t-81.5 -18t-68.5 -36.5 t-44 -62.5t-17 -93.5q0 -96 58 -144.5t153 -48.5q80 0 158 19l25 -148q-100 -29 -207 -29q-170 0 -274.5 89t-104.5 251z" />
<glyph unicode="&#xe2b;" horiz-adv-x="1261" d="M141 0v1198h191v-410h223q181 0 276 72t95 242v96h190v-115q0 -132 -66 -222t-184 -134q254 -74 254 -385v-342h-190v305q0 175 -78.5 252.5t-255.5 77.5h-264v-635h-191z" />
<glyph unicode="&#xe2c;" horiz-adv-x="1396" d="M141 0h219l336 614l338 -614h221v791q0 127 -51.5 212.5t-148.5 112.5q101 29 156 112t55 202v73h-195v-73q0 -120 -67 -176t-199 -56v-147q135 0 199.5 -68t64.5 -190v-537l-301 555h-139l-301 -555v942h-187v-1198z" />
<glyph unicode="&#xe2d;" horiz-adv-x="1302" d="M106 512v109h512v-142h-319q0 -163 90.5 -259.5t251.5 -96.5q96 0 167.5 36t114.5 101.5t64 151t21 190.5q0 220 -89 344.5t-276 124.5q-127 0 -210.5 -62.5t-113.5 -168.5l-192 24q42 173 180.5 270t335.5 97q141 0 249 -45.5t175.5 -129.5t102 -197.5t34.5 -252.5 q0 -294 -140.5 -466.5t-416.5 -172.5q-247 0 -394 151.5t-147 393.5z" />
<glyph unicode="&#xe2e;" horiz-adv-x="1304" d="M106 512v109h512v-142h-319q0 -163 90.5 -259.5t251.5 -96.5q96 0 167.5 36t114.5 101.5t64 151t21 190.5q0 220 -89 344.5t-276 124.5q-127 0 -210.5 -62.5t-113.5 -168.5l-192 24q42 173 180.5 270t335.5 97q158 0 272 -57l89 126h196l-156 -221q160 -163 160 -473 q0 -294 -140.5 -466.5t-416.5 -172.5q-247 0 -394 151.5t-147 393.5z" />
<glyph unicode="&#xe2f;" horiz-adv-x="1126" d="M100 999v199h189v-174q0 -141 55 -211t178 -70q129 0 207 85t78 221v149h190v-1198h-190v743q-52 -75 -139.5 -117t-186.5 -42q-180 0 -280.5 111t-100.5 304z" />
<glyph unicode="&#xe30;" horiz-adv-x="778" d="M92 367q0 12 4 82h176v-41q0 -70 31.5 -97.5t102.5 -27.5h270v-158h-305q-137 0 -208 56.5t-71 185.5zM92 942q0 14 4 80h176v-39q0 -71 31.5 -99t102.5 -28h270v-158h-297q-287 0 -287 244z" />
<glyph unicode="&#xe31;" d="M-707 1591q0 13 5 70h157v-47q0 -66 33 -91.5t113 -25.5h469v-145h-482q-295 0 -295 239z" />
<glyph unicode="&#xe32;" horiz-adv-x="1050" d="M39 879q17 161 136.5 256.5t303.5 95.5q213 0 323.5 -105t110.5 -315v-811h-190v807q0 131 -60 197.5t-190 66.5q-110 0 -175.5 -58.5t-80.5 -162.5z" />
<glyph unicode="&#xe33;" horiz-adv-x="1050" d="M-444 1536q0 90 57 143.5t149 53.5q93 0 151 -53.5t58 -143.5t-58 -142.5t-151 -52.5q-92 0 -149 52.5t-57 142.5zM-322 1536q0 -41 22.5 -64.5t61.5 -23.5q40 0 63 22t23 66q0 42 -23 66t-63 24t-62 -23.5t-22 -66.5zM39 879q17 161 136.5 256.5t303.5 95.5 q213 0 323.5 -105t110.5 -315v-811h-190v807q0 131 -60 197.5t-190 66.5q-110 0 -175.5 -58.5t-80.5 -162.5z" />
<glyph unicode="&#xe34;" d="M-1028 1352v145h878v-145h-878z" />
<glyph unicode="&#xe35;" d="M-1028 1352h876v297h-161v-152h-715v-145z" />
<glyph unicode="&#xe36;" d="M-1028 1352v145h559v10q0 70 44.5 112t121.5 42t121.5 -42t44.5 -112q0 -73 -48 -114t-128 -41h-715zM-362 1505q0 -67 59 -67t59 69q0 68 -59 68q-28 0 -43.5 -19t-15.5 -51z" />
<glyph unicode="&#xe37;" d="M-1028 1352v145h493v152h146v-152h94v152h143v-297h-876z" />
<glyph unicode="&#xe38;" d="M-444 -127q23 4 86 4q109 0 155.5 -41.5t46.5 -144.5v-230h-153v197q0 46 -17 64t-61 18h-57v133z" />
<glyph unicode="&#xe39;" d="M-795 -129h256v-170q0 -52 26 -81.5t77 -29.5q104 0 104 111v164h166v-170q0 -107 -75.5 -172.5t-194.5 -65.5q-118 0 -190 63.5t-72 168.5v55h-97v127z" />
<glyph unicode="&#xe3a;" d="M-336 -229q0 47 30 76.5t77 29.5q51 0 78.5 -27.5t27.5 -78.5q0 -50 -28.5 -78.5t-77.5 -28.5q-46 0 -76.5 30t-30.5 77z" />
<glyph unicode="&#xe3f;" horiz-adv-x="1228" d="M158 0v1462h374v162h134v-162q66 0 124.5 -11.5t113.5 -39.5t95 -71t64 -110t24 -151q0 -222 -200 -313q85 -33 136 -86t70 -114t19 -142q0 -206 -120.5 -315t-313.5 -109h-12v-227h-134v227h-374zM356 166h176v506h-176v-506zM356 840h176v456h-176v-456zM666 166h4 q118 0 178.5 66t60.5 188q0 123 -61.5 187.5t-165.5 64.5h-16v-506zM666 840h18q91 0 148 59.5t57 169.5q0 108 -59 166t-164 61v-456z" />
<glyph unicode="&#xe40;" horiz-adv-x="606" d="M166 264v934h190v-930q0 -66 20.5 -93.5t72.5 -27.5q41 0 69 7l10 -150q-50 -16 -108 -16q-133 0 -193.5 65.5t-60.5 210.5z" />
<glyph unicode="&#xe41;" horiz-adv-x="1107" d="M166 264v934h190v-930q0 -66 20.5 -93.5t72.5 -27.5q41 0 69 7l10 -150q-50 -16 -108 -16q-133 0 -193.5 65.5t-60.5 210.5zM666 264v934h190v-930q0 -66 20 -93.5t72 -27.5q42 0 70 7l10 -150q-50 -16 -108 -16q-133 0 -193.5 65.5t-60.5 210.5z" />
<glyph unicode="&#xe42;" horiz-adv-x="634" d="M-12 1753v150h712v-156h-475q66 -32 104 -112.5t38 -180.5v-1186q0 -66 20.5 -93.5t73.5 -27.5q41 0 69 7l9 -150q-46 -16 -109 -16q-133 0 -193.5 65.5t-60.5 210.5v1184q0 253 -188 305z" />
<glyph unicode="&#xe43;" horiz-adv-x="634" d="M-88 1647q29 139 120.5 212.5t235.5 73.5q151 0 247.5 -75t96.5 -216q0 -68 -34 -127.5t-95 -125.5q-69 -72 -92.5 -130.5t-23.5 -162.5v-828q0 -66 20.5 -93.5t73.5 -27.5q41 0 69 7l9 -150q-46 -16 -109 -16q-133 0 -193.5 65.5t-60.5 210.5v840q0 107 31 181.5 t96 144.5q51 53 70.5 76.5t35 57.5t15.5 74q0 65 -44 101.5t-118 36.5q-138 0 -176 -154z" />
<glyph unicode="&#xe44;" horiz-adv-x="634" d="M-74 1747v156h695v-150q-123 -32 -188.5 -128t-65.5 -239v-1116q0 -67 20.5 -95t73.5 -28q41 0 69 7l9 -150q-46 -16 -109 -16q-133 0 -193.5 65.5t-60.5 210.5v1129q0 120 53.5 213.5t153.5 140.5h-457z" />
<glyph unicode="&#xe45;" horiz-adv-x="1052" d="M39 879q17 161 136.5 256.5t303.5 95.5q213 0 323.5 -105t110.5 -315v-811h2v-410h-190v410h-2v807q0 131 -60 197.5t-190 66.5q-110 0 -175.5 -58.5t-80.5 -162.5z" />
<glyph unicode="&#xe46;" horiz-adv-x="1314" d="M117 834q0 167 77 271.5t224 104.5q76 0 133.5 -36.5t87.5 -106.5q75 143 231 143q155 0 227 -95t72 -284v-1292h-190v1286q0 117 -32 171.5t-103 54.5q-60 0 -95.5 -41t-48.5 -109h-118q-26 150 -142 150q-66 0 -101.5 -59t-35.5 -169q0 -239 184 -239q39 0 97 8 l18 -139q-58 -21 -133 -21q-163 0 -257.5 107t-94.5 295z" />
<glyph unicode="&#xe47;" d="M-952 1577q0 108 72.5 173t197.5 65h418v-127h-420q-57 0 -89 -28.5t-32 -82.5q0 -49 27.5 -76.5t75.5 -27.5q44 0 73 23.5t35 68.5h135q4 -45 29.5 -64.5t75.5 -19.5h92v-127q-46 -6 -92 -6q-136 0 -178 98q-25 -48 -76 -73t-109 -25q-105 0 -170 64t-65 165z" />
<glyph unicode="&#xe48;" d="M-307 1751v293h157v-293h-157z" />
<glyph unicode="&#xe49;" d="M-612 1933v129q45 4 102 4q92 0 138 -47.5t46 -132.5v-6h299v-129h-446v94q0 48 -16 68t-60 20h-63z" />
<glyph unicode="&#xe4a;" d="M-782 1868q0 97 48.5 148.5t129.5 51.5q89 0 129 -79q37 79 133 79q71 0 115.5 -45.5t44.5 -130.5v-12h129v-129h-256v115q0 80 -53 80q-31 0 -49 -23t-21 -59h-92q-9 43 -24 62.5t-42 19.5q-57 0 -57 -84q0 -55 16 -111h-131q-20 68 -20 117z" />
<glyph unicode="&#xe4b;" d="M-422 1860v122h123v109h141v-109h123v-122h-123v-109h-141v109h-123z" />
<glyph unicode="&#xe4c;" d="M-508 1817q0 215 281 215h157v-129h-151q-74 0 -106.5 -24.5t-32.5 -90.5v-37h-144q-4 36 -4 66z" />
<glyph unicode="&#xe4d;" d="M-444 1536q0 90 57 143.5t149 53.5q93 0 151 -53.5t58 -143.5t-58 -142.5t-151 -52.5q-92 0 -149 52.5t-57 142.5zM-322 1536q0 -41 22.5 -64.5t61.5 -23.5q40 0 63 22t23 66q0 42 -23 66t-63 24t-62 -23.5t-22 -66.5z" />
<glyph unicode="&#xe4e;" d="M-731 1475q0 44 27 75t73 45q-55 36 -55 99q0 59 52 92t124 33q67 0 123 -17l-16 -106q-52 12 -76 12q-74 0 -74 -39q0 -43 121 -49l-19 -94q-47 6 -71 6q-74 0 -74 -45q0 -22 24.5 -33.5t63.5 -11.5q35 0 45 2l-16 -109q-32 -4 -60 -4q-78 0 -135 38t-57 106z" />
<glyph unicode="&#xe4f;" horiz-adv-x="1302" d="M102 592q0 231 156 380.5t393 149.5q154 0 279 -66t197.5 -188t72.5 -276q0 -230 -154 -380.5t-395 -150.5q-114 0 -214.5 38t-174.5 106t-117 168.5t-43 218.5zM246 592q0 -179 110.5 -290.5t294.5 -111.5q186 0 297 111.5t111 290.5q0 178 -114.5 289.5t-293.5 111.5 t-292 -111.5t-113 -289.5zM453 592q0 88 54.5 143.5t143.5 55.5q87 0 143 -51.5t56 -147.5q0 -91 -53.5 -145t-145.5 -54t-145 56t-53 143z" />
<glyph unicode="&#xe50;" horiz-adv-x="1245" d="M102 485q0 224 144 371.5t379 147.5q233 0 375.5 -146t142.5 -373q0 -231 -140.5 -374.5t-377.5 -143.5t-380 143.5t-143 374.5zM279 485q0 -172 93.5 -274t252.5 -102q160 0 252 102.5t92 273.5q0 178 -93.5 277.5t-250.5 99.5q-160 0 -253 -99.5t-93 -277.5z" />
<glyph unicode="&#xe51;" horiz-adv-x="1204" d="M102 600q0 179 136.5 292.5t341.5 113.5q249 0 385.5 -138t136.5 -376q0 -247 -155.5 -386t-409.5 -139q-100 0 -209 23l22 153q82 -20 178 -20q186 0 284.5 91t98.5 278q0 174 -84.5 264t-246.5 90q-129 0 -211 -63t-82 -171t53 -163.5t154 -55.5q55 0 110 10l17 -147 q-65 -18 -142 -18q-175 0 -276 92t-101 270z" />
<glyph unicode="&#xe52;" horiz-adv-x="1456" d="M102 522v770h189v-770q0 -221 108 -312t340 -91q235 0 337 88.5t102 308.5v154q0 38 -3.5 67t-13.5 59.5t-32.5 47t-55.5 16.5q-86 0 -119 -139h-120q-28 139 -117 139q-55 0 -79 -48t-24 -120q0 -194 138 -194q21 0 53 4l18 -131q-53 -11 -92 -11q-137 0 -207.5 90 t-70.5 242q0 140 59 227t180 87q71 0 123 -38.5t80 -107.5q27 68 80.5 107t124.5 39q134 0 194 -90.5t60 -243.5v-152q0 -292 -152.5 -422.5t-464.5 -130.5q-157 0 -272 29t-198 93t-124 172t-41 261z" />
<glyph unicode="&#xe53;" horiz-adv-x="1361" d="M102 510q0 108 19 195.5t59 156.5t107.5 106.5t158.5 37.5q86 0 151 -42t95 -126q35 83 103 125.5t159 42.5q157 0 231.5 -102.5t74.5 -285.5v-618h-183v612q0 117 -35 176.5t-114 59.5t-116.5 -63t-37.5 -156v-174h-164v176q0 217 -147 217q-61 0 -100.5 -46 t-55.5 -118.5t-16 -171.5q0 -197 55 -290t172 -93q51 0 82 6l16 -143q-52 -15 -112 -15q-402 0 -402 533z" />
<glyph unicode="&#xe54;" horiz-adv-x="1239" d="M102 504q1 159 68.5 274t184 171.5t270.5 56.5h108q132 0 182 50.5t50 198.5v37h168v-37q0 -217 -99.5 -306t-294.5 -89h-92q-81 0 -144 -18t-112.5 -58t-76 -110t-27.5 -168q0 -180 77 -272.5t230 -92.5h106q-59 30 -96 93.5t-37 144.5q0 122 75.5 188t197.5 66 q93 0 157 -31l-34 -131q-47 21 -103 21q-60 0 -95 -36t-34 -102q0 -95 74 -153t182 -58h129v-143h-541q-221 0 -347.5 134.5t-125.5 369.5z" />
<glyph unicode="&#xe55;" horiz-adv-x="1239" d="M102 504q1 176 81.5 294t222.5 169q-39 53 -39 123q0 89 57.5 146.5t148.5 57.5t150 -56.5t59 -147.5q0 -48 -20 -84q113 5 158 57.5t45 191.5v37h168v-37q0 -217 -99.5 -306t-294.5 -89h-92q-81 0 -144 -18t-112.5 -58t-76 -110t-27.5 -168q0 -180 77 -272.5t230 -92.5 h106q-59 30 -96 93.5t-37 144.5q0 122 75.5 188t197.5 66q93 0 157 -31l-34 -131q-47 21 -103 21q-60 0 -95 -36t-34 -102q0 -95 74 -153t182 -58h129v-143h-541q-221 0 -347.5 134.5t-125.5 369.5zM481 1090q0 -47 24 -76t68 -29q42 0 69.5 27.5t27.5 77.5q0 46 -27 73 t-70 27q-92 0 -92 -100z" />
<glyph unicode="&#xe56;" horiz-adv-x="1316" d="M61 1292h177l120 -458q58 83 154 127.5t215 44.5q237 0 362 -138.5t125 -384.5q0 -239 -136.5 -377.5t-368.5 -138.5q-204 0 -332 99t-148 294h189q15 -117 92 -180t195 -63q155 0 238 99t83 263q0 183 -76.5 276t-240.5 93q-114 0 -192.5 -59.5t-117.5 -159.5h-170z" />
<glyph unicode="&#xe57;" horiz-adv-x="1671" d="M102 512q0 230 84.5 362t235.5 132q167 0 229 -166q77 166 250 166q137 0 207 -98t70 -281v-482q96 0 152 66.5t56 198.5v882h183v-848q0 -220 -108.5 -332t-299.5 -112h-160v614q0 117 -31 175.5t-104 58.5q-133 0 -133 -217v-162h-164v162q0 217 -125 217 q-155 0 -155 -332q0 -205 51 -296t178 -91q55 0 82 6l16 -143q-52 -15 -112 -15q-402 0 -402 535z" />
<glyph unicode="&#xe58;" horiz-adv-x="1331" d="M96 459q0 267 142 407t409 140h109q84 0 134 9t86.5 36t51 75.5t14.5 128.5v37h177v-37q0 -119 -26.5 -197.5t-84.5 -124t-138.5 -63.5t-199.5 -18h-108q-199 0 -288 -94.5t-89 -302.5q0 -166 41.5 -248t130.5 -82q75 0 109 38.5t34 115.5v14h152v-14q0 -154 145 -154 q74 0 108.5 46t34.5 140q0 170 -139 170q-41 0 -102 -14l-23 143q66 27 144 27q146 0 222.5 -84.5t76.5 -241.5q0 -162 -77.5 -253t-219.5 -91q-180 0 -244 144q-68 -144 -244 -144q-117 0 -194 63.5t-110.5 171t-33.5 257.5z" />
<glyph unicode="&#xe59;" horiz-adv-x="1294" d="M96 512q0 104 21.5 191.5t64.5 156t113.5 107.5t161.5 39q175 0 252 -150q12 66 53.5 103.5t107.5 37.5h21q54 0 82 30.5t28 98.5v166h166v-174q0 -133 -60 -201.5t-173 -68.5h-16q-91 0 -91 -94q0 -49 29 -131l227 -623h-180l-235 655q-33 89 -78.5 141t-118.5 52 q-45 0 -79 -19t-54.5 -49t-33 -75t-17 -89.5t-4.5 -99.5q0 -209 58 -298t181 -89q59 0 84 6l17 -143q-47 -15 -115 -15q-215 0 -313.5 128t-98.5 407z" />
<glyph unicode="&#xe5a;" horiz-adv-x="1492" d="M100 999v199h189v-174q0 -141 55 -211t178 -70q129 0 207 85t78 221v149h190v-1198h-190v743q-52 -75 -139.5 -117t-186.5 -42q-180 0 -280.5 111t-100.5 304zM1188 -2v1196h190v-1196h-190z" />
<glyph unicode="&#xe5b;" horiz-adv-x="2072" d="M119 594q0 201 110 319.5t306 118.5q155 0 241.5 -85.5t104.5 -241.5l-154 -29q-22 205 -195 205q-114 0 -172.5 -76t-58.5 -205q0 -153 71.5 -240.5t207.5 -87.5q190 0 311 146q111 137 172 430h135l145 -422l121 358h127q49 -128 114 -183.5t181 -55.5q29 0 53 6 l17 -137q-33 -11 -78 -11q-244 0 -338 189l-135 -385h-131l-137 389q-70 -218 -209 -342q-145 -133 -357 -133q-213 0 -332.5 127.5t-119.5 345.5z" />
<glyph unicode="&#x1e80;" horiz-adv-x="1918" d="M27 1462h229l295 -1188l309 1182h215l307 -1182l293 1188h217l-401 -1462h-217l-316 1202l-309 -1202h-211zM606 1864h238l239 -281h-190z" />
<glyph unicode="&#x1e81;" horiz-adv-x="1513" d="M16 1061h209l207 -830l238 824h188l232 -817l206 823h201l-309 -1061h-201l-231 825l-234 -825h-198zM414 1507h233l236 -297h-189z" />
<glyph unicode="&#x1e82;" horiz-adv-x="1918" d="M27 1462h229l295 -1188l309 1182h215l307 -1182l293 1188h217l-401 -1462h-217l-316 1202l-309 -1202h-211zM838 1583l239 281h238l-287 -281h-190z" />
<glyph unicode="&#x1e83;" horiz-adv-x="1513" d="M16 1061h209l207 -830l238 824h188l232 -817l206 823h201l-309 -1061h-201l-231 825l-234 -825h-198zM641 1210l236 297h233l-281 -297h-188z" />
<glyph unicode="&#x1e84;" horiz-adv-x="1918" d="M27 1462h229l295 -1188l309 1182h215l307 -1182l293 1188h217l-401 -1462h-217l-316 1202l-309 -1202h-211zM664 1763q0 51 29 81t81 30t81.5 -30t29.5 -81q0 -50 -29.5 -79t-81.5 -29t-81 29t-29 79zM1032 1763q0 51 29.5 81t81.5 30t81 -30t29 -81q0 -50 -29 -79 t-81 -29t-81.5 29t-29.5 79z" />
<glyph unicode="&#x1e85;" horiz-adv-x="1513" d="M16 1061h209l207 -830l238 824h188l232 -817l206 823h201l-309 -1061h-201l-231 825l-234 -825h-198zM461 1360q0 51 29 80.5t81 29.5t81.5 -29.5t29.5 -80.5q0 -50 -29.5 -79.5t-81.5 -29.5t-81 29.5t-29 79.5zM829 1360q0 51 29.5 80.5t81.5 29.5t81.5 -29.5 t29.5 -80.5q0 -50 -29.5 -79.5t-81.5 -29.5t-81.5 29.5t-29.5 79.5z" />
<glyph unicode="&#x1e9e;" horiz-adv-x="1642" d="M156 0v958q0 247 129.5 375.5t378.5 128.5h577v-157l-33 -25q-58 -39 -87.5 -59.5t-77.5 -55.5t-72.5 -58.5t-52 -53.5t-39 -56.5t-11.5 -52.5q0 -22 6.5 -40t13.5 -31t25 -25t28.5 -18.5t38.5 -15t39 -11.5t45 -11t44 -10l82 -18q191 -47 280 -138.5t89 -254.5 q0 -191 -126 -299.5t-356 -108.5t-350.5 99.5t-142.5 308.5h196q17 -126 85.5 -182t211.5 -56q137 0 204 58.5t67 179.5q0 30 -5 55t-18 45t-25 35t-36.5 28.5t-42 22t-51.5 18t-54 14.5t-61 15l-51 12q-44 10 -72.5 17.5t-67.5 21t-64 28t-53 36.5t-44 48t-26.5 62.5 t-10.5 79.5q0 58 25.5 113t73.5 104.5t97 87.5t117 82h-303q-169 0 -243.5 -82t-74.5 -264v-950h-202z" />
<glyph unicode="&#x1ebc;" horiz-adv-x="1222" d="M162 0v1462h962v-178h-757v-442h716v-178h-716v-486h774v-178h-979zM268 1585q0 281 193 281q53 0 93.5 -19.5t92.5 -70.5q66 -66 103 -66q22 0 36 14t19.5 39.5t7.5 46.5t2 50h135q0 -281 -192 -281q-55 0 -94.5 19t-92.5 71l-5 5q-18 18 -29 28t-31 21.5t-37 11.5 q-66 0 -66 -150h-135z" />
<glyph unicode="&#x1ebd;" horiz-adv-x="1191" d="M102 522q0 258 137.5 415t364.5 157q235 0 362.5 -139.5t127.5 -379.5v-92h-797q9 -174 93 -268t226 -94q234 0 277 180h186q-28 -157 -148 -245.5t-315 -88.5q-238 0 -376 150t-138 405zM260 1221q0 282 193 282q53 0 91 -19t89 -71q1 -2 10.5 -12t13 -13.5l12 -12 t14 -12t13.5 -8.5t15.5 -7t15.5 -2q70 0 70 151h133q0 -140 -49 -211.5t-144 -71.5q-54 0 -91.5 20.5t-86.5 72.5q-19 20 -29 30t-30 22.5t-37 12.5q-68 0 -68 -151h-135zM299 621h602q-21 325 -299 325q-271 0 -303 -325z" />
<glyph unicode="&#x1ef2;" horiz-adv-x="1267" d="M27 1462h233l377 -671l387 671h215l-498 -846v-616h-206v614zM281 1864h237l240 -281h-191z" />
<glyph unicode="&#x1ef3;" horiz-adv-x="1083" d="M14 1061h224l323 -813l295 813h211l-461 -1153l-125 -328h-198l180 455zM199 1507h233l236 -297h-189z" />
<glyph unicode="&#x1ef8;" horiz-adv-x="1267" d="M27 1462h233l377 -671l387 671h215l-498 -846v-616h-206v614zM293 1585q0 281 192 281q53 0 94 -19.5t93 -70.5q66 -66 102 -66q66 0 66 150h135q0 -281 -193 -281q-55 0 -94 19t-92 71l-5 5q-18 18 -29 28t-31 21.5t-37 11.5q-66 0 -66 -150h-135z" />
<glyph unicode="&#x1ef9;" horiz-adv-x="1083" d="M14 1061h224l323 -813l295 813h211l-461 -1153l-125 -328h-198l180 455zM207 1221q0 282 192 282q53 0 92 -19t89 -71q1 -2 10.5 -12t13 -13.5l12 -12t14 -12t13.5 -8.5t15.5 -7t15.5 -2q69 0 69 151h134q0 -140 -49 -211.5t-144 -71.5q-54 0 -91.5 20.5t-86.5 72.5 q-19 20 -29 30t-30 22.5t-37 12.5q-68 0 -68 -151h-135z" />
<glyph unicode="&#x2000;" horiz-adv-x="1024" />
<glyph unicode="&#x2001;" horiz-adv-x="2048" />
<glyph unicode="&#x2002;" horiz-adv-x="1024" />
<glyph unicode="&#x2003;" horiz-adv-x="2048" />
<glyph unicode="&#x2004;" horiz-adv-x="681" />
<glyph unicode="&#x2005;" horiz-adv-x="512" />
<glyph unicode="&#x2006;" horiz-adv-x="339" />
<glyph unicode="&#x2007;" horiz-adv-x="1212" />
<glyph unicode="&#x2008;" horiz-adv-x="466" />
<glyph unicode="&#x2009;" horiz-adv-x="409" />
<glyph unicode="&#x200a;" horiz-adv-x="102" />
<glyph unicode="&#x200b;" />
<glyph unicode="&#x200c;" d="M-39 -444v1624h80v-1624h-80z" />
<glyph unicode="&#x200d;" d="M-201 979l142 141l-142 144l60 59l141 -143l141 143l60 -59l-144 -144l144 -141l-58 -57l-104 102v-1468h-80v1470l-102 -104z" />
<glyph unicode="&#x200e;" d="M-326 -444v1615h523l-260 248h110l281 -266v-37l-283 -272h-108l260 248h-443v-1536h-80z" />
<glyph unicode="&#x200f;" d="M-326 1116v37l281 266h111l-261 -248h523v-1615h-80v1536h-443l261 -248h-109z" />
<glyph unicode="&#x2010;" horiz-adv-x="802" d="M96 504v192h611v-192h-611z" />
<glyph unicode="&#x2011;" horiz-adv-x="802" d="M96 504v192h611v-192h-611z" />
<glyph unicode="&#x2012;" horiz-adv-x="1212" d="M100 625v184h1024v-184h-1024z" />
<glyph unicode="&#x2013;" horiz-adv-x="1024" d="M0 508v184h1024v-184h-1024z" />
<glyph unicode="&#x2014;" horiz-adv-x="2048" d="M0 508v184h2048v-184h-2048z" />
<glyph unicode="&#x2015;" horiz-adv-x="2048" d="M0 508v184h2048v-184h-2048z" />
<glyph unicode="&#x2018;" horiz-adv-x="436" d="M94 1010l111 452h153l-61 -452h-203z" />
<glyph unicode="&#x2019;" horiz-adv-x="436" d="M78 1010l63 452h201l-109 -452h-155z" />
<glyph unicode="&#x201a;" horiz-adv-x="425" d="M74 -209l63 453h201l-109 -453h-155z" />
<glyph unicode="&#x201b;" horiz-adv-x="436" d="M96 1462h203l61 -450h-153z" />
<glyph unicode="&#x201c;" horiz-adv-x="776" d="M94 1010l111 452h153l-61 -452h-203zM432 1010l111 452h153l-61 -452h-203z" />
<glyph unicode="&#x201d;" horiz-adv-x="776" d="M78 1010l63 452h201l-109 -452h-155zM418 1010l63 452h201l-109 -452h-155z" />
<glyph unicode="&#x201e;" horiz-adv-x="765" d="M74 -209l63 453h201l-109 -453h-155zM414 -209l63 453h201l-109 -453h-155z" />
<glyph unicode="&#x2020;" horiz-adv-x="964" d="M39 901v168h348v393h193v-393h346v-168h-346v-1079h-193v1079h-348z" />
<glyph unicode="&#x2021;" horiz-adv-x="964" d="M39 227v172h348v510h-348v168h348v385h193v-385h346v-168h-346v-510h346v-172h-346v-405h-193v405h-348z" />
<glyph unicode="&#x2022;" horiz-adv-x="745" d="M90 602q0 126 80.5 204.5t206.5 78.5q124 0 203 -79t79 -204q0 -126 -78 -205.5t-204 -79.5q-129 0 -208 78.5t-79 206.5z" />
<glyph unicode="&#x2026;" horiz-adv-x="1851" d="M197 104q0 54 30 84.5t84 30.5t84.5 -30.5t30.5 -84.5t-30.5 -84t-84.5 -30t-84 30t-30 84zM811 104q0 54 30.5 84.5t84.5 30.5t84 -30.5t30 -84.5t-30 -84t-84 -30t-84.5 30t-30.5 84zM1425 104q0 54 30.5 84.5t84.5 30.5t84.5 -30.5t30.5 -84.5t-30.5 -84t-84.5 -30 t-84.5 30t-30.5 84z" />
<glyph unicode="&#x202a;" d="M-326 -444v1615h115v-79h-35v-1536h-80zM-63 844l260 248h-224v79h224l-260 248h110l281 -266v-37l-283 -272h-108z" />
<glyph unicode="&#x202b;" d="M-326 1116v37l281 266h111l-261 -248h224v-79h-224l261 -248h-109zM213 1092v79h115v-1615h-80v1536h-35z" />
<glyph unicode="&#x202c;" d="M-287 1006v110l267 281h36l273 -283v-108l-248 260v-1710h-80v1710z" />
<glyph unicode="&#x202d;" d="M-410 -444v1615h461l-260 248h111l280 -266v-37l-282 -272h-109l260 248h-381v-1536h-80zM20 844l302 289l-302 286h111l281 -266v-37l-283 -272h-109z" />
<glyph unicode="&#x202e;" d="M-410 1116v37l281 266h111l-301 -286l301 -289h-109zM-180 1116v37l280 266h111l-260 -248h461v-1615h-80v1536h-381l260 -248h-109z" />
<glyph unicode="&#x202f;" horiz-adv-x="437" />
<glyph unicode="&#x2030;" horiz-adv-x="2717" d="M78 1014q0 214 97.5 327t260.5 113q164 0 261.5 -111.5t97.5 -328.5q0 -219 -96 -330t-263 -111q-162 0 -260 111.5t-98 329.5zM254 1014q0 -287 182 -287t182 287q0 286 -182 286t-182 -286zM506 0l713 1415h188l-713 -1415h-188zM1114 408q0 214 97.5 327t261.5 113 t261 -111.5t97 -328.5q0 -219 -95.5 -330t-262.5 -111q-162 0 -260.5 111.5t-98.5 329.5zM1290 408q0 -287 183 -287q182 0 182 287q0 286 -182 286q-183 0 -183 -286zM1923 408q0 214 97.5 327t260.5 113q164 0 261.5 -111.5t97.5 -328.5q0 -219 -96 -330t-263 -111 q-162 0 -260 111.5t-98 329.5zM2099 408q0 -287 182 -287q183 0 183 287q0 286 -183 286q-182 0 -182 -286z" />
<glyph unicode="&#x2032;" horiz-adv-x="438" d="M78 936l74 526h206l-129 -526h-151z" />
<glyph unicode="&#x2033;" horiz-adv-x="786" d="M76 936l74 526h206l-129 -526h-151zM430 936l74 526h207l-129 -526h-152z" />
<glyph unicode="&#x2039;" horiz-adv-x="620" d="M86 526l279 457h196l-254 -455l254 -460h-201z" />
<glyph unicode="&#x203a;" horiz-adv-x="620" d="M59 68l254 452l-254 463h201l275 -461l-279 -454h-197z" />
<glyph unicode="&#x2044;" horiz-adv-x="186" d="M-358 0l712 1415h189l-713 -1415h-188z" />
<glyph unicode="&#x205f;" horiz-adv-x="546" />
<glyph unicode="&#x2070;" horiz-adv-x="843" d="M63 1237q0 214 97.5 327t261.5 113t261 -111.5t97 -328.5q0 -219 -95.5 -329.5t-262.5 -110.5q-163 0 -261 111.5t-98 328.5zM240 1237q0 -287 182 -287t182 287t-182 287t-182 -287z" />
<glyph unicode="&#x2074;" horiz-adv-x="843" d="M84 1018v106l403 525h152v-506h102l-20 -125h-82v-189h-156v189h-399zM252 1143h231v301z" />
<glyph unicode="&#x2075;" horiz-adv-x="843" d="M131 1047h143q15 -62 51 -90.5t105 -28.5q65 0 101 40.5t36 116.5q0 146 -139 146q-104 0 -158 -60h-123l41 478h478v-133h-349l-16 -203q73 41 154 41q134 0 201 -72t67 -195q0 -141 -76.5 -215.5t-214.5 -74.5q-280 0 -301 250z" />
<glyph unicode="&#x2076;" horiz-adv-x="843" d="M111 1184q0 78 8.5 144.5t32 133t60 112.5t97.5 74.5t140 28.5q127 0 193 -54t85 -165l-137 -20q-10 58 -44 84t-100 26q-85 0 -130.5 -69.5t-51.5 -194.5q82 70 197 70q139 0 208.5 -73.5t69.5 -195.5q0 -132 -83.5 -210t-229.5 -78q-88 0 -151.5 31.5t-98 87.5t-50 122 t-15.5 146zM276 1090q0 -68 36.5 -117t113.5 -49q75 0 116.5 40.5t41.5 116.5q0 71 -35 113.5t-113 42.5q-70 0 -115 -36.5t-45 -110.5z" />
<glyph unicode="&#x2077;" horiz-adv-x="843" d="M109 1503v146h606v-123q-192 -329 -289 -697h-176q125 406 276 674h-417z" />
<glyph unicode="&#x2078;" horiz-adv-x="843" d="M100 1053q0 66 36 115.5t93 78.5q-102 57 -102 191q0 108 75 173.5t220 65.5q146 0 220.5 -65.5t74.5 -173.5q0 -63 -28 -111.5t-77 -75.5q131 -60 131 -198q0 -120 -81.5 -187t-239.5 -67q-159 0 -240.5 67t-81.5 187zM258 1053q0 -131 164 -131q162 0 162 131 q0 125 -162 125q-164 0 -164 -125zM279 1434q0 -125 143 -125q141 0 141 127q0 55 -34 87.5t-107 32.5t-108 -33.5t-35 -88.5z" />
<glyph unicode="&#x2079;" horiz-adv-x="843" d="M106 1395q0 128 83 205t229 77q71 0 126 -22t90 -58.5t57 -88.5t31 -107.5t9 -120.5q0 -80 -7.5 -145.5t-29 -130t-56.5 -108.5t-93.5 -71.5t-136.5 -27.5q-135 0 -209 55t-86 180h143q8 -60 46.5 -83t105.5 -23q86 0 126 63t46 209q-42 -42 -87.5 -60t-109.5 -18 q-135 0 -206 74.5t-71 200.5zM260 1399q0 -72 35 -114t111 -42q70 0 115.5 35.5t45.5 107.5t-39 119t-112 47q-75 0 -115.5 -39t-40.5 -114z" />
<glyph unicode="&#x207a;" horiz-adv-x="843" d="M125 1178v129h231v239h131v-239h232v-129h-232v-238h-131v238h-231z" />
<glyph unicode="&#x207b;" horiz-adv-x="843" d="M125 1178v131h594v-131h-594z" />
<glyph unicode="&#x207c;" horiz-adv-x="843" d="M125 1042v119h594v-119h-594zM125 1325v117h594v-117h-594z" />
<glyph unicode="&#x207d;" horiz-adv-x="378" d="M66 1221q0 283 153 516h141q-147 -239 -147 -516q0 -273 147 -516h-141q-153 233 -153 516z" />
<glyph unicode="&#x207e;" horiz-adv-x="378" d="M18 705q146 239 146 516q0 272 -146 516h142q153 -228 153 -516t-153 -516h-142z" />
<glyph unicode="&#x2080;" horiz-adv-x="843" d="M63 158q0 214 97.5 327t261.5 113t261 -111.5t97 -328.5q0 -219 -95.5 -330t-262.5 -111q-162 0 -260.5 111.5t-98.5 329.5zM240 158q0 -287 182 -287t182 287q0 286 -182 286t-182 -286z" />
<glyph unicode="&#x2081;" horiz-adv-x="843" d="M133 422l258 147h166v-819h-172v647l-186 -98z" />
<glyph unicode="&#x2082;" horiz-adv-x="843" d="M106 344q67 254 322 254q132 0 209.5 -66.5t77.5 -181.5q0 -102 -50 -180.5t-173 -177.5q-22 -19 -130 -103h353v-139h-592v125q61 49 237 195q76 64 112 101t55.5 77t19.5 90q0 58 -32.5 89.5t-90.5 31.5q-127 0 -164 -137z" />
<glyph unicode="&#x2083;" horiz-adv-x="843" d="M104 -2h150q9 -74 47.5 -112t118.5 -38q151 0 151 136q0 122 -141 122h-94v132h94q59 0 93 29.5t34 88.5q0 113 -137 113q-69 0 -106.5 -31t-55.5 -100l-147 22q9 46 29 85.5t55 75.5t92.5 56.5t132.5 20.5q144 0 219.5 -61.5t75.5 -163.5q0 -64 -26 -108t-79 -81 q123 -55 123 -200q0 -123 -77 -195t-232 -72q-141 0 -226 73t-94 208z" />
<glyph unicode="&#x2084;" horiz-adv-x="843" d="M84 45l403 524h152v-506h102l-20 -124h-82v-189h-156v189h-399v106zM252 63h231v302z" />
<glyph unicode="&#x2085;" horiz-adv-x="843" d="M131 -33h143q15 -62 51 -90.5t105 -28.5q65 0 101 41t36 117q0 146 -139 146q-104 0 -158 -60h-123l41 477h478v-133h-349l-16 -203q73 41 154 41q134 0 201 -72t67 -194q0 -141 -76.5 -216t-214.5 -75q-280 0 -301 250z" />
<glyph unicode="&#x2086;" horiz-adv-x="843" d="M111 104q0 78 8.5 145t32 133t60 112.5t97.5 75t140 28.5q127 0 193 -54t85 -165l-137 -21q-11 59 -44.5 85t-99.5 26q-85 0 -130.5 -69.5t-51.5 -194.5q81 69 197 69q139 0 208.5 -73t69.5 -195q0 -132 -83.5 -210.5t-229.5 -78.5q-88 0 -151.5 31.5t-98 87.5t-50 122 t-15.5 146zM276 10q0 -68 36.5 -117t113.5 -49q75 0 116.5 41t41.5 117q0 71 -35 113.5t-113 42.5q-70 0 -115 -37t-45 -111z" />
<glyph unicode="&#x2087;" horiz-adv-x="843" d="M109 424v145h606v-123q-192 -330 -289 -696h-176q125 406 276 674h-417z" />
<glyph unicode="&#x2088;" horiz-adv-x="843" d="M100 -27q0 67 36 117t93 78q-102 57 -102 190q0 108 75 174t220 66q146 0 220.5 -66t74.5 -174q0 -63 -28 -111t-77 -75q131 -60 131 -199q0 -120 -81.5 -187t-239.5 -67q-159 0 -240.5 67t-81.5 187zM258 -27q0 -131 164 -131q162 0 162 131q0 125 -162 125 q-164 0 -164 -125zM279 354q0 -125 143 -125q141 0 141 127q0 55 -34 88t-107 33t-108 -34t-35 -89z" />
<glyph unicode="&#x2089;" horiz-adv-x="843" d="M106 315q0 128 83 205.5t229 77.5q71 0 126 -22t90 -58.5t57 -88.5t31 -107.5t9 -120.5q0 -80 -7.5 -145.5t-29 -130.5t-56.5 -109t-93.5 -71.5t-136.5 -27.5q-134 0 -208.5 55.5t-86.5 180.5h143q8 -60 47 -83.5t105 -23.5q86 0 126 63.5t46 209.5q-42 -42 -87.5 -60 t-109.5 -18q-136 0 -206.5 74t-70.5 200zM260 319q0 -155 146 -155q70 0 115.5 35.5t45.5 107.5t-39 119t-112 47q-75 0 -115.5 -39.5t-40.5 -114.5z" />
<glyph unicode="&#x208a;" horiz-adv-x="843" d="M125 96v129h231v240h131v-240h232v-129h-232v-237h-131v237h-231z" />
<glyph unicode="&#x208b;" horiz-adv-x="843" d="M125 96v131h594v-131h-594z" />
<glyph unicode="&#x208c;" horiz-adv-x="843" d="M125 -39v119h594v-119h-594zM125 244v116h594v-116h-594z" />
<glyph unicode="&#x208d;" horiz-adv-x="378" d="M66 139q0 283 153 516h141q-147 -239 -147 -516q0 -273 147 -516h-141q-153 233 -153 516z" />
<glyph unicode="&#x208e;" horiz-adv-x="378" d="M18 -377q146 239 146 516q0 272 -146 516h142q153 -228 153 -516t-153 -516h-142z" />
<glyph unicode="&#x20a3;" horiz-adv-x="1212" d="M63 254v156h199v1005h871v-174h-674v-446h647v-172h-647v-213h342v-156h-342v-254h-197v254h-199z" />
<glyph unicode="&#x20a4;" horiz-adv-x="1212" d="M133 436v137h160q-2 26 -21 160h-139v137h119q-10 85 -10 140q0 201 117.5 322.5t320.5 121.5q185 0 288 -79.5t136 -256.5l-172 -33q-32 114 -84 159.5t-162 45.5q-130 0 -194 -75t-64 -203q0 -60 10 -142h467v-137h-446q15 -81 18 -160h428v-137h-432 q-13 -158 -94 -264h745v-172h-948v154q104 115 117 282h-160z" />
<glyph unicode="&#x20a7;" horiz-adv-x="2879" d="M160 0v1415h454q504 0 504 -426q0 -222 -127.5 -335t-376.5 -113h-256v-541h-198zM358 709h256q308 0 308 274q0 138 -75 201t-235 63h-254v-538zM1237 911v150h152v244h190v-244h254v-150h-254v-612q0 -79 35 -122.5t100 -43.5q34 0 119 23l29 -144q-100 -35 -191 -35 q-282 0 -282 361v573h-152zM1952 311h180q15 -101 77.5 -147.5t178.5 -46.5q213 0 213 166q0 73 -38.5 111t-123.5 52l-123 21q-174 29 -258 104.5t-84 202.5q0 146 108 233t288 87q178 0 275.5 -70.5t129.5 -220.5l-172 -29q-26 94 -77.5 133t-149.5 39 q-109 0 -165.5 -39.5t-56.5 -115.5q0 -66 41.5 -102.5t135.5 -53.5l137 -25q165 -28 244 -106.5t79 -216.5q0 -152 -106 -236t-299 -84q-200 0 -312 88.5t-122 255.5z" />
<glyph unicode="&#x20ab;" horiz-adv-x="1212" d="M152 672q0 195 100 320.5t289 125.5q168 0 268 -123v217h-281v136h281v114h197v-114h116v-136h-116v-946h-193v115q-109 -141 -289 -141q-179 0 -275.5 118t-96.5 314zM176 0v135h893v-135h-893zM352 678q0 -135 62 -207t157 -72q106 0 173 72.5t67 179.5v41 q0 132 -61.5 200.5t-169.5 68.5q-112 0 -170 -77t-58 -206z" />
<glyph unicode="&#x20ac;" horiz-adv-x="1212" d="M41 477l27 137h110q-2 27 -2 82q0 35 4 105h-139l27 133h127q41 243 171 381.5t343 138.5q208 0 314 -93.5t144 -293.5l-176 -31q-32 138 -97.5 194t-191.5 56q-128 0 -205 -94t-108 -258h469l-27 -133h-458q-4 -66 -4 -103q0 -55 2 -84h436l-29 -137h-391 q61 -346 315 -346q146 0 210 65.5t85 211.5h189q-25 -221 -144 -333t-344 -112q-119 0 -210.5 38t-151 109t-95 161.5t-51.5 205.5h-149z" />
<glyph unicode="&#x20b4;" horiz-adv-x="1212" d="M41 498v135h244q70 48 221 110l147 62h-612v135h833q50 61 50 150q0 98 -74.5 151t-210.5 53q-135 0 -210.5 -47.5t-109.5 -154.5l-178 34q31 160 158.5 244t339.5 84q215 0 343 -96.5t128 -261.5q0 -82 -33 -156h94v-135h-206q-77 -59 -187 -105l-168 -67h561v-135h-800 q-60 -63 -60 -158q0 -101 82 -157t232 -56q140 0 225 53t102 152h187q-19 -177 -154 -271t-367 -94q-236 0 -368.5 98t-132.5 273q0 92 35 160h-111z" />
<glyph unicode="&#x20b9;" horiz-adv-x="1212" d="M145 555v147h297q161 0 243 46.5t99 160.5h-639v148h639q-36 207 -305 207h-334v151h969l-2 -149h-242q86 -74 101 -209h141l-2 -148h-139q-13 -173 -145 -261t-345 -91h-67l663 -557h-264z" />
<glyph unicode="&#x20ba;" horiz-adv-x="1212" d="M72 932l176 63v420h190v-350l377 135l41 -117l-418 -151v-172l377 137l43 -117l-420 -151v-455h8q222 0 353 126t131 333h190q-2 -282 -188.5 -457.5t-487.5 -175.5h-196v561l-131 -47l-43 115l174 63v172l-133 -49z" />
<glyph unicode="&#x20bd;" horiz-adv-x="1212" d="M72 287v151h151v168h-151v152h151v657h432q90 0 165.5 -13.5t139.5 -43.5t108.5 -75t69.5 -110.5t25 -148.5q0 -202 -130.5 -310t-377.5 -108h-241v-168h553v-151h-553v-287h-191v287h-151zM414 758h239q148 0 232 63t84 197q0 119 -73.5 182.5t-244.5 63.5h-237v-506z " />
<glyph unicode="&#x2113;" horiz-adv-x="864" d="M57 393l166 160v524q0 202 83 306t212 104q120 0 182 -79t62 -220q0 -162 -87 -327t-265 -351v-205q0 -94 41.5 -141t105.5 -47q85 0 172 84l80 -99q-116 -139 -295 -139q-86 0 -143.5 25.5t-89.5 78.5t-45 122t-13 167v35l-102 -96zM410 698q102 124 157.5 250t55.5 234 q0 78 -25.5 121t-75.5 43q-33 0 -56 -24.5t-34.5 -64.5t-16.5 -79t-5 -80v-400z" />
<glyph unicode="&#x2116;" horiz-adv-x="2357" d="M162 0v1462h198l762 -1134v1134h199v-1462h-195l-768 1130v-1130h-196zM1532 1083q0 192 105.5 304t281.5 112q177 0 279 -110.5t102 -301.5t-103.5 -303t-281.5 -112q-177 0 -280 110.5t-103 300.5zM1696 1083q0 -128 54.5 -202t166.5 -74q113 0 167 74t54 204 t-54.5 205.5t-166.5 75.5q-111 0 -166 -76.5t-55 -206.5z" />
<glyph unicode="&#x2122;" horiz-adv-x="1861" d="M35 1331v131h684v-131h-268v-688h-148v688h-268zM838 643v819h184l254 -643l260 643h182v-819h-139v592l-242 -592h-123l-237 590v-590h-139z" />
<glyph unicode="&#x2126;" horiz-adv-x="1529" d="M82 0v172h299q-248 238 -248 598q0 157 39.5 288.5t117 230.5t200.5 154.5t280 55.5q291 0 460 -188t169 -531q0 -367 -256 -608h297v-172h-537v154q151 103 217 254t66 362q0 266 -103.5 411.5t-312.5 145.5q-215 0 -321.5 -143.5t-106.5 -413.5q0 -208 68 -358.5 t217 -257.5v-154h-545z" />
<glyph unicode="&#x212e;" horiz-adv-x="1865" d="M102 721q0 152 65.5 290t176 238.5t264 159.5t322.5 59q170 0 324.5 -59t266 -159.5t177 -238.5t65.5 -290v-21h-1345q-10 0 -10 -8v-407q0 -27 18 -45q100 -106 230.5 -164t277.5 -58q157 0 292.5 65.5t241.5 180.5h119q-107 -132 -282.5 -209.5t-374.5 -77.5 q-224 0 -414.5 98.5t-302 270t-111.5 375.5zM408 756q0 -15 10 -15h1030q8 0 8 15v407q0 28 -18 49q-101 99 -231 155t-273 56q-141 0 -274 -59t-232 -160q-20 -14 -20 -49v-399z" />
<glyph unicode="&#x2150;" horiz-adv-x="1873" d="M133 1264l258 147h166v-819h-172v647l-186 -98zM485 0l713 1415h188l-712 -1415h-189zM1139 674v145h606v-123q-192 -330 -289 -696h-176q125 406 276 674h-417z" />
<glyph unicode="&#x2151;" horiz-adv-x="1873" d="M133 1264l258 147h166v-819h-172v647l-186 -98zM485 0l713 1415h188l-712 -1415h-189zM1137 565q0 128 82.5 205.5t228.5 77.5q71 0 126 -22t90 -58.5t57 -88.5t31 -107.5t9 -120.5q0 -80 -7.5 -145.5t-29 -130.5t-56.5 -109t-93.5 -71.5t-136.5 -27.5 q-134 0 -208.5 55.5t-86.5 180.5h143q8 -60 47 -83.5t105 -23.5q86 0 126 63.5t46 209.5q-42 -42 -87.5 -60t-109.5 -18q-135 0 -205.5 74t-70.5 200zM1290 569q0 -155 146 -155q70 0 115.5 35.5t45.5 107.5t-39 119t-112 47q-75 0 -115.5 -39.5t-40.5 -114.5z" />
<glyph unicode="&#x2153;" horiz-adv-x="1873" d="M133 1264l258 147h166v-819h-172v647l-186 -98zM485 0l713 1415h188l-712 -1415h-189zM1135 248h149q9 -74 47.5 -112t118.5 -38q152 0 152 135q0 123 -142 123h-94v131h94q59 0 93 29.5t34 89.5q0 113 -137 113q-69 0 -106.5 -31t-55.5 -100l-147 22q9 46 29 85.5 t55 75.5t92.5 56.5t132.5 20.5q144 0 219.5 -61.5t75.5 -163.5q0 -64 -26 -108t-79 -81q123 -55 123 -201q0 -123 -77 -194.5t-232 -71.5q-141 0 -225.5 73t-93.5 208z" />
<glyph unicode="&#x2154;" horiz-adv-x="1873" d="M106 1186q67 254 322 254q132 0 209.5 -66.5t77.5 -181.5q0 -102 -50 -180.5t-173 -177.5q-22 -19 -130 -103h353v-139h-592v125q102 82 237 194q111 93 149 145t38 124q0 58 -32.5 89t-90.5 31q-127 0 -164 -137zM485 0l713 1415h188l-712 -1415h-189zM1135 248h149 q9 -74 47.5 -112t118.5 -38q152 0 152 135q0 123 -142 123h-94v131h94q59 0 93 29.5t34 89.5q0 113 -137 113q-69 0 -106.5 -31t-55.5 -100l-147 22q9 46 29 85.5t55 75.5t92.5 56.5t132.5 20.5q144 0 219.5 -61.5t75.5 -163.5q0 -64 -26 -108t-79 -81q123 -55 123 -201 q0 -123 -77 -194.5t-232 -71.5q-141 0 -225.5 73t-93.5 208z" />
<glyph unicode="&#x2155;" horiz-adv-x="1873" d="M133 1264l258 147h166v-819h-172v647l-186 -98zM485 0l713 1415h188l-712 -1415h-189zM1161 217h144q15 -62 50.5 -90.5t104.5 -28.5q65 0 101 41t36 117q0 145 -139 145q-104 0 -158 -59h-122l41 477h477v-133h-348l-17 -203q73 41 154 41q134 0 201 -72t67 -194 q0 -141 -76.5 -216t-214.5 -75q-280 0 -301 250z" />
<glyph unicode="&#x2156;" horiz-adv-x="1873" d="M106 1186q67 254 322 254q132 0 209.5 -66.5t77.5 -181.5q0 -102 -50 -180.5t-173 -177.5q-22 -19 -130 -103h353v-139h-592v125q102 82 237 194q111 93 149 145t38 124q0 58 -32.5 89t-90.5 31q-127 0 -164 -137zM485 0l713 1415h188l-712 -1415h-189zM1161 217h144 q15 -62 50.5 -90.5t104.5 -28.5q65 0 101 41t36 117q0 145 -139 145q-104 0 -158 -59h-122l41 477h477v-133h-348l-17 -203q73 41 154 41q134 0 201 -72t67 -194q0 -141 -76.5 -216t-214.5 -75q-280 0 -301 250z" />
<glyph unicode="&#x2157;" horiz-adv-x="1873" d="M104 840h150q9 -74 47.5 -112t118.5 -38q151 0 151 135q0 123 -141 123h-94v131h94q59 0 93 29.5t34 89.5q0 113 -137 113q-69 0 -106.5 -31t-55.5 -100l-147 22q9 46 29 85.5t55 75.5t92.5 56.5t132.5 20.5q144 0 219.5 -62t75.5 -164q0 -64 -26 -107.5t-79 -80.5 q123 -55 123 -201q0 -123 -77 -194.5t-232 -71.5q-141 0 -226 73t-94 208zM485 0l713 1415h188l-712 -1415h-189zM1161 217h144q15 -62 50.5 -90.5t104.5 -28.5q65 0 101 41t36 117q0 145 -139 145q-104 0 -158 -59h-122l41 477h477v-133h-348l-17 -203q73 41 154 41 q134 0 201 -72t67 -194q0 -141 -76.5 -216t-214.5 -75q-280 0 -301 250z" />
<glyph unicode="&#x2158;" horiz-adv-x="1873" d="M84 780v107l403 524h152v-506h102l-20 -125h-82v-188h-156v188h-399zM252 905h231v301zM485 0l713 1415h188l-712 -1415h-189zM1161 217h144q15 -62 50.5 -90.5t104.5 -28.5q65 0 101 41t36 117q0 145 -139 145q-104 0 -158 -59h-122l41 477h477v-133h-348l-17 -203 q73 41 154 41q134 0 201 -72t67 -194q0 -141 -76.5 -216t-214.5 -75q-280 0 -301 250z" />
<glyph unicode="&#x2159;" horiz-adv-x="1873" d="M133 1264l258 147h166v-819h-172v647l-186 -98zM485 0l713 1415h188l-712 -1415h-189zM1141 354q0 78 8.5 145t32 133t60 112.5t97.5 75t140 28.5q127 0 193 -54t85 -165l-137 -21q-11 59 -44 85t-99 26q-85 0 -131 -69.5t-52 -194.5q81 69 197 69q139 0 208.5 -73 t69.5 -195q0 -132 -83.5 -210.5t-229.5 -78.5q-88 0 -151.5 31.5t-98 87.5t-50 122t-15.5 146zM1307 260q0 -69 36 -117.5t113 -48.5q75 0 116.5 41t41.5 117q0 71 -35 113.5t-113 42.5q-69 0 -114 -37t-45 -111z" />
<glyph unicode="&#x215a;" horiz-adv-x="1873" d="M131 809h143q15 -62 51 -90.5t105 -28.5q65 0 101 41t36 117q0 145 -139 145q-104 0 -158 -59h-123l41 477h478v-133h-349l-16 -203q73 41 154 41q134 0 201 -72t67 -194q0 -141 -76.5 -216t-214.5 -75q-280 0 -301 250zM485 0l713 1415h188l-712 -1415h-189zM1141 354 q0 78 8.5 145t32 133t60 112.5t97.5 75t140 28.5q127 0 193 -54t85 -165l-137 -21q-11 59 -44 85t-99 26q-85 0 -131 -69.5t-52 -194.5q81 69 197 69q139 0 208.5 -73t69.5 -195q0 -132 -83.5 -210.5t-229.5 -78.5q-88 0 -151.5 31.5t-98 87.5t-50 122t-15.5 146zM1307 260 q0 -69 36 -117.5t113 -48.5q75 0 116.5 41t41.5 117q0 71 -35 113.5t-113 42.5q-69 0 -114 -37t-45 -111z" />
<glyph unicode="&#x215b;" horiz-adv-x="1873" d="M133 1264l258 147h166v-819h-172v647l-186 -98zM485 0l713 1415h188l-712 -1415h-189zM1130 223q0 66 36.5 116t93.5 79q-103 58 -103 190q0 108 75 174t220 66q146 0 220.5 -66t74.5 -174q0 -63 -28 -111t-77 -75q132 -61 132 -199q0 -120 -82 -187t-240 -67 q-159 0 -240.5 67t-81.5 187zM1288 223q0 -131 164 -131q162 0 162 131q0 125 -162 125q-164 0 -164 -125zM1309 604q0 -125 143 -125q141 0 141 127q0 55 -34 88t-107 33t-108 -34t-35 -89z" />
<glyph unicode="&#x215c;" horiz-adv-x="1873" d="M104 840h150q9 -74 47.5 -112t118.5 -38q151 0 151 135q0 123 -141 123h-94v131h94q59 0 93 29.5t34 89.5q0 113 -137 113q-69 0 -106.5 -31t-55.5 -100l-147 22q9 46 29 85.5t55 75.5t92.5 56.5t132.5 20.5q144 0 219.5 -62t75.5 -164q0 -64 -26 -107.5t-79 -80.5 q123 -55 123 -201q0 -123 -77 -194.5t-232 -71.5q-141 0 -226 73t-94 208zM485 0l713 1415h188l-712 -1415h-189zM1130 223q0 66 36.5 116t93.5 79q-103 58 -103 190q0 108 75 174t220 66q146 0 220.5 -66t74.5 -174q0 -63 -28 -111t-77 -75q132 -61 132 -199 q0 -120 -82 -187t-240 -67q-159 0 -240.5 67t-81.5 187zM1288 223q0 -131 164 -131q162 0 162 131q0 125 -162 125q-164 0 -164 -125zM1309 604q0 -125 143 -125q141 0 141 127q0 55 -34 88t-107 33t-108 -34t-35 -89z" />
<glyph unicode="&#x215d;" horiz-adv-x="1873" d="M131 809h143q15 -62 51 -90.5t105 -28.5q65 0 101 41t36 117q0 145 -139 145q-104 0 -158 -59h-123l41 477h478v-133h-349l-16 -203q73 41 154 41q134 0 201 -72t67 -194q0 -141 -76.5 -216t-214.5 -75q-280 0 -301 250zM485 0l713 1415h188l-712 -1415h-189zM1130 223 q0 66 36.5 116t93.5 79q-103 58 -103 190q0 108 75 174t220 66q146 0 220.5 -66t74.5 -174q0 -63 -28 -111t-77 -75q132 -61 132 -199q0 -120 -82 -187t-240 -67q-159 0 -240.5 67t-81.5 187zM1288 223q0 -131 164 -131q162 0 162 131q0 125 -162 125q-164 0 -164 -125z M1309 604q0 -125 143 -125q141 0 141 127q0 55 -34 88t-107 33t-108 -34t-35 -89z" />
<glyph unicode="&#x215e;" horiz-adv-x="1873" d="M109 1266v145h606v-123q-192 -330 -289 -696h-176q125 406 276 674h-417zM485 0l713 1415h188l-712 -1415h-189zM1130 223q0 66 36.5 116t93.5 79q-103 58 -103 190q0 108 75 174t220 66q146 0 220.5 -66t74.5 -174q0 -63 -28 -111t-77 -75q132 -61 132 -199 q0 -120 -82 -187t-240 -67q-159 0 -240.5 67t-81.5 187zM1288 223q0 -131 164 -131q162 0 162 131q0 125 -162 125q-164 0 -164 -125zM1309 604q0 -125 143 -125q141 0 141 127q0 55 -34 88t-107 33t-108 -34t-35 -89z" />
<glyph unicode="&#x2202;" horiz-adv-x="1214" d="M76 399q0 142 56 255.5t167.5 182t261.5 68.5q234 0 344 -178q4 86 4 107q0 456 -278 456q-103 0 -165 -44t-93 -154l-168 30q43 173 151 252.5t281 79.5q101 0 179 -32.5t129 -88.5t84 -137t47 -172t14 -199q0 -135 -16.5 -254t-58 -233t-104.5 -195t-163 -130.5 t-228 -49.5q-201 0 -322.5 121t-121.5 315zM262 406q0 -122 74.5 -201.5t200.5 -79.5q139 0 225 98t86 258q0 130 -76 199.5t-192 69.5q-156 0 -237 -95t-81 -249z" />
<glyph unicode="&#x2206;" horiz-adv-x="1415" d="M63 0v162l533 1300h221l535 -1300v-162h-1289zM276 180h850l-424 1069z" />
<glyph unicode="&#x220f;" horiz-adv-x="1402" d="M154 0v1462h1095v-1462h-205v1278h-686v-1278h-204z" />
<glyph unicode="&#x2211;" horiz-adv-x="1187" d="M66 -70l460 703l-460 686v143h1069v-172h-822l430 -653l-444 -674h846v-172h-1079v139z" />
<glyph unicode="&#x2212;" horiz-adv-x="1212" d="M164 610v174h885v-174h-885z" />
<glyph unicode="&#x2215;" horiz-adv-x="186" d="M-358 0l712 1415h189l-713 -1415h-188z" />
<glyph unicode="&#x2219;" horiz-adv-x="466" d="M119 711q0 54 30 84t84 30t84.5 -30t30.5 -84t-30.5 -84.5t-84.5 -30.5t-84 30.5t-30 84.5z" />
<glyph unicode="&#x221a;" horiz-adv-x="1241" d="M98 627v174h310l210 -563l418 1259h209l-522 -1497h-205l-252 627h-168z" />
<glyph unicode="&#x221e;" horiz-adv-x="1214" d="M55 700q0 168 77 256t200 88q178 0 274 -180q100 180 277 180q123 0 199.5 -88t76.5 -256t-76.5 -257t-199.5 -89q-178 0 -277 187q-97 -187 -274 -187q-123 0 -200 89t-77 257zM213 700q0 -94 36.5 -146t96.5 -52q72 0 121.5 56t67.5 144q-18 86 -67.5 140.5 t-121.5 54.5q-60 0 -96.5 -51.5t-36.5 -145.5zM680 698q9 -37 23.5 -69t37 -62t55 -47.5t72.5 -17.5q60 0 96.5 52t36.5 146t-36.5 145.5t-96.5 51.5q-73 0 -121 -56.5t-67 -142.5z" />
<glyph unicode="&#x222b;" horiz-adv-x="655" d="M47 -215l31 145q59 -20 110 -20q66 0 93.5 33t27.5 94q0 26 -8 92l-131 973q-8 64 -8 86q4 291 287 291q79 0 161 -31l-28 -145q-57 22 -111 22q-66 0 -93.5 -34.5t-27.5 -98.5q0 -36 8 -86l134 -975q6 -31 6 -88q0 -133 -69 -211t-218 -78q-79 0 -164 31z" />
<glyph unicode="&#x2248;" horiz-adv-x="1212" d="M84 248q0 196 78.5 282t220.5 86q60 0 118 -26.5t142 -91.5q40 -30 62.5 -45t54.5 -29t59 -14q72 0 104.5 44t32.5 144h168q0 -373 -293 -373q-106 0 -262 121q-63 51 -102.5 71.5t-73.5 20.5q-73 0 -105 -45t-32 -145h-172zM84 750q0 196 78.5 282t220.5 86 q59 0 117.5 -27t142.5 -92q40 -30 62.5 -45t54.5 -29t59 -14q72 0 104.5 44.5t32.5 144.5h168q0 -373 -293 -373q-106 0 -262 121q-63 51 -102.5 71.5t-73.5 20.5q-73 0 -105 -45t-32 -145h-172z" />
<glyph unicode="&#x2260;" horiz-adv-x="1212" d="M164 383v172h276l162 287h-438v170h526l117 211h174l-117 -211h185v-170h-275l-164 -287h439v-172h-529l-114 -213h-175l117 213h-184z" />
<glyph unicode="&#x2264;" horiz-adv-x="1212" d="M156 0v170h921v-170h-921zM156 666v151l921 400v-187l-710 -285l710 -288v-191z" />
<glyph unicode="&#x2265;" horiz-adv-x="1212" d="M135 0v170h922v-170h-922zM135 266v191l711 288l-711 285v187l922 -400v-151z" />
<glyph unicode="&#x25ca;" horiz-adv-x="1214" d="M82 731l446 731h166l443 -731l-443 -731h-166zM291 731l317 -528l324 528l-324 531z" />
<glyph unicode="&#x25cc;" horiz-adv-x="1357" d="M92 565q0 31 18.5 49.5t47.5 18.5q30 0 48.5 -18.5t18.5 -49.5q0 -30 -18.5 -47.5t-48.5 -17.5t-48 17.5t-18 47.5zM127 377q0 31 18.5 49t47.5 18q30 0 48.5 -18.5t18.5 -48.5t-18.5 -48t-48.5 -18t-48 18t-18 48zM127 760q0 30 18.5 48.5t47.5 18.5q30 0 48.5 -18.5 t18.5 -48.5t-18.5 -48t-48.5 -18t-48 18t-18 48zM231 193q0 31 18.5 49t47.5 18q30 0 49 -18.5t19 -48.5t-19 -48t-49 -18t-48 18t-18 48zM231 940q0 31 18.5 49.5t47.5 18.5q30 0 49 -19t19 -49t-19 -48t-49 -18t-48 18t-18 48zM408 80q0 31 18 49t47 18q30 0 49 -18.5 t19 -48.5t-19 -48t-49 -18q-29 0 -47 18t-18 48zM408 1055q0 31 18 49t47 18q30 0 49 -18.5t19 -48.5t-19 -48t-49 -18q-29 0 -47 17.5t-18 48.5zM610 45q0 31 18.5 49.5t47.5 18.5q30 0 48.5 -18.5t18.5 -49.5q0 -30 -18.5 -47.5t-48.5 -17.5t-48 17.5t-18 47.5zM610 1090 q0 30 18 48.5t48 18.5t48.5 -18.5t18.5 -48.5t-18.5 -48t-48.5 -18t-48 18t-18 48zM815 80q0 30 18.5 48.5t47.5 18.5q30 0 48.5 -18.5t18.5 -48.5t-18.5 -48t-48.5 -18t-48 18t-18 48zM815 1055q0 31 18.5 49t47.5 18q30 0 48.5 -18.5t18.5 -48.5t-18.5 -48t-48.5 -18 t-48 18t-18 48zM989 193q0 31 18.5 49t47.5 18q30 0 48.5 -18.5t18.5 -48.5t-18.5 -48t-48.5 -18t-48 18t-18 48zM989 940q0 31 18.5 49.5t47.5 18.5t48 -19t19 -49t-18.5 -48t-48.5 -18t-48 18t-18 48zM1100 377q0 31 18 49t47 18q30 0 49 -18.5t19 -48.5t-19 -48t-49 -18 q-29 0 -47 17.5t-18 48.5zM1100 760q0 31 18 49t47 18q30 0 49 -18.5t19 -48.5t-19 -48t-49 -18q-29 0 -47 18t-18 48zM1133 565q0 31 18 49.5t47 18.5q30 0 49 -19t19 -49t-19 -47.5t-49 -17.5t-47.5 17.5t-17.5 47.5z" />
<glyph unicode="&#x25fc;" horiz-adv-x="1064" d="M0 0v1065h1065v-1065h-1065z" />
<glyph unicode="&#x260e;" horiz-adv-x="1740" d="M162 709q0 201 89.5 362.5t251.5 253.5t367 92t367 -92t252 -253.5t90 -362.5q0 -150 -52.5 -281.5t-145.5 -225.5t-225.5 -148t-285.5 -54t-285.5 54t-225 148t-145 225.5t-52.5 281.5zM494 938q0 -60 41 -140t112 -161q121 -144 242 -224.5t209 -80.5q58 0 124 48.5 t66 94.5q0 48 -87.5 108t-137.5 60q-48 0 -66 -88l-16 -10q-77 38 -160.5 119t-113.5 153l10 17q90 21 90 65q0 54 -63 140.5t-105 86.5q-45 0 -95 -65.5t-50 -122.5z" />
<glyph unicode="&#x260f;" horiz-adv-x="1740" d="M123 713q0 215 95 386t266 267t386 96q161 0 300.5 -56t237.5 -154.5t154 -238t56 -300.5q0 -215 -95.5 -386.5t-266.5 -267.5t-386 -96q-161 0 -300 56t-237 155t-154 238.5t-56 300.5zM287 713q0 -267 162 -430.5t421 -163.5q175 0 310 78q131 77 202.5 211.5 t71.5 304.5q0 264 -160 429t-424 165q-259 0 -421 -163.5t-162 -430.5zM483 938q0 63 52.5 132t105.5 69q43 0 111.5 -84t68.5 -156q0 -54 -100 -78q30 -72 111.5 -151.5t154.5 -112.5q21 98 78 98t147.5 -64t90.5 -116q0 -53 -70 -104.5t-133 -51.5q-119 0 -307 156 q-135 112 -222.5 241.5t-87.5 221.5z" />
<glyph unicode="&#xf700;" horiz-adv-x="1208" d="M53 872q36 168 174.5 263.5t337.5 95.5q161 0 281 -60l88 129h196l-157 -225q135 -147 135 -395q0 -118 -34 -224.5t-94.5 -190.5t-137.5 -150t-170 -115h-168l-170 385q-21 42 -38 57t-56 15q-50 0 -68 -2v151q47 6 104 6q89 0 137.5 -34t82.5 -117l127 -293 q130 82 209 213t79 297q0 186 -89.5 289.5t-256.5 103.5q-131 0 -212 -59t-109 -168z" />
<glyph unicode="&#xf701;" d="M-1253 1352v145h813v-145h-813z" />
<glyph unicode="&#xf702;" d="M-1249 1352h809v297h-160v-152h-649v-145z" />
<glyph unicode="&#xf703;" d="M-1243 1352v145h489v10q0 70 44.5 112t121.5 42t121.5 -42t44.5 -112q0 -73 -48 -114t-128 -41h-645zM-647 1505q0 -67 59 -67q60 0 60 69q0 68 -60 68q-28 0 -43.5 -19t-15.5 -51z" />
<glyph unicode="&#xf704;" d="M-1253 1352v145h426v152h143v-152h94v152h146v-297h-809z" />
<glyph unicode="&#xf705;" d="M-750 1352v334h166v-334h-166z" />
<glyph unicode="&#xf706;" d="M-1044 1536v135q25 4 102 4q97 0 149 -47t52 -141v-10h307v-129h-459v102q0 52 -19.5 69t-74.5 17h-57z" />
<glyph unicode="&#xf707;" d="M-1153 1479q0 94 45.5 148t136.5 54q99 0 140 -86q48 86 145 86q75 0 117.5 -44t42.5 -119q0 -17 -4 -41h131v-129h-258v125q0 79 -56 79q-28 0 -43.5 -21t-23.5 -65h-103q-16 86 -67 86q-58 0 -58 -86q0 -43 21 -118h-146q-20 78 -20 131z" />
<glyph unicode="&#xf708;" d="M-907 1485v123h149v133h166v-133h148v-123h-148v-133h-166v133h-149z" />
<glyph unicode="&#xf709;" d="M-932 1421q0 121 81.5 184.5t223.5 63.5h201v-145h-190q-78 0 -113 -31t-35 -107v-34h-164q-4 46 -4 69z" />
<glyph unicode="&#xf70a;" d="M-319 1352v334h165v-334h-165z" />
<glyph unicode="&#xf70b;" d="M-621 1542v133q25 6 107 6q98 0 152.5 -48t54.5 -140v-10h309v-131h-467v102q0 53 -20 70.5t-78 17.5h-58z" />
<glyph unicode="&#xf70c;" d="M-850 1485q0 -47 21 -133h141q-14 82 -14 121q0 86 57 86q55 0 72 -86h104q18 86 72 86q57 0 57 -82v-125h293v131h-148q2 10 2 43q0 71 -50.5 116.5t-127.5 45.5q-47 0 -86.5 -22.5t-62.5 -63.5q-41 86 -146 86q-92 0 -138 -54.5t-46 -148.5z" />
<glyph unicode="&#xf70d;" d="M-469 1485v123h150v133h165v-133h148v-123h-148v-133h-165v133h-150z" />
<glyph unicode="&#xf70e;" d="M-664 1421q0 121 81.5 184.5t224.5 63.5h221v-145h-211q-78 0 -113 -31t-35 -107v-34h-163q-5 58 -5 69z" />
<glyph unicode="&#xf70f;" horiz-adv-x="2062" d="M55 801v24q44 179 192 292.5t365 113.5q248 0 383 -140.5t135 -388.5v-251q0 -149 78.5 -229.5t218.5 -80.5q143 0 223.5 77.5t80.5 223.5v756h190v-756q0 -219 -131.5 -339.5t-362.5 -120.5q-227 0 -357 120.5t-130 339.5v263q0 173 -84 267.5t-244 94.5 q-140 0 -235 -67.5t-125 -174.5l84 -75q22 -19 28.5 -35.5t6.5 -50.5v-342q0 -90 29 -136.5t106 -46.5q29 0 57 4v-147q-46 -8 -88 -8q-157 0 -226 83t-69 246v369z" />
<glyph unicode="&#xf710;" d="M-1130 1587q0 28 4 68h155v-47q0 -69 33 -95t113 -26h434v-139h-447q-148 0 -220 59t-72 180z" />
<glyph unicode="&#xf711;" d="M-877 1536q0 90 57.5 143.5t149.5 53.5q93 0 151 -53.5t58 -143.5t-58 -142.5t-151 -52.5q-92 0 -149.5 52.5t-57.5 142.5zM-754 1536q0 -41 22.5 -64.5t61.5 -23.5q40 0 63 22t23 66q0 42 -23 66t-63 24t-62 -23.5t-22 -66.5z" />
<glyph unicode="&#xf712;" d="M-1098 1577q0 108 73 173t198 65h417v-127h-419q-57 0 -89 -28.5t-32 -82.5q0 -49 27 -76.5t75 -27.5q44 0 73.5 23.5t35.5 68.5h135q4 -45 29 -64.5t75 -19.5h92v-127q-47 -6 -92 -6q-136 0 -178 98q-25 -48 -75.5 -73t-108.5 -25q-105 0 -170.5 64.5t-65.5 164.5z" />
<glyph unicode="&#xf713;" d="M-580 1751v293h158v-293h-158z" />
<glyph unicode="&#xf714;" d="M-768 1929v129q45 4 102 4q92 0 138.5 -47.5t46.5 -132.5v-6h299v-129h-447v94q0 48 -16 68t-60 20h-63z" />
<glyph unicode="&#xf715;" d="M-797 1864q0 97 49 148.5t130 51.5q89 0 129 -79q37 79 133 79q70 0 114.5 -45.5t44.5 -130.5v-12h129v-129h-256v115q0 80 -53 80q-31 0 -48.5 -23t-20.5 -59h-93q-9 43 -23.5 62.5t-41.5 19.5q-58 0 -58 -84q0 -52 17 -111h-131q-21 72 -21 117z" />
<glyph unicode="&#xf716;" d="M-696 1860v122h123v109h141v-109h123v-122h-123v-109h-141v109h-123z" />
<glyph unicode="&#xf717;" d="M-551 1817q0 215 281 215h157v-129h-151q-74 0 -106.5 -24.5t-32.5 -90.5v-37h-144q-4 36 -4 66z" />
<glyph unicode="&#xf718;" d="M-434 -498q23 4 86 4q109 0 156 -41.5t47 -144.5v-229h-154v196q0 46 -17 64t-61 18h-57v133z" />
<glyph unicode="&#xf719;" d="M-795 -498h256v-170q0 -52 26 -81t77 -29q104 0 104 110v164h166v-170q0 -107 -75.5 -172t-194.5 -65q-118 0 -190 63t-72 168v55h-97v127z" />
<glyph unicode="&#xf71a;" d="M-332 -608q0 47 30 76.5t77 29.5q51 0 78.5 -27.5t27.5 -78.5q0 -50 -28.5 -78.5t-77.5 -28.5q-46 0 -76.5 30t-30.5 77z" />
<glyph unicode="&#xf71b;" horiz-adv-x="1357" d="M102 -4v147q32 -4 56 -4q33 0 55 9t34.5 23t19 40t8 49.5t1.5 61.5v329l-161 150v24q46 179 195.5 292.5t371.5 113.5q261 0 398 -139t137 -390v-833q0 -159 -92 -235t-240 -76q-64 0 -183.5 20.5t-179.5 20.5q-101 0 -237 -37l-23 149q43 19 115 31t143 12 q59 0 172 -19.5t168 -19.5q85 0 125.5 38.5t40.5 127.5v824q0 174 -85.5 267t-260.5 93q-141 0 -240 -68t-129 -174l121 -108q22 -20 28.5 -36t6.5 -50v-312q0 -167 -59.5 -248t-214.5 -81q-41 0 -91 8z" />
<glyph unicode="&#xf71c;" horiz-adv-x="1357" d="M102 -4v147q32 -4 56 -4q33 0 55 9t34.5 23t19 40t8 49.5t1.5 61.5v329l-161 150v24q46 179 195.5 292.5t371.5 113.5q261 0 398 -139t137 -390v-792q0 -169 -85 -260.5t-243 -91.5q-83 0 -152 33t-104 98q-27 -64 -96 -97.5t-160 -33.5q-117 0 -178 28l30 154 q59 -23 142 -23q174 0 186 133h145q7 -63 51 -98t111 -35q162 0 162 199v789q0 174 -85.5 267t-260.5 93q-141 0 -240 -68t-129 -174l121 -108q22 -20 28.5 -36t6.5 -50v-312q0 -167 -59.5 -248t-214.5 -81q-41 0 -91 8z" />
<glyph unicode="&#xf71d;" horiz-adv-x="1404" d="M143 0h215l338 434l340 -434h221v569q0 110 -50 192t-144 107q199 55 199 303v25h-193v-25q0 -120 -55 -171.5t-183 -51.5v-145q131 0 184.5 -61t53.5 -169v-360l-301 393h-139l-299 -391v983h-187v-1198z" />
<glyph unicode="&#xf881;" horiz-adv-x="1972" d="M55 801v24q44 182 191.5 294t371.5 112q277 0 418 -154q59 73 152.5 113.5t210.5 40.5q213 0 323.5 -105t110.5 -315v-811h2v-410h-190v410h-3v807q0 131 -59.5 197.5t-189.5 66.5q-104 0 -167.5 -52.5t-84.5 -146.5q16 -75 16 -151v-1131h-190v1133q0 160 -89 251 t-260 91q-143 0 -240 -66.5t-126 -173.5l84 -75q22 -19 28.5 -35.5t6.5 -50.5v-342q0 -90 29 -136.5t106 -46.5q29 0 57 4v-147q-46 -8 -88 -8q-157 0 -226 83t-69 246v369z" />
<glyph unicode="&#xf882;" horiz-adv-x="2033" d="M102 -4v147q32 -4 56 -4q33 0 55 9t34.5 23t19 40t8 49.5t1.5 61.5v329l-161 150v24q46 179 195.5 292.5t371.5 113.5q277 0 414 -156q59 75 152.5 115.5t211.5 40.5q213 0 323.5 -105t110.5 -315v-811h2v-410h-190v410h-2v807q0 131 -60 197.5t-190 66.5 q-106 0 -170.5 -55.5t-83.5 -153.5q17 -83 17 -160v-1112h-191v1115q0 174 -85.5 267t-260.5 93q-141 0 -240 -68t-129 -174l121 -108q22 -20 28.5 -36t6.5 -50v-312q0 -167 -59.5 -248t-214.5 -81q-41 0 -91 8z" />
<glyph unicode="&#xfb00;" horiz-adv-x="1392" d="M35 903v154h166v88q0 161 90 247.5t239 86.5q102 0 187 -25l-31 -149q-57 16 -121 16q-77 0 -123.5 -40.5t-46.5 -131.5v-92h267v-154h-267v-903h-194v903h-166zM731 903v154h166v88q0 161 90.5 247.5t239.5 86.5q101 0 186 -25l-31 -149q-57 16 -120 16 q-77 0 -123.5 -40.5t-46.5 -131.5v-92h266v-154h-266v-903h-195v903h-166z" />
<glyph unicode="&#xfb01;" horiz-adv-x="1169" d="M35 903v154h166v88q0 161 90 247.5t239 86.5q102 0 187 -25l-31 -149q-57 16 -121 16q-77 0 -123.5 -40.5t-46.5 -131.5v-92h267v-154h-267v-903h-194v903h-166zM813 1372q0 56 32 88.5t89 32.5t89 -32.5t32 -88.5q0 -54 -32.5 -86.5t-88.5 -32.5t-88.5 32.5t-32.5 86.5z M836 0v1061h194v-1061h-194z" />
<glyph unicode="&#xfb02;" horiz-adv-x="1202" d="M35 903v154h166v88q0 161 90 247.5t239 86.5q102 0 187 -25l-31 -149q-57 16 -121 16q-77 0 -123.5 -40.5t-46.5 -131.5v-92h267v-154h-267v-903h-194v903h-166zM870 0v1462h195v-1462h-195z" />
<glyph unicode="&#xfb03;" horiz-adv-x="1865" d="M35 903v154h166v88q0 161 90 247.5t239 86.5q102 0 187 -25l-31 -149q-57 16 -121 16q-77 0 -123.5 -40.5t-46.5 -131.5v-92h267v-154h-267v-903h-194v903h-166zM731 903v154h166v88q0 161 90.5 247.5t239.5 86.5q101 0 186 -25l-31 -149q-57 16 -120 16 q-77 0 -123.5 -40.5t-46.5 -131.5v-92h266v-154h-266v-903h-195v903h-166zM1509 1372q0 56 32 88.5t89 32.5t89 -32.5t32 -88.5q0 -54 -32.5 -86.5t-88.5 -32.5t-88.5 32.5t-32.5 86.5zM1532 0v1061h194v-1061h-194z" />
<glyph unicode="&#xfb04;" horiz-adv-x="1900" d="M35 903v154h166v88q0 161 90 247.5t239 86.5q102 0 187 -25l-31 -149q-57 16 -121 16q-77 0 -123.5 -40.5t-46.5 -131.5v-92h267v-154h-267v-903h-194v903h-166zM731 903v154h166v88q0 161 90.5 247.5t239.5 86.5q101 0 186 -25l-31 -149q-57 16 -120 16 q-77 0 -123.5 -40.5t-46.5 -131.5v-92h266v-154h-266v-903h-195v903h-166zM1567 0v1462h194v-1462h-194z" />
<glyph unicode="&#xfeff;" />
<glyph horiz-adv-x="1232" d="M55 446h207q20 -151 92.5 -228t225.5 -77q160 0 231.5 91t71.5 268v962h204v-975q0 -258 -132 -391t-371 -133q-237 0 -372.5 119.5t-156.5 363.5zM862 1583l240 281h237l-286 -281h-191z" />
<glyph horiz-adv-x="473" d="M-135 -387l33 151q78 -20 116 -20q66 0 95.5 35.5t29.5 118.5v1163h195v-1157q0 -157 -71 -240.5t-234 -83.5q-62 0 -164 33zM121 1210l235 297h234l-281 -297h-188z" />
<glyph horiz-adv-x="471" d="M25 -190q0 98 114 190v1061h195v-1061h-35q-104 -87 -104 -156t84 -69q17 0 53 4v-129q-46 -4 -72 -4q-125 0 -180 41t-55 123z" />
<glyph horiz-adv-x="1013" d="M-895 1567q0 91 59 145.5t152 54.5q95 0 154 -54.5t59 -145.5t-59 -145t-154 -54q-94 0 -152.5 54t-58.5 145zM-770 1567q0 -42 23 -66t63 -24t64 22.5t24 67.5q0 44 -24 68t-64 24q-41 0 -63.5 -24t-22.5 -68zM39 879q17 161 136.5 256.5t303.5 95.5q213 0 323.5 -105 t110.5 -315v-811h-190v807q0 131 -60 197.5t-190 66.5q-110 0 -175.5 -58.5t-80.5 -162.5z" />
<glyph horiz-adv-x="1255" d="M84 707q0 189 39.5 333t112.5 234t172.5 135t222.5 45q254 0 395 -186t141 -561q0 -372 -143.5 -558t-400.5 -186q-254 0 -396.5 186t-142.5 558zM291 707q0 -572 336 -572q166 0 251 146.5t85 425.5t-85 426t-251 147q-336 0 -336 -573z" />
<glyph horiz-adv-x="1046" d="M133 1149l426 266h178v-1415h-200v1200l-318 -194z" />
<glyph horiz-adv-x="1253" d="M117 1059q43 187 170.5 291t349.5 104q216 0 344.5 -115t128.5 -301q0 -59 -14 -116t-33 -102.5t-56.5 -97.5t-66.5 -87t-82.5 -85.5t-84.5 -77.5t-92 -78q-9 -7 -13 -11q-25 -21 -65 -54.5t-95 -80t-86 -72.5h702v-176h-974v158q70 60 197 171t153 134q21 19 66 57.5 t71 61t66.5 61t65 67.5t54 69.5t46 76t27.5 79t11 87.5q0 123 -75.5 190.5t-198.5 67.5q-138 0 -216.5 -59.5t-115.5 -188.5z" />
<glyph horiz-adv-x="1273" d="M127 397h192q17 -134 93.5 -199t218.5 -65t224.5 69.5t82.5 196.5q0 129 -80 189.5t-219 60.5h-158v172h164q119 0 190.5 63t71.5 179q0 104 -75.5 161.5t-206.5 57.5q-122 0 -195 -55.5t-108 -175.5l-183 26q37 179 166.5 278t327.5 99q217 0 344 -104t127 -265 q0 -222 -219 -331q252 -101 252 -348q0 -87 -29.5 -164.5t-88.5 -141t-158 -100.5t-226 -37q-107 0 -193.5 25.5t-142.5 68t-94.5 99.5t-56.5 116.5t-21 124.5z" />
<glyph horiz-adv-x="1253" d="M78 346v146l688 923h188v-913h213v-156h-213v-346h-184v346h-692zM279 502h491v665z" />
<glyph horiz-adv-x="1253" d="M131 367h193q22 -120 96 -177t205 -57q135 0 220 86.5t85 243.5q0 141 -76.5 225t-220.5 84q-184 0 -301 -127h-168l63 770h797v-174h-637l-37 -414q133 103 322 103q213 0 332.5 -130t119.5 -335q0 -233 -137.5 -367.5t-357.5 -134.5q-219 0 -350 104t-148 300z" />
<glyph horiz-adv-x="1251" d="M125 444q0 123 39.5 223.5t126.5 243.5l307 504h207l-305 -506q68 19 145 19q215 0 347 -134t132 -348q0 -219 -140.5 -351t-367.5 -132q-214 0 -352.5 136.5t-138.5 344.5zM315 444q0 -144 85 -231.5t216 -87.5q140 0 229 84.5t89 230.5q0 140 -80 235t-227 95 q-140 0 -226 -91.5t-86 -234.5z" />
<glyph horiz-adv-x="1130" d="M49 1241v174h987v-162q-328 -612 -504 -1253h-215q199 666 502 1241h-770z" />
<glyph horiz-adv-x="1253" d="M104 393q0 71 23 131.5t61.5 103t82 71.5t91.5 46q-83 40 -139.5 120t-56.5 204q0 171 129 278t332 107q221 0 339.5 -105t118.5 -280q0 -119 -54 -199t-142 -118q113 -36 186.5 -129t73.5 -230q0 -191 -135 -310.5t-387 -119.5q-253 0 -388 119.5t-135 310.5zM303 395 q0 -123 83 -197.5t243 -74.5q159 0 241 74.5t82 199.5q0 262 -323 262q-326 0 -326 -264zM352 1057q0 -234 275 -234q135 0 204.5 59.5t69.5 176.5q0 107 -69.5 172t-204.5 65q-131 0 -203 -65.5t-72 -173.5z" />
<glyph horiz-adv-x="1251" d="M119 971q0 219 140.5 351t367.5 132q214 0 351.5 -136t137.5 -343q0 -86 -25 -168.5t-56.5 -141.5t-94.5 -159l-324 -506h-206l325 508q-65 -19 -139 -19q-214 0 -345.5 134t-131.5 348zM309 977q0 -91 32.5 -164t103 -119.5t169.5 -46.5q141 0 226.5 92t85.5 236 q0 143 -84 230t-215 87q-140 0 -229 -84.5t-89 -230.5z" />
<glyph horiz-adv-x="1253" d="M84 707q0 189 39.5 333t112.5 234t172.5 135t222.5 45q254 0 395 -186t141 -561q0 -372 -143.5 -558t-400.5 -186q-254 0 -396.5 186t-142.5 558zM291 707q0 -572 336 -572q166 0 251 146.5t85 425.5t-85 426t-251 147q-336 0 -336 -573z" />
<glyph horiz-adv-x="1253" d="M217 1149l426 266h178v-1415h-200v1200l-318 -194z" />
<glyph horiz-adv-x="1253" d="M117 1059q43 187 170.5 291t349.5 104q216 0 344.5 -115t128.5 -301q0 -59 -14 -116t-33 -102.5t-56.5 -97.5t-66.5 -87t-82.5 -85.5t-84.5 -77.5t-92 -78q-9 -7 -13 -11q-25 -21 -65 -54.5t-95 -80t-86 -72.5h702v-176h-974v158q70 60 197 171t153 134q21 19 66 57.5 t71 61t66.5 61t65 67.5t54 69.5t46 76t27.5 79t11 87.5q0 123 -75.5 190.5t-198.5 67.5q-138 0 -216.5 -59.5t-115.5 -188.5z" />
<glyph horiz-adv-x="1253" d="M100 397h193q15 -134 94.5 -199t233.5 -65q143 0 225 69.5t82 196.5q0 129 -79.5 189.5t-217.5 60.5h-158v172h164q117 0 188.5 63t71.5 179q0 103 -75.5 161t-207.5 58q-133 0 -209 -55.5t-110 -175.5l-182 26q35 179 167.5 278t342.5 99q219 0 346 -104t127 -265 q0 -222 -219 -331q251 -101 251 -348q0 -69 -18 -132.5t-57.5 -120.5t-97 -99t-142 -66.5t-186.5 -24.5q-113 0 -203 25.5t-148.5 67.5t-98 99.5t-57 117t-20.5 124.5z" />
<glyph horiz-adv-x="1253" d="M78 346v146l688 923h188v-913h213v-156h-213v-346h-184v346h-692zM279 502h491v665z" />
<glyph horiz-adv-x="1253" d="M131 367h193q22 -120 96 -177t205 -57q134 0 219.5 87t85.5 243q0 141 -76.5 225t-220.5 84q-184 0 -301 -127h-170l65 770h797v-174h-637l-37 -414q133 103 320 103q215 0 334.5 -130t119.5 -335q0 -233 -137.5 -367.5t-357.5 -134.5q-219 0 -350 104t-148 300z" />
<glyph horiz-adv-x="1253" d="M139 444q0 123 39.5 223.5t126.5 243.5l307 504h209l-305 -504q70 17 137 17q215 0 344 -134t129 -348q0 -219 -137.5 -351t-363.5 -132q-214 0 -350 136.5t-136 344.5zM330 444q0 -145 81.5 -232t211.5 -87q139 0 226 84.5t87 230.5q0 141 -77.5 235.5t-223.5 94.5 q-140 0 -222.5 -91t-82.5 -235z" />
<glyph horiz-adv-x="1253" d="M102 1241v174h1008v-162q-333 -627 -502 -1253h-217q204 671 504 1241h-793z" />
<glyph horiz-adv-x="1253" d="M104 393q0 71 23 131.5t61.5 103t82 71.5t91.5 46q-83 40 -139.5 120t-56.5 204q0 171 129 278t332 107q221 0 339.5 -105t118.5 -280q0 -119 -54 -199t-142 -118q113 -36 186.5 -129t73.5 -230q0 -191 -135 -310.5t-387 -119.5q-253 0 -388 119.5t-135 310.5zM303 395 q0 -123 83 -197.5t243 -74.5q159 0 241 74.5t82 199.5q0 262 -323 262q-326 0 -326 -264zM352 1057q0 -234 275 -234q135 0 204.5 59.5t69.5 176.5q0 107 -69.5 172t-204.5 65q-131 0 -203 -65.5t-72 -173.5z" />
<glyph horiz-adv-x="1253" d="M127 971q0 219 138 351t366 132q212 0 347.5 -136t135.5 -343q0 -122 -41.5 -220t-136.5 -249l-322 -506h-208l323 504q-73 -15 -129 -15q-215 0 -344 134t-129 348zM317 977q0 -141 77.5 -235.5t223.5 -94.5q140 0 223 91.5t83 236.5q0 144 -81.5 230.5t-211.5 86.5 q-139 0 -226.5 -84.5t-87.5 -230.5z" />
<glyph horiz-adv-x="843" d="M63 408q0 214 97.5 327t261.5 113t261 -111.5t97 -328.5q0 -219 -95.5 -330t-262.5 -111q-162 0 -260.5 111.5t-98.5 329.5zM240 408q0 -287 182 -287t182 287q0 286 -182 286t-182 -286z" />
<glyph horiz-adv-x="843" d="M133 672l258 147h166v-819h-172v647l-186 -98z" />
<glyph horiz-adv-x="843" d="M106 594q67 254 322 254q132 0 209.5 -66.5t77.5 -181.5q0 -102 -50 -180.5t-173 -177.5q-22 -19 -130 -103h353v-139h-592v125q102 82 237 194q111 93 149 145t38 124q0 58 -32.5 89.5t-90.5 31.5q-126 0 -164 -138z" />
<glyph horiz-adv-x="843" d="M104 248h150q9 -74 47.5 -112t118.5 -38q151 0 151 135q0 123 -141 123h-94v131h94q59 0 93 29.5t34 89.5q0 113 -137 113q-69 0 -106.5 -31t-55.5 -100l-147 22q9 46 29 85.5t55 75.5t92.5 56.5t132.5 20.5q144 0 219.5 -61.5t75.5 -163.5q0 -64 -26 -108t-79 -81 q123 -55 123 -201q0 -123 -77 -194.5t-232 -71.5q-141 0 -226 73t-94 208z" />
<glyph horiz-adv-x="843" d="M84 188v107l403 524h152v-506h102l-20 -125h-82v-188h-156v188h-399zM252 313h231v301z" />
<glyph horiz-adv-x="843" d="M131 217h143q15 -62 51 -90.5t105 -28.5q65 0 101 41t36 117q0 145 -139 145q-104 0 -158 -59h-123l41 477h478v-133h-349l-16 -203q73 41 154 41q134 0 201 -72t67 -194q0 -141 -76.5 -216t-214.5 -75q-280 0 -301 250z" />
<glyph horiz-adv-x="843" d="M111 354q0 78 8.5 145t32 133t60 112.5t97.5 75t140 28.5q127 0 193 -54t85 -165l-137 -21q-11 59 -44.5 85t-99.5 26q-85 0 -130.5 -69.5t-51.5 -194.5q81 69 197 69q139 0 208.5 -73t69.5 -195q0 -132 -83.5 -210.5t-229.5 -78.5q-88 0 -151.5 31.5t-98 87.5t-50 122 t-15.5 146zM276 260q0 -68 36.5 -117t113.5 -49q75 0 116.5 41t41.5 117q0 71 -35 113.5t-113 42.5q-70 0 -115 -37t-45 -111z" />
<glyph horiz-adv-x="843" d="M109 674v145h606v-123q-192 -330 -289 -696h-176q125 406 276 674h-417z" />
<glyph horiz-adv-x="843" d="M100 223q0 67 36 117t93 78q-102 57 -102 190q0 108 75 174t220 66q146 0 220.5 -66t74.5 -174q0 -63 -28 -111t-77 -75q131 -60 131 -199q0 -120 -81.5 -187t-239.5 -67q-159 0 -240.5 67t-81.5 187zM258 223q0 -131 164 -131q162 0 162 131q0 125 -162 125 q-164 0 -164 -125zM279 604q0 -125 143 -125q141 0 141 127q0 55 -34 88t-107 33t-108 -34t-35 -89z" />
<glyph horiz-adv-x="843" d="M106 565q0 128 83 205.5t229 77.5q71 0 126 -22t90 -58.5t57 -88.5t31 -107.5t9 -120.5q0 -80 -7.5 -145.5t-29 -130.5t-56.5 -109t-93.5 -71.5t-136.5 -27.5q-134 0 -208.5 55.5t-86.5 180.5h143q8 -60 47 -83.5t105 -23.5q86 0 126 63.5t46 209.5q-42 -42 -87.5 -60 t-109.5 -18q-136 0 -206.5 74t-70.5 200zM260 569q0 -155 146 -155q70 0 115.5 35.5t45.5 107.5t-39 119t-112 47q-75 0 -115.5 -39.5t-40.5 -114.5z" />
<glyph horiz-adv-x="843" d="M63 999q0 214 98 327.5t261 113.5q164 0 261 -112t97 -329q0 -219 -95.5 -329.5t-262.5 -110.5q-163 0 -261 111.5t-98 328.5zM240 999q0 -286 182 -286t182 286q0 287 -182 287t-182 -287z" />
<glyph horiz-adv-x="843" d="M133 1264l258 147h166v-819h-172v647l-186 -98z" />
<glyph horiz-adv-x="843" d="M106 1186q67 254 322 254q132 0 209.5 -66.5t77.5 -181.5q0 -102 -50 -180.5t-173 -177.5q-22 -19 -130 -103h353v-139h-592v125q102 82 237 194q111 93 149 145t38 124q0 58 -32.5 89t-90.5 31q-127 0 -164 -137z" />
<glyph horiz-adv-x="843" d="M104 840h150q9 -74 47.5 -112t118.5 -38q151 0 151 135q0 123 -141 123h-94v131h94q59 0 93 29.5t34 89.5q0 113 -137 113q-69 0 -106.5 -31t-55.5 -100l-147 22q9 46 29 85.5t55 75.5t92.5 56.5t132.5 20.5q144 0 219.5 -62t75.5 -164q0 -64 -26 -107.5t-79 -80.5 q123 -55 123 -201q0 -123 -77 -194.5t-232 -71.5q-141 0 -226 73t-94 208z" />
<glyph horiz-adv-x="843" d="M84 780v107l403 524h152v-506h102l-20 -125h-82v-188h-156v188h-399zM252 905h231v301z" />
<glyph horiz-adv-x="843" d="M131 809h143q15 -62 51 -90.5t105 -28.5q65 0 101 41t36 117q0 145 -139 145q-104 0 -158 -59h-123l41 477h478v-133h-349l-16 -203q73 41 154 41q134 0 201 -72t67 -194q0 -141 -76.5 -216t-214.5 -75q-280 0 -301 250z" />
<glyph horiz-adv-x="843" d="M111 967q0 78 8.5 144.5t32 133t60 112.5t97.5 74.5t140 28.5q127 0 193 -54t85 -165l-137 -20q-10 58 -44 84t-100 26q-85 0 -130.5 -69.5t-51.5 -194.5q82 70 197 70q139 0 208.5 -73.5t69.5 -195.5q0 -132 -83.5 -210t-229.5 -78q-88 0 -151.5 31.5t-98 87.5t-50 122 t-15.5 146zM276 872q0 -68 36.5 -116.5t113.5 -48.5q75 0 116.5 40.5t41.5 116.5q0 71 -35 113.5t-113 42.5q-70 0 -115 -37t-45 -111z" />
<glyph horiz-adv-x="843" d="M109 1266v145h606v-123q-192 -330 -289 -696h-176q125 406 276 674h-417z" />
<glyph horiz-adv-x="843" d="M100 815q0 67 36 117t93 78q-102 57 -102 190q0 108 75 174t220 66q146 0 220.5 -66t74.5 -174q0 -63 -28 -111t-77 -75q131 -60 131 -199q0 -120 -81.5 -187t-239.5 -67q-159 0 -240.5 67t-81.5 187zM258 815q0 -131 164 -131q162 0 162 131q0 125 -162 125 q-164 0 -164 -125zM279 1196q0 -125 143 -125q141 0 141 127q0 55 -34 88t-107 33t-108 -34t-35 -89z" />
<glyph horiz-adv-x="843" d="M106 1157q0 128 83 205.5t229 77.5q71 0 126 -22t90 -58.5t57 -89t31 -108t9 -120.5q0 -80 -7.5 -145.5t-29 -130t-56.5 -108.5t-93.5 -71.5t-136.5 -27.5q-134 0 -208.5 55.5t-86.5 180.5h143q8 -60 47 -83.5t105 -23.5q86 0 126 63.5t46 209.5q-42 -42 -87.5 -60 t-109.5 -18q-136 0 -206.5 74t-70.5 200zM260 1161q0 -155 146 -155q70 0 115.5 35.5t45.5 107.5t-39 119t-112 47q-75 0 -115.5 -39.5t-40.5 -114.5z" />
<glyph horiz-adv-x="1873" d="M106 1186q67 254 322 254q132 0 209.5 -66.5t77.5 -181.5q0 -102 -50 -180.5t-173 -177.5q-22 -19 -130 -103h353v-139h-592v125q102 82 237 194q111 93 149 145t38 124q0 58 -32.5 89t-90.5 31q-127 0 -164 -137zM485 0l713 1415h188l-712 -1415h-189zM1139 674v145h606 v-123q-192 -330 -289 -696h-176q125 406 276 674h-417z" />
<glyph horiz-adv-x="1873" d="M104 840h150q9 -74 47.5 -112t118.5 -38q151 0 151 135q0 123 -141 123h-94v131h94q59 0 93 29.5t34 89.5q0 113 -137 113q-69 0 -106.5 -31t-55.5 -100l-147 22q9 46 29 85.5t55 75.5t92.5 56.5t132.5 20.5q144 0 219.5 -62t75.5 -164q0 -64 -26 -107.5t-79 -80.5 q123 -55 123 -201q0 -123 -77 -194.5t-232 -71.5q-141 0 -226 73t-94 208zM485 0l713 1415h188l-712 -1415h-189zM1139 674v145h606v-123q-192 -330 -289 -696h-176q125 406 276 674h-417z" />
<glyph horiz-adv-x="1873" d="M84 780v107l403 524h152v-506h102l-20 -125h-82v-188h-156v188h-399zM252 905h231v301zM485 0l713 1415h188l-712 -1415h-189zM1139 674v145h606v-123q-192 -330 -289 -696h-176q125 406 276 674h-417z" />
<glyph horiz-adv-x="1873" d="M131 809h143q15 -62 51 -90.5t105 -28.5q65 0 101 41t36 117q0 145 -139 145q-104 0 -158 -59h-123l41 477h478v-133h-349l-16 -203q73 41 154 41q134 0 201 -72t67 -194q0 -141 -76.5 -216t-214.5 -75q-280 0 -301 250zM485 0l713 1415h188l-712 -1415h-189zM1139 674 v145h606v-123q-192 -330 -289 -696h-176q125 406 276 674h-417z" />
<glyph horiz-adv-x="1873" d="M111 967q0 78 8.5 144.5t32 133t60 112.5t97.5 74.5t140 28.5q127 0 193 -54t85 -165l-137 -20q-10 58 -44 84t-100 26q-85 0 -130.5 -69.5t-51.5 -194.5q82 70 197 70q139 0 208.5 -73.5t69.5 -195.5q0 -132 -83.5 -210t-229.5 -78q-88 0 -151.5 31.5t-98 87.5t-50 122 t-15.5 146zM276 872q0 -68 36.5 -116.5t113.5 -48.5q75 0 116.5 40.5t41.5 116.5q0 71 -35 113.5t-113 42.5q-70 0 -115 -37t-45 -111zM485 0l713 1415h188l-712 -1415h-189zM1139 674v145h606v-123q-192 -330 -289 -696h-176q125 406 276 674h-417z" />
<glyph horiz-adv-x="1873" d="M106 1186q67 254 322 254q132 0 209.5 -66.5t77.5 -181.5q0 -102 -50 -180.5t-173 -177.5q-22 -19 -130 -103h353v-139h-592v125q102 82 237 194q111 93 149 145t38 124q0 58 -32.5 89t-90.5 31q-127 0 -164 -137zM485 0l713 1415h188l-712 -1415h-189zM1137 565 q0 128 82.5 205.5t228.5 77.5q71 0 126 -22t90 -58.5t57 -88.5t31 -107.5t9 -120.5q0 -80 -7.5 -145.5t-29 -130.5t-56.5 -109t-93.5 -71.5t-136.5 -27.5q-134 0 -208.5 55.5t-86.5 180.5h143q8 -60 47 -83.5t105 -23.5q86 0 126 63.5t46 209.5q-42 -42 -87.5 -60 t-109.5 -18q-135 0 -205.5 74t-70.5 200zM1290 569q0 -155 146 -155q70 0 115.5 35.5t45.5 107.5t-39 119t-112 47q-75 0 -115.5 -39.5t-40.5 -114.5z" />
<glyph horiz-adv-x="1873" d="M84 780v107l403 524h152v-506h102l-20 -125h-82v-188h-156v188h-399zM252 905h231v301zM485 0l713 1415h188l-712 -1415h-189zM1137 565q0 128 82.5 205.5t228.5 77.5q71 0 126 -22t90 -58.5t57 -88.5t31 -107.5t9 -120.5q0 -80 -7.5 -145.5t-29 -130.5t-56.5 -109 t-93.5 -71.5t-136.5 -27.5q-134 0 -208.5 55.5t-86.5 180.5h143q8 -60 47 -83.5t105 -23.5q86 0 126 63.5t46 209.5q-42 -42 -87.5 -60t-109.5 -18q-135 0 -205.5 74t-70.5 200zM1290 569q0 -155 146 -155q70 0 115.5 35.5t45.5 107.5t-39 119t-112 47q-75 0 -115.5 -39.5 t-40.5 -114.5z" />
<glyph horiz-adv-x="1873" d="M131 809h143q15 -62 51 -90.5t105 -28.5q65 0 101 41t36 117q0 145 -139 145q-104 0 -158 -59h-123l41 477h478v-133h-349l-16 -203q73 41 154 41q134 0 201 -72t67 -194q0 -141 -76.5 -216t-214.5 -75q-280 0 -301 250zM485 0l713 1415h188l-712 -1415h-189zM1137 565 q0 128 82.5 205.5t228.5 77.5q71 0 126 -22t90 -58.5t57 -88.5t31 -107.5t9 -120.5q0 -80 -7.5 -145.5t-29 -130.5t-56.5 -109t-93.5 -71.5t-136.5 -27.5q-134 0 -208.5 55.5t-86.5 180.5h143q8 -60 47 -83.5t105 -23.5q86 0 126 63.5t46 209.5q-42 -42 -87.5 -60 t-109.5 -18q-135 0 -205.5 74t-70.5 200zM1290 569q0 -155 146 -155q70 0 115.5 35.5t45.5 107.5t-39 119t-112 47q-75 0 -115.5 -39.5t-40.5 -114.5z" />
<glyph horiz-adv-x="1873" d="M109 1266v145h606v-123q-192 -330 -289 -696h-176q125 406 276 674h-417zM485 0l713 1415h188l-712 -1415h-189zM1137 565q0 128 82.5 205.5t228.5 77.5q71 0 126 -22t90 -58.5t57 -88.5t31 -107.5t9 -120.5q0 -80 -7.5 -145.5t-29 -130.5t-56.5 -109t-93.5 -71.5 t-136.5 -27.5q-134 0 -208.5 55.5t-86.5 180.5h143q8 -60 47 -83.5t105 -23.5q86 0 126 63.5t46 209.5q-42 -42 -87.5 -60t-109.5 -18q-135 0 -205.5 74t-70.5 200zM1290 569q0 -155 146 -155q70 0 115.5 35.5t45.5 107.5t-39 119t-112 47q-75 0 -115.5 -39.5t-40.5 -114.5z " />
<glyph horiz-adv-x="1873" d="M100 815q0 67 36 117t93 78q-102 57 -102 190q0 108 75 174t220 66q146 0 220.5 -66t74.5 -174q0 -63 -28 -111t-77 -75q131 -60 131 -199q0 -120 -81.5 -187t-239.5 -67q-159 0 -240.5 67t-81.5 187zM258 815q0 -131 164 -131q162 0 162 131q0 125 -162 125 q-164 0 -164 -125zM279 1196q0 -125 143 -125q141 0 141 127q0 55 -34 88t-107 33t-108 -34t-35 -89zM485 0l713 1415h188l-712 -1415h-189zM1137 565q0 128 82.5 205.5t228.5 77.5q71 0 126 -22t90 -58.5t57 -88.5t31 -107.5t9 -120.5q0 -80 -7.5 -145.5t-29 -130.5 t-56.5 -109t-93.5 -71.5t-136.5 -27.5q-134 0 -208.5 55.5t-86.5 180.5h143q8 -60 47 -83.5t105 -23.5q86 0 126 63.5t46 209.5q-42 -42 -87.5 -60t-109.5 -18q-135 0 -205.5 74t-70.5 200zM1290 569q0 -155 146 -155q70 0 115.5 35.5t45.5 107.5t-39 119t-112 47 q-75 0 -115.5 -39.5t-40.5 -114.5z" />
<glyph horiz-adv-x="483" d="M137 1212v246h211v-246h-211zM143 0l9 1034h182l10 -1034h-201z" />
<glyph horiz-adv-x="1021" d="M78 360q0 111 42.5 190.5t121.5 158.5q78 74 115 117.5t58 90.5t21 103v24h189v-30q0 -68 -17 -115q-17 -49 -61 -105.5t-139 -152.5q-34 -37 -48.5 -54t-38 -52t-33 -71t-9.5 -79q0 -114 60.5 -176t172.5 -62q127 0 194.5 57.5t100.5 186.5l178 -26q-15 -81 -48 -147.5 t-88.5 -121t-141.5 -84.5t-197 -30q-205 0 -318.5 103.5t-113.5 274.5zM416 1364q0 54 30 84.5t84 30.5t84.5 -30.5t30.5 -84.5t-30.5 -84.5t-84.5 -30.5t-84 30.5t-30 84.5z" />
<glyph horiz-adv-x="466" d="M119 780q0 54 30 84.5t84 30.5t84.5 -30.5t30.5 -84.5t-30.5 -84t-84.5 -30t-84 30t-30 84z" />
<glyph horiz-adv-x="745" d="M90 754q0 125 80 203.5t207 78.5q124 0 203 -78.5t79 -203.5q0 -126 -78 -205.5t-204 -79.5q-129 0 -208 78.5t-79 206.5z" />
<glyph horiz-adv-x="694" d="M14 -23l467 1504h199l-467 -1504h-199z" />
<glyph horiz-adv-x="694" d="M14 1481h199l467 -1504h-197z" />
<glyph horiz-adv-x="802" d="M96 641v193h611v-193h-611z" />
<glyph horiz-adv-x="1024" d="M0 645v184h1024v-184h-1024z" />
<glyph horiz-adv-x="2048" d="M0 645v184h2048v-184h-2048z" />
<glyph horiz-adv-x="552" d="M106 737q0 243 62.5 473t177.5 406h186q-219 -387 -219 -879q0 -491 219 -878h-186q-115 176 -177.5 406t-62.5 472z" />
<glyph horiz-adv-x="552" d="M20 -141q220 389 220 878q0 490 -220 879h187q115 -176 177 -406t62 -473t-62 -472.5t-177 -405.5h-187z" />
<glyph horiz-adv-x="608" d="M53 655v164h13q71 0 103 38.5t32 113.5v383q0 138 68 200t198 62h127v-162h-98q-107 0 -107 -108v-418q0 -155 -121 -191q121 -33 121 -190v-418q0 -106 107 -106h98v-164h-127q-130 0 -198 62t-68 200v383q0 75 -32 113t-103 38h-13z" />
<glyph horiz-adv-x="608" d="M14 23h97q108 0 108 106v418q0 158 121 190q-121 35 -121 191v418q0 108 -108 108h-97v162h125q130 0 198.5 -62t68.5 -200v-383q0 -75 32 -113.5t105 -38.5h10v-164h-10q-73 0 -105 -38t-32 -113v-383q0 -138 -68.5 -200t-198.5 -62h-125v164z" />
<glyph horiz-adv-x="595" d="M152 -141v1757h419v-166h-221v-1425h221v-166h-419z" />
<glyph horiz-adv-x="595" d="M25 25h223v1425h-223v166h419v-1757h-419v166z" />
<glyph horiz-adv-x="1040" d="M86 745l279 457h196l-254 -454l254 -461h-201zM508 745l278 457h197l-254 -454l254 -461h-201z" />
<glyph horiz-adv-x="1040" d="M59 287l254 452l-254 463h201l275 -461l-279 -454h-197zM481 287l254 452l-254 463h201l274 -461l-278 -454h-197z" />
<glyph horiz-adv-x="620" d="M86 745l279 457h196l-254 -454l254 -461h-201z" />
<glyph horiz-adv-x="620" d="M59 287l254 452l-254 463h201l275 -461l-279 -454h-197z" />
<glyph horiz-adv-x="1964" d="M90 668q0 193 54 357.5t145.5 279t212.5 196t255.5 120t274.5 38.5q181 0 335.5 -50t270 -144t181 -239t65.5 -325q0 -128 -29 -238t-85.5 -194.5t-147 -133t-205.5 -48.5q-204 0 -237 151q-97 -162 -295 -162q-160 0 -263.5 109t-103.5 279q0 238 122.5 384t330.5 146 q92 0 163.5 -38t112.5 -109l21 124h174l-109 -618q-4 -20 -4 -35q0 -98 101 -98q74 0 131 38t91 104t51 148t17 177q0 293 -183.5 459.5t-504.5 166.5q-164 0 -306.5 -60.5t-244.5 -168.5t-160.5 -265t-58.5 -343q0 -323 186.5 -509.5t512.5 -186.5q185 0 296.5 44.5 t194.5 137.5h193q-202 -328 -697 -328q-251 0 -444.5 99.5t-303.5 290t-110 444.5zM707 680q0 -120 58 -186t150 -66q125 0 190.5 81t78.5 210l4 59q12 118 -43 195.5t-164 77.5q-124 0 -199 -96t-75 -275z" />
<glyph horiz-adv-x="1212" d="M119 711q0 236 120.5 385t331.5 174v182h138v-180q162 -14 264.5 -100t130.5 -246l-189 -33q-18 100 -85.5 161.5t-182.5 61.5q-158 0 -245 -100.5t-87 -300.5q0 -188 86 -293t242 -105q242 0 281 230h192q-52 -351 -407 -385v-180h-138v178q-215 19 -333.5 163.5 t-118.5 387.5z" />
<glyph horiz-adv-x="1212" d="M72 395h188q28 -272 342 -272q149 0 228 64t79 190q0 201 -227 237l-174 33q-203 37 -301 131.5t-98 282.5q0 161 114 266.5t309 124.5v172h136v-172q363 -27 426 -375l-183 -33q-34 137 -106 195.5t-205 58.5q-141 0 -223 -56t-82 -171q0 -108 58.5 -167.5t209.5 -84.5 l150 -24q194 -34 292.5 -132t98.5 -284q0 -180 -116.5 -287.5t-319.5 -122.5v-196h-136v196q-212 15 -328.5 125.5t-131.5 300.5z" />
<glyph d="M-961 1352v145h811v-145h-811z" />
<glyph d="M-1042 1352h890v297h-161v-152h-729v-145z" />
<glyph d="M-961 1352v145h490v10q0 70 44.5 112t121.5 42t121.5 -42t44.5 -112q0 -73 -48 -114t-128 -41h-646zM-365 1505q0 -67 60 -67q59 0 59 69q0 68 -59 68q-29 0 -44.5 -19t-15.5 -51z" />
<glyph d="M-961 1352v145h426v152h146v-152h94v152h143v-297h-809z" />
<glyph d="M-444 1536q0 90 57 143.5t149 53.5q93 0 151 -53.5t58 -143.5t-58 -142.5t-151 -52.5q-92 0 -149 52.5t-57 142.5zM-322 1536q0 -41 22.5 -64.5t61.5 -23.5q40 0 63 22t23 66q0 42 -23 66t-63 24t-62 -23.5t-22 -66.5zM-315 1835v293h157v-293h-157z" />
<glyph d="M-621 2017v129q45 4 103 4q92 0 138 -47.5t46 -132.5v-6h299v-129h-446v94q0 48 -16 68t-60 20h-64zM-444 1536q0 90 57 143.5t149 53.5q93 0 151 -53.5t58 -143.5t-58 -142.5t-151 -52.5q-92 0 -149 52.5t-57 142.5zM-322 1536q0 -41 22.5 -64.5t61.5 -23.5q40 0 63 22 t23 66q0 42 -23 66t-63 24t-62 -23.5t-22 -66.5z" />
<glyph d="M-553 1948q0 97 48.5 148.5t129.5 51.5q88 0 129 -80q38 80 133 80q71 0 115.5 -45.5t44.5 -130.5v-12h129v-129h-256v115q0 79 -53 79q-31 0 -49 -22.5t-21 -58.5h-92q-9 43 -23.5 62t-41.5 19q-58 0 -58 -83q0 -52 17 -111h-131q-21 72 -21 117zM-444 1536 q0 90 57 143.5t149 53.5q93 0 151 -53.5t58 -143.5t-58 -142.5t-151 -52.5q-92 0 -149 52.5t-57 142.5zM-322 1536q0 -41 22.5 -64.5t61.5 -23.5q40 0 63 22t23 66q0 42 -23 66t-63 24t-62 -23.5t-22 -66.5z" />
<glyph d="M-444 1536q0 90 57 143.5t149 53.5q93 0 151 -53.5t58 -143.5t-58 -142.5t-151 -52.5q-92 0 -149 52.5t-57 142.5zM-424 1939v123h123v109h141v-109h123v-123h-123v-108h-141v108h-123zM-322 1536q0 -41 22.5 -64.5t61.5 -23.5q40 0 63 22t23 66q0 42 -23 66t-63 24 t-62 -23.5t-22 -66.5z" />
<glyph d="M-778 1475q0 44 27 75t73 45q-55 36 -55 99q0 59 52 92t124 33q67 0 123 -17l-17 -106q-53 12 -75 12q-74 0 -74 -39q0 -43 121 -49l-19 -94q-46 6 -71 6q-74 0 -74 -45q0 -22 24.5 -33.5t63.5 -11.5q35 0 45 2l-16 -109q-32 -4 -60 -4q-78 0 -135 38t-57 106z" />
<glyph d="M-877 1536q0 90 57.5 143.5t149.5 53.5q93 0 151 -53.5t58 -143.5t-58 -142.5t-151 -52.5q-92 0 -149.5 52.5t-57.5 142.5zM-754 1536q0 -41 22.5 -64.5t61.5 -23.5q40 0 63 22t23 66q0 42 -23 66t-63 24t-62 -23.5t-22 -66.5zM-752 1841v293h158v-293h-158z" />
<glyph d="M-1034 2023v129q56 5 102 5q92 0 138 -47.5t46 -133.5v-6h299v-129h-446v94q0 48 -16 68t-60 20h-63zM-877 1536q0 90 57.5 143.5t149.5 53.5q93 0 151 -53.5t58 -143.5t-58 -142.5t-151 -52.5q-92 0 -149.5 52.5t-57.5 142.5zM-754 1536q0 -41 22.5 -64.5t61.5 -23.5 q40 0 63 22t23 66q0 42 -23 66t-63 24t-62 -23.5t-22 -66.5z" />
<glyph d="M-989 1958q0 97 48.5 149t129.5 52q88 0 129 -80q38 80 133 80q70 0 115 -46t45 -131v-12h129v-129h-256v115q0 80 -53 80q-31 0 -49 -23t-21 -59h-92q-9 43 -24 62.5t-42 19.5q-57 0 -57 -84q0 -55 16 -111h-131q-20 68 -20 117zM-877 1536q0 90 57.5 143.5t149.5 53.5 q93 0 151 -53.5t58 -143.5t-58 -142.5t-151 -52.5q-92 0 -149.5 52.5t-57.5 142.5zM-754 1536q0 -41 22.5 -64.5t61.5 -23.5q40 0 63 22t23 66q0 42 -23 66t-63 24t-62 -23.5t-22 -66.5z" />
<glyph d="M-877 1536q0 90 57.5 143.5t149.5 53.5q93 0 151 -53.5t58 -143.5t-58 -142.5t-151 -52.5q-92 0 -149.5 52.5t-57.5 142.5zM-864 1956v123h123v108h141v-108h123v-123h-123v-109h-141v109h-123zM-754 1536q0 -41 22.5 -64.5t61.5 -23.5q40 0 63 22t23 66q0 42 -23 66 t-63 24t-62 -23.5t-22 -66.5z" />
<glyph d="M453 1008l61 454h203l-111 -454h-153z" />
<glyph d="M-334 1221q0 282 191 282q53 0 91 -19t87 -71q1 -2 10.5 -12t13 -13.5l12 -12t14 -12t13.5 -8.5t15.5 -7t15.5 -2q68 0 68 151h133q0 -139 -48.5 -211t-142.5 -72q-53 0 -91.5 20.5t-86.5 72.5q-2 2 -15 15.5t-19 19t-17.5 14.5t-21.5 12.5t-21 3.5q-68 0 -68 -151h-133z " />
<glyph d="M-297 1710q0 51 29.5 81t81.5 30t81 -30t29 -81q0 -50 -29 -79t-81 -29t-81.5 29t-29.5 79zM72 1710q0 51 29 81t81 30t81.5 -30t29.5 -81q0 -50 -29.5 -79t-81.5 -29t-81 29t-29 79z" />
<glyph d="M-121 1720q0 56 32 87.5t89 31.5t89 -31.5t32 -87.5q0 -54 -32 -85t-89 -31t-89 31t-32 85z" />
<glyph d="M-354 1864h237l240 -281h-191z" />
<glyph d="M-123 1583l240 281h237l-286 -281h-191z" />
<glyph d="M-287 1583l221 281h222l-269 -281h-174zM88 1583l223 281h221l-270 -281h-174z" />
<glyph d="M-334 1583l238 281h192l238 -281h-187l-147 162l-150 -162h-184z" />
<glyph d="M-334 1864h187l149 -162l148 162h184l-238 -281h-190z" />
<glyph d="M-291 1868h148q0 -83 39.5 -123.5t103.5 -40.5q65 0 104 40t39 124h150q0 -139 -77.5 -214t-215.5 -75t-214.5 74.5t-76.5 214.5z" />
<glyph d="M-217 1722q0 103 61.5 160t155.5 57t155.5 -56.5t61.5 -158.5q0 -103 -61.5 -160t-155.5 -57t-155.5 56.5t-61.5 158.5zM-98 1724q0 -50 26 -79t72 -29q48 0 74 28.5t26 77.5q0 50 -27 79.5t-73 29.5q-48 0 -73 -28t-25 -79z" />
<glyph d="M-342 1585q0 281 192 281q53 0 94 -19.5t93 -70.5q66 -66 102 -66q66 0 66 150h135q0 -281 -193 -281q-55 0 -94 19t-92 71l-5 5q-18 18 -29 28t-31 21.5t-37 11.5q-66 0 -66 -150h-135z" />
<glyph d="M-303 1632v152h606v-152h-606z" />
<glyph d="M-147 1823v110q50 21 129 21q101 0 158 -49t57 -127q0 -93 -72.5 -147.5t-218.5 -61.5v108q145 17 145 92q0 68 -104 68q-33 0 -94 -14z" />
<glyph d="M-121 -307q0 56 32 88.5t89 32.5t89 -32.5t32 -88.5q0 -57 -32 -90t-89 -33t-89 33t-32 90z" />
<glyph d="M-195 -451l158 314h219l-200 -314h-177z" />
<glyph d="M-193 -324q69 -10 130 -10t87.5 18t26.5 54q0 22 -12 36.5t-36 20t-43.5 7t-51.5 1.5h-45l76 205l124 -2l-45 -115q197 -24 197 -170q0 -93 -70 -133.5t-204 -40.5q-64 0 -134 11v118z" />
<glyph d="M-213 -215q0 108 143 215h170q-135 -94 -135 -176q0 -72 88 -72q43 0 49 2v-133q-24 -6 -71 -6q-128 0 -186 43t-58 127z" />
<glyph d="M-315 1516h143q0 -107 39.5 -156t132.5 -49q94 0 133 49t39 156h143q0 -164 -77.5 -246t-237.5 -82q-315 0 -315 328z" />
<glyph d="M-80 1210l146 371h208l-194 -371h-160z" />
<glyph d="M-160 -209q0 109 140 209h157q-127 -94 -127 -174q0 -70 86 -70q19 0 51 4v-129q-40 -4 -71 -4q-125 0 -180.5 41t-55.5 123z" />
<glyph d="M-113 1176l54 329h176l-90 -329h-140z" />
<glyph d="M-342 1585q0 281 192 281q53 0 94 -19.5t93 -70.5q66 -66 102 -66q66 0 66 150h135q0 -281 -193 -281q-55 0 -94 19t-92 71l-5 5q-18 18 -29 28t-31 21.5t-37 11.5q-66 0 -66 -150h-135z" />
<glyph d="M-330 1880h154q2 -80 42.5 -118t133.5 -38q94 0 134 38.5t42 117.5h154q0 -289 -330 -289t-330 289z" />
<glyph d="M-119 1018l148 444h209l-197 -444h-160z" />
<glyph d="M-193 -221q0 106 142 211l157 -2q-126 -92 -126 -172q0 -70 86 -70q35 0 51 2v-127q-30 -6 -72 -6q-126 0 -182 41t-56 123z" />
<glyph horiz-adv-x="1757" d="M139 1583l240 281h237l-286 -281h-191zM160 0v1462h205v-1462h-205zM580 446h206q20 -151 92.5 -228t225.5 -77q160 0 231.5 91t71.5 268v962h205v-975q0 -258 -132.5 -391t-371.5 -133q-237 0 -372 119.5t-156 363.5zM1386 1583l240 281h238l-287 -281h-191z" />
<glyph horiz-adv-x="944" d="M121 1210l235 297h234l-281 -297h-188zM139 0v1061h195v-1061h-195zM336 -387l33 151q77 -20 116 -20q66 0 95.5 35.5t29.5 118.5v1163h195v-1157q0 -157 -71 -240.5t-234 -83.5q-62 0 -164 33zM592 1210l235 297h234l-281 -297h-188z" />
</font>
</defs>
</svg>
