<?xml version="1.0" standalone="no"?>
<!DOCTYPE svg PUBLIC "-//W3C//DTD SVG 1.1//EN" "http://www.w3.org/Graphics/SVG/1.1/DTD/svg11.dtd" >
<svg xmlns="http://www.w3.org/2000/svg" xmlns:xlink="http://www.w3.org/1999/xlink" version="1.1">
<metadata></metadata>
<defs>
<font id="better_togetherlight" horiz-adv-x="0" >
<font-face units-per-em="2048" ascent="1638" descent="-410" />
<missing-glyph horiz-adv-x="458" />
<glyph unicode="&#xd;" horiz-adv-x="458" />
<glyph unicode=" "  horiz-adv-x="458" />
<glyph unicode="&#x09;" horiz-adv-x="458" />
<glyph unicode="&#xa0;" horiz-adv-x="458" />
<glyph unicode="!" horiz-adv-x="436" d="M139 74q0 38 22 60t60 22t60 -22t22 -60t-22 -60t-60 -22t-60 22t-22 60zM158 1462h123l-5 -1067h-114z" />
<glyph unicode="&#x22;" horiz-adv-x="606" d="M86 1456h123l-10 -493h-105zM397 1456h123l-10 -493h-104z" />
<glyph unicode="#" horiz-adv-x="1212" d="M35 379v92h235l76 461h-229v92h245l60 365h113l-62 -365h381l59 365h113l-61 -365h217v-92h-232l-78 -461h226v-92h-240l-63 -379h-111l64 379h-381l-64 -379h-110l63 379h-221zM381 471h381l76 461h-379z" />
<glyph unicode="$" horiz-adv-x="1212" d="M94 369h117q19 -138 107 -214t237 -85v606l-43 8q-196 33 -288.5 124t-92.5 265q0 168 113 268t311 111v162h94v-162q178 -9 281.5 -98t140.5 -262l-115 -21q-37 139 -108.5 204.5t-198.5 74.5v-576l51 -8q195 -33 289 -127t94 -272q0 -184 -114.5 -287.5t-319.5 -112.5 v-188h-94v188q-206 10 -326 115.5t-135 286.5zM250 1075q0 -123 66.5 -189t230.5 -93l8 -2v559q-144 -8 -224.5 -75t-80.5 -200zM649 70q312 19 312 297q0 125 -68 194t-215 94l-29 4v-589z" />
<glyph unicode="%" horiz-adv-x="1835" d="M82 1014q0 213 92 326.5t252 113.5t252 -113t92 -327q0 -216 -90.5 -327.5t-253.5 -111.5q-158 0 -251 112.5t-93 326.5zM197 1014q0 -338 229 -338q112 0 171.5 85.5t59.5 252.5t-60 253.5t-171 86.5q-113 0 -171 -86t-58 -254zM500 0l723 1415h118l-720 -1415h-121z M1065 408q0 213 92 326.5t252 113.5t252 -113t92 -327q0 -216 -90.5 -327.5t-253.5 -111.5q-158 0 -251 112.5t-93 326.5zM1180 408q0 -338 229 -338q112 0 171.5 85.5t59.5 252.5t-60 253.5t-171 86.5q-113 0 -171 -86t-58 -254z" />
<glyph unicode="&#x26;" horiz-adv-x="1277" d="M80 375q0 149 86 253.5t254 194.5q-81 98 -122.5 177.5t-41.5 168.5q0 130 89.5 213.5t229.5 83.5q148 0 230 -79t82 -207q0 -68 -23 -124.5t-70 -102.5t-94 -78t-120 -72l411 -481q66 141 66 356h112q0 -265 -104 -442l203 -236h-144l-125 145q-154 -178 -428 -178 q-231 0 -361 104t-130 304zM205 389q0 -154 93.5 -237.5t285.5 -83.5q225 0 348 155l-451 527q-66 -37 -112 -70.5t-85.5 -77t-59 -96.5t-19.5 -117zM371 1167q0 -76 39 -145.5t108 -149.5q59 32 97.5 57t80 62t62 83t20.5 100q0 95 -53 146.5t-147 51.5q-97 0 -152 -54 t-55 -151z" />
<glyph unicode="'" horiz-adv-x="294" d="M86 1456h123l-10 -493h-105z" />
<glyph unicode="(" horiz-adv-x="495" d="M119 625q0 504 233 878h113q-219 -397 -219 -878q0 -482 219 -879h-113q-233 374 -233 879z" />
<glyph unicode=")" horiz-adv-x="495" d="M31 -254q219 392 219 879q0 486 -219 878h114q232 -368 232 -878q0 -511 -232 -879h-114z" />
<glyph unicode="*" horiz-adv-x="751" d="M66 1198l43 98l229 -106l-19 272h115l-18 -272l229 106l41 -98l-248 -84l183 -217l-89 -68l-155 232l-156 -232l-90 68l182 217z" />
<glyph unicode="+" horiz-adv-x="1212" d="M139 643v107h412v440h111v-440h411v-107h-411v-440h-111v440h-412z" />
<glyph unicode="," horiz-adv-x="403" d="M98 -188l64 413h127l-92 -413h-99z" />
<glyph unicode="-" horiz-adv-x="796" d="M100 537v116h596v-116h-596z" />
<glyph unicode="." horiz-adv-x="401" d="M119 74q0 38 22 60t60 22t60 -22t22 -60t-22 -60t-60 -22t-60 22t-22 60z" />
<glyph unicode="/" horiz-adv-x="626" d="M23 0l460 1503h125l-463 -1503h-122z" />
<glyph unicode="0" horiz-adv-x="1212" d="M96 707q0 369 134 558t378 189q247 0 376.5 -187t129.5 -558q0 -370 -131.5 -558t-378.5 -188t-377.5 187t-130.5 557zM225 707q0 -635 381 -635t381 635q0 636 -381 636t-381 -636z" />
<glyph unicode="1" horiz-adv-x="1003" d="M127 1167l416 248h112v-1415h-123v1282l-352 -207z" />
<glyph unicode="2" horiz-adv-x="1212" d="M150 1075q43 181 159 280t312 99q202 0 317 -111t115 -296q0 -60 -15.5 -120.5t-37.5 -110t-61.5 -105.5t-72.5 -96t-86.5 -92.5t-87 -83.5t-89.5 -80q-11 -10 -17 -15q-27 -23 -264 -233h743v-111h-911v102q28 25 333 299q9 8 28 25q47 42 71.5 64.5t70 65.5t71 72.5 t61.5 72.5t56.5 79.5t41.5 79.5t30 87t9 89q0 147 -81 227t-227 80q-149 0 -231 -68.5t-123 -217.5z" />
<glyph unicode="3" horiz-adv-x="1212" d="M127 377h119q18 -153 106 -230t256 -77q166 0 253 81.5t87 235.5q0 148 -82 222.5t-231 74.5h-176v109h178q130 0 205.5 75.5t75.5 208.5q0 128 -80.5 198.5t-231.5 70.5q-148 0 -231.5 -66.5t-120.5 -206.5l-115 21q37 174 157 267t314 93q205 0 317.5 -99.5 t112.5 -264.5q0 -243 -213 -340q244 -85 244 -361q0 -91 -27.5 -167t-82 -134.5t-144 -91.5t-205.5 -33q-123 0 -217.5 34t-150.5 93t-85 131t-32 156z" />
<glyph unicode="4" horiz-adv-x="1212" d="M94 373v94l694 948h121v-942h203v-100h-203v-373h-118v373h-697zM221 473h570v780z" />
<glyph unicode="5" horiz-adv-x="1212" d="M145 350h117q43 -280 352 -280q162 0 253 95t91 277q0 168 -91 262.5t-257 94.5q-202 0 -327 -137h-107l57 753h746v-110h-643l-41 -521q135 117 338 117q208 0 327 -125t119 -334q0 -230 -124.5 -354.5t-338.5 -124.5q-210 0 -332 99.5t-139 287.5z" />
<glyph unicode="6" horiz-adv-x="1222" d="M137 440q0 135 44 248.5t128 247.5l322 512h131l-373 -592q109 64 242 64q213 0 343 -132t130 -346q0 -142 -63.5 -252t-172.5 -168.5t-245 -58.5q-217 0 -351.5 132.5t-134.5 344.5zM256 449q0 -172 100 -276.5t267 -104.5q154 0 258 101t104 271q0 164 -102 270.5 t-271 106.5q-161 0 -258.5 -102.5t-97.5 -265.5z" />
<glyph unicode="7" horiz-adv-x="1155" d="M86 1305v110h944v-104q-350 -650 -528 -1311h-133q105 359 230.5 672t297.5 633h-811z" />
<glyph unicode="8" horiz-adv-x="1212" d="M94 371q0 134 84.5 226.5t208.5 123.5q-111 34 -179.5 122.5t-68.5 221.5q0 182 126 285.5t341 103.5q223 0 345 -106t122 -283q0 -129 -67.5 -217t-182.5 -121q130 -30 212.5 -125t82.5 -231q0 -190 -133 -299t-379 -109q-248 0 -380 108.5t-132 299.5zM217 371 q0 -142 101 -223.5t290 -81.5q187 0 287 81.5t100 223.5q0 140 -97 218.5t-290 78.5q-194 0 -292.5 -79t-98.5 -218zM258 1061q0 -139 89.5 -214t258.5 -75t258.5 75.5t89.5 215.5q0 130 -90 210.5t-258 80.5q-166 0 -257 -81t-91 -212z" />
<glyph unicode="9" horiz-adv-x="1210" d="M111 989q0 216 139 347.5t358 131.5q206 0 337.5 -133.5t131.5 -343.5q0 -135 -44 -249.5t-128 -247.5l-321 -494h-131l370 573q-109 -61 -239 -61q-213 0 -343 131.5t-130 345.5zM229 991q0 -164 102 -270.5t271 -106.5q161 0 258.5 103t97.5 266q0 170 -98 275.5 t-252 105.5q-165 0 -272 -101t-107 -272z" />
<glyph unicode=":" horiz-adv-x="403" d="M119 74q0 38 22 60t60 22t60 -22t22 -60t-22 -60t-60 -22t-60 22t-22 60zM119 893q0 38 22 60t60 22t60 -22t22 -60t-22 -60t-60 -22t-60 22t-22 60z" />
<glyph unicode=";" horiz-adv-x="403" d="M84 -188l63 413h127l-92 -413h-98zM119 1260q0 38 22 59.5t60 21.5t60 -21.5t22 -59.5t-22 -60t-60 -22t-60 22t-22 60z" />
<glyph unicode="&#x3c;" horiz-adv-x="1212" d="M158 647v92l909 445v-117l-770 -371l770 -372v-119z" />
<glyph unicode="=" horiz-adv-x="1212" d="M166 414v108h881v-108h-881zM166 872v109h881v-109h-881z" />
<glyph unicode="&#x3e;" horiz-adv-x="1212" d="M145 205v117l766 370l-766 373v119l910 -443v-92z" />
<glyph unicode="?" horiz-adv-x="1015" d="M55 1118q31 171 140.5 269t304.5 98q194 0 304.5 -104t110.5 -275q0 -108 -41 -190t-122 -160q-117 -112 -160 -179t-43 -159v-25h-121v23q0 70 18 123q17 53 62.5 112t140.5 154q72 72 107 137.5t35 151.5q0 133 -77 208.5t-214 75.5q-142 0 -219.5 -65.5t-114.5 -212.5 zM406 74q0 38 21.5 60t59.5 22t60 -22t22 -60t-22 -60t-60 -22t-59.5 22t-21.5 60z" />
<glyph unicode="@" horiz-adv-x="1949" d="M94 385q0 180 49.5 337.5t137 274.5t204.5 201.5t255 127t286 42.5q239 0 428 -88.5t300.5 -262.5t111.5 -409q0 -116 -28.5 -222t-83 -190t-141 -134t-194.5 -50q-85 0 -147.5 40t-75.5 116q-104 -168 -303 -168q-159 0 -262 110t-103 277q0 231 119 375.5t320 144.5 q101 0 184 -48.5t123 -137.5l24 164h111l-109 -633q-4 -28 -4 -35q0 -56 33 -86.5t96 -30.5q150 0 242 141.5t92 358.5q0 311 -200.5 491.5t-534.5 180.5q-172 0 -322.5 -63.5t-260 -177.5t-173 -280.5t-63.5 -363.5q0 -222 97 -387t269.5 -251.5t397.5 -86.5 q191 0 313.5 51.5t214.5 163.5h119q-96 -155 -255.5 -234t-399.5 -79q-185 0 -344 57.5t-275 162t-182 259.5t-66 342zM647 391q0 -138 70 -216.5t180 -78.5q143 0 225.5 93.5t98.5 244.5l6 70q12 133 -57 221t-199 88q-147 0 -235.5 -114t-88.5 -308z" />
<glyph unicode="A" horiz-adv-x="1347" d="M35 0l573 1462h133l572 -1462h-139l-166 440h-672l-168 -440h-133zM377 553h590l-297 772z" />
<glyph unicode="B" horiz-adv-x="1296" d="M168 0v1462h518q223 0 348 -88.5t125 -277.5q0 -116 -58.5 -200t-174.5 -124q141 -37 209.5 -131t68.5 -233q0 -200 -127.5 -304t-365.5 -104h-543zM293 106h412q195 0 283.5 76t88.5 226q0 147 -88.5 225t-265.5 78h-430v-605zM293 819h418q161 0 242 70.5t81 202.5 q0 136 -84.5 200t-269.5 64h-387v-537z" />
<glyph unicode="C" horiz-adv-x="1482" d="M115 729q0 228 75 401t223 271t351 98q240 0 396.5 -120.5t205.5 -354.5l-123 -20q-40 185 -161.5 285t-317.5 100q-242 0 -380 -175t-138 -483q0 -304 145 -479.5t385 -175.5q206 0 327 106t146 295h129q-24 -229 -182 -370.5t-424 -141.5q-304 0 -480.5 208t-176.5 556 z" />
<glyph unicode="D" horiz-adv-x="1437" d="M168 0v1462h432q348 0 536.5 -185.5t188.5 -539.5q0 -361 -199.5 -549t-568.5 -188h-389zM295 111h268q314 0 471.5 160t157.5 462t-147.5 460.5t-444.5 158.5h-305v-1241z" />
<glyph unicode="E" horiz-adv-x="1198" d="M168 0v1462h922v-112h-795v-539h754v-115h-754v-583h813v-113h-940z" />
<glyph unicode="F" horiz-adv-x="1132" d="M168 0v1462h876v-112h-749v-557h704v-117h-704v-676h-127z" />
<glyph unicode="G" horiz-adv-x="1478" d="M104 727q0 354 176.5 563t479.5 209q228 0 383.5 -108.5t191.5 -298.5l-121 -21q-31 148 -151.5 233t-304.5 85q-165 0 -284 -83.5t-178.5 -231.5t-59.5 -345q0 -320 140.5 -486.5t387.5 -166.5q153 0 262 68.5t161 181.5t52 256v26h-428v113h555v-146 q0 -174 -71.5 -311.5t-209.5 -218t-321 -80.5q-305 0 -482.5 203.5t-177.5 558.5z" />
<glyph unicode="H" horiz-adv-x="1439" d="M170 0v1462h127v-645h846v645h127v-1462h-127v696h-846v-696h-127z" />
<glyph unicode="I" horiz-adv-x="460" d="M168 0v1462h127v-1462h-127z" />
<glyph unicode="J" horiz-adv-x="1193" d="M57 424h127q26 -173 115 -260.5t258 -87.5q182 0 268 103.5t86 305.5v977h127v-987q0 -249 -124.5 -379.5t-352.5 -130.5q-222 0 -351.5 115.5t-152.5 343.5z" />
<glyph unicode="K" horiz-adv-x="1306" d="M168 0v1462h127v-788l774 788h148l-650 -665l705 -797h-148l-639 715l-190 -189v-526h-127z" />
<glyph unicode="L" horiz-adv-x="1138" d="M168 0v1462h127v-1347h792v-115h-919z" />
<glyph unicode="M" horiz-adv-x="1703" d="M170 0v1462h156l528 -1308l530 1308h152v-1462h-117v1255l-516 -1255h-106l-512 1260v-1260h-115z" />
<glyph unicode="N" horiz-adv-x="1449" d="M166 0v1462h127l868 -1261v1261h123v-1462h-127l-868 1253v-1253h-123z" />
<glyph unicode="O" horiz-adv-x="1581" d="M117 731q0 163 44.5 302.5t128.5 243.5t213.5 163t289.5 59q307 0 490 -207t183 -557q0 -230 -79.5 -403.5t-232.5 -270t-361 -96.5t-362 97t-234 270t-80 399zM248 731q0 -195 60 -341t184 -230t301 -84q173 0 296.5 84t184.5 230.5t61 340.5q0 302 -141 480t-401 178 q-176 0 -300.5 -84.5t-184.5 -231t-60 -342.5z" />
<glyph unicode="P" horiz-adv-x="1257" d="M168 0v1462h465q260 0 396 -115.5t136 -330.5q0 -223 -137.5 -344t-396.5 -121h-338v-551h-125zM293 659h336q409 0 409 353q0 342 -411 342h-334v-695z" />
<glyph unicode="Q" horiz-adv-x="1581" d="M117 731q0 163 44.5 302.5t128.5 243.5t213.5 163t289.5 59q306 0 489.5 -208t183.5 -556q0 -195 -61 -352.5t-168 -251.5l178 -213h-141l-123 148q-143 -101 -358 -101q-208 0 -362 97t-234 270t-80 399zM248 731q0 -195 62.5 -341.5t186.5 -230t296 -83.5q169 0 284 80 l-196 239h139l139 -168q82 88 129 217t47 287q0 299 -144.5 478.5t-397.5 179.5q-256 0 -400.5 -181t-144.5 -477z" />
<glyph unicode="R" horiz-adv-x="1277" d="M168 0v1462h487q238 0 368 -99t130 -304q0 -177 -87 -284t-245 -142l363 -633h-142l-348 616q-14 -2 -45 -2h-356v-614h-125zM293 727h369q362 0 362 328q0 155 -87.5 227t-287.5 72h-356v-627z" />
<glyph unicode="S" horiz-adv-x="1282" d="M88 385h125q27 -157 130.5 -234t299.5 -77q185 0 291 79t106 234q0 127 -72 195t-243 94l-176 26q-426 67 -426 400q0 181 138.5 289t367.5 108q236 0 368.5 -94t161.5 -264l-117 -19q-31 138 -132 203.5t-279 65.5t-279.5 -70t-101.5 -213q0 -125 74.5 -192.5 t236.5 -92.5l187 -28q222 -32 324 -129t102 -281q0 -132 -69 -228t-188 -144t-274 -48q-247 0 -389.5 107.5t-165.5 312.5z" />
<glyph unicode="T" horiz-adv-x="1204" d="M39 1348v114h1126v-114h-501v-1348h-125v1348h-500z" />
<glyph unicode="U" horiz-adv-x="1392" d="M141 580v882h125v-889q0 -243 109.5 -370t320.5 -127t320.5 127t109.5 370v889h125v-884q0 -286 -148.5 -449.5t-406.5 -163.5q-259 0 -407 164t-148 451z" />
<glyph unicode="V" horiz-adv-x="1316" d="M37 1462h141l481 -1302l486 1302h135l-555 -1462h-131z" />
<glyph unicode="W" horiz-adv-x="1851" d="M41 1462h141l334 -1286l346 1280h137l344 -1282l334 1288h133l-399 -1462h-135l-352 1298l-344 -1298h-134z" />
<glyph unicode="X" horiz-adv-x="1271" d="M31 0l524 770l-485 692h149l412 -602l420 602h135l-481 -696l536 -766h-147l-467 672l-457 -672h-139z" />
<glyph unicode="Y" horiz-adv-x="1204" d="M37 1462h145l422 -723l430 723h133l-497 -835v-627h-127v625z" />
<glyph unicode="Z" horiz-adv-x="1193" d="M74 0v100l884 1250h-870v112h1020v-100l-885 -1247h903v-115h-1052z" />
<glyph unicode="[" horiz-adv-x="552" d="M158 -254v1757h370v-104h-247v-1549h247v-104h-370z" />
<glyph unicode="\" horiz-adv-x="626" d="M23 1503h120l465 -1503h-125z" />
<glyph unicode="]" horiz-adv-x="552" d="M25 -150h247v1549h-247v104h370v-1757h-370v104z" />
<glyph unicode="^" horiz-adv-x="1212" d="M133 643l422 819h102l420 -819h-127l-346 688l-346 -688h-125z" />
<glyph unicode="_" horiz-adv-x="1024" d="M0 -252h1024v-78h-1024v78z" />
<glyph unicode="`" horiz-adv-x="1142" d="M575 1495h150l227 -283h-121z" />
<glyph unicode="a" horiz-adv-x="1077" d="M80 287q0 156 111 235.5t311 81.5l319 4v90q0 156 -69 223.5t-224 67.5q-256 0 -297 -190l-108 16q23 120 131 195t281 75q210 0 307.5 -97t97.5 -294v-694h-117v170q-48 -88 -148 -141.5t-229 -53.5q-170 0 -268 81t-98 231zM201 289q0 -100 66 -156.5t194 -56.5 q162 0 261 87t99 232v125l-309 -6q-147 -2 -229 -53.5t-82 -171.5z" />
<glyph unicode="b" horiz-adv-x="1230" d="M143 0v1462h119v-600q128 223 397 223q217 0 343 -146.5t126 -408.5q0 -256 -133.5 -409.5t-351.5 -153.5q-263 0 -381 205v-172h-119zM260 487q0 -205 99 -311t270 -106q177 0 274.5 123.5t97.5 336.5q0 202 -94.5 328.5t-263.5 126.5q-168 0 -275.5 -109.5 t-107.5 -297.5v-91z" />
<glyph unicode="c" horiz-adv-x="1175" d="M102 520q0 260 141 412.5t371 152.5q181 0 307 -92t152 -256l-119 -18q-22 122 -115 194t-231 72q-177 0 -278 -124.5t-101 -336.5q0 -207 103 -330.5t284 -123.5q142 0 232.5 76t112.5 206h118q-25 -178 -149 -281.5t-316 -103.5q-109 0 -202.5 38t-162.5 108t-108 175 t-39 232z" />
<glyph unicode="d" horiz-adv-x="1232" d="M102 524q0 258 134.5 409.5t355.5 151.5q116 0 216.5 -49.5t160.5 -150.5v577h118v-1462h-116v190q-65 -107 -167 -165t-231 -58q-216 0 -343.5 151t-127.5 406zM227 526q0 -205 97.5 -330.5t267.5 -125.5q172 0 276.5 109t104.5 300v90q0 202 -99 309t-268 107 q-177 0 -278 -123.5t-101 -335.5z" />
<glyph unicode="e" horiz-adv-x="1175" d="M102 520q0 265 140 415t364 150q222 0 345.5 -138t123.5 -384v-67h-852q7 -202 111.5 -316t271.5 -114q135 0 220.5 55t113.5 155h117q-32 -142 -153.5 -225.5t-297.5 -83.5q-227 0 -365.5 148.5t-138.5 404.5zM225 590h731q-8 190 -93 295.5t-257 105.5 q-173 0 -269.5 -103t-111.5 -298z" />
<glyph unicode="f" horiz-adv-x="655" d="M39 954v99h164v108q0 152 83.5 235t223.5 83q89 0 160 -25l-21 -94q-54 16 -123 16q-202 0 -202 -211v-112h292v-99h-292v-954h-121v954h-164z" />
<glyph unicode="g" horiz-adv-x="1232" d="M102 551q0 243 139 388.5t361 145.5q114 0 214 -47.5t155 -138.5v154h116v-987q0 -235 -119.5 -360.5t-365.5 -125.5q-413 0 -452 305h116q22 -106 104.5 -156.5t231.5 -50.5q367 0 367 373v166q-53 -94 -151.5 -146.5t-225.5 -52.5q-222 0 -356 146.5t-134 386.5z M229 553q0 -194 100 -313t271 -119q175 0 274 109.5t99 285.5v68q0 187 -92.5 294t-264.5 107t-279.5 -111.5t-107.5 -320.5z" />
<glyph unicode="h" horiz-adv-x="1177" d="M143 0v1462h119v-547q69 82 166.5 126t212.5 44q186 0 296 -99t110 -284v-702h-119v680q0 152 -80.5 226.5t-220.5 74.5q-163 0 -275 -115q-51 -47 -70.5 -97t-19.5 -132v-637h-119z" />
<glyph unicode="i" horiz-adv-x="409" d="M121 1348q0 40 23 62t63 22t62 -22t22 -62q0 -41 -22 -63.5t-62 -22.5t-63 22.5t-23 63.5zM145 0v1053h121v-1053h-121z" />
<glyph unicode="j" horiz-adv-x="409" d="M-123 -391l23 96q54 -20 100 -20q73 0 109 43t36 149v1176h121v-1162q0 -157 -65 -234t-203 -77q-57 0 -121 29zM117 1348q0 40 23 62t63 22t62 -22t22 -62q0 -41 -22 -63.5t-62 -22.5t-63 22.5t-23 63.5z" />
<glyph unicode="k" horiz-adv-x="1030" d="M143 0v1462h119v-917l561 508h152l-475 -432l518 -621h-152l-444 547l-160 -141v-406h-119z" />
<glyph unicode="l" horiz-adv-x="409" d="M145 0v1462h121v-1462h-121z" />
<glyph unicode="m" horiz-adv-x="1787" d="M143 0v1053h119v-138q65 83 156 126.5t186 43.5q117 0 201 -49t123 -145q65 93 163 143.5t205 50.5q165 0 259 -89.5t94 -268.5v-727h-119v700q0 281 -258 281q-78 0 -143 -36.5t-109 -90.5q-62 -65 -62 -192v-662h-120v700q0 144 -69.5 212.5t-188.5 68.5 q-150 0 -252 -133q-66 -74 -66 -207v-641h-119z" />
<glyph unicode="n" horiz-adv-x="1171" d="M143 0v1053h119v-152q71 91 172 137.5t217 46.5q186 0 284.5 -97.5t98.5 -285.5v-702h-119v680q0 301 -288 301q-94 0 -168.5 -37.5t-122.5 -97.5q-38 -40 -56 -87.5t-18 -121.5v-637h-119z" />
<glyph unicode="o" horiz-adv-x="1226" d="M102 524q0 260 141.5 410.5t372.5 150.5q232 0 370 -148.5t138 -408.5q0 -258 -139.5 -409.5t-372.5 -151.5q-234 0 -372 149.5t-138 407.5zM229 528q0 -213 100.5 -335.5t284.5 -122.5q182 0 283.5 120.5t101.5 337.5q0 213 -100.5 335t-284.5 122t-284.5 -122.5 t-100.5 -334.5z" />
<glyph unicode="p" horiz-adv-x="1230" d="M143 -397v1450h119v-191q65 109 166 166t231 57q217 0 343 -146.5t126 -408.5q0 -256 -133.5 -409.5t-351.5 -153.5q-119 0 -220.5 52.5t-160.5 154.5v-571h-119zM260 487q0 -197 97 -307t272 -110q177 0 274.5 123.5t97.5 336.5q0 202 -94.5 328.5t-263.5 126.5 q-175 0 -279 -112.5t-104 -294.5v-91z" />
<glyph unicode="q" horiz-adv-x="1230" d="M102 524q0 260 133 410.5t353 150.5q126 0 226 -47.5t155 -146.5v162h116v-1450h-118v577q-56 -102 -157.5 -157.5t-238.5 -55.5q-217 0 -343 150.5t-126 406.5zM227 526q0 -204 95.5 -330t265.5 -126q172 0 277.5 109.5t105.5 299.5v90q0 202 -100 309t-269 107 q-176 0 -275.5 -123.5t-99.5 -335.5z" />
<glyph unicode="r" horiz-adv-x="716" d="M143 0v1053h119v-168q56 91 142 138.5t186 47.5q53 0 86 -8l-12 -113q-33 8 -80 8q-146 0 -250 -118q-72 -84 -72 -222v-618h-119z" />
<glyph unicode="s" horiz-adv-x="1046" d="M88 293h115q20 -119 101 -173t231 -54q147 0 218.5 54t71.5 154q0 91 -57.5 139t-189.5 68l-111 17q-176 26 -263 94.5t-87 198.5q0 137 108 215.5t291 78.5q356 0 410 -274l-109 -18q-23 98 -96.5 146t-202.5 48q-148 0 -217.5 -50.5t-69.5 -139.5q0 -80 54 -123 t184 -68l123 -20q189 -34 272.5 -102t83.5 -208q0 -141 -106 -225t-303 -84t-317.5 79.5t-133.5 246.5z" />
<glyph unicode="t" horiz-adv-x="684" d="M39 954v99h162v293h121v-293h311v-99h-311v-678q0 -102 40 -149t121 -47q76 0 150 24l18 -96q-79 -31 -172 -31q-278 0 -278 318v659h-162z" />
<glyph unicode="u" horiz-adv-x="1140" d="M137 360v693h119v-670q0 -159 76.5 -235t214.5 -76q154 0 250 108q52 52 68 100.5t16 135.5v637h118v-1053h-116v154q-62 -90 -158 -138.5t-205 -48.5q-181 0 -282 100.5t-101 292.5z" />
<glyph unicode="v" horiz-adv-x="1019" d="M16 1053h138l358 -922l362 922h130l-431 -1053h-127z" />
<glyph unicode="w" horiz-adv-x="1454" d="M20 1053h130l247 -912l273 908h123l268 -906l246 910h125l-308 -1053h-129l-268 911l-270 -911h-129z" />
<glyph unicode="x" horiz-adv-x="983" d="M23 0l397 555l-363 498h140l295 -414l301 414h129l-359 -496l400 -557h-140l-336 473l-333 -473h-131z" />
<glyph unicode="y" horiz-adv-x="1019" d="M16 1053h138l376 -901l344 901h130l-445 -1116l-139 -357h-125l174 440z" />
<glyph unicode="z" horiz-adv-x="931" d="M59 0v88l650 866h-637v99h784v-90l-649 -865h682v-98h-830z" />
<glyph unicode="{" horiz-adv-x="563" d="M57 573v103h11q139 0 139 149v455q0 223 217 223h121v-102h-109q-112 0 -112 -119v-479q0 -143 -109 -178q53 -15 81 -61.5t28 -117.5v-479q0 -119 112 -119h109v-102h-121q-217 0 -217 223v455q0 149 -139 149h-11z" />
<glyph unicode="|" horiz-adv-x="436" d="M160 -254v1757h116v-1757h-116z" />
<glyph unicode="}" horiz-adv-x="563" d="M18 -152h111q54 0 83.5 30.5t29.5 88.5v479q0 150 108 179q-108 34 -108 178v479q0 58 -29.5 88.5t-83.5 30.5h-111v102h121q219 0 219 -223v-455q0 -149 138 -149h10v-103h-10q-138 0 -138 -149v-455q0 -223 -219 -223h-121v102z" />
<glyph unicode="~" horiz-adv-x="1212" d="M109 537q0 167 69.5 246t194.5 79q58 0 115.5 -28.5t140.5 -96.5q71 -61 117 -87.5t92 -26.5q157 0 157 217h107q0 -168 -69 -249t-193 -81q-56 0 -115.5 30.5t-138.5 98.5q-74 64 -120 88.5t-89 24.5q-81 0 -119.5 -53t-38.5 -162h-110z" />
<glyph unicode="&#xa1;" horiz-adv-x="436" d="M154 834v221h131v-221h-131zM158 -406l4 1063h114l5 -1063h-123z" />
<glyph unicode="&#xa2;" horiz-adv-x="1212" d="M147 698q0 244 119 394.5t324 169.5v172h92v-172q157 -8 255.5 -93.5t131.5 -246.5l-117 -23q-56 244 -270 260v-907q236 22 283 278h120q-28 -172 -128.5 -269t-274.5 -109v-170h-92v170q-215 13 -329 156.5t-114 389.5zM272 702q0 -199 82.5 -316t235.5 -134v907 q-155 -17 -236.5 -134t-81.5 -323z" />
<glyph unicode="&#xa3;" horiz-adv-x="1212" d="M143 655v101h138q-25 217 -25 256q0 204 114 323t314 119q168 0 265.5 -77t133.5 -244l-106 -23q-36 129 -101.5 184.5t-187.5 55.5q-155 0 -235 -89t-80 -245q0 -101 24 -260h482v-101h-465q8 -71 8 -147q0 -255 -109 -399h799v-109h-928v100q123 143 123 389 q0 48 -12 166h-152z" />
<glyph unicode="&#xa4;" horiz-adv-x="1212" d="M139 256l117 123q-98 131 -98 328q0 201 98 329l-115 127l76 74l115 -127q113 86 274 86t271 -84l116 125l76 -74l-117 -125q99 -129 99 -327q0 -200 -99 -332l117 -123l-76 -74l-116 123q-114 -82 -279 -82q-158 0 -266 82l-115 -123zM268 709q0 -179 86 -283t248 -104 q166 0 251 103.5t85 283.5q0 182 -85 285.5t-251 103.5q-164 0 -249 -104t-85 -285z" />
<glyph unicode="&#xa5;" horiz-adv-x="1212" d="M66 1415h133l411 -696l414 696h125l-387 -639h301v-94h-358l-35 -59v-179h393v-94h-393v-350h-121v350h-385v94h385v179l-37 59h-348v94h291z" />
<glyph unicode="&#xa6;" horiz-adv-x="436" d="M160 -254v717h116v-717h-116zM160 807v696h116v-696h-116z" />
<glyph unicode="&#xa7;" horiz-adv-x="1044" d="M90 88h115q22 -123 102 -178t234 -55t223.5 52t69.5 154q0 81 -48.5 133.5t-169.5 84.5l-190 47q-164 43 -246 116t-82 207q0 103 60.5 177.5t165.5 105.5q-109 39 -163.5 103.5t-54.5 164.5q0 143 111 221t305 78q174 0 279.5 -64t142.5 -210l-108 -27 q-33 105 -103.5 152t-208.5 47q-157 0 -228 -50.5t-71 -148.5q0 -75 49.5 -125.5t169.5 -81.5l191 -49q166 -42 244.5 -116.5t78.5 -196.5q0 -106 -59 -182t-164 -105q215 -80 215 -281q0 -156 -109 -232.5t-298 -76.5q-422 0 -453 336zM209 653q0 -84 54 -139t183 -92 l70 -16q47 -13 90 -13q102 0 171 63t69 160q0 86 -55.5 141.5t-182.5 86.5l-82 22q-50 13 -84 13q-106 0 -169.5 -63t-63.5 -163z" />
<glyph unicode="&#xa8;" horiz-adv-x="1142" d="M569 1348q0 40 22.5 62t63.5 22q40 0 62 -22t22 -62q0 -41 -22 -63.5t-62 -22.5q-41 0 -63.5 22.5t-22.5 63.5zM905 1348q0 40 22.5 62t63.5 22q40 0 62 -22t22 -62q0 -41 -22 -63.5t-62 -22.5q-41 0 -63.5 22.5t-22.5 63.5z" />
<glyph unicode="&#xa9;" horiz-adv-x="1613" d="M88 731q0 159 56.5 296.5t153.5 232t229 148.5t280 54q209 0 371.5 -90t254 -256.5t91.5 -384.5q0 -159 -56.5 -296.5t-153 -232t-228 -148.5t-279.5 -54q-155 0 -288.5 53t-228 147.5t-148.5 231.5t-54 299zM193 731q0 -283 173 -460t441 -177q129 0 242 47t194.5 130 t128.5 202t47 258q0 141 -46.5 260.5t-127.5 201t-194 127.5t-244 46q-174 0 -313.5 -79.5t-220 -225t-80.5 -330.5zM426 727q0 189 110 304.5t285 115.5q133 0 224 -72.5t116 -195.5l-102 -19q-20 92 -84 142.5t-158 50.5q-129 0 -203.5 -88.5t-74.5 -233.5q0 -149 74 -236 t202 -87q95 0 164 51.5t84 142.5h104q-20 -134 -114 -210.5t-238 -76.5q-176 0 -282.5 112t-106.5 300z" />
<glyph unicode="&#xaa;" horiz-adv-x="856" d="M90 913q0 241 326 244l219 2v51q0 109 -49.5 159t-157.5 50q-96 0 -147 -32.5t-70 -98.5l-90 10q22 97 100.5 149t208.5 52q159 0 231 -72t72 -217v-510h-96v111q-96 -127 -272 -127q-121 0 -198 61t-77 168zM195 915q0 -69 48 -108t134 -39q131 0 207 82q51 54 51 141 v92l-203 -2q-59 0 -99.5 -7t-73.5 -24.5t-48.5 -51t-15.5 -83.5z" />
<glyph unicode="&#xab;" horiz-adv-x="962" d="M86 526l289 455h123l-275 -453l275 -460h-125zM414 526l288 455h123l-274 -453l274 -460h-125z" />
<glyph unicode="&#xac;" horiz-adv-x="1212" d="M133 766v108h911v-538h-110v430h-801z" />
<glyph unicode="&#xad;" horiz-adv-x="796" d="M100 537v116h596v-116h-596z" />
<glyph unicode="&#xae;" horiz-adv-x="976" d="M74 1059q0 193 116.5 312.5t296.5 119.5q189 0 301.5 -117t112.5 -315q0 -190 -115 -311t-299 -121q-187 0 -300 117.5t-113 314.5zM152 1059q0 -167 91 -264t242 -97t243.5 98.5t92.5 262.5q0 167 -91 263.5t-245 96.5q-150 0 -241.5 -97.5t-91.5 -262.5zM332 856v420 h166q161 0 161 -123q0 -84 -75 -117l92 -180h-80l-84 166h-106v-166h-74zM406 1085h98q48 0 66 17t18 49q0 63 -90 63h-92v-129z" />
<glyph unicode="&#xaf;" horiz-adv-x="1142" d="M569 1294v97h508v-97h-508z" />
<glyph unicode="&#xb0;" horiz-adv-x="659" d="M53 1184q0 119 79 196.5t200 77.5t197.5 -77.5t76.5 -196.5q0 -118 -77 -197.5t-197 -79.5q-121 0 -200 79.5t-79 197.5zM150 1184q0 -82 51 -133.5t131 -51.5q78 0 129 52t51 133t-51 132.5t-129 51.5q-80 0 -131 -51.5t-51 -132.5z" />
<glyph unicode="&#xb1;" horiz-adv-x="1212" d="M139 668v106h412v416h111v-416h411v-106h-411v-418h-111v418h-412zM158 0v109h897v-109h-897z" />
<glyph unicode="&#xb2;" horiz-adv-x="843" d="M129 1454q62 234 299 234q124 0 197 -65t73 -177q0 -107 -64 -195t-194 -198q-19 -15 -145 -117h403v-94h-561v84q47 39 127 106.5t92 77.5q132 111 182 179t50 151q0 74 -42 113.5t-120 39.5q-154 0 -197 -153z" />
<glyph unicode="&#xb3;" horiz-adv-x="843" d="M117 1069h96q19 -170 205 -170q184 0 184 166q0 76 -44 117t-118 41h-112v88h108q70 0 111 38.5t41 108.5q0 144 -170 144q-82 0 -128 -36t-67 -114l-96 16q21 98 92.5 160t198.5 62q132 0 202 -60t70 -164q0 -130 -117 -190q68 -24 102 -79t34 -132q0 -119 -74 -186.5 t-217 -67.5q-134 0 -215.5 69t-85.5 189z" />
<glyph unicode="&#xb4;" horiz-adv-x="1142" d="M698 1212l226 283h147l-252 -283h-121z" />
<glyph unicode="&#xb5;" horiz-adv-x="1161" d="M143 -397v1450h119v-682q0 -152 79 -225.5t216 -73.5q148 0 256 108q50 54 68 102t18 124v647h119v-1053h-119v160q-61 -92 -154.5 -141.5t-201.5 -49.5q-92 0 -165.5 30.5t-115.5 90.5v-487h-119z" />
<glyph unicode="&#xb6;" horiz-adv-x="1159" d="M51 1051q0 208 141 309.5t404 101.5h410v-1747h-119v1643h-260v-1643h-117v928q-219 5 -339 107.5t-120 300.5z" />
<glyph unicode="&#xb7;" horiz-adv-x="403" d="M119 1008q0 38 22 60t60 22t60 -22t22 -60t-22 -60t-60 -22t-60 22t-22 60z" />
<glyph unicode="&#xb8;" horiz-adv-x="1142" d="M666 -311q90 -11 120 -11q140 0 140 76q0 26 -13.5 43t-40.5 24t-50 9t-58 2h-37l61 176l82 -2l-36 -112q192 -11 192 -148q0 -147 -238 -147q-73 0 -122 10v80z" />
<glyph unicode="&#xb9;" horiz-adv-x="843" d="M158 1524l252 135h110v-817h-112v706l-207 -106z" />
<glyph unicode="&#xba;" horiz-adv-x="882" d="M68 1087q0 188 103 300t271 112q172 0 272.5 -109t100.5 -298q0 -188 -102.5 -301t-274.5 -113q-169 0 -269.5 111t-100.5 298zM172 1087q0 -148 69.5 -234.5t198.5 -86.5q131 0 201 88t70 236q0 150 -69.5 235.5t-201.5 85.5q-127 0 -197.5 -88.5t-70.5 -235.5z" />
<glyph unicode="&#xbb;" horiz-adv-x="962" d="M78 68l274 452l-274 461h125l289 -459l-291 -454h-123zM406 68l274 452l-274 461h124l289 -459l-291 -454h-122z" />
<glyph unicode="&#xbc;" horiz-adv-x="1830" d="M158 1272l252 135h110v-817h-112v706l-207 -106zM494 0l723 1415h118l-721 -1415h-120zM1090 209v72l415 536h97v-522h102l-16 -86h-86v-209h-103v209h-409zM1204 295h295v381z" />
<glyph unicode="&#xbd;" horiz-adv-x="1830" d="M158 1272l252 135h110v-817h-112v706l-207 -106zM494 0l723 1415h118l-721 -1415h-120zM1116 612q62 234 299 234q124 0 197.5 -65t73.5 -177q0 -56 -18.5 -108t-57.5 -101.5t-79.5 -89.5t-103.5 -94q-19 -15 -145 -117h404v-94h-562v84q47 39 127 106.5t92 77.5 q132 111 182 179t50 151q0 74 -42 114t-120 40q-152 0 -196 -154z" />
<glyph unicode="&#xbe;" horiz-adv-x="1830" d="M117 817h96q19 -170 205 -170q184 0 184 166q0 76 -44 117t-118 41h-112v88h108q70 0 111 38.5t41 108.5q0 144 -170 144q-82 0 -128 -36t-67 -114l-96 17q21 97 92 159t199 62q132 0 202 -60t70 -164q0 -130 -117 -190q68 -24 102 -79t34 -132q0 -119 -74 -186.5 t-217 -67.5q-134 0 -215.5 69t-85.5 189zM494 0l723 1415h118l-721 -1415h-120zM1090 209v72l415 536h97v-522h102l-16 -86h-86v-209h-103v209h-409zM1204 295h295v381z" />
<glyph unicode="&#xbf;" horiz-adv-x="980" d="M84 -53q0 108 41.5 190t122.5 160q117 112 160 179t43 159v24h120v-22q0 -71 -18 -123q-17 -53 -62.5 -112t-140.5 -154q-71 -71 -106 -137t-35 -152q0 -134 77.5 -209.5t213.5 -75.5q141 0 219 66t115 213l110 -19q-31 -171 -140 -268.5t-304 -97.5q-194 0 -305 104 t-111 275zM430 979q0 38 22 60t60 22t60 -22t22 -60t-22 -60t-60 -22t-60 22t-22 60z" />
<glyph unicode="&#xc0;" horiz-adv-x="1347" d="M35 0l573 1462h133l572 -1462h-139l-166 440h-672l-168 -440h-133zM377 553h590l-297 772zM393 1849h154l231 -266h-125z" />
<glyph unicode="&#xc1;" horiz-adv-x="1347" d="M35 0l573 1462h133l572 -1462h-139l-166 440h-672l-168 -440h-133zM377 553h590l-297 772zM569 1583l232 266h153l-260 -266h-125z" />
<glyph unicode="&#xc2;" horiz-adv-x="1347" d="M35 0l573 1462h133l572 -1462h-139l-166 440h-672l-168 -440h-133zM377 553h590l-297 772zM383 1616l229 282h121l230 -282h-119l-170 196l-172 -196h-119z" />
<glyph unicode="&#xc3;" horiz-adv-x="1347" d="M35 0l573 1462h133l572 -1462h-139l-166 440h-672l-168 -440h-133zM358 1587q0 250 168 250q49 0 87 -19t87 -73q37 -38 63 -57t52 -19q84 0 84 162h90q0 -248 -170 -248q-48 0 -85 19.5t-89 72.5q-69 76 -115 76q-81 0 -81 -164h-91zM377 553h590l-297 772z" />
<glyph unicode="&#xc4;" horiz-adv-x="1347" d="M35 0l573 1462h133l572 -1462h-139l-166 440h-672l-168 -440h-133zM377 553h590l-297 772zM420 1751q0 40 22.5 62t63.5 22q40 0 62 -22t22 -62q0 -41 -22 -63.5t-62 -22.5q-41 0 -63.5 22.5t-22.5 63.5zM756 1751q0 40 22.5 62t63.5 22q40 0 62 -22t22 -62 q0 -41 -22 -63.5t-62 -22.5q-41 0 -63.5 22.5t-22.5 63.5z" />
<glyph unicode="&#xc5;" horiz-adv-x="1347" d="M35 0l573 1462h133l572 -1462h-139l-166 440h-672l-168 -440h-133zM377 553h590l-297 772zM481 1804q0 89 55 142t136 53q84 0 139 -52.5t55 -142.5t-54.5 -141t-139.5 -51q-81 0 -136 51.5t-55 140.5zM563 1804q0 -56 28.5 -86t80.5 -30q54 0 83 29.5t29 86.5 q0 58 -29 88.5t-83 30.5q-53 0 -81 -30.5t-28 -88.5z" />
<glyph unicode="&#xc6;" horiz-adv-x="2095" d="M29 0l882 1462h1076v-112h-746v-539h705v-115h-705v-583h764v-113h-885v512h-643l-305 -512h-143zM541 623h579v727h-147z" />
<glyph unicode="&#xc7;" horiz-adv-x="1482" d="M115 729q0 228 75 401t223 271t351 98q240 0 396.5 -120.5t205.5 -354.5l-123 -20q-40 185 -161.5 285t-317.5 100q-242 0 -380 -175t-138 -483q0 -304 145 -479.5t385 -175.5q206 0 327 106t146 295h129q-24 -229 -182 -370.5t-424 -141.5h-20l-23 -71q193 -11 193 -148 q0 -147 -238 -147q-74 0 -123 10v80q90 -11 121 -11q139 0 139 76q0 26 -13.5 43t-40.5 24t-50 9t-58 2h-36l49 139q-260 35 -408.5 238t-148.5 520z" />
<glyph unicode="&#xc8;" horiz-adv-x="1198" d="M168 0v1462h922v-112h-795v-539h754v-115h-754v-583h813v-113h-940zM319 1849h154l232 -266h-125z" />
<glyph unicode="&#xc9;" horiz-adv-x="1198" d="M168 0v1462h922v-112h-795v-539h754v-115h-754v-583h813v-113h-940zM496 1583l231 266h154l-260 -266h-125z" />
<glyph unicode="&#xca;" horiz-adv-x="1198" d="M168 0v1462h922v-112h-795v-539h754v-115h-754v-583h813v-113h-940zM309 1616l230 282h120l230 -282h-119l-170 196l-172 -196h-119z" />
<glyph unicode="&#xcb;" horiz-adv-x="1198" d="M168 0v1462h922v-112h-795v-539h754v-115h-754v-583h813v-113h-940zM346 1751q0 40 22.5 62t63.5 22q40 0 62 -22t22 -62q0 -41 -22 -63.5t-62 -22.5q-41 0 -63.5 22.5t-22.5 63.5zM682 1751q0 40 22.5 62t63.5 22q40 0 62 -22t22 -62q0 -41 -22 -63.5t-62 -22.5 q-41 0 -63.5 22.5t-22.5 63.5z" />
<glyph unicode="&#xcc;" horiz-adv-x="460" d="M-49 1849h153l232 -266h-125zM168 0v1462h127v-1462h-127z" />
<glyph unicode="&#xcd;" horiz-adv-x="460" d="M127 1583l231 266h154l-260 -266h-125zM168 0v1462h127v-1462h-127z" />
<glyph unicode="&#xce;" horiz-adv-x="460" d="M-59 1616l229 282h121l229 -282h-119l-170 196l-172 -196h-118zM168 0v1462h127v-1462h-127z" />
<glyph unicode="&#xcf;" horiz-adv-x="460" d="M-23 1751q0 40 22.5 62t63.5 22q40 0 62 -22t22 -62q0 -41 -22 -63.5t-62 -22.5q-41 0 -63.5 22.5t-22.5 63.5zM168 0v1462h127v-1462h-127zM313 1751q0 40 22.5 62t63.5 22q40 0 62 -22t22 -62q0 -41 -22 -63.5t-62 -22.5q-41 0 -63.5 22.5t-22.5 63.5z" />
<glyph unicode="&#xd0;" horiz-adv-x="1460" d="M20 700v109h168v653h433q348 0 536.5 -185.5t188.5 -539.5q0 -361 -199.5 -549t-568.5 -188h-390v700h-168zM315 111h269q314 0 471 160t157 462t-147 460.5t-444 158.5h-306v-543h410v-109h-410v-589z" />
<glyph unicode="&#xd1;" horiz-adv-x="1449" d="M166 0v1462h127l868 -1261v1261h123v-1462h-127l-868 1253v-1253h-123zM410 1587q0 250 168 250q49 0 87 -19t87 -73q37 -39 62.5 -57.5t51.5 -18.5q84 0 84 162h90q0 -248 -170 -248q-48 0 -85 19.5t-89 72.5q-35 38 -61 57t-53 19q-82 0 -82 -164h-90z" />
<glyph unicode="&#xd2;" horiz-adv-x="1581" d="M117 731q0 163 44.5 302.5t128.5 243.5t213.5 163t289.5 59q307 0 490 -207t183 -557q0 -230 -79.5 -403.5t-232.5 -270t-361 -96.5t-362 97t-234 270t-80 399zM248 731q0 -195 60 -341t184 -230t301 -84q173 0 296.5 84t184.5 230.5t61 340.5q0 302 -141 480t-401 178 q-176 0 -300.5 -84.5t-184.5 -231t-60 -342.5zM512 1849h154l231 -266h-125z" />
<glyph unicode="&#xd3;" horiz-adv-x="1581" d="M117 731q0 163 44.5 302.5t128.5 243.5t213.5 163t289.5 59q307 0 490 -207t183 -557q0 -230 -79.5 -403.5t-232.5 -270t-361 -96.5t-362 97t-234 270t-80 399zM248 731q0 -195 60 -341t184 -230t301 -84q173 0 296.5 84t184.5 230.5t61 340.5q0 302 -141 480t-401 178 q-176 0 -300.5 -84.5t-184.5 -231t-60 -342.5zM688 1583l232 266h153l-260 -266h-125z" />
<glyph unicode="&#xd4;" horiz-adv-x="1581" d="M117 731q0 163 44.5 302.5t128.5 243.5t213.5 163t289.5 59q307 0 490 -207t183 -557q0 -230 -79.5 -403.5t-232.5 -270t-361 -96.5t-362 97t-234 270t-80 399zM248 731q0 -195 60 -341t184 -230t301 -84q173 0 296.5 84t184.5 230.5t61 340.5q0 302 -141 480t-401 178 q-176 0 -300.5 -84.5t-184.5 -231t-60 -342.5zM502 1616l229 282h121l229 -282h-118l-172 196l-170 -196h-119z" />
<glyph unicode="&#xd5;" horiz-adv-x="1581" d="M117 731q0 163 44.5 302.5t128.5 243.5t213.5 163t289.5 59q307 0 490 -207t183 -557q0 -230 -79.5 -403.5t-232.5 -270t-361 -96.5t-362 97t-234 270t-80 399zM248 731q0 -195 60 -341t184 -230t301 -84q173 0 296.5 84t184.5 230.5t61 340.5q0 302 -141 480t-401 178 q-176 0 -300.5 -84.5t-184.5 -231t-60 -342.5zM477 1587q0 250 168 250q49 0 87 -19t87 -73q37 -38 63 -57t52 -19q84 0 84 162h90q0 -248 -170 -248q-48 0 -85 19.5t-89 72.5q-69 76 -115 76q-82 0 -82 -164h-90z" />
<glyph unicode="&#xd6;" horiz-adv-x="1581" d="M117 731q0 163 44.5 302.5t128.5 243.5t213.5 163t289.5 59q307 0 490 -207t183 -557q0 -230 -79.5 -403.5t-232.5 -270t-361 -96.5t-362 97t-234 270t-80 399zM248 731q0 -195 60 -341t184 -230t301 -84q173 0 296.5 84t184.5 230.5t61 340.5q0 302 -141 480t-401 178 q-176 0 -300.5 -84.5t-184.5 -231t-60 -342.5zM537 1751q0 40 22.5 62t63.5 22q40 0 62 -22t22 -62q0 -41 -22 -63.5t-62 -22.5q-41 0 -63.5 22.5t-22.5 63.5zM872 1751q0 40 22.5 62t63.5 22q40 0 62 -22t22 -62q0 -41 -22 -63.5t-62 -22.5q-41 0 -63.5 22.5t-22.5 63.5z " />
<glyph unicode="&#xd7;" horiz-adv-x="1212" d="M182 1042l74 74l350 -346l350 346l74 -74l-350 -350l338 -336l-74 -75l-336 335l-340 -337l-73 77l337 338z" />
<glyph unicode="&#xd8;" horiz-adv-x="1579" d="M117 731q0 163 44.5 302.5t128.5 243.5t213.5 163t289.5 59q222 0 381 -110l112 165l82 -55l-117 -174q104 -101 159.5 -251.5t55.5 -338.5q0 -230 -79.5 -403.5t-232.5 -270t-361 -96.5q-222 0 -385 113l-115 -170l-82 53l121 180q-104 101 -159.5 252.5t-55.5 337.5z M248 731q0 -314 151 -491l711 1052q-134 97 -317 97q-176 0 -300.5 -84.5t-184.5 -231t-60 -342.5zM471 172q132 -96 322 -96q173 0 296.5 84t184.5 230.5t61 340.5q0 319 -153 494z" />
<glyph unicode="&#xd9;" horiz-adv-x="1392" d="M141 580v882h125v-889q0 -243 109.5 -370t320.5 -127t320.5 127t109.5 370v889h125v-884q0 -286 -148.5 -449.5t-406.5 -163.5q-259 0 -407 164t-148 451zM416 1849h153l232 -266h-125z" />
<glyph unicode="&#xda;" horiz-adv-x="1392" d="M141 580v882h125v-889q0 -243 109.5 -370t320.5 -127t320.5 127t109.5 370v889h125v-884q0 -286 -148.5 -449.5t-406.5 -163.5q-259 0 -407 164t-148 451zM592 1583l231 266h154l-260 -266h-125z" />
<glyph unicode="&#xdb;" horiz-adv-x="1392" d="M141 580v882h125v-889q0 -243 109.5 -370t320.5 -127t320.5 127t109.5 370v889h125v-884q0 -286 -148.5 -449.5t-406.5 -163.5q-259 0 -407 164t-148 451zM406 1616l229 282h121l229 -282h-119l-170 196l-172 -196h-118z" />
<glyph unicode="&#xdc;" horiz-adv-x="1392" d="M141 580v882h125v-889q0 -243 109.5 -370t320.5 -127t320.5 127t109.5 370v889h125v-884q0 -286 -148.5 -449.5t-406.5 -163.5q-259 0 -407 164t-148 451zM442 1751q0 40 22.5 62t63.5 22q40 0 62 -22t22 -62q0 -41 -22 -63.5t-62 -22.5q-41 0 -63.5 22.5t-22.5 63.5z M778 1751q0 40 22.5 62t63.5 22q40 0 62 -22t22 -62q0 -41 -22 -63.5t-62 -22.5q-41 0 -63.5 22.5t-22.5 63.5z" />
<glyph unicode="&#xdd;" horiz-adv-x="1204" d="M37 1462h145l422 -723l430 723h133l-497 -835v-627h-127v625zM498 1583l231 266h154l-260 -266h-125z" />
<glyph unicode="&#xde;" horiz-adv-x="1257" d="M168 0v1462h125v-282h369q503 0 503 -428q0 -445 -506 -445h-366v-307h-125zM293 418h366q201 0 290 81.5t89 248.5q0 168 -89 244.5t-292 76.5h-364v-651z" />
<glyph unicode="&#xdf;" horiz-adv-x="1159" d="M145 0v1057q0 193 116.5 307.5t311.5 114.5q190 0 304 -104t114 -271q0 -121 -63 -212t-168 -128q143 -30 227 -131t84 -254q0 -187 -114.5 -296.5t-317.5 -109.5q-132 0 -233 37l22 96q97 -34 203 -34q154 0 236.5 81t82.5 230q0 151 -98.5 232t-273.5 81h-136v101h113 q142 0 230.5 82.5t88.5 218.5q0 130 -78.5 206t-217.5 76q-149 0 -232.5 -86.5t-83.5 -240.5v-1053h-117z" />
<glyph unicode="&#xe0;" horiz-adv-x="1077" d="M80 287q0 156 111 235.5t311 81.5l319 4v90q0 156 -69 223.5t-224 67.5q-256 0 -297 -190l-108 16q23 120 131 195t281 75q210 0 307.5 -97t97.5 -294v-694h-117v170q-48 -88 -148 -141.5t-229 -53.5q-170 0 -268 81t-98 231zM201 289q0 -100 66 -156.5t194 -56.5 q162 0 261 87t99 232v125l-309 -6q-147 -2 -229 -53.5t-82 -171.5zM268 1495h150l227 -283h-121z" />
<glyph unicode="&#xe1;" horiz-adv-x="1077" d="M80 287q0 156 111 235.5t311 81.5l319 4v90q0 156 -69 223.5t-224 67.5q-256 0 -297 -190l-108 16q23 120 131 195t281 75q210 0 307.5 -97t97.5 -294v-694h-117v170q-48 -88 -148 -141.5t-229 -53.5q-170 0 -268 81t-98 231zM201 289q0 -100 66 -156.5t194 -56.5 q162 0 261 87t99 232v125l-309 -6q-147 -2 -229 -53.5t-82 -171.5zM442 1212l226 283h147l-252 -283h-121z" />
<glyph unicode="&#xe2;" horiz-adv-x="1077" d="M80 287q0 156 111 235.5t311 81.5l319 4v90q0 156 -69 223.5t-224 67.5q-256 0 -297 -190l-108 16q23 120 131 195t281 75q210 0 307.5 -97t97.5 -294v-694h-117v170q-48 -88 -148 -141.5t-229 -53.5q-170 0 -268 81t-98 231zM201 289q0 -100 66 -156.5t194 -56.5 q162 0 261 87t99 232v125l-309 -6q-147 -2 -229 -53.5t-82 -171.5zM250 1212l229 283h121l229 -283h-118l-172 197l-170 -197h-119z" />
<glyph unicode="&#xe3;" horiz-adv-x="1077" d="M80 287q0 156 111 235.5t311 81.5l319 4v90q0 156 -69 223.5t-224 67.5q-256 0 -297 -190l-108 16q23 120 131 195t281 75q210 0 307.5 -97t97.5 -294v-694h-117v170q-48 -88 -148 -141.5t-229 -53.5q-170 0 -268 81t-98 231zM201 289q0 -100 66 -156.5t194 -56.5 q162 0 261 87t99 232v125l-309 -6q-147 -2 -229 -53.5t-82 -171.5zM227 1233q0 254 168 254q49 0 85 -20.5t85 -73.5l17 -17l16.5 -16.5t14.5 -14t16 -13t14.5 -8.5t16.5 -7t16 -2q86 0 86 166h88q0 -254 -168 -254q-50 0 -84.5 20.5t-85.5 73.5q-28 31 -39 42t-32 24.5 t-40 13.5q-84 0 -84 -168h-90z" />
<glyph unicode="&#xe4;" horiz-adv-x="1077" d="M80 287q0 156 111 235.5t311 81.5l319 4v90q0 156 -69 223.5t-224 67.5q-256 0 -297 -190l-108 16q23 120 131 195t281 75q210 0 307.5 -97t97.5 -294v-694h-117v170q-48 -88 -148 -141.5t-229 -53.5q-170 0 -268 81t-98 231zM201 289q0 -100 66 -156.5t194 -56.5 q162 0 261 87t99 232v125l-309 -6q-147 -2 -229 -53.5t-82 -171.5zM287 1348q0 40 22.5 62t63.5 22q40 0 62 -22t22 -62q0 -41 -22 -63.5t-62 -22.5q-41 0 -63.5 22.5t-22.5 63.5zM623 1348q0 40 22.5 62t63.5 22q40 0 62 -22t22 -62q0 -41 -22 -63.5t-62 -22.5 q-41 0 -63.5 22.5t-22.5 63.5z" />
<glyph unicode="&#xe5;" horiz-adv-x="1077" d="M80 287q0 156 111 235.5t311 81.5l319 4v90q0 156 -69 223.5t-224 67.5q-256 0 -297 -190l-108 16q23 120 131 195t281 75q210 0 307.5 -97t97.5 -294v-694h-117v170q-48 -88 -148 -141.5t-229 -53.5q-170 0 -268 81t-98 231zM201 289q0 -100 66 -156.5t194 -56.5 q162 0 261 87t99 232v125l-309 -6q-147 -2 -229 -53.5t-82 -171.5zM348 1401q0 89 55 141.5t136 52.5q84 0 139 -52t55 -142t-55 -141.5t-139 -51.5q-81 0 -136 52t-55 141zM430 1401q0 -56 28.5 -86.5t80.5 -30.5q54 0 83 30t29 87q0 58 -29 88.5t-83 30.5q-53 0 -81 -30.5 t-28 -88.5z" />
<glyph unicode="&#xe6;" horiz-adv-x="1898" d="M80 293q0 94 36.5 161t107.5 106.5t163 59t215 23.5l244 8v39q0 159 -77 229t-234 70q-131 0 -201 -45.5t-92 -138.5l-109 16q32 135 132 199.5t278 64.5q153 0 255 -60.5t132 -182.5q62 119 168.5 181t238.5 62q221 0 341 -137t120 -385v-67h-835q7 -205 105.5 -317.5 t268.5 -112.5q131 0 215 55.5t111 154.5h115q-28 -145 -144 -227t-297 -82q-151 0 -263.5 69.5t-168.5 203.5q-112 -265 -438 -265q-173 0 -280 84t-107 234zM203 297q0 -111 76.5 -166t205.5 -55q156 0 258.5 85t102.5 224v178l-234 -8q-70 -2 -121.5 -7.5t-109 -22 t-94 -43t-60.5 -74t-24 -111.5zM965 590h714q-5 196 -91 298.5t-251 102.5q-169 0 -263.5 -107t-108.5 -294z" />
<glyph unicode="&#xe7;" horiz-adv-x="1175" d="M102 520q0 260 141 412.5t371 152.5q181 0 307 -92t152 -256l-119 -18q-22 122 -115 194t-231 72q-177 0 -278 -124.5t-101 -336.5q0 -207 103 -330.5t284 -123.5q142 0 232.5 76t112.5 206h118q-25 -178 -149 -281.5t-316 -103.5h-16l-25 -73q193 -11 193 -148 q0 -147 -238 -147q-73 0 -122 10v80q90 -11 120 -11q140 0 140 76q0 26 -13.5 43t-40.5 24t-50 9t-58 2h-37l49 143q-185 32 -299.5 176t-114.5 369z" />
<glyph unicode="&#xe8;" horiz-adv-x="1175" d="M102 520q0 265 140 415t364 150q222 0 345.5 -138t123.5 -384v-67h-852q7 -202 111.5 -316t271.5 -114q135 0 220.5 55t113.5 155h117q-32 -142 -153.5 -225.5t-297.5 -83.5q-227 0 -365.5 148.5t-138.5 404.5zM225 590h731q-8 190 -93 295.5t-257 105.5 q-173 0 -269.5 -103t-111.5 -298zM315 1495h150l227 -283h-121z" />
<glyph unicode="&#xe9;" horiz-adv-x="1175" d="M102 520q0 265 140 415t364 150q222 0 345.5 -138t123.5 -384v-67h-852q7 -202 111.5 -316t271.5 -114q135 0 220.5 55t113.5 155h117q-32 -142 -153.5 -225.5t-297.5 -83.5q-227 0 -365.5 148.5t-138.5 404.5zM225 590h731q-8 190 -93 295.5t-257 105.5 q-173 0 -269.5 -103t-111.5 -298zM489 1212l226 283h147l-252 -283h-121z" />
<glyph unicode="&#xea;" horiz-adv-x="1175" d="M102 520q0 265 140 415t364 150q222 0 345.5 -138t123.5 -384v-67h-852q7 -202 111.5 -316t271.5 -114q135 0 220.5 55t113.5 155h117q-32 -142 -153.5 -225.5t-297.5 -83.5q-227 0 -365.5 148.5t-138.5 404.5zM225 590h731q-8 190 -93 295.5t-257 105.5 q-173 0 -269.5 -103t-111.5 -298zM297 1212l229 283h121l230 -283h-119l-170 197l-172 -197h-119z" />
<glyph unicode="&#xeb;" horiz-adv-x="1175" d="M102 520q0 265 140 415t364 150q222 0 345.5 -138t123.5 -384v-67h-852q7 -202 111.5 -316t271.5 -114q135 0 220.5 55t113.5 155h117q-32 -142 -153.5 -225.5t-297.5 -83.5q-227 0 -365.5 148.5t-138.5 404.5zM225 590h731q-8 190 -93 295.5t-257 105.5 q-173 0 -269.5 -103t-111.5 -298zM334 1348q0 40 22.5 62t63.5 22q40 0 62 -22t22 -62q0 -41 -22 -63.5t-62 -22.5q-41 0 -63.5 22.5t-22.5 63.5zM670 1348q0 40 22.5 62t63.5 22q40 0 62 -22t22 -62q0 -41 -22 -63.5t-62 -22.5q-41 0 -63.5 22.5t-22.5 63.5z" />
<glyph unicode="&#xec;" horiz-adv-x="409" d="M-66 1495h150l227 -283h-121zM145 0v1053h121v-1053h-121z" />
<glyph unicode="&#xed;" horiz-adv-x="409" d="M109 1212l225 283h147l-252 -283h-120zM145 0v1053h121v-1053h-121z" />
<glyph unicode="&#xee;" horiz-adv-x="409" d="M-84 1212l229 283h121l230 -283h-119l-170 197l-172 -197h-119zM145 0v1053h121v-1053h-121z" />
<glyph unicode="&#xef;" horiz-adv-x="409" d="M-47 1348q0 40 22.5 62t63.5 22q40 0 62 -22t22 -62q0 -41 -22 -63.5t-62 -22.5q-41 0 -63.5 22.5t-22.5 63.5zM145 0v1053h121v-1053h-121zM289 1348q0 40 22.5 62t63.5 22q40 0 62 -22t22 -62q0 -41 -22 -63.5t-62 -22.5q-41 0 -63.5 22.5t-22.5 63.5z" />
<glyph unicode="&#xf0;" horiz-adv-x="1198" d="M102 483q0 81 19 157t58.5 143t96.5 116.5t137.5 78t176.5 28.5q237 0 356 -168q-16 66 -40.5 127t-63 124t-96.5 117t-130 90l-159 -157l-58 61l133 133q-131 46 -266 51l15 101q179 -13 331 -74l133 133l60 -61l-111 -111q197 -107 299.5 -319t102.5 -514 q0 -93 -17.5 -176t-56.5 -156t-96 -126t-140.5 -83.5t-185.5 -30.5q-229 0 -363.5 140t-134.5 376zM229 487q0 -190 97.5 -303.5t269.5 -113.5q183 0 278 118.5t95 307.5q0 195 -98 301t-277 106q-118 0 -202 -56.5t-123.5 -149t-39.5 -210.5z" />
<glyph unicode="&#xf1;" horiz-adv-x="1171" d="M143 0v1053h119v-152q71 91 172 137.5t217 46.5q186 0 284.5 -97.5t98.5 -285.5v-702h-119v680q0 301 -288 301q-94 0 -168.5 -37.5t-122.5 -97.5q-38 -40 -56 -87.5t-18 -121.5v-637h-119zM274 1233q0 254 168 254q49 0 85 -20.5t85 -73.5l17 -17l16.5 -16.5t14.5 -14 t16 -13t14.5 -8.5t16.5 -7t16 -2q86 0 86 166h88q0 -254 -168 -254q-50 0 -84.5 20.5t-85.5 73.5q-49 54 -69 67q-21 13 -41 13q-84 0 -84 -168h-91z" />
<glyph unicode="&#xf2;" horiz-adv-x="1226" d="M102 524q0 260 141.5 410.5t372.5 150.5q232 0 370 -148.5t138 -408.5q0 -258 -139.5 -409.5t-372.5 -151.5q-234 0 -372 149.5t-138 407.5zM229 528q0 -213 100.5 -335.5t284.5 -122.5q182 0 283.5 120.5t101.5 337.5q0 213 -100.5 335t-284.5 122t-284.5 -122.5 t-100.5 -334.5zM342 1495h150l227 -283h-121z" />
<glyph unicode="&#xf3;" horiz-adv-x="1226" d="M102 524q0 260 141.5 410.5t372.5 150.5q232 0 370 -148.5t138 -408.5q0 -258 -139.5 -409.5t-372.5 -151.5q-234 0 -372 149.5t-138 407.5zM229 528q0 -213 100.5 -335.5t284.5 -122.5q182 0 283.5 120.5t101.5 337.5q0 213 -100.5 335t-284.5 122t-284.5 -122.5 t-100.5 -334.5zM516 1212l225 283h148l-252 -283h-121z" />
<glyph unicode="&#xf4;" horiz-adv-x="1226" d="M102 524q0 260 141.5 410.5t372.5 150.5q232 0 370 -148.5t138 -408.5q0 -258 -139.5 -409.5t-372.5 -151.5q-234 0 -372 149.5t-138 407.5zM229 528q0 -213 100.5 -335.5t284.5 -122.5q182 0 283.5 120.5t101.5 337.5q0 213 -100.5 335t-284.5 122t-284.5 -122.5 t-100.5 -334.5zM324 1212l229 283h121l229 -283h-119l-172 197l-170 -197h-118z" />
<glyph unicode="&#xf5;" horiz-adv-x="1226" d="M102 524q0 260 141.5 410.5t372.5 150.5q232 0 370 -148.5t138 -408.5q0 -258 -139.5 -409.5t-372.5 -151.5q-234 0 -372 149.5t-138 407.5zM229 528q0 -213 100.5 -335.5t284.5 -122.5q182 0 283.5 120.5t101.5 337.5q0 213 -100.5 335t-284.5 122t-284.5 -122.5 t-100.5 -334.5zM301 1233q0 254 168 254q49 0 85 -20.5t85 -73.5l17 -17l16.5 -16.5t14.5 -14t16 -13t14.5 -8.5t16.5 -7t16 -2q86 0 86 166h88q0 -254 -168 -254q-50 0 -84.5 20.5t-85.5 73.5q-28 31 -39 42t-32 24.5t-40 13.5q-84 0 -84 -168h-90z" />
<glyph unicode="&#xf6;" horiz-adv-x="1226" d="M102 524q0 260 141.5 410.5t372.5 150.5q232 0 370 -148.5t138 -408.5q0 -258 -139.5 -409.5t-372.5 -151.5q-234 0 -372 149.5t-138 407.5zM229 528q0 -213 100.5 -335.5t284.5 -122.5q182 0 283.5 120.5t101.5 337.5q0 213 -100.5 335t-284.5 122t-284.5 -122.5 t-100.5 -334.5zM360 1348q0 40 22.5 62t63.5 22q40 0 62 -22t22 -62q0 -41 -22 -63.5t-62 -22.5q-41 0 -63.5 22.5t-22.5 63.5zM696 1348q0 40 22.5 62t63.5 22q40 0 62 -22t22 -62q0 -41 -22 -63.5t-62 -22.5q-41 0 -63.5 22.5t-22.5 63.5z" />
<glyph unicode="&#xf7;" horiz-adv-x="1212" d="M166 643v109h881v-109h-881zM543 225v201h127v-201h-127zM543 967v202h127v-202h-127z" />
<glyph unicode="&#xf8;" horiz-adv-x="1226" d="M102 524q0 260 141.5 410.5t372.5 150.5q162 0 277 -71l94 135l76 -53l-96 -140q157 -151 157 -428q0 -258 -139.5 -409.5t-372.5 -151.5q-157 0 -276 72l-96 -141l-76 53l98 143q-160 151 -160 430zM229 528q0 -213 101 -335l501 731q-85 61 -217 61 q-184 0 -284.5 -122.5t-100.5 -334.5zM399 129q86 -59 215 -59q182 0 283.5 120.5t101.5 337.5q0 208 -98 332z" />
<glyph unicode="&#xf9;" horiz-adv-x="1140" d="M137 360v693h119v-670q0 -159 76.5 -235t214.5 -76q154 0 250 108q52 52 68 100.5t16 135.5v637h118v-1053h-116v154q-62 -90 -158 -138.5t-205 -48.5q-181 0 -282 100.5t-101 292.5zM299 1495h150l227 -283h-121z" />
<glyph unicode="&#xfa;" horiz-adv-x="1140" d="M137 360v693h119v-670q0 -159 76.5 -235t214.5 -76q154 0 250 108q52 52 68 100.5t16 135.5v637h118v-1053h-116v154q-62 -90 -158 -138.5t-205 -48.5q-181 0 -282 100.5t-101 292.5zM473 1212l225 283h148l-252 -283h-121z" />
<glyph unicode="&#xfb;" horiz-adv-x="1140" d="M137 360v693h119v-670q0 -159 76.5 -235t214.5 -76q154 0 250 108q52 52 68 100.5t16 135.5v637h118v-1053h-116v154q-62 -90 -158 -138.5t-205 -48.5q-181 0 -282 100.5t-101 292.5zM281 1212l229 283h121l229 -283h-119l-172 197l-170 -197h-118z" />
<glyph unicode="&#xfc;" horiz-adv-x="1140" d="M137 360v693h119v-670q0 -159 76.5 -235t214.5 -76q154 0 250 108q52 52 68 100.5t16 135.5v637h118v-1053h-116v154q-62 -90 -158 -138.5t-205 -48.5q-181 0 -282 100.5t-101 292.5zM317 1348q0 40 22.5 62t63.5 22q40 0 62 -22t22 -62q0 -41 -22 -63.5t-62 -22.5 q-41 0 -63.5 22.5t-22.5 63.5zM653 1348q0 40 22.5 62t63.5 22q40 0 62 -22t22 -62q0 -41 -22 -63.5t-62 -22.5q-41 0 -63.5 22.5t-22.5 63.5z" />
<glyph unicode="&#xfd;" horiz-adv-x="1019" d="M16 1053h138l376 -901l344 901h130l-445 -1116l-139 -357h-125l174 440zM412 1212l225 283h147l-252 -283h-120z" />
<glyph unicode="&#xfe;" horiz-adv-x="1232" d="M143 -397v1859h119v-596q127 219 402 219q217 0 344 -146.5t127 -408.5q0 -260 -134.5 -411.5t-353.5 -151.5q-129 0 -229 51.5t-156 151.5v-567h-119zM260 487q0 -196 98 -306.5t277 -110.5q177 0 275 123.5t98 336.5q0 202 -96 328.5t-265 126.5q-174 0 -280.5 -113 t-106.5 -294v-91z" />
<glyph unicode="&#xff;" horiz-adv-x="1019" d="M16 1053h138l376 -901l344 901h130l-445 -1116l-139 -357h-125l174 440zM256 1348q0 40 22.5 62t63.5 22q40 0 62 -22t22 -62q0 -41 -22 -63.5t-62 -22.5q-41 0 -63.5 22.5t-22.5 63.5zM592 1348q0 40 22.5 62t63.5 22q40 0 62 -22t22 -62q0 -41 -22 -63.5t-62 -22.5 q-41 0 -63.5 22.5t-22.5 63.5z" />
<glyph unicode="&#x100;" horiz-adv-x="1347" d="M35 0l573 1462h133l572 -1462h-139l-166 440h-672l-168 -440h-133zM377 553h590l-297 772zM420 1698v96h508v-96h-508z" />
<glyph unicode="&#x101;" horiz-adv-x="1077" d="M80 287q0 156 111 235.5t311 81.5l319 4v90q0 156 -69 223.5t-224 67.5q-256 0 -297 -190l-108 16q23 120 131 195t281 75q210 0 307.5 -97t97.5 -294v-694h-117v170q-48 -88 -148 -141.5t-229 -53.5q-170 0 -268 81t-98 231zM201 289q0 -100 66 -156.5t194 -56.5 q162 0 261 87t99 232v125l-309 -6q-147 -2 -229 -53.5t-82 -171.5zM287 1294v97h508v-97h-508z" />
<glyph unicode="&#x102;" horiz-adv-x="1347" d="M35 0l573 1462h133l572 -1462h-139l-166 440h-672l-168 -440h-133zM377 553h590l-297 772zM418 1886h92q0 -88 44 -134t118 -46q76 0 120 46t44 134h96q0 -126 -68.5 -195t-191.5 -69q-120 0 -187 69t-67 195z" />
<glyph unicode="&#x103;" horiz-adv-x="1077" d="M80 287q0 156 111 235.5t311 81.5l319 4v90q0 156 -69 223.5t-224 67.5q-256 0 -297 -190l-108 16q23 120 131 195t281 75q210 0 307.5 -97t97.5 -294v-694h-117v170q-48 -88 -148 -141.5t-229 -53.5q-170 0 -268 81t-98 231zM201 289q0 -100 66 -156.5t194 -56.5 q162 0 261 87t99 232v125l-309 -6q-147 -2 -229 -53.5t-82 -171.5zM285 1483h92q0 -88 44 -134t118 -46q76 0 119.5 46t43.5 134h97q0 -126 -68.5 -195t-191.5 -69q-120 0 -187 69t-67 195z" />
<glyph unicode="&#x104;" horiz-adv-x="1347" d="M35 0l573 1462h133l572 -1462h-41q-113 -85 -113 -172q0 -82 98 -82q24 0 52 4v-86q-32 -4 -60 -4q-198 0 -198 147q0 104 118 201l-161 432h-672l-168 -440h-133zM377 553h590l-297 772z" />
<glyph unicode="&#x105;" horiz-adv-x="1077" d="M80 287q0 156 111 235.5t311 81.5l319 4v90q0 156 -69 223.5t-224 67.5q-256 0 -297 -190l-108 16q23 120 131 195t281 75q210 0 307.5 -97t97.5 -294v-680h12l-12 -8v-6h-6q-113 -85 -113 -172q0 -82 99 -82q23 0 51 4v-86q-32 -4 -60 -4q-198 0 -198 147q0 99 110 193 v170q-48 -88 -148 -141.5t-229 -53.5q-170 0 -268 81t-98 231zM201 289q0 -100 66 -156.5t194 -56.5q162 0 261 87t99 232v125l-309 -6q-147 -2 -229 -53.5t-82 -171.5z" />
<glyph unicode="&#x106;" horiz-adv-x="1482" d="M115 729q0 228 75 401t223 271t351 98q240 0 396.5 -120.5t205.5 -354.5l-123 -20q-40 185 -161.5 285t-317.5 100q-242 0 -380 -175t-138 -483q0 -304 145 -479.5t385 -175.5q206 0 327 106t146 295h129q-24 -229 -182 -370.5t-424 -141.5q-304 0 -480.5 208t-176.5 556 zM637 1583l231 266h154l-260 -266h-125z" />
<glyph unicode="&#x107;" horiz-adv-x="1175" d="M102 520q0 260 141 412.5t371 152.5q181 0 307 -92t152 -256l-119 -18q-22 122 -115 194t-231 72q-177 0 -278 -124.5t-101 -336.5q0 -207 103 -330.5t284 -123.5q142 0 232.5 76t112.5 206h118q-25 -178 -149 -281.5t-316 -103.5q-109 0 -202.5 38t-162.5 108t-108 175 t-39 232zM489 1212l226 283h147l-252 -283h-121z" />
<glyph unicode="&#x108;" horiz-adv-x="1482" d="M115 729q0 228 75 401t223 271t351 98q240 0 396.5 -120.5t205.5 -354.5l-123 -20q-40 185 -161.5 285t-317.5 100q-242 0 -380 -175t-138 -483q0 -304 145 -479.5t385 -175.5q206 0 327 106t146 295h129q-24 -229 -182 -370.5t-424 -141.5q-304 0 -480.5 208t-176.5 556 zM451 1616l229 282h121l229 -282h-119l-170 196l-172 -196h-118z" />
<glyph unicode="&#x109;" horiz-adv-x="1175" d="M102 520q0 260 141 412.5t371 152.5q181 0 307 -92t152 -256l-119 -18q-22 122 -115 194t-231 72q-177 0 -278 -124.5t-101 -336.5q0 -207 103 -330.5t284 -123.5q142 0 232.5 76t112.5 206h118q-25 -178 -149 -281.5t-316 -103.5q-109 0 -202.5 38t-162.5 108t-108 175 t-39 232zM297 1212l229 283h121l230 -283h-119l-170 197l-172 -197h-119z" />
<glyph unicode="&#x10a;" horiz-adv-x="1482" d="M115 729q0 228 75 401t223 271t351 98q240 0 396.5 -120.5t205.5 -354.5l-123 -20q-40 185 -161.5 285t-317.5 100q-242 0 -380 -175t-138 -483q0 -304 145 -479.5t385 -175.5q206 0 327 106t146 295h129q-24 -229 -182 -370.5t-424 -141.5q-304 0 -480.5 208t-176.5 556 zM655 1751q0 40 23 62t63 22t62 -22t22 -62q0 -41 -22 -63.5t-62 -22.5t-63 22.5t-23 63.5z" />
<glyph unicode="&#x10b;" horiz-adv-x="1175" d="M102 520q0 260 141 412.5t371 152.5q181 0 307 -92t152 -256l-119 -18q-22 122 -115 194t-231 72q-177 0 -278 -124.5t-101 -336.5q0 -207 103 -330.5t284 -123.5q142 0 232.5 76t112.5 206h118q-25 -178 -149 -281.5t-316 -103.5q-109 0 -202.5 38t-162.5 108t-108 175 t-39 232zM502 1348q0 40 23 62t63 22t62 -22t22 -62q0 -41 -22 -63.5t-62 -22.5t-63 22.5t-23 63.5z" />
<glyph unicode="&#x10c;" horiz-adv-x="1482" d="M115 729q0 228 75 401t223 271t351 98q240 0 396.5 -120.5t205.5 -354.5l-123 -20q-40 185 -161.5 285t-317.5 100q-242 0 -380 -175t-138 -483q0 -304 145 -479.5t385 -175.5q206 0 327 106t146 295h129q-24 -229 -182 -370.5t-424 -141.5q-304 0 -480.5 208t-176.5 556 zM451 1898h118l172 -196l172 196h117l-229 -282h-121z" />
<glyph unicode="&#x10d;" horiz-adv-x="1175" d="M102 520q0 260 141 412.5t371 152.5q181 0 307 -92t152 -256l-119 -18q-22 122 -115 194t-231 72q-177 0 -278 -124.5t-101 -336.5q0 -207 103 -330.5t284 -123.5q142 0 232.5 76t112.5 206h118q-25 -178 -149 -281.5t-316 -103.5q-109 0 -202.5 38t-162.5 108t-108 175 t-39 232zM297 1495h119l172 -197l172 197h117l-230 -283h-121z" />
<glyph unicode="&#x10e;" horiz-adv-x="1437" d="M168 0v1462h432q348 0 536.5 -185.5t188.5 -539.5q0 -361 -199.5 -549t-568.5 -188h-389zM295 111h268q314 0 471.5 160t157.5 462t-147.5 460.5t-444.5 158.5h-305v-1241zM430 1898h119l172 -196l172 196h117l-230 -282h-121z" />
<glyph unicode="&#x10f;" horiz-adv-x="1331" d="M102 524q0 258 134.5 409.5t355.5 151.5q116 0 216.5 -49.5t160.5 -150.5v577h118v-1462h-116v190q-65 -107 -167 -165t-231 -58q-216 0 -343.5 151t-127.5 406zM227 526q0 -205 97.5 -330.5t267.5 -125.5q172 0 276.5 109t104.5 300v90q0 202 -99 309t-268 107 q-177 0 -278 -123.5t-101 -335.5zM1276 1049l63 413h127l-92 -413h-98z" />
<glyph unicode="&#x110;" horiz-adv-x="1460" d="M20 700v109h168v653h433q348 0 536.5 -185.5t188.5 -539.5q0 -361 -199.5 -549t-568.5 -188h-390v700h-168zM315 111h269q314 0 471 160t157 462t-147 460.5t-444 158.5h-306v-543h410v-109h-410v-589z" />
<glyph unicode="&#x111;" horiz-adv-x="1218" d="M102 502q0 108 27.5 203.5t82.5 173t148.5 123t214.5 45.5q239 0 357 -175v336h-359v90h359v164h119v-164h145v-90h-145v-1208h-117v160q-129 -193 -381 -193q-213 0 -332 145.5t-119 389.5zM227 504q0 -196 90 -315t256 -119t264.5 109.5t98.5 285.5v70q0 200 -91 304.5 t-255 104.5q-76 0 -138 -23.5t-103.5 -64.5t-69 -97.5t-40 -120t-12.5 -134.5z" />
<glyph unicode="&#x112;" horiz-adv-x="1198" d="M168 0v1462h922v-112h-795v-539h754v-115h-754v-583h813v-113h-940zM346 1698v96h508v-96h-508z" />
<glyph unicode="&#x113;" horiz-adv-x="1175" d="M102 520q0 265 140 415t364 150q222 0 345.5 -138t123.5 -384v-67h-852q7 -202 111.5 -316t271.5 -114q135 0 220.5 55t113.5 155h117q-32 -142 -153.5 -225.5t-297.5 -83.5q-227 0 -365.5 148.5t-138.5 404.5zM225 590h731q-8 190 -93 295.5t-257 105.5 q-173 0 -269.5 -103t-111.5 -298zM334 1294v97h508v-97h-508z" />
<glyph unicode="&#x114;" horiz-adv-x="1198" d="M168 0v1462h922v-112h-795v-539h754v-115h-754v-583h813v-113h-940zM344 1886h92q0 -88 44 -134t118 -46q76 0 120 46t44 134h96q0 -126 -68.5 -195t-191.5 -69q-120 0 -187 69t-67 195z" />
<glyph unicode="&#x115;" horiz-adv-x="1175" d="M102 520q0 265 140 415t364 150q222 0 345.5 -138t123.5 -384v-67h-852q7 -202 111.5 -316t271.5 -114q135 0 220.5 55t113.5 155h117q-32 -142 -153.5 -225.5t-297.5 -83.5q-227 0 -365.5 148.5t-138.5 404.5zM225 590h731q-8 190 -93 295.5t-257 105.5 q-173 0 -269.5 -103t-111.5 -298zM332 1483h92q0 -88 44 -134t118 -46q76 0 120 46t44 134h96q0 -126 -68.5 -195t-191.5 -69q-120 0 -187 69t-67 195z" />
<glyph unicode="&#x116;" horiz-adv-x="1198" d="M168 0v1462h922v-112h-795v-539h754v-115h-754v-583h813v-113h-940zM514 1751q0 40 23 62t63 22t62 -22t22 -62q0 -41 -22 -63.5t-62 -22.5t-63 22.5t-23 63.5z" />
<glyph unicode="&#x117;" horiz-adv-x="1175" d="M102 520q0 265 140 415t364 150q222 0 345.5 -138t123.5 -384v-67h-852q7 -202 111.5 -316t271.5 -114q135 0 220.5 55t113.5 155h117q-32 -142 -153.5 -225.5t-297.5 -83.5q-227 0 -365.5 148.5t-138.5 404.5zM225 590h731q-8 190 -93 295.5t-257 105.5 q-173 0 -269.5 -103t-111.5 -298zM502 1348q0 40 23 62t63 22t62 -22t22 -62q0 -41 -22 -63.5t-62 -22.5t-63 22.5t-23 63.5z" />
<glyph unicode="&#x118;" horiz-adv-x="1198" d="M168 0v1462h922v-112h-795v-539h754v-115h-754v-583h813v-113h-68q-112 -85 -112 -172q0 -82 98 -82q23 0 51 4v-86q-32 -4 -59 -4q-199 0 -199 147q0 99 111 193h-762z" />
<glyph unicode="&#x119;" horiz-adv-x="1175" d="M102 520q0 265 140 415t364 150q222 0 345.5 -138t123.5 -384v-67h-852q7 -202 111.5 -316t271.5 -114q135 0 220.5 55t113.5 155h117q-26 -113 -109.5 -189.5t-208.5 -104.5q-90 -78 -90 -154q0 -82 99 -82q23 0 51 4v-86q-32 -4 -60 -4q-198 0 -198 147q0 85 75 160 h-10q-227 0 -365.5 148.5t-138.5 404.5zM225 590h731q-8 190 -93 295.5t-257 105.5q-173 0 -269.5 -103t-111.5 -298z" />
<glyph unicode="&#x11a;" horiz-adv-x="1198" d="M168 0v1462h922v-112h-795v-539h754v-115h-754v-583h813v-113h-940zM309 1898h119l172 -196l172 196h117l-230 -282h-120z" />
<glyph unicode="&#x11b;" horiz-adv-x="1175" d="M102 520q0 265 140 415t364 150q222 0 345.5 -138t123.5 -384v-67h-852q7 -202 111.5 -316t271.5 -114q135 0 220.5 55t113.5 155h117q-32 -142 -153.5 -225.5t-297.5 -83.5q-227 0 -365.5 148.5t-138.5 404.5zM225 590h731q-8 190 -93 295.5t-257 105.5 q-173 0 -269.5 -103t-111.5 -298zM297 1495h119l172 -197l172 197h117l-230 -283h-121z" />
<glyph unicode="&#x11c;" horiz-adv-x="1478" d="M104 727q0 354 176.5 563t479.5 209q228 0 383.5 -108.5t191.5 -298.5l-121 -21q-31 148 -151.5 233t-304.5 85q-165 0 -284 -83.5t-178.5 -231.5t-59.5 -345q0 -320 140.5 -486.5t387.5 -166.5q153 0 262 68.5t161 181.5t52 256v26h-428v113h555v-146 q0 -174 -71.5 -311.5t-209.5 -218t-321 -80.5q-305 0 -482.5 203.5t-177.5 558.5zM451 1616l229 282h121l229 -282h-119l-172 196l-170 -196h-118z" />
<glyph unicode="&#x11d;" horiz-adv-x="1232" d="M102 551q0 243 139 388.5t361 145.5q114 0 214 -47.5t155 -138.5v154h116v-987q0 -235 -119.5 -360.5t-365.5 -125.5q-413 0 -452 305h116q22 -106 104.5 -156.5t231.5 -50.5q367 0 367 373v166q-53 -94 -151.5 -146.5t-225.5 -52.5q-222 0 -356 146.5t-134 386.5z M229 553q0 -194 100 -313t271 -119q175 0 274 109.5t99 285.5v68q0 187 -92.5 294t-264.5 107t-279.5 -111.5t-107.5 -320.5zM326 1212l229 283h121l229 -283h-119l-172 197l-170 -197h-118z" />
<glyph unicode="&#x11e;" horiz-adv-x="1478" d="M104 727q0 354 176.5 563t479.5 209q228 0 383.5 -108.5t191.5 -298.5l-121 -21q-31 148 -151.5 233t-304.5 85q-165 0 -284 -83.5t-178.5 -231.5t-59.5 -345q0 -320 140.5 -486.5t387.5 -166.5q153 0 262 68.5t161 181.5t52 256v26h-428v113h555v-146 q0 -174 -71.5 -311.5t-209.5 -218t-321 -80.5q-305 0 -482.5 203.5t-177.5 558.5zM483 1886h92q0 -88 44 -134t118 -46q76 0 120 46t44 134h96q0 -126 -68.5 -195t-191.5 -69q-120 0 -187 69t-67 195z" />
<glyph unicode="&#x11f;" horiz-adv-x="1232" d="M102 551q0 243 139 388.5t361 145.5q114 0 214 -47.5t155 -138.5v154h116v-987q0 -235 -119.5 -360.5t-365.5 -125.5q-413 0 -452 305h116q22 -106 104.5 -156.5t231.5 -50.5q367 0 367 373v166q-53 -94 -151.5 -146.5t-225.5 -52.5q-222 0 -356 146.5t-134 386.5z M229 553q0 -194 100 -313t271 -119q175 0 274 109.5t99 285.5v68q0 187 -92.5 294t-264.5 107t-279.5 -111.5t-107.5 -320.5zM360 1483h93q0 -88 43.5 -134t117.5 -46q76 0 120 46t44 134h96q0 -126 -68.5 -195t-191.5 -69q-120 0 -187 69t-67 195z" />
<glyph unicode="&#x120;" horiz-adv-x="1478" d="M104 727q0 354 176.5 563t479.5 209q228 0 383.5 -108.5t191.5 -298.5l-121 -21q-31 148 -151.5 233t-304.5 85q-165 0 -284 -83.5t-178.5 -231.5t-59.5 -345q0 -320 140.5 -486.5t387.5 -166.5q153 0 262 68.5t161 181.5t52 256v26h-428v113h555v-146 q0 -174 -71.5 -311.5t-209.5 -218t-321 -80.5q-305 0 -482.5 203.5t-177.5 558.5zM655 1751q0 40 23 62t63 22t62 -22t22 -62q0 -41 -22 -63.5t-62 -22.5t-63 22.5t-23 63.5z" />
<glyph unicode="&#x121;" horiz-adv-x="1232" d="M102 551q0 243 139 388.5t361 145.5q114 0 214 -47.5t155 -138.5v154h116v-987q0 -235 -119.5 -360.5t-365.5 -125.5q-413 0 -452 305h116q22 -106 104.5 -156.5t231.5 -50.5q367 0 367 373v166q-53 -94 -151.5 -146.5t-225.5 -52.5q-222 0 -356 146.5t-134 386.5z M229 553q0 -194 100 -313t271 -119q175 0 274 109.5t99 285.5v68q0 187 -92.5 294t-264.5 107t-279.5 -111.5t-107.5 -320.5zM530 1348q0 40 23 62t63 22t62 -22t22 -62q0 -41 -22 -63.5t-62 -22.5t-63 22.5t-23 63.5z" />
<glyph unicode="&#x122;" horiz-adv-x="1449" d="M104 727q0 354 176.5 563t479.5 209q228 0 383.5 -108.5t191.5 -298.5l-121 -21q-31 148 -151.5 233t-304.5 85q-165 0 -284 -83.5t-178.5 -231.5t-59.5 -345q0 -320 140.5 -486.5t387.5 -166.5q153 0 262 68.5t161 181.5t52 256v26h-428v113h555v-146 q0 -174 -71.5 -311.5t-209.5 -218t-321 -80.5q-305 0 -482.5 203.5t-177.5 558.5zM575 -436l152 293h137l-178 -293h-111z" />
<glyph unicode="&#x123;" horiz-adv-x="1198" d="M102 551q0 243 139 388.5t361 145.5q114 0 214 -47.5t155 -138.5v154h116v-987q0 -235 -119.5 -360.5t-365.5 -125.5q-413 0 -452 305h116q22 -106 104.5 -156.5t231.5 -50.5q367 0 367 373v166q-53 -94 -151.5 -146.5t-225.5 -52.5q-222 0 -356 146.5t-134 386.5z M229 553q0 -194 100 -313t271 -119q175 0 274 109.5t99 285.5v68q0 187 -92.5 294t-264.5 107t-279.5 -111.5t-107.5 -320.5zM666 1212l172 283h104l-145 -283h-131z" />
<glyph unicode="&#x124;" horiz-adv-x="1439" d="M170 0v1462h127v-645h846v645h127v-1462h-127v696h-846v-696h-127zM428 1616l229 282h121l230 -282h-119l-170 196l-172 -196h-119z" />
<glyph unicode="&#x125;" horiz-adv-x="1177" d="M-88 1616l229 282h121l230 -282h-119l-170 196l-172 -196h-119zM143 0v1462h119v-547q69 82 166.5 126t212.5 44q186 0 296 -99t110 -284v-702h-119v680q0 152 -80.5 226.5t-220.5 74.5q-163 0 -275 -115q-51 -47 -70.5 -97t-19.5 -132v-637h-119z" />
<glyph unicode="&#x126;" horiz-adv-x="1454" d="M20 1083v105h168v274h127v-274h826v274h125v-274h168v-105h-168v-1083h-125v684h-826v-684h-127v1083h-168zM315 803h826v280h-826v-280z" />
<glyph unicode="&#x127;" horiz-adv-x="1165" d="M20 1208v90h146v164h121v-164h358v-90h-358v-348q76 92 177.5 139.5t209.5 47.5q354 0 354 -385v-662h-119v639q0 157 -64 230t-194 73q-155 0 -270 -106q-56 -53 -75 -103t-19 -135v-598h-121v1208h-146z" />
<glyph unicode="&#x128;" horiz-adv-x="460" d="M-84 1587q0 250 168 250q49 0 87 -19t87 -73q37 -38 63 -57t52 -19q84 0 84 162h90q0 -248 -170 -248q-48 0 -85 19.5t-89 72.5q-69 76 -115 76q-82 0 -82 -164h-90zM168 0v1462h127v-1462h-127z" />
<glyph unicode="&#x129;" horiz-adv-x="409" d="M-104 1233q0 254 167 254q49 0 85 -20.5t85 -73.5l17 -17l16.5 -16.5t14.5 -14t16 -13t14.5 -8.5t16.5 -7t16 -2q86 0 86 166h88q0 -254 -168 -254q-50 0 -84.5 20.5t-85.5 73.5q-49 54 -69 67t-41 13q-84 0 -84 -168h-90zM145 0v1053h121v-1053h-121z" />
<glyph unicode="&#x12a;" horiz-adv-x="460" d="M-23 1698v96h508v-96h-508zM168 0v1462h127v-1462h-127z" />
<glyph unicode="&#x12b;" horiz-adv-x="409" d="M16 1294v97h508v-97h-508zM145 0v1053h121v-1053h-121z" />
<glyph unicode="&#x12c;" horiz-adv-x="460" d="M-25 1886h93q0 -88 43.5 -134t117.5 -46q76 0 120 46t44 134h96q0 -126 -68.5 -195t-191.5 -69q-120 0 -187 69t-67 195zM168 0v1462h127v-1462h-127z" />
<glyph unicode="&#x12d;" horiz-adv-x="409" d="M-49 1483h92q0 -88 44 -134t118 -46q76 0 120 46t44 134h96q0 -126 -68.5 -195t-191.5 -69q-120 0 -187 69t-67 195zM145 0v1053h121v-1053h-121z" />
<glyph unicode="&#x12e;" horiz-adv-x="460" d="M158 -193q0 99 110 193h-100v1462h127v-1442l102 -6q-131 -96 -131 -186q0 -82 99 -82q23 0 51 4v-86q-32 -4 -60 -4q-198 0 -198 147z" />
<glyph unicode="&#x12f;" horiz-adv-x="409" d="M23 -193q0 105 122 203v1043h121v-1053h-22q-113 -85 -113 -172q0 -82 98 -82q24 0 52 4v-86q-32 -4 -60 -4q-198 0 -198 147zM121 1348q0 40 23 62t63 22t62 -22t22 -62q0 -41 -22 -63.5t-62 -22.5t-63 22.5t-23 63.5z" />
<glyph unicode="&#x130;" horiz-adv-x="460" d="M145 1751q0 40 23 62t63 22t62 -22t22 -62q0 -41 -22 -63.5t-62 -22.5t-63 22.5t-23 63.5zM168 0v1462h127v-1462h-127z" />
<glyph unicode="&#x131;" horiz-adv-x="409" d="M145 0v1053h121v-1053h-121z" />
<glyph unicode="&#x132;" horiz-adv-x="1654" d="M168 0v1462h127v-1462h-127zM666 424h127q26 -173 114.5 -260.5t257.5 -87.5q183 0 269 103.5t86 305.5v977h127v-987q0 -249 -125 -379.5t-353 -130.5q-222 0 -351 115.5t-152 343.5z" />
<glyph unicode="&#x133;" horiz-adv-x="823" d="M145 0v1053h121v-1053h-121zM186 1348q0 40 23 62t63 22t62 -22t22 -62q0 -41 -22 -63.5t-62 -22.5t-63 22.5t-23 63.5zM418 -391l22 96q54 -20 101 -20q73 0 109 43t36 149v1176h121v-1162q0 -157 -65 -234t-203 -77q-57 0 -121 29zM723 1348q0 40 23 62t63 22t62 -22 t22 -62q0 -41 -22 -63.5t-62 -22.5t-63 22.5t-23 63.5z" />
<glyph unicode="&#x134;" horiz-adv-x="1193" d="M57 424h127q26 -173 115 -260.5t258 -87.5q182 0 268 103.5t86 305.5v977h127v-987q0 -249 -124.5 -379.5t-352.5 -130.5q-222 0 -351.5 115.5t-152.5 343.5zM684 1616l229 282h121l230 -282h-119l-170 196l-172 -196h-119z" />
<glyph unicode="&#x135;" horiz-adv-x="409" d="M-123 -391l23 96q54 -20 100 -20q73 0 109 43t36 149v1176h121v-1162q0 -157 -65 -234t-203 -77q-57 0 -121 29zM-86 1212l229 283h121l230 -283h-119l-170 197l-172 -197h-119z" />
<glyph unicode="&#x136;" horiz-adv-x="1306" d="M168 0v1462h127v-788l774 788h148l-650 -665l705 -797h-148l-639 715l-190 -189v-526h-127zM455 -436l151 293h137l-178 -293h-110z" />
<glyph unicode="&#x137;" horiz-adv-x="1030" d="M143 0v1462h119v-917l561 508h152l-475 -432l518 -621h-152l-444 547l-160 -141v-406h-119zM463 -426l147 283h131l-172 -283h-106z" />
<glyph unicode="&#x139;" horiz-adv-x="1138" d="M127 1583l231 266h154l-260 -266h-125zM168 0v1462h127v-1347h792v-115h-919z" />
<glyph unicode="&#x13a;" horiz-adv-x="409" d="M106 1616l226 282h147l-252 -282h-121zM145 0v1462h121v-1462h-121z" />
<glyph unicode="&#x13b;" horiz-adv-x="1138" d="M168 0v1462h127v-1347h792v-115h-919zM412 -436l151 293h137l-178 -293h-110z" />
<glyph unicode="&#x13c;" horiz-adv-x="409" d="M72 -426l147 283h131l-172 -283h-106zM145 0v1462h121v-1462h-121z" />
<glyph unicode="&#x13d;" horiz-adv-x="1138" d="M168 0v1462h127v-1347h792v-115h-919zM786 1049l64 413h127l-92 -413h-99z" />
<glyph unicode="&#x13e;" horiz-adv-x="509" d="M145 0v1462h121v-1462h-121zM455 1049l63 413h127l-92 -413h-98z" />
<glyph unicode="&#x141;" horiz-adv-x="1159" d="M20 414v121l168 118v809h127v-719l453 322v-123l-453 -321v-506h793l-23 -115h-897v532z" />
<glyph unicode="&#x142;" horiz-adv-x="485" d="M6 578v108l178 127v649h119v-571l178 129v-109l-178 -129v-782h-119v707z" />
<glyph unicode="&#x143;" horiz-adv-x="1449" d="M166 0v1462h127l868 -1261v1261h123v-1462h-127l-868 1253v-1253h-123zM621 1583l231 266h154l-261 -266h-124z" />
<glyph unicode="&#x144;" horiz-adv-x="1171" d="M143 0v1053h119v-152q71 91 172 137.5t217 46.5q186 0 284.5 -97.5t98.5 -285.5v-702h-119v680q0 301 -288 301q-94 0 -168.5 -37.5t-122.5 -97.5q-38 -40 -56 -87.5t-18 -121.5v-637h-119zM487 1212l226 283h147l-252 -283h-121z" />
<glyph unicode="&#x145;" horiz-adv-x="1415" d="M166 0v1462h127l868 -1261v1261h123v-1462h-127l-868 1253v-1253h-123zM547 -436l151 293h138l-179 -293h-110z" />
<glyph unicode="&#x146;" horiz-adv-x="1148" d="M143 0v1053h119v-152q71 91 172 137.5t217 46.5q186 0 284.5 -97.5t98.5 -285.5v-702h-119v680q0 301 -288 301q-94 0 -168.5 -37.5t-122.5 -97.5q-38 -40 -56 -87.5t-18 -121.5v-637h-119zM545 -426l147 283h131l-172 -283h-106z" />
<glyph unicode="&#x147;" horiz-adv-x="1449" d="M166 0v1462h127l868 -1261v1261h123v-1462h-127l-868 1253v-1253h-123zM434 1898h119l172 -196l172 196h117l-230 -282h-120z" />
<glyph unicode="&#x148;" horiz-adv-x="1171" d="M143 0v1053h119v-152q71 91 172 137.5t217 46.5q186 0 284.5 -97.5t98.5 -285.5v-702h-119v680q0 301 -288 301q-94 0 -168.5 -37.5t-122.5 -97.5q-38 -40 -56 -87.5t-18 -121.5v-637h-119zM295 1495h119l172 -197l172 197h116l-229 -283h-121z" />
<glyph unicode="&#x14a;" horiz-adv-x="1449" d="M168 0v1462h127l864 -1263v1263h123v-1448q0 -219 -115 -326.5t-333 -107.5q-175 0 -291 51l35 109q110 -47 253 -47q161 0 240 76.5t82 236.5l-862 1262v-1268h-123z" />
<glyph unicode="&#x14b;" horiz-adv-x="1163" d="M143 0v1053h119v-172q152 204 391 204q179 0 276 -98t97 -285v-784q0 -77 -12.5 -135.5t-41.5 -106t-81 -72t-127 -24.5q-88 0 -189 33l23 96q94 -24 147 -24q162 0 162 200v795q0 301 -280 301q-174 0 -289 -133q-41 -41 -58.5 -88.5t-17.5 -122.5v-637h-119z" />
<glyph unicode="&#x14c;" horiz-adv-x="1581" d="M117 731q0 163 44.5 302.5t128.5 243.5t213.5 163t289.5 59q307 0 490 -207t183 -557q0 -230 -79.5 -403.5t-232.5 -270t-361 -96.5t-362 97t-234 270t-80 399zM248 731q0 -195 60 -341t184 -230t301 -84q173 0 296.5 84t184.5 230.5t61 340.5q0 302 -141 480t-401 178 q-176 0 -300.5 -84.5t-184.5 -231t-60 -342.5zM539 1698v96h508v-96h-508z" />
<glyph unicode="&#x14d;" horiz-adv-x="1226" d="M102 524q0 260 141.5 410.5t372.5 150.5q232 0 370 -148.5t138 -408.5q0 -258 -139.5 -409.5t-372.5 -151.5q-234 0 -372 149.5t-138 407.5zM229 528q0 -213 100.5 -335.5t284.5 -122.5q182 0 283.5 120.5t101.5 337.5q0 213 -100.5 335t-284.5 122t-284.5 -122.5 t-100.5 -334.5zM360 1294v97h508v-97h-508z" />
<glyph unicode="&#x14e;" horiz-adv-x="1581" d="M117 731q0 163 44.5 302.5t128.5 243.5t213.5 163t289.5 59q307 0 490 -207t183 -557q0 -230 -79.5 -403.5t-232.5 -270t-361 -96.5t-362 97t-234 270t-80 399zM248 731q0 -195 60 -341t184 -230t301 -84q173 0 296.5 84t184.5 230.5t61 340.5q0 302 -141 480t-401 178 q-176 0 -300.5 -84.5t-184.5 -231t-60 -342.5zM535 1886h92q0 -88 43.5 -134t117.5 -46q76 0 120 46t44 134h97q0 -126 -69 -195t-192 -69q-120 0 -186.5 69t-66.5 195z" />
<glyph unicode="&#x14f;" horiz-adv-x="1226" d="M102 524q0 260 141.5 410.5t372.5 150.5q232 0 370 -148.5t138 -408.5q0 -258 -139.5 -409.5t-372.5 -151.5q-234 0 -372 149.5t-138 407.5zM229 528q0 -213 100.5 -335.5t284.5 -122.5q182 0 283.5 120.5t101.5 337.5q0 213 -100.5 335t-284.5 122t-284.5 -122.5 t-100.5 -334.5zM358 1483h93q0 -88 43.5 -134t117.5 -46q76 0 120 46t44 134h96q0 -126 -68.5 -195t-191.5 -69q-120 0 -187 69t-67 195z" />
<glyph unicode="&#x150;" horiz-adv-x="1581" d="M117 731q0 163 44.5 302.5t128.5 243.5t213.5 163t289.5 59q307 0 490 -207t183 -557q0 -230 -79.5 -403.5t-232.5 -270t-361 -96.5t-362 97t-234 270t-80 399zM248 731q0 -195 60 -341t184 -230t301 -84q173 0 296.5 84t184.5 230.5t61 340.5q0 302 -141 480t-401 178 q-176 0 -300.5 -84.5t-184.5 -231t-60 -342.5zM461 1616l209 282h137l-234 -282h-112zM776 1616l207 282h139l-235 -282h-111z" />
<glyph unicode="&#x151;" horiz-adv-x="1226" d="M102 524q0 260 141.5 410.5t372.5 150.5q232 0 370 -148.5t138 -408.5q0 -258 -139.5 -409.5t-372.5 -151.5q-234 0 -372 149.5t-138 407.5zM229 528q0 -213 100.5 -335.5t284.5 -122.5q182 0 283.5 120.5t101.5 337.5q0 213 -100.5 335t-284.5 122t-284.5 -122.5 t-100.5 -334.5zM283 1212l209 283h137l-234 -283h-112zM598 1212l207 283h139l-235 -283h-111z" />
<glyph unicode="&#x152;" horiz-adv-x="2316" d="M117 731q0 122 26.5 234.5t81.5 210t134 169.5t191 113t245 41q197 0 338 -84.5t208 -245.5v293h873v-112h-750v-539h709v-115h-709v-583h762v-113h-885v295q-67 -161 -207 -245.5t-337 -84.5q-311 0 -495.5 209t-184.5 557zM248 731q0 -191 62.5 -338.5t188 -233 t298.5 -85.5q250 0 397 177.5t147 479.5q0 303 -150 480.5t-394 177.5q-114 0 -207 -37.5t-155.5 -100.5t-105.5 -148.5t-62 -178.5t-19 -193z" />
<glyph unicode="&#x153;" horiz-adv-x="2121" d="M102 524q0 259 146 410t387 151q171 0 291 -79t172 -226q55 147 175 226t286 79q224 0 343 -138t119 -384v-67h-864q7 -202 113.5 -316t285.5 -114q271 0 330 210h115q-30 -145 -144 -227t-301 -82q-169 0 -287.5 80.5t-170.5 231.5q-57 -152 -175.5 -232t-289.5 -80 q-246 0 -388.5 149t-142.5 408zM229 526q0 -213 104.5 -334.5t299.5 -121.5q193 0 299 123t106 335q0 215 -105.5 336t-299.5 121t-299 -122.5t-105 -336.5zM1159 590h744q-6 401 -347 401q-174 0 -276.5 -108t-120.5 -293z" />
<glyph unicode="&#x154;" horiz-adv-x="1277" d="M168 0v1462h487q238 0 368 -99t130 -304q0 -177 -87 -284t-245 -142l363 -633h-142l-348 616q-14 -2 -45 -2h-356v-614h-125zM293 727h369q362 0 362 328q0 155 -87.5 227t-287.5 72h-356v-627zM535 1583l231 266h154l-261 -266h-124z" />
<glyph unicode="&#x155;" horiz-adv-x="716" d="M143 0v1053h119v-168q56 91 142 138.5t186 47.5q53 0 86 -8l-12 -113q-33 8 -80 8q-146 0 -250 -118q-72 -84 -72 -222v-618h-119zM260 1212l225 283h148l-252 -283h-121z" />
<glyph unicode="&#x156;" horiz-adv-x="1277" d="M168 0v1462h487q238 0 368 -99t130 -304q0 -177 -87 -284t-245 -142l363 -633h-142l-348 616q-14 -2 -45 -2h-356v-614h-125zM293 727h369q362 0 362 328q0 155 -87.5 227t-287.5 72h-356v-627zM487 -436l152 293h137l-178 -293h-111z" />
<glyph unicode="&#x157;" horiz-adv-x="716" d="M68 -426l147 283h131l-172 -283h-106zM143 0v1053h119v-168q56 91 142 138.5t186 47.5q53 0 86 -8l-12 -113q-33 8 -80 8q-146 0 -250 -118q-72 -84 -72 -222v-618h-119z" />
<glyph unicode="&#x158;" horiz-adv-x="1277" d="M168 0v1462h487q238 0 368 -99t130 -304q0 -177 -87 -284t-245 -142l363 -633h-142l-348 616q-14 -2 -45 -2h-356v-614h-125zM293 727h369q362 0 362 328q0 155 -87.5 227t-287.5 72h-356v-627zM348 1898h119l172 -196l172 196h117l-230 -282h-120z" />
<glyph unicode="&#x159;" horiz-adv-x="716" d="M68 1495h118l172 -197l172 197h117l-229 -283h-121zM143 0v1053h119v-168q56 91 142 138.5t186 47.5q53 0 86 -8l-12 -113q-33 8 -80 8q-146 0 -250 -118q-72 -84 -72 -222v-618h-119z" />
<glyph unicode="&#x15a;" horiz-adv-x="1282" d="M88 385h125q27 -157 130.5 -234t299.5 -77q185 0 291 79t106 234q0 127 -72 195t-243 94l-176 26q-426 67 -426 400q0 181 138.5 289t367.5 108q236 0 368.5 -94t161.5 -264l-117 -19q-31 138 -132 203.5t-279 65.5t-279.5 -70t-101.5 -213q0 -125 74.5 -192.5 t236.5 -92.5l187 -28q222 -32 324 -129t102 -281q0 -132 -69 -228t-188 -144t-274 -48q-247 0 -389.5 107.5t-165.5 312.5zM537 1583l231 266h154l-260 -266h-125z" />
<glyph unicode="&#x15b;" horiz-adv-x="1046" d="M88 293h115q20 -119 101 -173t231 -54q147 0 218.5 54t71.5 154q0 91 -57.5 139t-189.5 68l-111 17q-176 26 -263 94.5t-87 198.5q0 137 108 215.5t291 78.5q356 0 410 -274l-109 -18q-23 98 -96.5 146t-202.5 48q-148 0 -217.5 -50.5t-69.5 -139.5q0 -80 54 -123 t184 -68l123 -20q189 -34 272.5 -102t83.5 -208q0 -141 -106 -225t-303 -84t-317.5 79.5t-133.5 246.5zM426 1212l225 283h148l-252 -283h-121z" />
<glyph unicode="&#x15c;" horiz-adv-x="1282" d="M88 385h125q27 -157 130.5 -234t299.5 -77q185 0 291 79t106 234q0 127 -72 195t-243 94l-176 26q-426 67 -426 400q0 181 138.5 289t367.5 108q236 0 368.5 -94t161.5 -264l-117 -19q-31 138 -132 203.5t-279 65.5t-279.5 -70t-101.5 -213q0 -125 74.5 -192.5 t236.5 -92.5l187 -28q222 -32 324 -129t102 -281q0 -132 -69 -228t-188 -144t-274 -48q-247 0 -389.5 107.5t-165.5 312.5zM350 1616l230 282h120l230 -282h-119l-170 196l-172 -196h-119z" />
<glyph unicode="&#x15d;" horiz-adv-x="1046" d="M88 293h115q20 -119 101 -173t231 -54q147 0 218.5 54t71.5 154q0 91 -57.5 139t-189.5 68l-111 17q-176 26 -263 94.5t-87 198.5q0 137 108 215.5t291 78.5q356 0 410 -274l-109 -18q-23 98 -96.5 146t-202.5 48q-148 0 -217.5 -50.5t-69.5 -139.5q0 -80 54 -123 t184 -68l123 -20q189 -34 272.5 -102t83.5 -208q0 -141 -106 -225t-303 -84t-317.5 79.5t-133.5 246.5zM233 1212l230 283h121l229 -283h-119l-172 197l-170 -197h-119z" />
<glyph unicode="&#x15e;" horiz-adv-x="1282" d="M88 385h125q27 -157 130.5 -234t299.5 -77q185 0 291 79t106 234q0 127 -72 195t-243 94l-176 26q-426 67 -426 400q0 181 138.5 289t367.5 108q236 0 368.5 -94t161.5 -264l-117 -19q-31 138 -132 203.5t-279 65.5t-279.5 -70t-101.5 -213q0 -125 74.5 -192.5 t236.5 -92.5l187 -28q222 -32 324 -129t102 -281q0 -196 -145 -307t-380 -113l-22 -71q192 -11 192 -148q0 -76 -59.5 -111.5t-177.5 -35.5q-74 0 -123 10v80q90 -11 121 -11q139 0 139 76q0 26 -13.5 43t-40.5 24t-50 9t-58 2h-37l47 135q-213 17 -335 123.5t-144 294.5z " />
<glyph unicode="&#x15f;" horiz-adv-x="1046" d="M88 293h115q20 -119 101 -173t231 -54q147 0 218.5 54t71.5 154q0 91 -57.5 139t-189.5 68l-111 17q-176 26 -263 94.5t-87 198.5q0 137 108 215.5t291 78.5q356 0 410 -274l-109 -18q-23 98 -96.5 146t-202.5 48q-148 0 -217.5 -50.5t-69.5 -139.5q0 -80 54 -123 t184 -68l123 -20q189 -34 272.5 -102t83.5 -208q0 -141 -106 -225t-303 -84h-4l-25 -73q192 -11 192 -148q0 -76 -59.5 -111.5t-177.5 -35.5q-74 0 -123 10v80q90 -11 121 -11q139 0 139 76q0 26 -13.5 43t-40.5 24t-50 9t-58 2h-37l50 139q-161 16 -257 95t-108 227z" />
<glyph unicode="&#x160;" horiz-adv-x="1282" d="M88 385h125q27 -157 130.5 -234t299.5 -77q185 0 291 79t106 234q0 127 -72 195t-243 94l-176 26q-426 67 -426 400q0 181 138.5 289t367.5 108q236 0 368.5 -94t161.5 -264l-117 -19q-31 138 -132 203.5t-279 65.5t-279.5 -70t-101.5 -213q0 -125 74.5 -192.5 t236.5 -92.5l187 -28q222 -32 324 -129t102 -281q0 -132 -69 -228t-188 -144t-274 -48q-247 0 -389.5 107.5t-165.5 312.5zM350 1898h119l172 -196l172 196h117l-230 -282h-120z" />
<glyph unicode="&#x161;" horiz-adv-x="1046" d="M88 293h115q20 -119 101 -173t231 -54q147 0 218.5 54t71.5 154q0 91 -57.5 139t-189.5 68l-111 17q-176 26 -263 94.5t-87 198.5q0 137 108 215.5t291 78.5q356 0 410 -274l-109 -18q-23 98 -96.5 146t-202.5 48q-148 0 -217.5 -50.5t-69.5 -139.5q0 -80 54 -123 t184 -68l123 -20q189 -34 272.5 -102t83.5 -208q0 -141 -106 -225t-303 -84t-317.5 79.5t-133.5 246.5zM233 1495h119l170 -197l174 197h117l-229 -283h-121z" />
<glyph unicode="&#x162;" horiz-adv-x="1204" d="M39 1348v114h1126v-114h-501v-1348h-39l-35 -106q192 -11 192 -148q0 -76 -59.5 -111.5t-177.5 -35.5q-74 0 -123 10v80q90 -11 121 -11q139 0 139 76q0 26 -13.5 43t-40.5 24t-50 9t-58 2h-37l60 168h-4v1348h-500z" />
<glyph unicode="&#x163;" horiz-adv-x="684" d="M39 954v99h162v293h121v-293h311v-99h-311v-678q0 -102 40 -149t121 -47q76 0 150 24l18 -96q-79 -31 -172 -31q-62 0 -117 19l-32 -102q192 -11 192 -148q0 -76 -59.5 -111.5t-177.5 -35.5q-74 0 -123 10v80q90 -11 121 -11q139 0 139 76q0 26 -13.5 43t-40.5 24t-50 9 t-58 2h-37l62 176l51 -2q-135 69 -135 289v659h-162z" />
<glyph unicode="&#x164;" horiz-adv-x="1204" d="M39 1348v114h1126v-114h-501v-1348h-125v1348h-500zM311 1898h119l172 -196l172 196h117l-229 -282h-121z" />
<glyph unicode="&#x165;" horiz-adv-x="684" d="M39 954v99h162v293h121v-293h311v-99h-311v-678q0 -102 40 -149t121 -47q76 0 150 24l18 -96q-79 -31 -172 -31q-278 0 -278 318v659h-162zM528 1192l64 414h127l-92 -414h-99z" />
<glyph unicode="&#x166;" horiz-adv-x="1204" d="M39 1348v114h1126v-114h-501v-570h329v-108h-329v-670h-125v670h-330v108h330v570h-500z" />
<glyph unicode="&#x167;" horiz-adv-x="708" d="M39 516v96h162v342h-162v99h162v293h121v-293h311v-99h-311v-342h311v-96h-311v-240q0 -102 40 -149t121 -47q76 0 150 24l18 -96q-79 -31 -172 -31q-278 0 -278 318v221h-162z" />
<glyph unicode="&#x168;" horiz-adv-x="1392" d="M141 580v882h125v-889q0 -243 109.5 -370t320.5 -127t320.5 127t109.5 370v889h125v-884q0 -286 -148.5 -449.5t-406.5 -163.5q-259 0 -407 164t-148 451zM381 1587q0 250 168 250q49 0 87 -19t87 -73q37 -38 63 -57t52 -19q84 0 84 162h90q0 -248 -170 -248 q-48 0 -85 19.5t-89 72.5q-69 76 -115 76q-82 0 -82 -164h-90z" />
<glyph unicode="&#x169;" horiz-adv-x="1140" d="M137 360v693h119v-670q0 -159 76.5 -235t214.5 -76q154 0 250 108q52 52 68 100.5t16 135.5v637h118v-1053h-116v154q-62 -90 -158 -138.5t-205 -48.5q-181 0 -282 100.5t-101 292.5zM258 1233q0 254 168 254q49 0 85 -20.5t85 -73.5l17 -17l16.5 -16.5t14.5 -14t16 -13 t14.5 -8.5t16.5 -7t16 -2q86 0 86 166h88q0 -254 -168 -254q-50 0 -84.5 20.5t-85.5 73.5q-28 31 -39 42t-32 24.5t-40 13.5q-84 0 -84 -168h-90z" />
<glyph unicode="&#x16a;" horiz-adv-x="1392" d="M141 580v882h125v-889q0 -243 109.5 -370t320.5 -127t320.5 127t109.5 370v889h125v-884q0 -286 -148.5 -449.5t-406.5 -163.5q-259 0 -407 164t-148 451zM442 1698v96h508v-96h-508z" />
<glyph unicode="&#x16b;" horiz-adv-x="1140" d="M137 360v693h119v-670q0 -159 76.5 -235t214.5 -76q154 0 250 108q52 52 68 100.5t16 135.5v637h118v-1053h-116v154q-62 -90 -158 -138.5t-205 -48.5q-181 0 -282 100.5t-101 292.5zM317 1294v97h508v-97h-508z" />
<glyph unicode="&#x16c;" horiz-adv-x="1392" d="M141 580v882h125v-889q0 -243 109.5 -370t320.5 -127t320.5 127t109.5 370v889h125v-884q0 -286 -148.5 -449.5t-406.5 -163.5q-259 0 -407 164t-148 451zM440 1886h92q0 -88 44 -134t118 -46q76 0 120 46t44 134h96q0 -126 -68.5 -195t-191.5 -69q-120 0 -187 69 t-67 195z" />
<glyph unicode="&#x16d;" horiz-adv-x="1140" d="M137 360v693h119v-670q0 -159 76.5 -235t214.5 -76q154 0 250 108q52 52 68 100.5t16 135.5v637h118v-1053h-116v154q-62 -90 -158 -138.5t-205 -48.5q-181 0 -282 100.5t-101 292.5zM315 1483h93q0 -88 43.5 -134t117.5 -46q76 0 120 46t44 134h96q0 -126 -68.5 -195 t-191.5 -69q-120 0 -187 69t-67 195z" />
<glyph unicode="&#x16e;" horiz-adv-x="1392" d="M141 580v882h125v-889q0 -243 109.5 -370t320.5 -127t320.5 127t109.5 370v889h125v-884q0 -286 -148.5 -449.5t-406.5 -163.5q-259 0 -407 164t-148 451zM504 1804q0 89 54.5 142t135.5 53q84 0 139.5 -52.5t55.5 -142.5t-55 -141t-140 -51q-81 0 -135.5 51.5 t-54.5 140.5zM586 1804q0 -56 28 -86t80 -30q54 0 83.5 29.5t29.5 86.5q0 58 -29.5 88.5t-83.5 30.5q-108 0 -108 -119z" />
<glyph unicode="&#x16f;" horiz-adv-x="1140" d="M137 360v693h119v-670q0 -159 76.5 -235t214.5 -76q154 0 250 108q52 52 68 100.5t16 135.5v637h118v-1053h-116v154q-62 -90 -158 -138.5t-205 -48.5q-181 0 -282 100.5t-101 292.5zM379 1401q0 89 54.5 141.5t135.5 52.5q84 0 139.5 -52t55.5 -142t-55 -141.5 t-140 -51.5q-81 0 -135.5 52t-54.5 141zM461 1401q0 -57 28.5 -87t79.5 -30q54 0 83.5 30t29.5 87q0 58 -29.5 88.5t-83.5 30.5q-108 0 -108 -119z" />
<glyph unicode="&#x170;" horiz-adv-x="1392" d="M141 580v882h125v-889q0 -243 109.5 -370t320.5 -127t320.5 127t109.5 370v889h125v-884q0 -286 -148.5 -449.5t-406.5 -163.5q-259 0 -407 164t-148 451zM365 1616l208 282h138l-234 -282h-112zM680 1616l207 282h139l-235 -282h-111z" />
<glyph unicode="&#x171;" horiz-adv-x="1140" d="M137 360v693h119v-670q0 -159 76.5 -235t214.5 -76q154 0 250 108q52 52 68 100.5t16 135.5v637h118v-1053h-116v154q-62 -90 -158 -138.5t-205 -48.5q-181 0 -282 100.5t-101 292.5zM240 1212l209 283h137l-234 -283h-112zM555 1212l207 283h139l-235 -283h-111z" />
<glyph unicode="&#x172;" horiz-adv-x="1392" d="M141 580v882h125v-889q0 -243 109.5 -370t320.5 -127t320.5 127t109.5 370v889h125v-884q0 -286 -148.5 -449.5t-406.5 -163.5q-259 0 -407 164t-148 451zM940 -193q0 108 135 213l105 -6q-131 -96 -131 -186q0 -82 98 -82q23 0 51 4v-86q-32 -4 -59 -4q-199 0 -199 147z " />
<glyph unicode="&#x173;" horiz-adv-x="1140" d="M137 360v693h119v-670q0 -159 76.5 -235t214.5 -76q154 0 250 108q52 52 68 100.5t16 135.5v637h118v-1039h11q-6 -3 -11 -8v-6h-8q-112 -85 -112 -172q0 -82 98 -82q23 0 51 4v-86q-32 -4 -59 -4q-199 0 -199 147q0 101 113 195v152q-62 -90 -158 -138.5t-205 -48.5 q-181 0 -282 100.5t-101 292.5z" />
<glyph unicode="&#x174;" horiz-adv-x="1851" d="M41 1462h141l334 -1286l346 1280h137l344 -1282l334 1288h133l-399 -1462h-135l-352 1298l-344 -1298h-134zM635 1616l229 282h121l229 -282h-118l-172 196l-170 -196h-119z" />
<glyph unicode="&#x175;" horiz-adv-x="1454" d="M20 1053h130l247 -912l273 908h123l268 -906l246 910h125l-308 -1053h-129l-268 911l-270 -911h-129zM436 1212l230 283h120l230 -283h-119l-170 197l-172 -197h-119z" />
<glyph unicode="&#x176;" horiz-adv-x="1204" d="M37 1462h145l422 -723l430 723h133l-497 -835v-627h-127v625zM311 1616l230 282h121l229 -282h-119l-170 196l-172 -196h-119z" />
<glyph unicode="&#x177;" horiz-adv-x="1019" d="M16 1053h138l376 -901l344 901h130l-445 -1116l-139 -357h-125l174 440zM219 1212l230 283h120l230 -283h-119l-170 197l-172 -197h-119z" />
<glyph unicode="&#x178;" horiz-adv-x="1204" d="M37 1462h145l422 -723l430 723h133l-497 -835v-627h-127v625zM348 1751q0 40 22.5 62t63.5 22q40 0 62 -22t22 -62q0 -41 -22 -63.5t-62 -22.5q-41 0 -63.5 22.5t-22.5 63.5zM684 1751q0 40 22.5 62t63.5 22q40 0 62 -22t22 -62q0 -41 -22 -63.5t-62 -22.5 q-41 0 -63.5 22.5t-22.5 63.5z" />
<glyph unicode="&#x179;" horiz-adv-x="1193" d="M74 0v100l884 1250h-870v112h1020v-100l-885 -1247h903v-115h-1052zM494 1583l231 266h154l-261 -266h-124z" />
<glyph unicode="&#x17a;" horiz-adv-x="931" d="M59 0v88l650 866h-637v99h784v-90l-649 -865h682v-98h-830zM369 1212l225 283h147l-252 -283h-120z" />
<glyph unicode="&#x17b;" horiz-adv-x="1193" d="M74 0v100l884 1250h-870v112h1020v-100l-885 -1247h903v-115h-1052zM512 1751q0 40 23 62t63 22t62 -22t22 -62q0 -41 -22 -63.5t-62 -22.5t-63 22.5t-23 63.5z" />
<glyph unicode="&#x17c;" horiz-adv-x="931" d="M59 0v88l650 866h-637v99h784v-90l-649 -865h682v-98h-830zM381 1348q0 40 23 62t63 22t62 -22t22 -62q0 -41 -22 -63.5t-62 -22.5t-63 22.5t-23 63.5z" />
<glyph unicode="&#x17d;" horiz-adv-x="1193" d="M74 0v100l884 1250h-870v112h1020v-100l-885 -1247h903v-115h-1052zM307 1898h119l172 -196l172 196h117l-230 -282h-120z" />
<glyph unicode="&#x17e;" horiz-adv-x="931" d="M59 0v88l650 866h-637v99h784v-90l-649 -865h682v-98h-830zM176 1495h119l170 -197l174 197h117l-230 -283h-120z" />
<glyph unicode="&#x17f;" horiz-adv-x="413" d="M145 0v1161q0 152 85 235t225 83q88 0 159 -25l-22 -94q-51 16 -123 16q-95 0 -149 -51.5t-54 -159.5v-1165h-121z" />
<glyph unicode="&#x192;" horiz-adv-x="663" d="M-119 -387l23 96q94 -24 149 -24q160 0 160 200v1069h-164v99h164v108q0 152 83 235t224 83q92 0 160 -25l-21 -94q-56 16 -122 16q-97 0 -151 -51.5t-54 -159.5v-112h295v-99h-295v-1034q0 -161 -59.5 -250.5t-202.5 -89.5q-88 0 -189 33z" />
<glyph unicode="&#x218;" horiz-adv-x="1282" d="M88 385h125q27 -157 130.5 -234t299.5 -77q185 0 291 79t106 234q0 127 -72 195t-243 94l-176 26q-426 67 -426 400q0 181 138.5 289t367.5 108q236 0 368.5 -94t161.5 -264l-117 -19q-31 138 -132 203.5t-279 65.5t-279.5 -70t-101.5 -213q0 -125 74.5 -192.5 t236.5 -92.5l187 -28q222 -32 324 -129t102 -281q0 -132 -69 -228t-188 -144t-274 -48q-247 0 -389.5 107.5t-165.5 312.5zM463 -436l151 293h138l-179 -293h-110z" />
<glyph unicode="&#x219;" horiz-adv-x="1046" d="M88 293h115q20 -119 101 -173t231 -54q147 0 218.5 54t71.5 154q0 91 -57.5 139t-189.5 68l-111 17q-176 26 -263 94.5t-87 198.5q0 137 108 215.5t291 78.5q356 0 410 -274l-109 -18q-23 98 -96.5 146t-202.5 48q-148 0 -217.5 -50.5t-69.5 -139.5q0 -80 54 -123 t184 -68l123 -20q189 -34 272.5 -102t83.5 -208q0 -141 -106 -225t-303 -84t-317.5 79.5t-133.5 246.5zM477 -426l148 283h131l-172 -283h-107z" />
<glyph unicode="&#x21a;" horiz-adv-x="1204" d="M39 1348v114h1126v-114h-501v-1348h-125v1348h-500zM408 -436l151 293h137l-178 -293h-110z" />
<glyph unicode="&#x21b;" horiz-adv-x="684" d="M39 954v99h162v293h121v-293h311v-99h-311v-678q0 -102 40 -149t121 -47q76 0 150 24l18 -96q-79 -31 -172 -31q-278 0 -278 318v659h-162zM356 -426l148 283h131l-172 -283h-107z" />
<glyph unicode="&#x237;" horiz-adv-x="409" d="M-123 -391l23 96q54 -20 100 -20q73 0 109 43t36 149v1176h121v-1162q0 -157 -65 -234t-203 -77q-57 0 -121 29z" />
<glyph unicode="&#x2bc;" horiz-adv-x="1140" d="M475 1049l64 413h127l-93 -413h-98z" />
<glyph unicode="&#x2c6;" horiz-adv-x="1142" d="M532 1212l230 283h121l229 -283h-119l-170 197l-172 -197h-119z" />
<glyph unicode="&#x2c7;" horiz-adv-x="1142" d="M532 1495h119l172 -197l172 197h117l-229 -283h-121z" />
<glyph unicode="&#x2c9;" horiz-adv-x="1142" d="M569 1294v97h508v-97h-508z" />
<glyph unicode="&#x2cb;" horiz-adv-x="1142" d="M575 1495h150l227 -283h-121z" />
<glyph unicode="&#x2d8;" horiz-adv-x="1142" d="M567 1483h92q0 -88 44 -134t118 -46q76 0 120 46t44 134h96q0 -126 -68.5 -195t-191.5 -69q-120 0 -187 69t-67 195z" />
<glyph unicode="&#x2d9;" horiz-adv-x="1142" d="M487 1348q0 40 23 62t63 22t62 -22t22 -62q0 -41 -22 -63.5t-62 -22.5t-63 22.5t-23 63.5z" />
<glyph unicode="&#x2da;" horiz-adv-x="1142" d="M631 1401q0 89 54.5 141.5t135.5 52.5q84 0 139.5 -52t55.5 -142t-55 -141.5t-140 -51.5q-81 0 -135.5 52t-54.5 141zM713 1401q0 -57 28.5 -87t79.5 -30q54 0 83.5 30t29.5 87q0 58 -29.5 88.5t-83.5 30.5q-108 0 -108 -119z" />
<glyph unicode="&#x2db;" horiz-adv-x="1142" d="M666 -207q0 108 135 213l104 -6q-131 -96 -131 -186q0 -82 98 -82q24 0 52 4v-86q-32 -4 -60 -4q-198 0 -198 147z" />
<glyph unicode="&#x2dc;" horiz-adv-x="1142" d="M504 1233q0 254 168 254q49 0 85 -20.5t85 -73.5l19.5 -19.5l19.5 -19.5t16.5 -15t18.5 -13.5t17 -7t19 -3.5q86 0 86 166h88q0 -254 -168 -254q-50 0 -84.5 20.5t-85.5 73.5q-49 54 -69 67t-41 13q-84 0 -84 -168h-90z" />
<glyph unicode="&#x2dd;" horiz-adv-x="1142" d="M553 1212l209 283h137l-233 -283h-113zM868 1212l207 283h139l-235 -283h-111z" />
<glyph unicode="&#x300;" d="M-272 1495h149l227 -283h-120z" />
<glyph unicode="&#x301;" d="M-98 1212l225 283h147l-251 -283h-121z" />
<glyph unicode="&#x302;" d="M-291 1212l230 283h120l230 -283h-119l-170 197l-172 -197h-119z" />
<glyph unicode="&#x303;" d="M-317 1233q0 254 167 254q49 0 85 -20.5t85 -73.5l17 -17l16.5 -16.5t14.5 -14t16 -13t14.5 -8.5t16.5 -7t16 -2q86 0 86 166h88q0 -254 -168 -254q-50 0 -84.5 20.5t-85.5 73.5q-49 54 -69 67t-41 13q-84 0 -84 -168h-90z" />
<glyph unicode="&#x304;" d="M-254 1294v97h508v-97h-508z" />
<glyph unicode="&#x306;" d="M-256 1483h92q0 -88 44 -134t118 -46q76 0 120 46t44 134h96q0 -126 -68.5 -195t-191.5 -69q-120 0 -187 69t-67 195z" />
<glyph unicode="&#x307;" d="M-84 1348q0 40 23 62t63 22t62 -22t22 -62q0 -41 -22 -63.5t-62 -22.5t-63 22.5t-23 63.5z" />
<glyph unicode="&#x308;" d="M-254 1348q0 40 22.5 62t63.5 22q40 0 62 -22t22 -62q0 -41 -22 -63.5t-62 -22.5q-41 0 -63.5 22.5t-22.5 63.5zM82 1348q0 40 22.5 62t63.5 22q40 0 62 -22t22 -62q0 -41 -22 -63.5t-62 -22.5q-41 0 -63.5 22.5t-22.5 63.5z" />
<glyph unicode="&#x309;" d="M-129 1470v78q47 21 119 21q99 0 153 -46.5t54 -117.5q0 -88 -69.5 -140.5t-205.5 -62.5v74q178 21 178 123q0 43 -34.5 66.5t-98.5 23.5q-41 0 -96 -19z" />
<glyph unicode="&#x30a;" d="M-193 1401q0 89 55 141.5t136 52.5q84 0 139.5 -52t55.5 -142t-55 -141.5t-140 -51.5q-81 0 -136 52t-55 141zM-111 1401q0 -56 28.5 -86.5t80.5 -30.5q54 0 83.5 30t29.5 87q0 58 -29.5 88.5t-83.5 30.5q-53 0 -81 -30.5t-28 -88.5z" />
<glyph unicode="&#x30b;" d="M-225 1212l209 283h137l-234 -283h-112zM90 1212l207 283h139l-235 -283h-111z" />
<glyph unicode="&#x30c;" d="M-291 1495h119l172 -197l172 197h117l-230 -283h-120z" />
<glyph unicode="&#x312;" d="M-111 1212l172 283h105l-146 -283h-131z" />
<glyph unicode="&#x315;" d="M-80 1049l62 413h116l-84 -413h-94z" />
<glyph unicode="&#x323;" d="M-84 -283q0 40 23 62t63 22t62 -22t22 -62q0 -41 -22 -63.5t-62 -22.5t-63 22.5t-23 63.5z" />
<glyph unicode="&#x326;" d="M-207 -426l148 283h131l-172 -283h-107z" />
<glyph unicode="&#x327;" d="M-166 -311q90 -11 121 -11q139 0 139 76q0 26 -13.5 43t-40.5 24t-50 9t-58 2h-36l61 176l82 -2l-37 -112q193 -11 193 -148q0 -147 -238 -147q-74 0 -123 10v80z" />
<glyph unicode="&#x328;" d="M-178 -207q0 108 135 213l104 -6q-131 -96 -131 -186q0 -82 99 -82q23 0 51 4v-86q-32 -4 -60 -4q-198 0 -198 147z" />
<glyph unicode="&#x3c0;" horiz-adv-x="1228" />
<glyph unicode="&#xe01;" horiz-adv-x="1249" d="M57 813v21q51 175 198.5 283t338.5 108q247 0 379.5 -130t132.5 -372v-723h-119v711q0 407 -393 407q-151 0 -262.5 -78.5t-147.5 -205.5l92 -84q20 -18 25.5 -32.5t5.5 -43.5v-674h-119v690z" />
<glyph unicode="&#xe02;" horiz-adv-x="1187" d="M143 1186q68 22 156 22q100 0 155.5 -48.5t55.5 -143.5q0 -54 -23 -105.5t-56 -95.5t-65.5 -90t-55.5 -107t-23 -129v-69q0 -178 78 -262t241 -84q165 0 242.5 86t77.5 268v764h118v-764q0 -226 -112 -343.5t-326 -117.5t-326 118t-112 335v69q0 75 23 143t55 116.5 t64.5 91.5t55.5 86.5t23 83.5q0 44 -28 67t-76 23q-65 0 -121 -17z" />
<glyph unicode="&#xe03;" horiz-adv-x="1218" d="M74 1153v39h110v-35q0 -145 138 -145q75 0 117 40t42 122v18h107v-18q0 -179 -154 -412q-64 -97 -90.5 -160t-26.5 -153v-29q0 -178 78.5 -262t241.5 -84q165 0 242 86t77 268v764h119v-764q0 -226 -112 -343.5t-326 -117.5t-326 118t-112 335v29q0 175 131 348 q69 91 96 147q-63 -29 -127 -29q-104 0 -164.5 65.5t-60.5 172.5z" />
<glyph unicode="&#xe04;" horiz-adv-x="1245" d="M143 0v725q0 239 125.5 369.5t354.5 130.5q228 0 353.5 -130t125.5 -370v-725h-119v725q0 198 -87.5 295.5t-272.5 97.5q-184 0 -272.5 -97t-88.5 -296v-244q45 94 141 153.5t222 59.5q63 0 94 -8l-12 -111q-35 7 -93 7q-161 0 -256.5 -111.5t-95.5 -288.5v-182h-119z " />
<glyph unicode="&#xe05;" horiz-adv-x="1286" d="M143 0v842q0 164 86.5 259t243.5 107l164 -121l176 121q157 -12 243.5 -107t86.5 -259v-842h-119v840q0 116 -48.5 183t-135.5 79l-185 -125h-37l-172 125q-87 -12 -135.5 -79t-48.5 -183v-359q42 95 136.5 154t230.5 59q63 0 94 -8l-16 -111q-35 7 -93 7 q-85 0 -153 -32.5t-111 -88t-65.5 -127t-22.5 -152.5v-182h-119z" />
<glyph unicode="&#xe06;" horiz-adv-x="1286" d="M80 1151v41h110v-37q0 -143 138 -143q74 0 117.5 40.5t43.5 121.5v18h107v-18q0 -176 -156 -412q-63 -93 -89.5 -157.5t-26.5 -155.5v-46q0 -150 111 -239.5t265 -89.5q175 0 249.5 87.5t74.5 274.5v756h119v-791q0 -434 -434 -434q-239 0 -387 180v-147h-117v449 q0 175 131 348q69 91 96 147q-63 -29 -127 -29q-106 0 -165.5 64.5t-59.5 171.5z" />
<glyph unicode="&#xe07;" horiz-adv-x="1138" d="M41 864h131l381 -760q170 88 263 243t93 353q0 196 -95.5 296t-285.5 100q-58 0 -131 -17l-18 111q66 16 158 16q248 0 373.5 -138t125.5 -368q0 -237 -119.5 -421t-338.5 -279h-101z" />
<glyph unicode="&#xe08;" horiz-adv-x="1153" d="M59 881q32 161 166 252.5t322 91.5q243 0 374.5 -147t131.5 -398q0 -221 -122 -399t-310 -281h-103l-186 410q-21 46 -40.5 61.5t-60.5 15.5q-49 0 -69 -2v103q43 6 94 6q72 0 111 -30.5t73 -104.5l152 -344q144 86 239 235.5t95 329.5q0 202 -98 320t-279 118 q-141 0 -240 -67.5t-129 -190.5z" />
<glyph unicode="&#xe09;" horiz-adv-x="1183" d="M123 907q23 142 143.5 230t317.5 88q218 0 337 -102.5t119 -309.5v-813h-116v205q-132 -238 -404 -238q-179 0 -283 102.5t-104 311.5v197h119v-183q0 -166 73 -243.5t216 -77.5q157 0 269 117.5t112 314.5v301q0 311 -338 311q-143 0 -229.5 -60t-108.5 -171z" />
<glyph unicode="&#xe0a;" horiz-adv-x="1228" d="M143 1186q75 22 144 22q108 0 165.5 -48t57.5 -144q0 -61 -23 -117.5t-56 -103t-65.5 -95t-55.5 -113.5t-23 -138v-29q0 -346 340 -346t340 358v103q0 130 -55.5 193t-190.5 63v110q67 0 116 21.5t76.5 59.5t40.5 84.5t13 102.5v23h118v-39q0 -117 -55 -199t-174 -100 q229 -33 229 -319v-103q0 -227 -115.5 -346t-342.5 -119t-343 117.5t-116 335.5v29q0 85 23 156.5t55 120t64.5 92t55.5 92t23 100.5q0 44 -28.5 70t-79.5 26q-64 0 -117 -16z" />
<glyph unicode="&#xe0b;" horiz-adv-x="1259" d="M74 1153v39h110v-35q0 -145 138 -145q75 0 118 40t43 122v18h107v-18q0 -99 -42 -198.5t-114 -213.5q-65 -103 -91 -167t-26 -146v-29q0 -346 340 -346t340 358v103q0 129 -56.5 192.5t-188.5 63.5v110q65 0 113.5 21.5t76.5 59.5t41.5 84.5t13.5 102.5v23h119v-39 q0 -117 -54 -201t-169 -102q223 -32 223 -315v-103q0 -227 -116 -346t-343 -119t-342.5 117.5t-115.5 335.5v29q0 168 131 348q74 106 94 147q-57 -29 -127 -29q-104 0 -163.5 65.5t-59.5 172.5z" />
<glyph unicode="&#xe0c;" horiz-adv-x="2027" d="M57 813v21q46 174 195 282.5t342 108.5q237 0 364 -136t127 -389v-194q0 -204 95 -318t260 -114t245 92t80 291v735h119v-762q0 -121 -31.5 -211t-90 -144.5t-135 -81t-171.5 -26.5q-139 0 -239 63.5t-134 157.5v-188h-116v702q0 200 -96.5 308t-276.5 108 q-151 0 -262.5 -78.5t-147.5 -205.5l92 -84q20 -18 25.5 -32.5t5.5 -43.5v-365q0 -107 35 -161t127 -54q37 0 53 2v-102q-21 -6 -63 -6q-146 0 -208.5 79t-62.5 236v387z" />
<glyph unicode="&#xe0d;" horiz-adv-x="2027" d="M57 813v21q46 174 195 282.5t342 108.5q237 0 364 -136t127 -389v-223q0 -198 72.5 -280t237.5 -82q167 0 268.5 115t101.5 317v645h119v-1137q0 -235 -112.5 -355t-346.5 -120q-407 0 -446 309h121q22 -104 100 -153t223 -49q344 0 344 352v190q-33 -93 -141 -157 t-248 -64q-411 0 -411 455v239q0 200 -96.5 308t-276.5 108q-151 0 -262.5 -78.5t-147.5 -205.5l92 -84q20 -18 25.5 -32.5t5.5 -43.5v-365q0 -107 35 -161t127 -54q37 0 53 2v-102q-21 -6 -63 -6q-146 0 -208.5 79t-62.5 236v387z" />
<glyph unicode="&#xe0e;" horiz-adv-x="1310" d="M102 -6v102q16 -2 54 -2q32 0 55.5 6t38 21t23 30.5t12.5 44t5 51t1 62.5v353l-172 163v21q49 172 191 275.5t352 103.5q251 0 378 -135t127 -390v-837q0 -77 -26 -134t-71.5 -89.5t-101 -48t-120.5 -15.5q-58 0 -170 20.5t-170 20.5q-112 0 -242 -37l-22 103 q108 41 260 41q60 0 174 -20.5t174 -20.5q102 0 149.5 46.5t47.5 145.5v827q0 202 -97 309t-290 107q-158 0 -271.5 -76t-144.5 -196l133 -123q20 -18 25.5 -32.5t5.5 -43.5v-344q0 -80 -10 -134.5t-36.5 -97.5t-75 -63t-122.5 -20q-43 0 -64 6z" />
<glyph unicode="&#xe0f;" horiz-adv-x="1310" d="M102 -6v102q16 -2 54 -2q32 0 55.5 6t38 21t23 30.5t12.5 44t5 51t1 62.5v353l-172 163v21q49 172 191 275.5t352 103.5q251 0 378 -135t127 -390v-790q0 -163 -76 -248.5t-227 -85.5q-76 0 -145.5 33t-102.5 96q-25 -61 -86.5 -95t-152.5 -34q-109 0 -168 27l22 104 q65 -24 142 -24q171 0 190 139h111q9 -65 59.5 -102t122.5 -37q193 0 193 227v792q0 202 -97 309t-290 107q-158 0 -271.5 -76t-144.5 -196l133 -123q20 -18 25.5 -32.5t5.5 -43.5v-344q0 -80 -10 -134.5t-36.5 -97.5t-75 -63t-122.5 -20q-43 0 -64 6z" />
<glyph unicode="&#xe10;" horiz-adv-x="1153" d="M59 881q32 161 166 252.5t322 91.5q158 0 278 -68l101 141h137l-156 -206q146 -143 146 -412q0 -221 -122 -399t-310 -281h-103l-186 410q-21 46 -40.5 61.5t-60.5 15.5q-49 0 -69 -2v103q43 6 94 6q72 0 111 -30.5t73 -104.5l152 -344q144 86 239 235.5t95 329.5 q0 202 -98 320t-279 118q-141 0 -240 -67.5t-129 -190.5zM121 -408l22 107q70 -25 115 -25q67 0 117 41t59 103h113q9 -69 53 -105.5t115 -36.5q155 0 166 142h123q-9 -122 -84 -186t-197 -64q-170 0 -234 131q-25 -64 -88.5 -98.5t-138.5 -34.5q-85 0 -141 26z" />
<glyph unicode="&#xe11;" horiz-adv-x="1372" d="M61 1149v43h111v-39q0 -68 34 -104.5t99 -36.5q71 0 108.5 42.5t37.5 119.5v18h112v-80q0 -27 -2 -43q58 69 140.5 112.5t177.5 43.5q166 0 258 -100.5t92 -293.5v-831h-119v817q0 162 -56 231.5t-173 69.5q-106 0 -177.5 -53t-156.5 -188q-8 -13 -32 -51t-29.5 -47 t-22.5 -38.5t-20.5 -41t-13 -37.5t-12 -45t-5 -46.5t-2.5 -58.5v-512h-119v502q0 106 25.5 180.5t74.5 148.5q26 40 37 65t14 62q-57 -43 -151 -43q-105 0 -167.5 63t-62.5 171z" />
<glyph unicode="&#xe12;" horiz-adv-x="2031" d="M133 596q0 313 80 453.5t279 158.5l149 -121l160 121q156 -12 242.5 -106.5t86.5 -259.5v-324q0 -210 94.5 -327t254.5 -117q152 0 221 86t69 276v756h119v-791q0 -206 -104.5 -320t-294.5 -114q-265 0 -361 207v-174h-116v840q0 116 -49 183t-136 79l-168 -125h-36 l-156 125q-123 -18 -167 -131t-44 -371q0 -145 23 -248t67.5 -163.5t104 -87.5t139.5 -27q72 0 143 26l23 -102q-70 -31 -166 -31q-225 0 -341 147.5t-116 481.5z" />
<glyph unicode="&#xe13;" horiz-adv-x="2027" d="M57 813v21q46 174 195 282.5t342 108.5q237 0 364 -136t127 -389v-243q0 -202 72 -292.5t234 -90.5q166 0 270 115.5t104 316.5v686h119v-1192h-117v193q-35 -95 -143.5 -160.5t-249.5 -65.5q-195 0 -301 116t-106 357v262q0 200 -96.5 308t-276.5 108 q-151 0 -262.5 -78.5t-147.5 -205.5l92 -84q20 -18 25.5 -32.5t5.5 -43.5v-365q0 -107 35 -161t127 -54q37 0 53 2v-102q-21 -6 -63 -6q-146 0 -208.5 79t-62.5 236v387z" />
<glyph unicode="&#xe14;" horiz-adv-x="1310" d="M139 604q0 137 32.5 249.5t96.5 196t166 129.5t234 46q256 0 377.5 -136.5t121.5 -402.5v-686h-118v694q0 209 -92 316.5t-289 107.5q-106 0 -185 -38.5t-126.5 -108.5t-71 -161t-23.5 -202q0 -110 20.5 -201.5t64 -167t120 -117.5t180.5 -42q70 0 125 14l23 -100 q-61 -21 -154 -21q-131 0 -229.5 48t-157 135.5t-87 199t-28.5 248.5z" />
<glyph unicode="&#xe15;" horiz-adv-x="1335" d="M133 596q0 297 100 448.5t279 163.5l170 -121l180 121q157 -12 243.5 -107t86.5 -259v-842h-119v840q0 116 -48.5 183t-135.5 79l-189 -125h-36l-177 125q-103 -13 -167 -139.5t-64 -362.5q0 -262 91.5 -394t262.5 -132q95 0 164 26l23 -102q-66 -31 -187 -31 q-232 0 -354.5 158.5t-122.5 470.5z" />
<glyph unicode="&#xe16;" horiz-adv-x="1249" d="M57 813v21q46 174 195 282.5t342 108.5q247 0 379.5 -130t132.5 -372v-723h-119v711q0 407 -393 407q-151 0 -262.5 -78.5t-147.5 -205.5l92 -84q20 -18 25.5 -32.5t5.5 -43.5v-365q0 -107 35 -161t127 -54q37 0 53 2v-102q-21 -6 -63 -6q-146 0 -208.5 79t-62.5 236v387 z" />
<glyph unicode="&#xe17;" horiz-adv-x="1224" d="M143 0v1192h117v-213q71 119 186 182.5t248 63.5q387 0 387 -434v-791h-118v756q0 179 -64.5 270.5t-224.5 91.5q-148 0 -277 -117q-73 -67 -104 -140.5t-31 -174.5v-686h-119z" />
<glyph unicode="&#xe18;" horiz-adv-x="1126" d="M113 928q0 100 62.5 169t158 98.5t215.5 29.5q90 0 162 -14t134.5 -46t105 -91t61.5 -142l-113 -21q-27 104 -116 155.5t-228 51.5q-76 0 -132 -8t-101.5 -28t-69 -57.5t-23.5 -92.5q0 -86 58.5 -129t169.5 -58l235 -32q158 -23 236 -110t78 -247q0 -189 -121.5 -289 t-323.5 -100q-220 0 -333 95t-113 303v145h114v-139q0 -163 79.5 -230t252.5 -67q154 0 241 68.5t87 211.5q0 128 -59 186t-193 76l-213 27q-143 18 -227 88.5t-84 196.5z" />
<glyph unicode="&#xe19;" horiz-adv-x="1265" d="M143 422v770h119v-735q0 -200 85 -291.5t265 -91.5q75 0 145 29.5t125.5 83t88.5 137t33 182.5v686h118v-1192h-116v209q-132 -242 -414 -242q-212 0 -330.5 109t-118.5 346z" />
<glyph unicode="&#xe1a;" horiz-adv-x="1245" d="M143 467v725h119v-723q0 -395 361 -395q177 0 268.5 100.5t91.5 294.5v723h119v-725q0 -242 -129 -371t-350 -129q-222 0 -351 128.5t-129 371.5z" />
<glyph unicode="&#xe1b;" horiz-adv-x="1245" d="M143 467v725h119v-723q0 -395 361 -395q177 0 268.5 100.5t91.5 294.5v1116h119v-1118q0 -242 -129 -371t-350 -129q-222 0 -351 128.5t-129 371.5z" />
<glyph unicode="&#xe1c;" horiz-adv-x="1310" d="M143 0v920q0 146 56.5 215t189.5 69q46 0 86 -12l-14 -100q-30 6 -64 6q-76 0 -105.5 -39t-29.5 -135v-766l338 483h111l338 -483v1034h118v-1192h-135l-377 543l-376 -543h-136z" />
<glyph unicode="&#xe1d;" horiz-adv-x="1310" d="M143 0v920q0 146 56.5 215t189.5 69q46 0 86 -12l-14 -100q-30 6 -64 6q-76 0 -105.5 -39t-29.5 -135v-766l338 483h111l338 -483v1427h118v-1585h-135l-377 543l-376 -543h-136z" />
<glyph unicode="&#xe1e;" horiz-adv-x="1423" d="M41 1192l285 -1192h137l242 1036l272 -1036h137l268 1192h-122l-220 -1022l-264 1016h-137l-236 -1018l-235 1024h-127z" />
<glyph unicode="&#xe1f;" horiz-adv-x="1423" d="M33 1192h131l227 -1010l248 1004h137l279 -1002l250 1401h127l-306 -1585h-137l-289 1024l-247 -1024h-138z" />
<glyph unicode="&#xe20;" horiz-adv-x="1310" d="M102 -6v102q16 -2 54 -2q32 0 55.5 6t38 21t23 30.5t12.5 44t5 51t1 62.5v353l-172 163v21q49 172 191 275.5t352 103.5q251 0 378 -135t127 -390v-700h-118v702q0 202 -97 309t-290 107q-158 0 -271.5 -76t-144.5 -196l133 -123q20 -18 25.5 -32.5t5.5 -43.5v-344 q0 -80 -10 -134.5t-36.5 -97.5t-75 -63t-122.5 -20q-43 0 -64 6z" />
<glyph unicode="&#xe21;" horiz-adv-x="1224" d="M143 0h117v205q57 -110 161.5 -174t242.5 -64q193 0 305 115t112 319v791h-118v-756q0 -186 -77.5 -274t-232.5 -88q-78 0 -148.5 30t-124.5 84.5t-86 139.5t-32 188v676h-119v-1192z" />
<glyph unicode="&#xe22;" horiz-adv-x="1228" d="M127 334q0 123 66 200t172 97q-99 29 -166.5 102.5t-67.5 177.5q0 135 91 214t245 79q95 0 131 -18v-103q-59 15 -131 15q-104 0 -162.5 -48t-58.5 -141q0 -113 78 -169t200 -56h101v-106h-97q-276 0 -276 -242q1 -70 28 -122t76 -82t110 -44t136 -14q174 0 269.5 89 t95.5 265v764h118v-766q0 -217 -130 -338t-359 -121q-97 0 -180 22.5t-148 66t-102.5 115t-38.5 163.5z" />
<glyph unicode="&#xe23;" horiz-adv-x="1126" d="M113 319h116q22 -137 111 -191t248 -54q137 0 222 57.5t85 175.5q0 108 -64 163t-186 73l-133 20q-87 13 -150.5 35t-115.5 60t-78.5 97t-26.5 140q0 67 23.5 122t63 93t93 64.5t113 38.5t123.5 12q72 0 128.5 -7.5t108.5 -27.5t89.5 -52.5t65.5 -84.5t42 -121l-112 -21 q-24 109 -101 158t-215 49q-140 0 -223.5 -52.5t-83.5 -170.5q0 -57 17 -96t53.5 -62.5t77.5 -35.5t106 -23l152 -25q172 -28 262 -109.5t90 -238.5q0 -107 -60 -185.5t-154 -115.5t-208 -37q-448 0 -479 352z" />
<glyph unicode="&#xe24;" horiz-adv-x="1249" d="M57 813v21q46 174 195 282.5t342 108.5q247 0 379.5 -130t132.5 -372v-1133h-119v1121q0 407 -393 407q-151 0 -262.5 -78.5t-147.5 -205.5l92 -84q20 -18 25.5 -32.5t5.5 -43.5v-365q0 -107 35 -161t127 -54q37 0 53 2v-102q-21 -6 -63 -6q-146 0 -208.5 79t-62.5 236 v387z" />
<glyph unicode="&#xe25;" horiz-adv-x="1208" d="M131 309q0 105 36.5 181t102.5 118t145 61t177 19h354v119q0 311 -332 311q-143 0 -230 -59.5t-114 -171.5l-123 20q31 143 151 230.5t316 87.5q217 0 334 -102t117 -310v-813h-119v586h-342q-77 0 -134.5 -11t-109 -39t-79 -83.5t-27.5 -137.5q0 -114 66 -174.5 t186 -60.5q91 0 180 24l23 -100q-95 -31 -205 -31q-167 0 -270 90t-103 246z" />
<glyph unicode="&#xe26;" horiz-adv-x="1310" d="M102 -6v102q16 -2 54 -2q32 0 55.5 6t38 21t23 30.5t12.5 44t5 51t1 62.5v353l-172 163v21q49 172 191 275.5t352 103.5q251 0 378 -135t127 -390v-1110h-118v1112q0 202 -97 309t-290 107q-158 0 -271.5 -76t-144.5 -196l133 -123q20 -18 25.5 -32.5t5.5 -43.5v-344 q0 -80 -10 -134.5t-36.5 -97.5t-75 -63t-122.5 -20q-43 0 -64 6z" />
<glyph unicode="&#xe27;" horiz-adv-x="1175" d="M61 838q36 184 173.5 285.5t334.5 101.5q126 0 223.5 -46.5t158 -130.5t91.5 -197t31 -251t-31 -252t-93.5 -200t-164 -133.5t-233.5 -47.5q-203 0 -331.5 112.5t-147.5 309.5h123q21 -149 112 -232t244 -83q100 0 177.5 42.5t124 115.5t70 165.5t23.5 198.5 q0 113 -21 205t-65.5 164.5t-119 112.5t-175.5 40q-152 0 -252 -80t-133 -221z" />
<glyph unicode="&#xe28;" horiz-adv-x="1245" d="M143 0v725q0 239 125.5 369.5t354.5 130.5q166 0 282 -72l103 145h137l-160 -213q117 -129 117 -360v-725h-119v725q0 198 -87.5 295.5t-272.5 97.5q-184 0 -272.5 -97t-88.5 -296v-244q45 94 141 153.5t222 59.5q63 0 94 -8l-12 -111q-35 7 -93 7q-161 0 -256.5 -111.5 t-95.5 -288.5v-182h-119z" />
<glyph unicode="&#xe29;" horiz-adv-x="1224" d="M143 467v725h119v-723q0 -395 361 -395q177 0 268.5 100.5t91.5 294.5v149h-270v103h270v471h119v-471h108v-103h-108v-151q0 -242 -129 -371t-350 -129q-222 0 -351 128.5t-129 371.5z" />
<glyph unicode="&#xe2a;" horiz-adv-x="1208" d="M131 309q0 105 36.5 181t102.5 118t145 61t177 19h354v119q0 311 -332 311q-143 0 -230 -59.5t-114 -171.5l-123 20q31 143 151 230.5t316 87.5q147 0 258 -60l95 133h137l-148 -194q109 -112 109 -291v-813h-119v586h-342q-77 0 -134.5 -11t-109 -39t-79 -83.5 t-27.5 -137.5q0 -114 66 -174.5t186 -60.5q91 0 180 24l23 -100q-95 -31 -205 -31q-167 0 -270 90t-103 246z" />
<glyph unicode="&#xe2b;" horiz-adv-x="1204" d="M143 0v1192h119v-424h264q77 0 138 9.5t113.5 32t87 59.5t54 93t19.5 130v100h119v-117q0 -133 -67 -220.5t-185 -127.5q130 -38 193 -141.5t63 -249.5v-336h-119v307q0 193 -88 276t-285 83h-307v-666h-119z" />
<glyph unicode="&#xe2c;" horiz-adv-x="1331" d="M143 0h156l367 705l366 -705h156v803q0 128 -46.5 215t-142.5 112q96 26 144.5 102.5t48.5 194.5v68h-115v-68q0 -124 -63.5 -179.5t-194.5 -55.5v-111q140 0 195 -73.5t55 -216.5v-652l-348 686h-111l-348 -686v1053h-119v-1192z" />
<glyph unicode="&#xe2d;" horiz-adv-x="1249" d="M106 500v106h490v-102h-371v-21q0 -185 105.5 -297t281.5 -112q107 0 187 40.5t127.5 113.5t70.5 166t23 206t-22.5 205t-70 163.5t-127 110.5t-186.5 39q-137 0 -231.5 -69.5t-128.5 -188.5l-123 21q46 168 175 256t312 88q132 0 234 -46t166 -129.5t96.5 -196 t32.5 -249.5q0 -140 -31.5 -254.5t-94.5 -201t-166 -134t-237 -47.5q-154 0 -271.5 70.5t-179 191t-61.5 271.5z" />
<glyph unicode="&#xe2e;" horiz-adv-x="1249" d="M106 500v106h490v-102h-371v-21q0 -185 105.5 -297t281.5 -112q107 0 187 40.5t127.5 113.5t70.5 166t23 206t-22.5 205t-70 163.5t-127 110.5t-186.5 39q-137 0 -231.5 -69.5t-128.5 -188.5l-123 21q46 168 175 256t312 88q165 0 285 -74l105 147h137l-160 -211 q162 -165 162 -483q0 -140 -31.5 -254.5t-94.5 -201t-166 -134t-237 -47.5q-154 0 -271.5 70.5t-179 191t-61.5 271.5z" />
<glyph unicode="&#xe2f;" horiz-adv-x="1071" d="M98 999v193h119v-166q0 -169 63.5 -250.5t206.5 -81.5q150 0 241 101t91 262v135h119v-1192h-119v768q-53 -85 -146 -132.5t-200 -47.5q-179 0 -277 110.5t-98 300.5z" />
<glyph unicode="&#xe30;" horiz-adv-x="720" d="M82 367q0 7 4 57h111v-33q0 -76 31 -104.5t108 -28.5h291v-106h-303q-120 0 -181 51t-61 164zM82 942q0 7 4 57h111v-32q0 -76 31 -104.5t108 -28.5h291v-107h-303q-120 0 -181 51t-61 164z" />
<glyph unicode="&#xe31;" d="M-641 1563q0 21 4 57h107v-47q0 -69 35 -96t116 -27h463v-102h-471q-254 0 -254 215z" />
<glyph unicode="&#xe32;" horiz-adv-x="1024" d="M49 889q18 157 135 246.5t289 89.5q408 0 408 -414v-811h-119v805q0 158 -70 235.5t-223 77.5q-129 0 -208.5 -65.5t-96.5 -184.5z" />
<glyph unicode="&#xe33;" horiz-adv-x="1024" d="M-385 1513q0 84 51 134.5t137 50.5t137.5 -50.5t51.5 -134.5q0 -83 -51.5 -133.5t-137.5 -50.5t-137 50t-51 134zM-283 1513q0 -44 22.5 -68t63.5 -24t63.5 24t22.5 68t-22.5 68.5t-63.5 24.5t-63.5 -24.5t-22.5 -68.5zM49 889q18 157 135 246.5t289 89.5q408 0 408 -414 v-811h-119v805q0 158 -70 235.5t-223 77.5q-129 0 -208.5 -65.5t-96.5 -184.5z" />
<glyph unicode="&#xe34;" d="M-967 1348v102h824v-102h-824z" />
<glyph unicode="&#xe35;" d="M-973 1348h826v270h-109v-168h-717v-102z" />
<glyph unicode="&#xe36;" d="M-969 1348v102h537q-4 24 -4 45q0 61 41.5 99t109.5 38t110 -39t42 -100q0 -65 -42.5 -105t-113.5 -40h-680zM-344 1491q0 -68 59 -68q60 0 60 70q0 68 -60 68q-28 0 -43.5 -19.5t-15.5 -50.5z" />
<glyph unicode="&#xe37;" d="M-967 1348v102h506v168h109v-168h96v168h109v-270h-820z" />
<glyph unicode="&#xe38;" d="M-375 -127q14 4 62 4q95 0 129 -35t34 -131v-194h-102v192q0 45 -14.5 61.5t-57.5 16.5h-51v86z" />
<glyph unicode="&#xe39;" d="M-694 -127h202v-172q0 -115 117 -115q119 0 119 115v164h106v-164q0 -95 -63 -152t-162 -57q-98 0 -160.5 57t-62.5 152v82h-96v90z" />
<glyph unicode="&#xe3a;" d="M-295 -213q0 39 25.5 64.5t64.5 25.5q40 0 65 -25t25 -65t-25 -65t-65 -25q-39 0 -64.5 25.5t-25.5 64.5z" />
<glyph unicode="&#xe3f;" horiz-adv-x="1228" d="M166 0v1462h387v152h94v-152h8q89 0 163 -21t132.5 -63.5t91.5 -114.5t33 -167q0 -116 -58.5 -200t-174.5 -124q141 -37 209.5 -131t68.5 -233q0 -197 -119 -302.5t-323 -105.5h-31v-221h-94v221h-387zM291 106h262v605h-262v-605zM291 819h262v537h-262v-537zM647 106 h25q161 0 241 77t80 225q0 144 -80 223.5t-221 79.5h-45v-605zM647 819h33q124 0 197 72t73 201q0 264 -301 264h-2v-537z" />
<glyph unicode="&#xe40;" horiz-adv-x="573" d="M193 219v973h118v-977q0 -65 23.5 -91t73.5 -26q39 0 71 8l13 -102q-36 -16 -99 -16q-107 0 -153.5 53.5t-46.5 177.5z" />
<glyph unicode="&#xe41;" horiz-adv-x="1050" d="M193 219v973h118v-977q0 -65 23.5 -91t73.5 -26q39 0 71 8l13 -102q-36 -16 -99 -16q-107 0 -153.5 53.5t-46.5 177.5zM670 219v973h118v-977q0 -65 23.5 -91t73.5 -26q39 0 71 8l13 -102q-36 -16 -99 -16q-107 0 -153.5 53.5t-46.5 177.5z" />
<glyph unicode="&#xe42;" horiz-adv-x="620" d="M4 1808v103h641v-103h-461q59 -32 93 -109t34 -171v-1313q0 -65 23.5 -91t73.5 -26q39 0 71 8l13 -102q-36 -16 -99 -16q-107 0 -153.5 53.5t-46.5 177.5v1303q0 242 -189 286z" />
<glyph unicode="&#xe43;" horiz-adv-x="614" d="M-70 1669q34 125 118.5 190.5t213.5 65.5q65 0 121 -16.5t100.5 -48.5t69.5 -84.5t25 -120.5q0 -67 -40 -129.5t-106 -128.5q-73 -73 -97 -128t-24 -159v-895q0 -65 23.5 -91t73.5 -26q39 0 71 8l13 -102q-36 -16 -99 -16q-107 0 -153.5 53.5t-46.5 177.5v897 q0 101 26.5 170.5t95.5 138.5q86 88 105 114q39 53 39 116q0 78 -54 121t-145 43q-85 0 -141.5 -43.5t-75.5 -126.5z" />
<glyph unicode="&#xe44;" horiz-adv-x="614" d="M-76 1808v103h641v-103q-123 -29 -188.5 -124.5t-65.5 -235.5v-1233q0 -65 23.5 -91t73.5 -26q39 0 71 8l13 -102q-36 -16 -99 -16q-107 0 -153.5 53.5t-46.5 177.5v1235q0 115 48.5 209t143.5 145h-461z" />
<glyph unicode="&#xe45;" horiz-adv-x="1024" d="M49 889q18 157 135 246.5t289 89.5q408 0 408 -414v-1221h-119v1215q0 158 -70 235.5t-223 77.5q-129 0 -208.5 -65.5t-96.5 -184.5z" />
<glyph unicode="&#xe46;" horiz-adv-x="1259" d="M123 842q0 163 71.5 262.5t208.5 99.5q70 0 125 -37t84 -106q65 143 211 143q142 0 209.5 -87t67.5 -275v-1305h-119v1303q0 136 -41 197t-121 61q-63 0 -105.5 -42t-56.5 -110h-94q-12 72 -55 112t-111 40q-78 0 -119.5 -66.5t-41.5 -191.5q0 -131 54 -200t161 -69 q46 0 98 9l10 -99q-54 -16 -119 -16q-147 0 -232 101.5t-85 275.5z" />
<glyph unicode="&#xe47;" d="M-920 1546q0 101 63 159t171 58h379v-92h-383q-63 0 -94 -33.5t-31 -89.5q0 -43 29 -74.5t73 -31.5q93 0 105 92h114q0 -86 99 -86h88v-94q-37 -6 -80 -6q-130 0 -168 90q-52 -90 -162 -90q-88 0 -145.5 53.5t-57.5 144.5z" />
<glyph unicode="&#xe48;" d="M-256 1735v266h106v-266h-106z" />
<glyph unicode="&#xe49;" d="M-535 1915v96q29 2 78 2q82 0 123 -44t41 -118v-18h268v-98h-378v94q0 48 -17 67t-63 19h-52z" />
<glyph unicode="&#xe4a;" d="M-692 1841q0 75 39 121.5t112 46.5q86 0 121 -80q35 80 125 80q65 0 102 -39t37 -106v-27h127v-98h-229v96q0 80 -53 80q-59 0 -66 -82h-86q-9 42 -24 62t-41 20q-27 0 -41.5 -22t-14.5 -58q0 -52 13 -96h-105q-16 62 -16 102z" />
<glyph unicode="&#xe4b;" d="M-367 1845v92h113v107h98v-107h113v-92h-113v-106h-98v106h-113z" />
<glyph unicode="&#xe4c;" d="M-473 1794q0 106 65.5 150.5t186.5 44.5h149v-99h-155q-76 0 -108 -23.5t-32 -92.5v-35h-102q-4 36 -4 55z" />
<glyph unicode="&#xe4d;" d="M-385 1513q0 84 51 134.5t137 50.5t137.5 -50.5t51.5 -134.5q0 -83 -51.5 -133.5t-137.5 -50.5t-137 50t-51 134zM-283 1513q0 -44 22.5 -68t63.5 -24t63.5 24t22.5 68t-22.5 68.5t-63.5 24.5t-63.5 -24.5t-22.5 -68.5z" />
<glyph unicode="&#xe4e;" d="M-756 1456q0 44 26.5 72t70.5 39q-52 36 -52 90q0 52 47 81t111 29q61 0 107 -14l-15 -88q-47 12 -71 12q-76 0 -76 -41t116 -47l-14 -84q-43 6 -67 6q-78 0 -78 -49q0 -45 88 -45q11 0 27 1t18 1l-14 -88q-32 -4 -52 -4q-72 0 -122 33.5t-50 95.5z" />
<glyph unicode="&#xe4f;" horiz-adv-x="1302" d="M102 592q0 231 156 380.5t393 149.5q154 0 279 -66t197.5 -188t72.5 -276q0 -230 -154 -380.5t-395 -150.5q-114 0 -214.5 38t-174.5 106t-117 168.5t-43 218.5zM209 592q0 -194 120.5 -315t321.5 -121t322 121t121 315q0 193 -124.5 314.5t-318.5 121.5t-318 -121.5 t-124 -314.5zM446 592q0 90 57.5 147.5t147.5 57.5q89 0 147 -54t58 -151q0 -93 -56 -149t-149 -56q-94 0 -149.5 58t-55.5 147z" />
<glyph unicode="&#xe50;" horiz-adv-x="1216" d="M102 473q0 222 138 364t368 142t368 -142t138 -364t-138 -364t-368 -142t-368 142t-138 364zM225 473q0 -185 103.5 -292t279.5 -107t279.5 107t103.5 292t-103.5 292t-279.5 107t-279.5 -107t-103.5 -292z" />
<glyph unicode="&#xe51;" horiz-adv-x="1167" d="M102 580q0 178 132.5 288.5t328.5 110.5q244 0 373 -132t129 -364q0 -239 -148 -377.5t-382 -138.5q-120 0 -222 25l19 104q80 -22 188 -22q195 0 308.5 104t113.5 303q0 391 -379 391q-149 0 -245.5 -77t-96.5 -207t62.5 -195t181.5 -65q59 0 121 10l12 -102 q-70 -15 -131 -15q-80 0 -145 20.5t-115 62.5t-77.5 112.5t-27.5 163.5z" />
<glyph unicode="&#xe52;" horiz-adv-x="1359" d="M102 504v770h119v-770q0 -230 116 -330t359 -100q241 0 342 101t101 339v131q0 48 -3 80.5t-13.5 69.5t-34.5 56t-62 19q-102 0 -135 -147h-109q-32 147 -135 147q-121 0 -121 -196q0 -228 166 -228q20 0 60 5l12 -97q-42 -10 -86 -10q-134 0 -202 91.5t-68 238.5 q0 87 22 153t74.5 108t132.5 42q72 0 123.5 -41.5t75.5 -112.5q22 71 75.5 112.5t124.5 41.5q221 0 221 -326v-137q0 -290 -134.5 -418.5t-428.5 -128.5q-302 0 -447 124.5t-145 412.5z" />
<glyph unicode="&#xe53;" horiz-adv-x="1290" d="M102 510q0 97 18.5 179.5t56 148t101 102.5t146.5 37q79 0 140.5 -37.5t90.5 -116.5q31 77 96.5 115.5t153.5 38.5q145 0 214 -95t69 -264v-618h-119v612q0 132 -43.5 195t-132.5 63t-134.5 -68.5t-45.5 -170.5v-170h-115v170q0 106 -41.5 173.5t-130.5 67.5 q-103 0 -152 -97.5t-49 -260.5q0 -222 62.5 -326t197.5 -104q42 0 86 8l13 -100q-44 -15 -105 -15q-377 0 -377 533z" />
<glyph unicode="&#xe54;" horiz-adv-x="1177" d="M102 492q1 239 138.5 362t375.5 123h70q78 0 126 9t84 34t50.5 71.5t14.5 120.5v58h114v-58q0 -99 -26.5 -167t-79.5 -105.5t-121 -53.5t-162 -16h-68q-93 0 -163.5 -20t-123.5 -63.5t-81 -117.5t-29 -177q-3 -386 348 -386h121q-62 28 -102.5 94.5t-40.5 153.5 q0 117 73 183.5t187 66.5q84 0 135 -26l-27 -97q-49 21 -112 21q-67 0 -107 -41t-39 -115q1 -106 92 -173t216 -67h108v-106h-510q-225 0 -344 130.5t-117 361.5z" />
<glyph unicode="&#xe55;" horiz-adv-x="1185" d="M102 492q1 180 82 295.5t226 160.5q-48 54 -48 131q0 83 54 136t137 53q81 0 136.5 -53t55.5 -136q0 -60 -28 -102q135 3 189.5 51t54.5 184v58h114v-58q0 -99 -26.5 -167t-79.5 -105.5t-121 -53.5t-162 -16h-68q-93 0 -163.5 -20t-123.5 -63.5t-81 -117.5t-29 -177 q-3 -386 348 -386h121q-62 28 -102.5 94.5t-40.5 153.5q0 117 73 183.5t187 66.5q84 0 135 -26l-27 -97q-49 21 -112 21q-67 0 -107 -41t-39 -115q1 -106 92 -173t216 -67h108v-106h-510q-225 0 -344 130.5t-117 361.5zM457 1079q0 -48 25 -77t71 -29q42 0 70 26.5t28 79.5 q0 46 -26.5 74.5t-71.5 28.5q-46 0 -71 -27.5t-25 -75.5z" />
<glyph unicode="&#xe56;" horiz-adv-x="1282" d="M61 1274h119l129 -492q59 93 161 145t232 52q231 0 354.5 -133.5t123.5 -372.5q0 -232 -133 -369t-357 -137q-189 0 -310 94.5t-142 282.5h118q14 -133 105 -201.5t225 -68.5q175 0 271 106.5t96 288.5q0 197 -85 300t-270 103q-128 0 -218.5 -62.5t-135.5 -166.5h-113z " />
<glyph unicode="&#xe57;" horiz-adv-x="1570" d="M102 510q0 228 81.5 347.5t222.5 119.5q152 0 210 -156q34 79 95.5 117.5t138.5 38.5q258 0 258 -359v-514q121 0 181.5 72.5t60.5 233.5v864h118v-856q0 -213 -94.5 -315.5t-265.5 -102.5h-119v612q0 135 -36.5 197.5t-121.5 62.5q-157 0 -157 -241v-170h-115v170 q0 239 -149 239q-94 0 -139.5 -86.5t-45.5 -269.5q0 -225 57 -327.5t203 -102.5q42 0 86 8l13 -100q-44 -15 -105 -15q-377 0 -377 533z" />
<glyph unicode="&#xe58;" horiz-adv-x="1280" d="M102 449q0 268 141 398t406 130h99q91 0 146.5 9.5t97 37.5t58.5 79t17 134v37h111v-37q0 -110 -23.5 -181t-78.5 -112.5t-132 -57.5t-196 -16h-97q-216 0 -321 -100t-105 -321q0 -375 205 -375q84 0 123 42t39 126v18h115v-18q0 -168 172 -168q170 0 170 221 q0 98 -42 149.5t-124 51.5q-55 0 -117 -19l-21 98q69 27 138 27q136 0 208 -79.5t72 -227.5q0 -152 -73.5 -240t-204.5 -88q-175 0 -234 144q-65 -144 -227 -144q-160 0 -241 128.5t-81 353.5z" />
<glyph unicode="&#xe59;" horiz-adv-x="1187" d="M102 510q0 98 20 180.5t59.5 147.5t104.5 102t150 37q159 0 240 -139q24 127 158 127h22q58 0 84.5 32t26.5 109v168h118v-170q0 -121 -58.5 -181.5t-158.5 -60.5h-16q-96 0 -96 -94q0 -57 30 -129l252 -639h-118l-269 684q-75 186 -209 186q-221 0 -221 -356 q0 -233 61.5 -331.5t196.5 -98.5q59 0 92 8l13 -100q-51 -15 -111 -15q-191 0 -281 125t-90 408z" />
<glyph unicode="&#xe5a;" horiz-adv-x="1413" d="M98 999v193h119v-166q0 -169 63.5 -250.5t206.5 -81.5q150 0 241 101t91 262v135h119v-1192h-119v768q-53 -85 -146 -132.5t-200 -47.5q-179 0 -277 110.5t-98 300.5zM1171 -4v1192h119v-1192h-119z" />
<glyph unicode="&#xe5b;" horiz-adv-x="2048" d="M127 594q0 192 104.5 306t290.5 114q144 0 229 -83.5t113 -219.5l-108 -29q-52 229 -234 229q-135 0 -203.5 -86t-68.5 -231q0 -165 77 -263t230 -98q201 0 322 148q120 143 176 465h94l164 -467l149 395h82q49 -117 119 -174t188 -57q30 0 54 6l12 -98q-55 -11 -76 -11 q-116 0 -203.5 52.5t-128.5 152.5l-161 -436h-86l-150 444q-62 -252 -207 -385q-146 -137 -348 -137q-207 0 -318.5 124t-111.5 339z" />
<glyph unicode="&#x1e80;" horiz-adv-x="1851" d="M41 1462h141l334 -1286l346 1280h137l344 -1282l334 1288h133l-399 -1462h-135l-352 1298l-344 -1298h-134zM645 1849h154l231 -266h-125z" />
<glyph unicode="&#x1e81;" horiz-adv-x="1454" d="M20 1053h130l247 -912l273 908h123l268 -906l246 910h125l-308 -1053h-129l-268 911l-270 -911h-129zM455 1495h149l227 -283h-120z" />
<glyph unicode="&#x1e82;" horiz-adv-x="1851" d="M41 1462h141l334 -1286l346 1280h137l344 -1282l334 1288h133l-399 -1462h-135l-352 1298l-344 -1298h-134zM821 1583l232 266h153l-260 -266h-125z" />
<glyph unicode="&#x1e83;" horiz-adv-x="1454" d="M20 1053h130l247 -912l273 908h123l268 -906l246 910h125l-308 -1053h-129l-268 911l-270 -911h-129zM629 1212l225 283h147l-251 -283h-121z" />
<glyph unicode="&#x1e84;" horiz-adv-x="1851" d="M41 1462h141l334 -1286l346 1280h137l344 -1282l334 1288h133l-399 -1462h-135l-352 1298l-344 -1298h-134zM672 1751q0 40 22.5 62t63.5 22q40 0 62 -22t22 -62q0 -41 -22 -63.5t-62 -22.5q-41 0 -63.5 22.5t-22.5 63.5zM1008 1751q0 40 22.5 62t63.5 22q40 0 62 -22 t22 -62q0 -41 -22 -63.5t-62 -22.5q-41 0 -63.5 22.5t-22.5 63.5z" />
<glyph unicode="&#x1e85;" horiz-adv-x="1454" d="M20 1053h130l247 -912l273 908h123l268 -906l246 910h125l-308 -1053h-129l-268 911l-270 -911h-129zM473 1348q0 40 22.5 62t63.5 22q40 0 62 -22t22 -62q0 -41 -22 -63.5t-62 -22.5q-41 0 -63.5 22.5t-22.5 63.5zM809 1348q0 40 22.5 62t63.5 22q40 0 62 -22t22 -62 q0 -41 -22 -63.5t-62 -22.5q-41 0 -63.5 22.5t-22.5 63.5z" />
<glyph unicode="&#x1e9e;" horiz-adv-x="1589" d="M158 0v961q0 248 123 374.5t366 126.5h539v-106l-33 -23q-84 -58 -141.5 -101.5t-114 -95.5t-85 -101t-28.5 -95q0 -24 5 -44.5t18 -36.5t25 -28.5t34.5 -23t38 -17.5t45.5 -15t46.5 -12t50.5 -11l71 -17q199 -45 287 -129t88 -239q0 -189 -121.5 -295.5t-341.5 -106.5 q-212 0 -327 96.5t-138 294.5h121q22 -146 104.5 -214t239.5 -68q161 0 246.5 74.5t85.5 218.5q0 62 -20 106.5t-64 74t-96 47.5t-133 36l-52 10q-50 11 -83 20.5t-77 25.5t-72.5 36t-55 48t-39.5 66.5t-13 86.5q0 59 26.5 116t79.5 111.5t110.5 100.5t142.5 104h-365 q-190 0 -278 -96.5t-88 -301.5v-958h-127z" />
<glyph unicode="&#x1ebc;" horiz-adv-x="1198" d="M168 0v1462h922v-112h-795v-539h754v-115h-754v-583h813v-113h-940zM285 1587q0 250 168 250q49 0 87 -19t87 -73q37 -39 62.5 -57.5t51.5 -18.5q84 0 84 162h90q0 -248 -170 -248q-48 0 -85 19.5t-89 72.5q-35 38 -61 57t-53 19q-82 0 -82 -164h-90z" />
<glyph unicode="&#x1ebd;" horiz-adv-x="1175" d="M102 520q0 265 140 415t364 150q222 0 345.5 -138t123.5 -384v-67h-852q7 -202 111.5 -316t271.5 -114q135 0 220.5 55t113.5 155h117q-32 -142 -153.5 -225.5t-297.5 -83.5q-227 0 -365.5 148.5t-138.5 404.5zM225 590h731q-8 190 -93 295.5t-257 105.5 q-173 0 -269.5 -103t-111.5 -298zM276 1233q0 254 168 254q49 0 85 -20.5t85 -73.5l17 -17l16.5 -16.5t14.5 -14t16 -13t14.5 -8.5t16.5 -7t16 -2q86 0 86 166h88q0 -254 -168 -254q-50 0 -84.5 20.5t-85.5 73.5q-49 54 -69 67q-21 13 -41 13q-84 0 -84 -168h-91z" />
<glyph unicode="&#x1ef2;" horiz-adv-x="1204" d="M37 1462h145l422 -723l430 723h133l-497 -835v-627h-127v625zM322 1849h153l232 -266h-125z" />
<glyph unicode="&#x1ef3;" horiz-adv-x="1019" d="M16 1053h138l376 -901l344 901h130l-445 -1116l-139 -357h-125l174 440zM238 1495h149l227 -283h-120z" />
<glyph unicode="&#x1ef8;" horiz-adv-x="1204" d="M37 1462h145l422 -723l430 723h133l-497 -835v-627h-127v625zM287 1587q0 250 168 250q49 0 87 -19t87 -73q37 -39 62.5 -57.5t51.5 -18.5q84 0 84 162h91q0 -248 -170 -248q-48 0 -85.5 19.5t-89.5 72.5q-35 38 -61 57t-53 19q-82 0 -82 -164h-90z" />
<glyph unicode="&#x1ef9;" horiz-adv-x="1019" d="M16 1053h138l376 -901l344 901h130l-445 -1116l-139 -357h-125l174 440zM199 1233q0 254 168 254q49 0 85 -20.5t85 -73.5l19.5 -19.5l19.5 -19.5t16.5 -15t18.5 -13.5t17 -7t19 -3.5q86 0 86 166h88q0 -254 -168 -254q-50 0 -84.5 20.5t-85.5 73.5q-49 54 -69 67 q-21 13 -41 13q-84 0 -84 -168h-90z" />
<glyph unicode="&#x2000;" horiz-adv-x="1024" />
<glyph unicode="&#x2001;" horiz-adv-x="2048" />
<glyph unicode="&#x2002;" horiz-adv-x="1024" />
<glyph unicode="&#x2003;" horiz-adv-x="2048" />
<glyph unicode="&#x2004;" horiz-adv-x="681" />
<glyph unicode="&#x2005;" horiz-adv-x="512" />
<glyph unicode="&#x2006;" horiz-adv-x="339" />
<glyph unicode="&#x2007;" horiz-adv-x="1212" />
<glyph unicode="&#x2008;" horiz-adv-x="403" />
<glyph unicode="&#x2009;" horiz-adv-x="409" />
<glyph unicode="&#x200a;" horiz-adv-x="102" />
<glyph unicode="&#x200b;" />
<glyph unicode="&#x200c;" d="M-39 -444v1624h80v-1624h-80z" />
<glyph unicode="&#x200d;" d="M-201 979l142 141l-142 144l60 59l141 -143l141 143l60 -59l-144 -144l144 -141l-58 -57l-104 102v-1468h-80v1470l-102 -104z" />
<glyph unicode="&#x200e;" d="M-326 -444v1615h523l-260 248h110l281 -266v-37l-283 -272h-108l260 248h-443v-1536h-80z" />
<glyph unicode="&#x200f;" d="M-326 1116v37l281 266h111l-261 -248h523v-1615h-80v1536h-443l261 -248h-109z" />
<glyph unicode="&#x2010;" horiz-adv-x="796" d="M100 537v116h596v-116h-596z" />
<glyph unicode="&#x2011;" horiz-adv-x="796" d="M100 537v116h596v-116h-596z" />
<glyph unicode="&#x2012;" horiz-adv-x="1212" d="M135 698v117h1024v-117h-1024z" />
<glyph unicode="&#x2013;" horiz-adv-x="1024" d="M0 537v116h1024v-116h-1024z" />
<glyph unicode="&#x2014;" horiz-adv-x="2048" d="M0 537v116h2048v-116h-2048z" />
<glyph unicode="&#x2015;" horiz-adv-x="2048" d="M0 537v116h2048v-116h-2048z" />
<glyph unicode="&#x2018;" horiz-adv-x="385" d="M102 1049l95 413h98l-64 -413h-129z" />
<glyph unicode="&#x2019;" horiz-adv-x="385" d="M90 1049l66 413h127l-95 -413h-98z" />
<glyph unicode="&#x201a;" horiz-adv-x="378" d="M86 -170l66 414h127l-95 -414h-98z" />
<glyph unicode="&#x201b;" horiz-adv-x="385" d="M106 1462h130l61 -411h-96z" />
<glyph unicode="&#x201c;" horiz-adv-x="671" d="M104 1049l95 413h98l-64 -413h-129zM391 1049l94 413h99l-64 -413h-129z" />
<glyph unicode="&#x201d;" horiz-adv-x="671" d="M86 1049l66 413h127l-95 -413h-98zM375 1049l65 413h127l-94 -413h-98z" />
<glyph unicode="&#x201e;" horiz-adv-x="665" d="M84 -170l66 414h126l-94 -414h-98zM375 -170l65 414h127l-94 -414h-98z" />
<glyph unicode="&#x2020;" horiz-adv-x="937" d="M45 944v105h365v413h120v-413h363v-105h-363v-1122h-120v1122h-365z" />
<glyph unicode="&#x2021;" horiz-adv-x="937" d="M45 244v108h365v596h-365v105h365v409h120v-409h363v-105h-363v-596h363v-108h-363v-422h-120v422h-365z" />
<glyph unicode="&#x2022;" horiz-adv-x="673" d="M90 596q0 108 70.5 176t177.5 68q106 0 175 -68t69 -176t-68 -176t-176 -68q-109 0 -178.5 68.5t-69.5 175.5z" />
<glyph unicode="&#x2026;" horiz-adv-x="1785" d="M197 74q0 38 22 60t60 22t59.5 -22t21.5 -60t-21.5 -60t-59.5 -22t-60 22t-22 60zM811 74q0 38 22 60t60 22t60 -22t22 -60t-22 -60t-60 -22t-60 22t-22 60zM1425 74q0 38 22 60t60 22t60 -22t22 -60t-22 -60t-60 -22t-60 22t-22 60z" />
<glyph unicode="&#x202a;" d="M-326 -444v1615h115v-79h-35v-1536h-80zM-63 844l260 248h-224v79h224l-260 248h110l281 -266v-37l-283 -272h-108z" />
<glyph unicode="&#x202b;" d="M-326 1116v37l281 266h111l-261 -248h224v-79h-224l261 -248h-109zM213 1092v79h115v-1615h-80v1536h-35z" />
<glyph unicode="&#x202c;" d="M-287 1006v110l267 281h36l273 -283v-108l-248 260v-1710h-80v1710z" />
<glyph unicode="&#x202d;" d="M-410 -444v1615h461l-260 248h111l280 -266v-37l-282 -272h-109l260 248h-381v-1536h-80zM20 844l302 289l-302 286h111l281 -266v-37l-283 -272h-109z" />
<glyph unicode="&#x202e;" d="M-410 1116v37l281 266h111l-301 -286l301 -289h-109zM-180 1116v37l280 266h111l-260 -248h461v-1615h-80v1536h-381l260 -248h-109z" />
<glyph unicode="&#x202f;" horiz-adv-x="425" />
<glyph unicode="&#x2030;" horiz-adv-x="2627" d="M82 1014q0 213 92 326.5t252 113.5t252 -113t92 -327q0 -216 -90.5 -327.5t-253.5 -111.5q-158 0 -251 112.5t-93 326.5zM197 1014q0 -338 229 -338q112 0 171.5 85.5t59.5 252.5t-60 253.5t-171 86.5q-113 0 -171 -86t-58 -254zM500 0l723 1415h118l-720 -1415h-121z M1065 408q0 213 92 326.5t252 113.5t252 -113t92 -327q0 -216 -90.5 -327.5t-253.5 -111.5q-158 0 -251 112.5t-93 326.5zM1180 408q0 -338 229 -338q112 0 171.5 85.5t59.5 252.5t-60 253.5t-171 86.5q-113 0 -171 -86t-58 -254zM1855 408q0 213 92.5 326.5t252.5 113.5 t252 -113t92 -327q0 -216 -90.5 -327.5t-253.5 -111.5q-158 0 -251.5 112.5t-93.5 326.5zM1970 408q0 -168 58.5 -253t171.5 -85q112 0 171.5 85.5t59.5 252.5t-60 253.5t-171 86.5q-113 0 -171.5 -86t-58.5 -254z" />
<glyph unicode="&#x2032;" horiz-adv-x="378" d="M86 950l76 512h131l-111 -512h-96z" />
<glyph unicode="&#x2033;" horiz-adv-x="710" d="M84 950l76 512h131l-111 -512h-96zM414 950l75 512h132l-111 -512h-96z" />
<glyph unicode="&#x2039;" horiz-adv-x="575" d="M86 526l289 455h123l-275 -453l275 -460h-125z" />
<glyph unicode="&#x203a;" horiz-adv-x="575" d="M78 68l274 452l-274 461h125l289 -459l-291 -454h-123z" />
<glyph unicode="&#x2044;" horiz-adv-x="143" d="M-350 0l723 1415h119l-721 -1415h-121z" />
<glyph unicode="&#x205f;" horiz-adv-x="531" />
<glyph unicode="&#x2070;" horiz-adv-x="843" d="M78 1249q0 213 92 327t252 114t252 -113.5t92 -327.5q0 -216 -90.5 -327t-253.5 -111q-158 0 -251 112t-93 326zM193 1249q0 -338 229 -338q112 0 171.5 85.5t59.5 252.5t-60 253.5t-171 86.5q-113 0 -171 -86t-58 -254z" />
<glyph unicode="&#x2074;" horiz-adv-x="843" d="M102 1051v71l416 537h96v-522h103l-17 -86h-86v-209h-102v209h-410zM217 1137h295v381z" />
<glyph unicode="&#x2075;" horiz-adv-x="843" d="M145 1044h95q15 -73 61 -109t129 -36q86 0 131 50t45 145q0 186 -176 186q-123 0 -190 -76h-80l39 455h454v-90h-370l-21 -258q80 53 182 53q131 0 198 -71.5t67 -198.5q0 -137 -73 -210t-206 -73q-128 0 -200.5 59t-84.5 174z" />
<glyph unicode="&#x2076;" horiz-adv-x="843" d="M133 1200q0 106 16.5 191t52.5 153.5t100 106t153 37.5q216 0 254 -199l-88 -14q-15 65 -55.5 96t-110.5 31q-212 0 -224 -345q77 107 226 107q132 0 201 -72.5t69 -197.5q0 -128 -80 -205.5t-213 -77.5q-80 0 -139 29.5t-94 83.5t-51.5 122.5t-16.5 153.5zM246 1104 q0 -88 49 -146.5t137 -58.5q91 0 142 51t51 142q0 89 -45 139.5t-136 50.5q-88 0 -143 -46.5t-55 -131.5z" />
<glyph unicode="&#x2077;" horiz-adv-x="843" d="M123 1565v94h582v-82q-203 -352 -302 -735h-114q60 205 128.5 374t166.5 349h-461z" />
<glyph unicode="&#x2078;" horiz-adv-x="843" d="M117 1057q0 73 40.5 124.5t108.5 75.5q-57 25 -89 77t-32 122q0 106 72.5 170t204.5 64q134 0 206 -64t72 -170q0 -69 -32.5 -120t-89.5 -76q69 -23 110 -74.5t41 -128.5q0 -114 -79 -179t-228 -65q-148 0 -226.5 64.5t-78.5 179.5zM219 1055q0 -75 51.5 -116.5 t151.5 -41.5t151.5 41.5t51.5 116.5q0 72 -52 113.5t-151 41.5q-100 0 -151.5 -41t-51.5 -114zM244 1452q0 -73 46 -113.5t132 -40.5q87 0 131.5 40.5t44.5 115.5q0 70 -44.5 111t-131.5 41q-86 0 -132 -41.5t-46 -112.5z" />
<glyph unicode="&#x2079;" horiz-adv-x="843" d="M117 1407q0 126 80 203.5t213 77.5q299 0 299 -396q0 -105 -13.5 -186t-46 -150.5t-94.5 -107t-152 -37.5q-247 0 -272 215h92q14 -70 58.5 -98.5t119.5 -28.5q107 0 156 79.5t53 268.5q-74 -112 -223 -112q-132 0 -201 73.5t-69 198.5zM219 1409q0 -85 43 -136.5 t135 -51.5q86 0 143.5 44t57.5 132t-48 146.5t-138 58.5q-89 0 -141 -50.5t-52 -142.5z" />
<glyph unicode="&#x207a;" horiz-adv-x="843" d="M135 1200v86h244v250h88v-250h242v-86h-242v-254h-88v254h-244z" />
<glyph unicode="&#x207b;" horiz-adv-x="843" d="M135 1200v86h574v-86h-574z" />
<glyph unicode="&#x207c;" horiz-adv-x="843" d="M135 1063v82h574v-82h-574zM135 1341v80h574v-80h-574z" />
<glyph unicode="&#x207d;" horiz-adv-x="337" d="M68 1221q0 293 151 516h96q-145 -238 -145 -516q0 -276 145 -516h-96q-151 230 -151 516z" />
<glyph unicode="&#x207e;" horiz-adv-x="337" d="M20 705q146 238 146 516q0 272 -146 516h97q151 -225 151 -516t-151 -516h-97z" />
<glyph unicode="&#x2080;" horiz-adv-x="843" d="M78 150q0 213 92 326.5t252 113.5t252 -113t92 -327q0 -216 -90.5 -327.5t-253.5 -111.5q-158 0 -251 112.5t-93 326.5zM193 150q0 -338 229 -338q112 0 171.5 85.5t59.5 252.5t-60 253t-171 86q-229 0 -229 -339z" />
<glyph unicode="&#x2081;" horiz-adv-x="843" d="M158 424l252 135h110v-817h-112v707l-207 -107z" />
<glyph unicode="&#x2082;" horiz-adv-x="843" d="M129 354q62 234 299 234q124 0 197 -65t73 -177q0 -107 -64 -195t-194 -198q-19 -15 -145 -117h403v-94h-561v84q47 39 127 106.5t92 77.5q132 111 182 179t50 151q0 74 -42 114t-120 40q-153 0 -197 -154z" />
<glyph unicode="&#x2083;" horiz-adv-x="843" d="M117 -31h96q19 -170 205 -170q184 0 184 166q0 76 -44 117t-118 41h-112v88h108q70 0 111 38.5t41 108.5q0 144 -170 144q-82 0 -128 -36t-67 -114l-96 17q21 97 92 159t199 62q132 0 202 -59.5t70 -163.5q0 -131 -117 -191q68 -24 102 -79t34 -132q0 -119 -74 -186.5 t-217 -67.5q-134 0 -215.5 69t-85.5 189z" />
<glyph unicode="&#x2084;" horiz-adv-x="843" d="M102 23l416 536h96v-522h103l-17 -86h-86v-209h-102v209h-410v72zM217 37h295v381z" />
<glyph unicode="&#x2085;" horiz-adv-x="843" d="M145 -55h95q30 -146 190 -146q86 0 131 50t45 145q0 186 -176 186q-123 0 -190 -76h-80l39 455h454v-90h-370l-21 -258q80 53 182 53q131 0 198 -71.5t67 -198.5q0 -137 -73 -210t-206 -73q-128 0 -200.5 59.5t-84.5 174.5z" />
<glyph unicode="&#x2086;" horiz-adv-x="843" d="M133 100q0 106 16.5 191t52.5 153.5t100 106t153 37.5q216 0 254 -199l-88 -14q-15 65 -55.5 96t-110.5 31q-212 0 -224 -344q76 106 226 106q132 0 201 -72.5t69 -197.5q0 -128 -80 -205.5t-213 -77.5q-80 0 -139 29.5t-94 83.5t-51.5 122.5t-16.5 153.5zM246 4 q0 -88 49 -146.5t137 -58.5q91 0 142 51t51 142q0 89 -45 139.5t-136 50.5q-88 0 -143 -46.5t-55 -131.5z" />
<glyph unicode="&#x2087;" horiz-adv-x="843" d="M123 465v94h582v-82q-203 -352 -302 -735h-114q60 205 128.5 374t166.5 349h-461z" />
<glyph unicode="&#x2088;" horiz-adv-x="843" d="M117 -43q0 73 40.5 125t108.5 76q-57 25 -89 76.5t-32 121.5q0 106 72.5 170t204.5 64q134 0 206 -64t72 -170q0 -69 -32.5 -120t-89.5 -76q69 -23 110 -74.5t41 -128.5q0 -114 -79 -179t-228 -65q-148 0 -226.5 64.5t-78.5 179.5zM219 -45q0 -75 51.5 -116.5 t151.5 -41.5t151.5 41.5t51.5 116.5q0 72 -52 114t-151 42q-100 0 -151.5 -41.5t-51.5 -114.5zM244 352q0 -73 46 -113t132 -40q87 0 131.5 40.5t44.5 114.5q0 70 -44.5 111t-131.5 41q-86 0 -132 -41.5t-46 -112.5z" />
<glyph unicode="&#x2089;" horiz-adv-x="843" d="M117 307q0 126 80 203.5t213 77.5q299 0 299 -395q0 -83 -8 -150.5t-28.5 -131t-54.5 -106.5t-88.5 -68.5t-126.5 -25.5q-247 0 -272 215h92q14 -70 58.5 -98.5t119.5 -28.5q107 0 156 79.5t53 268.5q-74 -112 -223 -112q-132 0 -201 73.5t-69 198.5zM219 309 q0 -85 43 -136.5t135 -51.5q86 0 143.5 44t57.5 132t-48 146.5t-138 58.5q-89 0 -141 -50.5t-52 -142.5z" />
<glyph unicode="&#x208a;" horiz-adv-x="843" d="M135 119v86h244v250h88v-250h242v-86h-242v-254h-88v254h-244z" />
<glyph unicode="&#x208b;" horiz-adv-x="843" d="M135 119v86h574v-86h-574z" />
<glyph unicode="&#x208c;" horiz-adv-x="843" d="M135 -18v81h574v-81h-574zM135 260v80h574v-80h-574z" />
<glyph unicode="&#x208d;" horiz-adv-x="337" d="M68 139q0 293 151 516h96q-145 -238 -145 -516q0 -276 145 -516h-96q-151 230 -151 516z" />
<glyph unicode="&#x208e;" horiz-adv-x="337" d="M20 -377q146 238 146 516q0 272 -146 516h97q151 -225 151 -516t-151 -516h-97z" />
<glyph unicode="&#x20a3;" horiz-adv-x="1212" d="M68 299v102h211v1014h841v-110h-721v-539h688v-111h-688v-254h381v-102h-381v-299h-120v299h-211z" />
<glyph unicode="&#x20a4;" horiz-adv-x="1212" d="M143 453v100h162q-1 19 -20 172q-4 24 -4 39h-138v100h125q-12 85 -12 148q0 204 114 323t314 119q168 0 265.5 -77t133.5 -244l-106 -23q-36 129 -101.5 184.5t-187.5 55.5q-155 0 -235 -89t-80 -245q0 -54 10 -152h496v-100h-482l4 -29q19 -118 21 -182h457v-100h-459 q-7 -214 -107 -344h799v-109h-928v100q114 130 123 353h-164z" />
<glyph unicode="&#x20a7;" horiz-adv-x="2779" d="M168 0v1415h455q230 0 347 -104.5t117 -309.5q0 -212 -119 -321t-350 -109h-325v-571h-125zM293 678h328q340 0 340 319q0 163 -86.5 237.5t-256.5 74.5h-325v-631zM1208 956v97h152v250h117v-250h284v-97h-284v-673q0 -205 161 -205q58 0 125 24l23 -92 q-87 -33 -174 -33q-128 0 -190 81.5t-62 250.5v647h-152zM1888 293h113q17 -116 90 -171.5t207 -55.5q260 0 260 208q0 95 -49.5 139.5t-165.5 65.5l-109 19q-170 29 -247.5 98.5t-77.5 189.5q0 140 99 219.5t271 79.5q166 0 256.5 -65t122.5 -207l-106 -18q-31 106 -91 150 t-177 44q-261 0 -261 -192q0 -84 52 -127t163 -64l121 -20q161 -28 240.5 -97t79.5 -210q0 -149 -99 -230.5t-282 -81.5q-187 0 -292.5 84t-117.5 242z" />
<glyph unicode="&#x20ab;" horiz-adv-x="1212" d="M172 674q0 93 24.5 173t72 141.5t125 96.5t175.5 35q196 0 293 -159v280h-297v92h297v129h123v-129h121v-92h-121v-977h-121v148q-103 -174 -313 -174q-178 0 -278.5 118t-100.5 318zM195 0v92h852v-92h-852zM301 678q0 -162 75 -249t197 -87q133 0 212 85t79 220v53 q0 154 -72.5 237t-203.5 83q-140 0 -213.5 -93.5t-73.5 -248.5z" />
<glyph unicode="&#x20ac;" horiz-adv-x="1212" d="M35 500l22 92h117q-2 33 -2 102q0 68 6 135h-143l22 91h131q19 118 58 213t100 168t149.5 113t198.5 40q191 0 298.5 -93.5t146.5 -285.5l-111 -20q-37 155 -116.5 224t-219.5 69q-84 0 -151 -32t-112.5 -91.5t-74.5 -135t-45 -169.5h533l-21 -91h-522q-6 -67 -6 -139 q0 -65 2 -98h489l-20 -92h-459q12 -90 38 -163.5t69.5 -135.5t113.5 -96.5t160 -34.5q162 0 246.5 81.5t111.5 251.5h115q-51 -440 -475 -440q-119 0 -210.5 40t-150 114.5t-93 169t-48.5 213.5h-147z" />
<glyph unicode="&#x20b4;" horiz-adv-x="1212" d="M51 518v92h252q83 56 217 113l185 76q10 5 30.5 14t30.5 14h-715v95h850q74 77 74 188q0 115 -87.5 177.5t-246.5 62.5q-155 0 -241 -55.5t-124 -178.5l-112 25q37 154 157.5 233.5t319.5 79.5q209 0 330 -92t121 -250q0 -108 -54 -190h123v-95h-211q-65 -50 -198 -110 l-197 -82l-53 -25h659v-92h-809q-90 -78 -90 -196q0 -122 95.5 -187t273.5 -65q161 0 258.5 63t116.5 180h114q-15 -165 -144.5 -256.5t-348.5 -91.5q-233 0 -360.5 94t-127.5 263q0 114 64 196h-152z" />
<glyph unicode="&#x20b9;" horiz-adv-x="1212" d="M182 588v100h267q177 0 267.5 63t100.5 199h-635v99h635q-20 268 -348 268h-287v98h920l-6 -98h-316q144 -73 156 -268h139l-6 -99h-133q-10 -179 -136.5 -269.5t-342.5 -90.5h-105l705 -590h-170z" />
<glyph unicode="&#x20ba;" horiz-adv-x="1212" d="M92 891l178 72v452h119v-403l414 166l28 -80l-442 -178v-222l416 168l29 -80l-445 -180v-495h51q237 0 376.5 129.5t150.5 355.5h118q-9 -272 -183 -434t-460 -162h-172v559l-147 -59l-29 80l176 71v219l-147 -59z" />
<glyph unicode="&#x20bd;" horiz-adv-x="1212" d="M90 336v98h160v195h-160v100h160v686h422q223 0 347 -97.5t124 -287.5q0 -188 -121 -294.5t-352 -106.5h-301v-195h575v-98h-575v-336h-119v336h-160zM369 729h301q170 0 260 75.5t90 223.5q0 139 -83 213t-269 74h-299v-586z" />
<glyph unicode="&#x2113;" horiz-adv-x="735" d="M59 399l154 162v604q0 156 63 238t166 82q101 0 152 -71t51 -204q0 -334 -317 -678v-299q0 -87 37.5 -129.5t99.5 -42.5q80 0 156 82l53 -61q-91 -119 -232 -119q-126 0 -177.5 75t-51.5 228v178l-107 -108zM328 662q107 126 165 267.5t58 276.5q0 185 -109 185 q-40 0 -66.5 -34t-37 -80.5t-10.5 -100.5v-514z" />
<glyph unicode="&#x2116;" horiz-adv-x="2279" d="M166 0v1462h127l868 -1261v1261h123v-1462h-127l-868 1253v-1253h-123zM1477 1087q0 188 103 300t271 112q172 0 272.5 -109t100.5 -298q0 -188 -102.5 -301t-274.5 -113q-169 0 -269.5 111t-100.5 298zM1581 1087q0 -148 69.5 -234.5t198.5 -86.5q131 0 201 88t70 236 q0 150 -69.5 235.5t-201.5 85.5q-127 0 -197.5 -88.5t-70.5 -235.5z" />
<glyph unicode="&#x2122;" horiz-adv-x="1826" d="M37 1374v88h659v-88h-280v-731h-97v731h-282zM825 643v819h123l299 -704l301 704h123v-819h-94v662l-289 -662h-82l-286 666v-666h-95z" />
<glyph unicode="&#x2126;" horiz-adv-x="1497" d="M78 0v109h346q-295 250 -295 659q0 215 70.5 378.5t212.5 258t338 94.5q283 0 448.5 -192.5t165.5 -532.5q0 -416 -299 -665h348v-109h-510v96q172 115 252 282t80 392q0 291 -126 457t-359 166q-236 0 -364 -165t-128 -458q0 -225 81 -390.5t251 -283.5v-96h-512z" />
<glyph unicode="&#x212e;" horiz-adv-x="1865" d="M102 721q0 152 65.5 290t176 238.5t264 159.5t322.5 59q170 0 324 -59t265.5 -159.5t177.5 -238.5t66 -290v-21h-1345q-10 0 -10 -8v-407q0 -27 18 -45q101 -107 230.5 -164.5t277.5 -57.5q155 0 292 64.5t242 181.5h119q-108 -133 -282.5 -210t-374.5 -77 q-224 0 -414.5 98.5t-302 270t-111.5 375.5zM408 756q0 -15 10 -15h1030q8 0 8 15v407q0 28 -18 49q-102 100 -232 155.5t-272 55.5q-139 0 -271 -58t-235 -161q-20 -17 -20 -49v-399z" />
<glyph unicode="&#x2150;" horiz-adv-x="1830" d="M158 1272l252 135h110v-817h-112v706l-207 -106zM494 0l723 1415h118l-721 -1415h-120zM1110 723v94h582v-82q-201 -349 -301 -735h-115q60 205 128.5 374t166.5 349h-461z" />
<glyph unicode="&#x2151;" horiz-adv-x="1830" d="M158 1272l252 135h110v-817h-112v706l-207 -106zM494 0l723 1415h118l-721 -1415h-120zM1104 565q0 126 80 203.5t213 77.5q299 0 299 -395q0 -83 -7.5 -150.5t-28.5 -131t-54.5 -106.5t-88 -68.5t-126.5 -25.5q-248 0 -273 215h92q14 -70 59 -98.5t120 -28.5 q107 0 155.5 80t52.5 269q-75 -113 -223 -113q-132 0 -201 73.5t-69 198.5zM1206 567q0 -85 43 -136.5t135 -51.5q86 0 143.5 44t57.5 132t-48 146.5t-138 58.5q-89 0 -141 -50.5t-52 -142.5z" />
<glyph unicode="&#x2153;" horiz-adv-x="1830" d="M158 1272l252 135h110v-817h-112v706l-207 -106zM494 0l723 1415h118l-721 -1415h-120zM1104 227h96q19 -170 205 -170q184 0 184 166q0 76 -44 117t-118 41h-112v88h108q70 0 111 38.5t41 108.5q0 144 -170 144q-82 0 -128 -36t-67 -114l-96 17q21 97 92.5 159t198.5 62 q132 0 202 -59.5t70 -163.5q0 -131 -116 -191q67 -24 101 -79t34 -132q0 -119 -74 -186.5t-217 -67.5q-134 0 -215.5 69t-85.5 189z" />
<glyph unicode="&#x2154;" horiz-adv-x="1830" d="M129 1202q62 234 299 234q124 0 197 -65t73 -177q0 -107 -64 -195t-194 -198q-19 -15 -145 -117h403v-94h-561v84q47 39 127 106.5t92 77.5q132 111 182 179t50 151q0 74 -42 113.5t-120 39.5q-154 0 -197 -153zM494 0l723 1415h118l-721 -1415h-120zM1104 227h96 q19 -170 205 -170q184 0 184 166q0 76 -44 117t-118 41h-112v88h108q70 0 111 38.5t41 108.5q0 144 -170 144q-82 0 -128 -36t-67 -114l-96 17q21 97 92.5 159t198.5 62q132 0 202 -59.5t70 -163.5q0 -131 -116 -191q67 -24 101 -79t34 -132q0 -119 -74 -186.5t-217 -67.5 q-134 0 -215.5 69t-85.5 189z" />
<glyph unicode="&#x2155;" horiz-adv-x="1830" d="M158 1272l252 135h110v-817h-112v706l-207 -106zM494 0l723 1415h118l-721 -1415h-120zM1133 203h94q30 -146 190 -146q86 0 131 50t45 145q0 186 -176 186q-123 0 -190 -76h-80l39 455h454v-90h-370l-21 -258q80 53 183 53q131 0 197.5 -71t66.5 -199q0 -137 -73 -210 t-206 -73q-128 0 -200 59.5t-84 174.5z" />
<glyph unicode="&#x2156;" horiz-adv-x="1830" d="M129 1202q62 234 299 234q124 0 197 -65t73 -177q0 -107 -64 -195t-194 -198q-19 -15 -145 -117h403v-94h-561v84q47 39 127 106.5t92 77.5q132 111 182 179t50 151q0 74 -42 113.5t-120 39.5q-154 0 -197 -153zM494 0l723 1415h118l-721 -1415h-120zM1133 203h94 q30 -146 190 -146q86 0 131 50t45 145q0 186 -176 186q-123 0 -190 -76h-80l39 455h454v-90h-370l-21 -258q80 53 183 53q131 0 197.5 -71t66.5 -199q0 -137 -73 -210t-206 -73q-128 0 -200 59.5t-84 174.5z" />
<glyph unicode="&#x2157;" horiz-adv-x="1830" d="M117 817h96q19 -170 205 -170q184 0 184 166q0 76 -44 117t-118 41h-112v88h108q70 0 111 38.5t41 108.5q0 144 -170 144q-82 0 -128 -36t-67 -114l-96 17q21 97 92 159t199 62q132 0 202 -60t70 -164q0 -130 -117 -190q68 -24 102 -79t34 -132q0 -119 -74 -186.5 t-217 -67.5q-134 0 -215.5 69t-85.5 189zM494 0l723 1415h118l-721 -1415h-120zM1133 203h94q30 -146 190 -146q86 0 131 50t45 145q0 186 -176 186q-123 0 -190 -76h-80l39 455h454v-90h-370l-21 -258q80 53 183 53q131 0 197.5 -71t66.5 -199q0 -137 -73 -210t-206 -73 q-128 0 -200 59.5t-84 174.5z" />
<glyph unicode="&#x2158;" horiz-adv-x="1830" d="M102 799v71l416 537h96v-522h103l-17 -86h-86v-209h-102v209h-410zM217 885h295v381zM494 0l723 1415h118l-721 -1415h-120zM1133 203h94q30 -146 190 -146q86 0 131 50t45 145q0 186 -176 186q-123 0 -190 -76h-80l39 455h454v-90h-370l-21 -258q80 53 183 53 q131 0 197.5 -71t66.5 -199q0 -137 -73 -210t-206 -73q-128 0 -200 59.5t-84 174.5z" />
<glyph unicode="&#x2159;" horiz-adv-x="1830" d="M158 1272l252 135h110v-817h-112v706l-207 -106zM494 0l723 1415h118l-721 -1415h-120zM1120 358q0 106 16.5 191t52.5 153.5t100 106t153 37.5q216 0 254 -199l-88 -14q-15 65 -55.5 96t-110.5 31q-211 0 -223 -344q76 106 225 106q132 0 201 -72.5t69 -197.5 q0 -128 -80 -205.5t-213 -77.5q-80 0 -139 29.5t-94 83.5t-51.5 122.5t-16.5 153.5zM1233 262q0 -88 49 -146.5t137 -58.5q91 0 142 51t51 142q0 89 -44.5 139.5t-135.5 50.5q-88 0 -143.5 -46.5t-55.5 -131.5z" />
<glyph unicode="&#x215a;" horiz-adv-x="1830" d="M145 793h95q30 -146 190 -146q86 0 131 50t45 145q0 186 -176 186q-123 0 -190 -76h-80l39 455h454v-90h-370l-21 -258q80 53 182 53q131 0 198 -71.5t67 -198.5q0 -137 -73 -210t-206 -73q-128 0 -200.5 59.5t-84.5 174.5zM494 0l723 1415h118l-721 -1415h-120z M1120 358q0 106 16.5 191t52.5 153.5t100 106t153 37.5q216 0 254 -199l-88 -14q-15 65 -55.5 96t-110.5 31q-211 0 -223 -344q76 106 225 106q132 0 201 -72.5t69 -197.5q0 -128 -80 -205.5t-213 -77.5q-80 0 -139 29.5t-94 83.5t-51.5 122.5t-16.5 153.5zM1233 262 q0 -88 49 -146.5t137 -58.5q91 0 142 51t51 142q0 89 -44.5 139.5t-135.5 50.5q-88 0 -143.5 -46.5t-55.5 -131.5z" />
<glyph unicode="&#x215b;" horiz-adv-x="1830" d="M158 1272l252 135h110v-817h-112v706l-207 -106zM494 0l723 1415h118l-721 -1415h-120zM1104 215q0 73 40.5 125t108.5 76q-57 25 -88.5 76.5t-31.5 121.5q0 106 72 170t204 64q134 0 206.5 -64t72.5 -170q0 -69 -33 -120t-90 -76q69 -23 110 -74.5t41 -128.5 q0 -114 -79 -179t-228 -65q-148 0 -226.5 64.5t-78.5 179.5zM1206 213q0 -75 51.5 -116.5t151.5 -41.5t151.5 41.5t51.5 116.5q0 72 -52 114t-151 42q-100 0 -151.5 -41.5t-51.5 -114.5zM1231 610q0 -73 46 -113t132 -40q87 0 131.5 40.5t44.5 114.5q0 70 -44.5 111 t-131.5 41q-86 0 -132 -41.5t-46 -112.5z" />
<glyph unicode="&#x215c;" horiz-adv-x="1830" d="M117 817h96q19 -170 205 -170q184 0 184 166q0 76 -44 117t-118 41h-112v88h108q70 0 111 38.5t41 108.5q0 144 -170 144q-82 0 -128 -36t-67 -114l-96 17q21 97 92 159t199 62q132 0 202 -60t70 -164q0 -130 -117 -190q68 -24 102 -79t34 -132q0 -119 -74 -186.5 t-217 -67.5q-134 0 -215.5 69t-85.5 189zM494 0l723 1415h118l-721 -1415h-120zM1104 215q0 73 40.5 125t108.5 76q-57 25 -88.5 76.5t-31.5 121.5q0 106 72 170t204 64q134 0 206.5 -64t72.5 -170q0 -69 -33 -120t-90 -76q69 -23 110 -74.5t41 -128.5q0 -114 -79 -179 t-228 -65q-148 0 -226.5 64.5t-78.5 179.5zM1206 213q0 -75 51.5 -116.5t151.5 -41.5t151.5 41.5t51.5 116.5q0 72 -52 114t-151 42q-100 0 -151.5 -41.5t-51.5 -114.5zM1231 610q0 -73 46 -113t132 -40q87 0 131.5 40.5t44.5 114.5q0 70 -44.5 111t-131.5 41 q-86 0 -132 -41.5t-46 -112.5z" />
<glyph unicode="&#x215d;" horiz-adv-x="1830" d="M145 793h95q30 -146 190 -146q86 0 131 50t45 145q0 186 -176 186q-123 0 -190 -76h-80l39 455h454v-90h-370l-21 -258q80 53 182 53q131 0 198 -71.5t67 -198.5q0 -137 -73 -210t-206 -73q-128 0 -200.5 59.5t-84.5 174.5zM494 0l723 1415h118l-721 -1415h-120z M1104 215q0 73 40.5 125t108.5 76q-57 25 -88.5 76.5t-31.5 121.5q0 106 72 170t204 64q134 0 206.5 -64t72.5 -170q0 -69 -33 -120t-90 -76q69 -23 110 -74.5t41 -128.5q0 -114 -79 -179t-228 -65q-148 0 -226.5 64.5t-78.5 179.5zM1206 213q0 -75 51.5 -116.5t151.5 -41.5 t151.5 41.5t51.5 116.5q0 72 -52 114t-151 42q-100 0 -151.5 -41.5t-51.5 -114.5zM1231 610q0 -73 46 -113t132 -40q87 0 131.5 40.5t44.5 114.5q0 70 -44.5 111t-131.5 41q-86 0 -132 -41.5t-46 -112.5z" />
<glyph unicode="&#x215e;" horiz-adv-x="1830" d="M123 1313v94h582v-82q-203 -352 -302 -735h-114q60 205 128.5 374t166.5 349h-461zM494 0l723 1415h118l-721 -1415h-120zM1104 215q0 73 40.5 125t108.5 76q-57 25 -88.5 76.5t-31.5 121.5q0 106 72 170t204 64q134 0 206.5 -64t72.5 -170q0 -69 -33 -120t-90 -76 q69 -23 110 -74.5t41 -128.5q0 -114 -79 -179t-228 -65q-148 0 -226.5 64.5t-78.5 179.5zM1206 213q0 -75 51.5 -116.5t151.5 -41.5t151.5 41.5t51.5 116.5q0 72 -52 114t-151 42q-100 0 -151.5 -41.5t-51.5 -114.5zM1231 610q0 -73 46 -113t132 -40q87 0 131.5 40.5 t44.5 114.5q0 70 -44.5 111t-131.5 41q-86 0 -132 -41.5t-46 -112.5z" />
<glyph unicode="&#x2202;" horiz-adv-x="1185" d="M84 387q0 219 131 361.5t348 142.5q140 0 239.5 -63.5t137.5 -176.5q10 85 10 180q0 120 -16.5 211.5t-53 162.5t-100.5 108t-155 37q-120 0 -192.5 -54.5t-108.5 -181.5l-105 19q42 166 145 243.5t267 77.5q432 0 432 -625q0 -133 -16 -252t-55.5 -233.5t-101 -197 t-159.5 -133t-223 -50.5q-192 0 -308 117t-116 307zM201 391q0 -143 86 -234t229 -91q162 0 269.5 119t107.5 300q0 143 -91 224.5t-233 81.5q-171 0 -269.5 -112t-98.5 -288z" />
<glyph unicode="&#x2206;" horiz-adv-x="1392" d="M66 0v102l563 1360h135l563 -1360v-102h-1261zM199 115h987l-492 1214z" />
<glyph unicode="&#x220f;" horiz-adv-x="1366" d="M164 0v1462h1038v-1462h-125v1348h-786v-1348h-127z" />
<glyph unicode="&#x2211;" horiz-adv-x="1157" d="M74 -117l483 754l-481 731v94h1024v-108h-875l467 -715l-479 -739h899v-109h-1038v92z" />
<glyph unicode="&#x2212;" horiz-adv-x="1212" d="M166 643v109h881v-109h-881z" />
<glyph unicode="&#x2215;" horiz-adv-x="143" d="M-350 0l723 1415h119l-721 -1415h-121z" />
<glyph unicode="&#x2219;" horiz-adv-x="403" d="M119 909q0 38 22 60t60 22t60 -22t22 -60t-22 -60t-60 -22t-60 22t-22 60z" />
<glyph unicode="&#x221a;" horiz-adv-x="1161" d="M72 657v107h247l252 -621l469 1354h127l-532 -1497h-129l-273 657h-161z" />
<glyph unicode="&#x221e;" horiz-adv-x="1214" d="M63 700q0 157 73 244.5t192 87.5q192 0 280 -213q41 98 111.5 155.5t169.5 57.5q120 0 193 -86.5t73 -245.5q0 -158 -73 -244.5t-193 -86.5q-189 0 -281 217q-95 -217 -280 -217q-119 0 -192 86.5t-73 244.5zM166 700q0 -110 45.5 -171.5t122.5 -61.5q84 0 140.5 64 t80.5 174q-26 108 -81.5 168.5t-139.5 60.5q-76 0 -122 -61.5t-46 -172.5zM659 696q26 -100 82 -164.5t140 -64.5q78 0 124 61t46 172t-46 172.5t-124 61.5q-85 0 -140.5 -63.5t-81.5 -174.5z" />
<glyph unicode="&#x222b;" horiz-adv-x="616" d="M63 -217l25 92q58 -22 102 -22q138 0 138 153q0 37 -6 80l-144 1059q-4 36 -4 74q0 117 58.5 188.5t185.5 71.5q69 0 137 -29l-23 -92q-48 22 -104 22q-137 0 -137 -155q0 -41 6 -76l143 -1061q6 -41 6 -76q0 -121 -60.5 -189.5t-184.5 -68.5q-64 0 -138 29z" />
<glyph unicode="&#x2248;" horiz-adv-x="1212" d="M109 279q0 167 69.5 247t194.5 80q58 0 116 -29t140 -98q68 -60 114.5 -86t94.5 -26q157 0 157 215h107q0 -168 -69 -249t-193 -81q-56 0 -115.5 30.5t-138.5 98.5q-75 65 -120.5 90t-88.5 25q-81 0 -119.5 -53.5t-38.5 -163.5h-110zM109 764q0 167 69.5 247.5 t194.5 80.5q58 0 116 -29t140 -98q70 -60 116 -86.5t93 -26.5q157 0 157 215h107q0 -168 -69 -249t-193 -81q-56 0 -115.5 30.5t-138.5 98.5q-75 65 -120.5 90t-88.5 25q-81 0 -119.5 -53t-38.5 -164h-110z" />
<glyph unicode="&#x2260;" horiz-adv-x="1212" d="M166 414v108h280l205 350h-485v109h545l131 225h112l-129 -225h222v-109h-281l-205 -350h486v-108h-547l-129 -228h-113l129 228h-221z" />
<glyph unicode="&#x2264;" horiz-adv-x="1212" d="M158 0v109h909v-109h-909zM158 668v94l909 430v-119l-772 -356l772 -359v-118z" />
<glyph unicode="&#x2265;" horiz-adv-x="1212" d="M145 0v109h910v-109h-910zM145 240v118l773 359l-773 356v119l910 -428v-94z" />
<glyph unicode="&#x25ca;" horiz-adv-x="1208" d="M86 731l467 731h104l467 -731l-467 -731h-104zM219 731l385 -610l391 610l-389 608z" />
<glyph unicode="&#x25cc;" horiz-adv-x="1357" d="M92 565q0 31 18.5 49.5t47.5 18.5q30 0 48.5 -18.5t18.5 -49.5q0 -30 -18.5 -47.5t-48.5 -17.5t-48 17.5t-18 47.5zM127 377q0 31 18.5 49t47.5 18q30 0 48.5 -18.5t18.5 -48.5t-18.5 -48t-48.5 -18t-48 18t-18 48zM127 760q0 30 18.5 48.5t47.5 18.5q30 0 48.5 -18.5 t18.5 -48.5t-18.5 -48t-48.5 -18t-48 18t-18 48zM231 193q0 31 18.5 49t47.5 18q30 0 49 -18.5t19 -48.5t-19 -48t-49 -18t-48 18t-18 48zM231 940q0 31 18.5 49.5t47.5 18.5q30 0 49 -19t19 -49t-19 -48t-49 -18t-48 18t-18 48zM408 80q0 31 18 49t47 18q30 0 49 -18.5 t19 -48.5t-19 -48t-49 -18q-29 0 -47 18t-18 48zM408 1055q0 31 18 49t47 18q30 0 49 -18.5t19 -48.5t-19 -48t-49 -18q-29 0 -47 17.5t-18 48.5zM610 45q0 31 18.5 49.5t47.5 18.5q30 0 48.5 -18.5t18.5 -49.5q0 -30 -18.5 -47.5t-48.5 -17.5t-48 17.5t-18 47.5zM610 1090 q0 30 18 48.5t48 18.5t48.5 -18.5t18.5 -48.5t-18.5 -48t-48.5 -18t-48 18t-18 48zM815 80q0 30 18.5 48.5t47.5 18.5q30 0 48.5 -18.5t18.5 -48.5t-18.5 -48t-48.5 -18t-48 18t-18 48zM815 1055q0 31 18.5 49t47.5 18q30 0 48.5 -18.5t18.5 -48.5t-18.5 -48t-48.5 -18 t-48 18t-18 48zM989 193q0 31 18.5 49t47.5 18q30 0 48.5 -18.5t18.5 -48.5t-18.5 -48t-48.5 -18t-48 18t-18 48zM989 940q0 31 18.5 49.5t47.5 18.5t48 -19t19 -49t-18.5 -48t-48.5 -18t-48 18t-18 48zM1100 377q0 31 18 49t47 18q30 0 49 -18.5t19 -48.5t-19 -48t-49 -18 q-29 0 -47 17.5t-18 48.5zM1100 760q0 31 18 49t47 18q30 0 49 -18.5t19 -48.5t-19 -48t-49 -18q-29 0 -47 18t-18 48zM1133 565q0 31 18 49.5t47 18.5q30 0 49 -19t19 -49t-19 -47.5t-49 -17.5t-47.5 17.5t-17.5 47.5z" />
<glyph unicode="&#x25fc;" horiz-adv-x="1054" d="M0 0v1055h1055v-1055h-1055z" />
<glyph unicode="&#x260e;" horiz-adv-x="1740" d="M162 709q0 201 89.5 362.5t251.5 253.5t367 92t367 -92t252 -253.5t90 -362.5q0 -150 -52.5 -281.5t-145.5 -225.5t-225.5 -148t-285.5 -54t-285.5 54t-225 148t-145 225.5t-52.5 281.5zM494 938q0 -60 41 -140t112 -161q121 -144 242 -224.5t209 -80.5q58 0 124 48.5 t66 94.5q0 48 -87.5 108t-137.5 60q-48 0 -66 -88l-16 -10q-77 38 -160.5 119t-113.5 153l10 17q90 21 90 65q0 54 -63 140.5t-105 86.5q-45 0 -95 -65.5t-50 -122.5z" />
<glyph unicode="&#x260f;" horiz-adv-x="1740" d="M123 713q0 215 95 386t266 267t386 96q161 0 300.5 -56t237.5 -154.5t154 -238t56 -300.5q0 -215 -95.5 -386.5t-266.5 -267.5t-386 -96q-161 0 -300 56t-237 155t-154 238.5t-56 300.5zM287 713q0 -267 162 -430.5t421 -163.5q175 0 310 78q131 77 202.5 211.5 t71.5 304.5q0 264 -160 429t-424 165q-259 0 -421 -163.5t-162 -430.5zM483 938q0 63 52.5 132t105.5 69q43 0 111.5 -84t68.5 -156q0 -54 -100 -78q30 -72 111.5 -151.5t154.5 -112.5q21 98 78 98t147.5 -64t90.5 -116q0 -53 -70 -104.5t-133 -51.5q-119 0 -307 156 q-135 112 -222.5 241.5t-87.5 221.5z" />
<glyph unicode="&#xf700;" horiz-adv-x="1153" d="M59 881q32 161 166 252.5t322 91.5q158 0 278 -68l101 141h137l-156 -206q146 -143 146 -412q0 -221 -122 -399t-310 -281h-103l-186 410q-21 46 -40.5 61.5t-60.5 15.5q-49 0 -69 -2v103q43 6 94 6q72 0 111 -30.5t73 -104.5l152 -344q144 86 239 235.5t95 329.5 q0 202 -98 320t-279 118q-141 0 -240 -67.5t-129 -190.5z" />
<glyph unicode="&#xf701;" d="M-1137 1348v102h748v-102h-748z" />
<glyph unicode="&#xf702;" d="M-1130 1348h743v270h-109v-168h-634v-102z" />
<glyph unicode="&#xf703;" d="M-1137 1348v102h461q-6 18 -6 45q0 61 42 99t110 38t109.5 -39t41.5 -100q0 -65 -42.5 -105t-113.5 -40h-602zM-590 1491q0 -68 60 -68q59 0 59 70q0 68 -59 68q-28 0 -44 -20t-16 -50z" />
<glyph unicode="&#xf704;" d="M-1137 1348v102h430v168h109v-168h96v168h109v-270h-744z" />
<glyph unicode="&#xf705;" d="M-686 1348v299h106v-299h-106z" />
<glyph unicode="&#xf706;" d="M-961 1530v100q23 4 93 4q161 0 161 -166v-20h285v-100h-401v98q0 51 -16.5 67.5t-67.5 16.5h-54z" />
<glyph unicode="&#xf707;" d="M-1077 1460q0 88 41 138.5t123 50.5q95 0 135 -82q45 82 137 82q70 0 108.5 -41.5t38.5 -112.5q0 -25 -6 -49h144v-98h-244v120q0 80 -59 80q-58 0 -76 -86h-92q-18 86 -76 86q-60 0 -60 -90q0 -39 19 -110h-115q-18 62 -18 112z" />
<glyph unicode="&#xf708;" d="M-827 1483v94h143v135h102v-135h144v-94h-144v-135h-102v135h-143z" />
<glyph unicode="&#xf709;" d="M-821 1405q0 215 270 215h189v-100h-199q-79 0 -114.5 -33.5t-35.5 -110.5v-28h-106q-4 40 -4 57z" />
<glyph unicode="&#xf70a;" d="M-256 1348v299h106v-299h-106z" />
<glyph unicode="&#xf70b;" d="M-522 1530v100q23 4 92 4q162 0 162 -166v-20h284v-100h-401v98q0 51 -16.5 67.5t-67.5 16.5h-53z" />
<glyph unicode="&#xf70c;" d="M-807 1460q0 -47 19 -112h114q-18 68 -18 110q0 90 59 90q58 0 76 -86h92q18 86 76 86q59 0 59 -80v-120h244v98h-143q6 24 6 49q0 71 -39 112.5t-109 41.5q-92 0 -137 -82q-40 82 -135 82q-82 0 -123 -50.5t-41 -138.5z" />
<glyph unicode="&#xf70d;" d="M-395 1483v94h143v135h102v-135h144v-94h-144v-135h-102v135h-143z" />
<glyph unicode="&#xf70e;" d="M-608 1409q0 215 270 215h209v-100h-219q-79 0 -114.5 -33.5t-35.5 -110.5v-28h-106q-4 40 -4 57z" />
<glyph unicode="&#xf70f;" horiz-adv-x="2027" d="M57 813v21q46 174 195 282.5t342 108.5q237 0 364 -136t127 -389v-249q0 -179 90 -271t250 -92q161 0 250.5 88.5t89.5 261.5v754h119v-756q0 -221 -121.5 -337.5t-337.5 -116.5t-337 116.5t-121 337.5v266q0 200 -96.5 308t-276.5 108q-151 0 -262.5 -78.5 t-147.5 -205.5l92 -84q20 -18 25.5 -32.5t5.5 -43.5v-365q0 -107 35 -161t127 -54q37 0 53 2v-102q-21 -6 -63 -6q-146 0 -208.5 79t-62.5 236v387z" />
<glyph unicode="&#xf710;" d="M-1071 1563q0 21 4 57h106v-47q0 -69 35 -96t117 -27h442v-102h-450q-254 0 -254 215z" />
<glyph unicode="&#xf711;" d="M-821 1513q0 84 51 134.5t137 50.5t137.5 -50.5t51.5 -134.5q0 -83 -51.5 -133.5t-137.5 -50.5t-137 50t-51 134zM-719 1513q0 -44 22.5 -68t63.5 -24t63.5 24t22.5 68t-22.5 68.5t-63.5 24.5t-63.5 -24.5t-22.5 -68.5z" />
<glyph unicode="&#xf712;" d="M-1034 1546q0 101 62.5 159t170.5 58h379v-92h-383q-63 0 -94 -33.5t-31 -89.5q0 -43 29.5 -74.5t73.5 -31.5q92 0 104 92h115q0 -86 98 -86h88v-94q-37 -6 -80 -6q-130 0 -168 90q-52 -90 -161 -90q-88 0 -145.5 53.5t-57.5 144.5z" />
<glyph unicode="&#xf713;" d="M-498 1735v266h107v-266h-107z" />
<glyph unicode="&#xf714;" d="M-764 1911v96q29 2 78 2q82 0 123 -44t41 -118v-18h268v-98h-379v94q0 48 -17 67t-63 19h-51z" />
<glyph unicode="&#xf715;" d="M-702 1841q0 75 39 121.5t112 46.5q86 0 121 -80q35 80 125 80q65 0 102 -39t37 -106v-27h127v-98h-229v96q0 80 -54 80q-58 0 -65 -82h-86q-18 82 -66 82q-27 0 -41 -21.5t-14 -58.5q0 -55 12 -96h-104q-16 62 -16 102z" />
<glyph unicode="&#xf716;" d="M-614 1845v92h112v107h99v-107h112v-92h-112v-106h-99v106h-112z" />
<glyph unicode="&#xf717;" d="M-498 1794q0 106 65.5 150.5t186.5 44.5h150v-99h-156q-76 0 -107.5 -23.5t-31.5 -92.5v-35h-103q-4 36 -4 55z" />
<glyph unicode="&#xf718;" d="M-375 -498q14 4 62 4q95 0 129 -34.5t34 -130.5v-195h-102v192q0 45 -14.5 61.5t-57.5 16.5h-51v86z" />
<glyph unicode="&#xf719;" d="M-700 -496h202v-172q0 -114 117 -114q119 0 119 114v164h106v-164q0 -95 -63 -152t-162 -57q-98 0 -160.5 57t-62.5 152v82h-96v90z" />
<glyph unicode="&#xf71a;" d="M-293 -592q0 39 25.5 64.5t64.5 25.5q40 0 65 -25t25 -65t-25 -65t-65 -25q-39 0 -64.5 25.5t-25.5 64.5z" />
<glyph unicode="&#xf71b;" horiz-adv-x="1310" d="M102 -6v102q16 -2 54 -2q32 0 55.5 6t38 21t23 30.5t12.5 44t5 51t1 62.5v353l-172 163v21q49 172 191 275.5t352 103.5q251 0 378 -135t127 -390v-837q0 -77 -26 -134t-71.5 -89.5t-101 -48t-120.5 -15.5q-58 0 -170 20.5t-170 20.5q-112 0 -242 -37l-22 103 q108 41 260 41q60 0 174 -20.5t174 -20.5q102 0 149.5 46.5t47.5 145.5v827q0 202 -97 309t-290 107q-158 0 -271.5 -76t-144.5 -196l133 -123q20 -18 25.5 -32.5t5.5 -43.5v-344q0 -80 -10 -134.5t-36.5 -97.5t-75 -63t-122.5 -20q-43 0 -64 6z" />
<glyph unicode="&#xf71c;" horiz-adv-x="1310" d="M102 -6v102q16 -2 54 -2q32 0 55.5 6t38 21t23 30.5t12.5 44t5 51t1 62.5v353l-172 163v21q49 172 191 275.5t352 103.5q251 0 378 -135t127 -390v-790q0 -163 -76 -248.5t-227 -85.5q-76 0 -145.5 33t-102.5 96q-25 -61 -86.5 -95t-152.5 -34q-109 0 -168 27l22 104 q65 -24 142 -24q171 0 190 139h111q9 -65 59.5 -102t122.5 -37q193 0 193 227v792q0 202 -97 309t-290 107q-158 0 -271.5 -76t-144.5 -196l133 -123q20 -18 25.5 -32.5t5.5 -43.5v-344q0 -80 -10 -134.5t-36.5 -97.5t-75 -63t-122.5 -20q-43 0 -64 6z" />
<glyph unicode="&#xf71d;" horiz-adv-x="1331" d="M143 0h156l367 479l366 -479h156v578q0 102 -47.5 183.5t-141.5 106.5q96 26 144 102.5t45 194.5v27h-119v-27q0 -125 -60 -180t-190 -55v-111q250 0 250 -254v-440l-348 465h-111l-348 -465v1067h-119v-1192z" />
<glyph unicode="&#xf881;" horiz-adv-x="1945" d="M57 813v21q46 174 195 282.5t342 108.5q296 0 426 -187q54 90 152 138.5t223 48.5q407 0 407 -414v-1221h-119v1215q0 158 -69.5 235.5t-222.5 77.5q-124 0 -203 -61t-101 -172q19 -78 19 -162v-1133h-119v1121q0 407 -393 407q-151 0 -262.5 -78.5t-147.5 -205.5l92 -84 q20 -18 25.5 -32.5t5.5 -43.5v-365q0 -107 35 -161t127 -54q37 0 53 2v-102q-21 -6 -63 -6q-146 0 -208.5 79t-62.5 236v387z" />
<glyph unicode="&#xf882;" horiz-adv-x="2007" d="M102 -6v102q16 -2 54 -2q32 0 55.5 6t38 21t23 30.5t12.5 44t5 51t1 62.5v353l-172 163v21q49 172 191 275.5t352 103.5q292 0 419 -187q54 90 152 138.5t223 48.5q408 0 408 -414v-1221h-119v1215q0 158 -70 235.5t-223 77.5q-126 0 -205 -62.5t-98 -176.5 q18 -79 18 -179v-1110h-118v1112q0 202 -97 309t-290 107q-158 0 -271.5 -76t-144.5 -196l133 -123q20 -18 25.5 -32.5t5.5 -43.5v-344q0 -80 -10 -134.5t-36.5 -97.5t-75 -63t-122.5 -20q-43 0 -64 6z" />
<glyph unicode="&#xfb00;" horiz-adv-x="1308" d="M39 954v99h164v108q0 152 83.5 235t223.5 83q89 0 160 -25l-21 -94q-54 16 -123 16q-202 0 -202 -211v-112h292v-99h-292v-954h-121v954h-164zM694 954v99h164v108q0 152 83.5 235t223.5 83q89 0 160 -25l-20 -94q-54 16 -123 16q-203 0 -203 -211v-112h293v-99h-293 v-954h-121v954h-164z" />
<glyph unicode="&#xfb01;" horiz-adv-x="1064" d="M39 954v99h164v108q0 152 83.5 235t223.5 83q89 0 160 -25l-21 -94q-54 16 -123 16q-202 0 -202 -211v-112h292v-99h-292v-954h-121v954h-164zM776 1348q0 40 23 62t63 22t62 -22t22 -62q0 -41 -22 -63.5t-62 -22.5t-63 22.5t-23 63.5zM801 0v1053h121v-1053h-121z" />
<glyph unicode="&#xfb02;" horiz-adv-x="1085" d="M39 954v99h164v108q0 152 83.5 235t223.5 83q89 0 160 -25l-21 -94q-54 16 -123 16q-202 0 -202 -211v-112h292v-99h-292v-954h-121v954h-164zM821 0v1462h121v-1462h-121z" />
<glyph unicode="&#xfb03;" horiz-adv-x="1720" d="M39 954v99h164v108q0 152 83.5 235t223.5 83q89 0 160 -25l-21 -94q-54 16 -123 16q-202 0 -202 -211v-112h292v-99h-292v-954h-121v954h-164zM694 954v99h164v108q0 152 83.5 235t223.5 83q89 0 160 -25l-20 -94q-54 16 -123 16q-203 0 -203 -211v-112h293v-99h-293 v-954h-121v954h-164zM1432 1348q0 40 23 62t63 22t62 -22t22 -62q0 -41 -22 -63.5t-62 -22.5t-63 22.5t-23 63.5zM1454 0v1053h121v-1053h-121z" />
<glyph unicode="&#xfb04;" horiz-adv-x="1740" d="M39 954v99h164v108q0 152 83.5 235t223.5 83q89 0 160 -25l-21 -94q-54 16 -123 16q-202 0 -202 -211v-112h292v-99h-292v-954h-121v954h-164zM694 954v99h164v108q0 152 83.5 235t223.5 83q89 0 160 -25l-20 -94q-54 16 -123 16q-203 0 -203 -211v-112h293v-99h-293 v-954h-121v954h-164zM1477 0v1462h120v-1462h-120z" />
<glyph unicode="&#xfeff;" />
<glyph horiz-adv-x="1193" d="M57 424h127q26 -173 115 -260.5t258 -87.5q182 0 268 103.5t86 305.5v977h127v-987q0 -249 -124.5 -379.5t-352.5 -130.5q-222 0 -351.5 115.5t-152.5 343.5zM870 1583l232 266h153l-260 -266h-125z" />
<glyph horiz-adv-x="409" d="M-123 -391l23 96q54 -20 100 -20q73 0 109 43t36 149v1176h121v-1162q0 -157 -65 -234t-203 -77q-57 0 -121 29zM106 1212l226 283h147l-252 -283h-121z" />
<glyph horiz-adv-x="409" d="M25 -207q0 104 127 207h-7v1053h121v-1053h-2q-131 -96 -131 -186q0 -82 98 -82q24 0 52 4v-86q-32 -4 -60 -4q-198 0 -198 147z" />
<glyph horiz-adv-x="903" d="M-838 1544q0 85 53 137t140 52t139.5 -52t52.5 -137t-52.5 -136.5t-139.5 -51.5q-88 0 -140.5 51.5t-52.5 136.5zM-733 1544q0 -94 88 -94q42 0 65 24.5t23 69.5q0 44 -23.5 69t-64.5 25q-42 0 -65 -24.5t-23 -69.5zM49 889q18 157 135 246.5t289 89.5q408 0 408 -414 v-811h-119v805q0 158 -70 235.5t-223 77.5q-129 0 -208.5 -65.5t-96.5 -184.5z" />
<glyph horiz-adv-x="1212" d="M96 707q0 369 134 558t378 189q247 0 376.5 -187t129.5 -558q0 -370 -131.5 -558t-378.5 -188t-377.5 187t-130.5 557zM225 707q0 -635 381 -635t381 635q0 636 -381 636t-381 -636z" />
<glyph horiz-adv-x="1003" d="M127 1167l416 248h112v-1415h-123v1282l-352 -207z" />
<glyph horiz-adv-x="1212" d="M150 1075q43 181 159 280t312 99q202 0 317 -111t115 -296q0 -60 -15.5 -120.5t-37.5 -110t-61.5 -105.5t-72.5 -96t-86.5 -92.5t-87 -83.5t-89.5 -80q-11 -10 -17 -15q-27 -23 -264 -233h743v-111h-911v102q28 25 333 299q9 8 28 25q47 42 71.5 64.5t70 65.5t71 72.5 t61.5 72.5t56.5 79.5t41.5 79.5t30 87t9 89q0 147 -81 227t-227 80q-149 0 -231 -68.5t-123 -217.5z" />
<glyph horiz-adv-x="1212" d="M127 377h119q18 -153 106 -230t256 -77q166 0 253 81.5t87 235.5q0 148 -82 222.5t-231 74.5h-176v109h178q130 0 205.5 75.5t75.5 208.5q0 128 -80.5 198.5t-231.5 70.5q-148 0 -231.5 -66.5t-120.5 -206.5l-115 21q37 174 157 267t314 93q205 0 317.5 -99.5 t112.5 -264.5q0 -243 -213 -340q244 -85 244 -361q0 -91 -27.5 -167t-82 -134.5t-144 -91.5t-205.5 -33q-123 0 -217.5 34t-150.5 93t-85 131t-32 156z" />
<glyph horiz-adv-x="1212" d="M94 373v94l694 948h121v-942h203v-100h-203v-373h-118v373h-697zM221 473h570v780z" />
<glyph horiz-adv-x="1212" d="M145 350h117q43 -280 352 -280q162 0 253 95t91 277q0 168 -91 262.5t-257 94.5q-202 0 -327 -137h-107l57 753h746v-110h-643l-41 -521q135 117 338 117q208 0 327 -125t119 -334q0 -230 -124.5 -354.5t-338.5 -124.5q-210 0 -332 99.5t-139 287.5z" />
<glyph horiz-adv-x="1222" d="M137 440q0 135 44 248.5t128 247.5l322 512h131l-373 -592q109 64 242 64q213 0 343 -132t130 -346q0 -142 -63.5 -252t-172.5 -168.5t-245 -58.5q-217 0 -351.5 132.5t-134.5 344.5zM256 449q0 -172 100 -276.5t267 -104.5q154 0 258 101t104 271q0 164 -102 270.5 t-271 106.5q-161 0 -258.5 -102.5t-97.5 -265.5z" />
<glyph horiz-adv-x="1155" d="M86 1305v110h944v-104q-350 -650 -528 -1311h-133q105 359 230.5 672t297.5 633h-811z" />
<glyph horiz-adv-x="1212" d="M94 371q0 134 84.5 226.5t208.5 123.5q-111 34 -179.5 122.5t-68.5 221.5q0 182 126 285.5t341 103.5q223 0 345 -106t122 -283q0 -129 -67.5 -217t-182.5 -121q130 -30 212.5 -125t82.5 -231q0 -190 -133 -299t-379 -109q-248 0 -380 108.5t-132 299.5zM217 371 q0 -142 101 -223.5t290 -81.5q187 0 287 81.5t100 223.5q0 140 -97 218.5t-290 78.5q-194 0 -292.5 -79t-98.5 -218zM258 1061q0 -139 89.5 -214t258.5 -75t258.5 75.5t89.5 215.5q0 130 -90 210.5t-258 80.5q-166 0 -257 -81t-91 -212z" />
<glyph horiz-adv-x="1210" d="M111 989q0 216 139 347.5t358 131.5q206 0 337.5 -133.5t131.5 -343.5q0 -135 -44 -249.5t-128 -247.5l-321 -494h-131l370 573q-109 -61 -239 -61q-213 0 -343 131.5t-130 345.5zM229 991q0 -164 102 -270.5t271 -106.5q161 0 258.5 103t97.5 266q0 170 -98 275.5 t-252 105.5q-165 0 -272 -101t-107 -272z" />
<glyph horiz-adv-x="1212" d="M96 707q0 369 134 558t378 189q247 0 376.5 -187t129.5 -558q0 -370 -131.5 -558t-378.5 -188t-377.5 187t-130.5 557zM225 707q0 -635 381 -635t381 635q0 636 -381 636t-381 -636z" />
<glyph horiz-adv-x="1212" d="M225 1167l416 248h113v-1415h-123v1284l-352 -209z" />
<glyph horiz-adv-x="1212" d="M147 1075q43 181 159 280t312 99q202 0 317.5 -111t115.5 -296q0 -44 -6.5 -86.5t-23 -84t-31.5 -77t-44.5 -76.5t-49.5 -69.5t-59 -69.5t-60 -63t-66 -63.5t-62.5 -57t-64.5 -56.5q-51 -43 -265 -233h744v-111h-911v102q51 45 106.5 94.5t124 111.5t102.5 93q9 8 28 25 q47 42 71.5 64.5t70 65.5t71 72.5t61.5 72.5t56.5 79.5t41.5 79.5t30 87t9 89q0 147 -81 227t-227 80q-148 0 -231 -68.5t-123 -217.5z" />
<glyph horiz-adv-x="1212" d="M127 377h117q18 -153 106.5 -230t257.5 -77q166 0 253 81.5t87 235.5q0 148 -82 222.5t-231 74.5h-176v109h178q130 0 205.5 75.5t75.5 208.5q0 128 -80.5 198.5t-231.5 70.5q-148 0 -231.5 -66.5t-120.5 -206.5l-115 21q37 174 157 267t314 93q205 0 317.5 -99.5 t112.5 -264.5q0 -243 -213 -340q244 -85 244 -361q0 -91 -27.5 -167t-82 -134.5t-144 -91.5t-205.5 -33q-124 0 -218.5 34t-150.5 93t-85 131t-31 156z" />
<glyph horiz-adv-x="1212" d="M94 373v94l694 948h121v-942h203v-100h-203v-373h-118v373h-697zM221 473h570v780z" />
<glyph horiz-adv-x="1212" d="M152 350h116q24 -143 106.5 -211.5t237.5 -68.5q163 0 248.5 92.5t85.5 279.5q0 173 -81.5 265t-246.5 92q-205 0 -327 -137h-109l60 753h745v-110h-643l-43 -521q135 117 338 117q210 0 320 -122.5t110 -336.5q0 -232 -119.5 -355.5t-335.5 -123.5q-209 0 -327 99 t-135 288z" />
<glyph horiz-adv-x="1212" d="M137 440q0 135 44 248.5t128 247.5l322 512h131l-373 -592q109 64 242 64q213 0 343 -132t130 -346q0 -142 -63.5 -252t-172.5 -168.5t-245 -58.5q-217 0 -351.5 132.5t-134.5 344.5zM256 449q0 -172 100 -276.5t267 -104.5q154 0 258 101t104 271q0 164 -102 270.5 t-271 106.5q-161 0 -258.5 -102.5t-97.5 -265.5z" />
<glyph horiz-adv-x="1212" d="M92 1305v110h944v-104q-350 -650 -528 -1311h-133q104 357 229.5 670t298.5 635h-811z" />
<glyph horiz-adv-x="1212" d="M94 371q0 134 84.5 226.5t208.5 123.5q-111 34 -179.5 122.5t-68.5 221.5q0 182 126 285.5t341 103.5q223 0 345 -106t122 -283q0 -129 -67.5 -217t-182.5 -121q130 -30 212.5 -125t82.5 -231q0 -190 -133 -299t-379 -109q-248 0 -380 108.5t-132 299.5zM217 371 q0 -142 101 -223.5t290 -81.5q187 0 287 81.5t100 223.5q0 140 -97 218.5t-290 78.5q-194 0 -292.5 -79t-98.5 -218zM258 1061q0 -139 89.5 -214t258.5 -75t258.5 75.5t89.5 215.5q0 130 -90 210.5t-258 80.5q-166 0 -257 -81t-91 -212z" />
<glyph horiz-adv-x="1212" d="M113 989q0 216 140 347.5t359 131.5q205 0 337 -133.5t132 -343.5q0 -135 -44.5 -250t-129.5 -247l-319 -494h-131l368 573q-109 -61 -239 -61q-212 0 -342.5 131.5t-130.5 345.5zM233 991q0 -164 102 -270.5t271 -106.5q161 0 258 103t97 266q0 170 -97.5 275.5 t-251.5 105.5q-165 0 -272 -101t-107 -272z" />
<glyph horiz-adv-x="843" d="M78 408q0 213 92 326.5t252 113.5t252 -113t92 -327q0 -216 -90.5 -327.5t-253.5 -111.5q-158 0 -251 112.5t-93 326.5zM193 408q0 -338 229 -338q112 0 171.5 85.5t59.5 252.5t-60 253.5t-171 86.5q-113 0 -171 -86t-58 -254z" />
<glyph horiz-adv-x="843" d="M158 682l252 135h110v-817h-112v707l-207 -107z" />
<glyph horiz-adv-x="843" d="M129 612q62 234 299 234q124 0 197 -65t73 -177q0 -107 -64 -195t-194 -198q-19 -15 -145 -117h403v-94h-561v84q47 39 127 106.5t92 77.5q132 111 182 179t50 151q0 74 -42 114t-120 40q-153 0 -197 -154z" />
<glyph horiz-adv-x="843" d="M117 227h96q19 -170 205 -170q184 0 184 166q0 76 -44 117t-118 41h-112v88h108q70 0 111 38.5t41 108.5q0 144 -170 144q-82 0 -128 -36t-67 -114l-96 17q21 97 92 159t199 62q132 0 202 -59.5t70 -163.5q0 -131 -117 -191q68 -24 102 -79t34 -132q0 -119 -74 -186.5 t-217 -67.5q-134 0 -215.5 69t-85.5 189z" />
<glyph horiz-adv-x="843" d="M102 209v72l416 536h96v-522h103l-17 -86h-86v-209h-102v209h-410zM217 295h295v381z" />
<glyph horiz-adv-x="843" d="M145 203h95q30 -146 190 -146q86 0 131 50t45 145q0 186 -176 186q-123 0 -190 -76h-80l39 455h454v-90h-370l-21 -258q80 53 182 53q131 0 198 -71.5t67 -198.5q0 -137 -73 -210t-206 -73q-128 0 -200.5 59.5t-84.5 174.5z" />
<glyph horiz-adv-x="843" d="M133 358q0 106 16.5 191t52.5 153.5t100 106t153 37.5q216 0 254 -199l-88 -14q-15 65 -55.5 96t-110.5 31q-212 0 -224 -344q76 106 226 106q132 0 201 -72.5t69 -197.5q0 -128 -80 -205.5t-213 -77.5q-80 0 -139 29.5t-94 83.5t-51.5 122.5t-16.5 153.5zM246 262 q0 -88 49 -146.5t137 -58.5q91 0 142 51t51 142q0 89 -45 139.5t-136 50.5q-88 0 -143 -46.5t-55 -131.5z" />
<glyph horiz-adv-x="843" d="M123 723v94h582v-82q-203 -352 -302 -735h-114q60 205 128.5 374t166.5 349h-461z" />
<glyph horiz-adv-x="843" d="M117 215q0 73 40.5 125t108.5 76q-57 25 -89 76.5t-32 121.5q0 106 72.5 170t204.5 64q134 0 206 -64t72 -170q0 -69 -32.5 -120t-89.5 -76q69 -23 110 -74.5t41 -128.5q0 -114 -79 -179t-228 -65q-148 0 -226.5 64.5t-78.5 179.5zM219 213q0 -75 51.5 -116.5 t151.5 -41.5t151.5 41.5t51.5 116.5q0 72 -52 114t-151 42q-100 0 -151.5 -41.5t-51.5 -114.5zM244 610q0 -73 46 -113t132 -40q87 0 131.5 40.5t44.5 114.5q0 70 -44.5 111t-131.5 41q-86 0 -132 -41.5t-46 -112.5z" />
<glyph horiz-adv-x="843" d="M117 565q0 126 80 203.5t213 77.5q299 0 299 -395q0 -83 -8 -150.5t-28.5 -131t-54.5 -106.5t-88.5 -68.5t-126.5 -25.5q-247 0 -272 215h92q14 -70 58.5 -98.5t119.5 -28.5q107 0 156 80t53 269q-75 -113 -223 -113q-132 0 -201 73.5t-69 198.5zM219 567 q0 -85 43 -136.5t135 -51.5q86 0 143.5 44t57.5 132t-48 146.5t-138 58.5q-89 0 -141 -50.5t-52 -142.5z" />
<glyph horiz-adv-x="843" d="M78 997q0 213 92 327t252 114t252 -113.5t92 -327.5q0 -216 -90.5 -327t-253.5 -111q-158 0 -251 112t-93 326zM193 997q0 -338 229 -338q112 0 171.5 85.5t59.5 252.5t-60 253.5t-171 86.5q-113 0 -171 -86t-58 -254z" />
<glyph horiz-adv-x="843" d="M158 1272l252 135h110v-817h-112v706l-207 -106z" />
<glyph horiz-adv-x="843" d="M129 1202q62 234 299 234q124 0 197 -65t73 -177q0 -107 -64 -195t-194 -198q-19 -15 -145 -117h403v-94h-561v84q47 39 127 106.5t92 77.5q132 111 182 179t50 151q0 74 -42 113.5t-120 39.5q-154 0 -197 -153z" />
<glyph horiz-adv-x="843" d="M117 817h96q19 -170 205 -170q184 0 184 166q0 76 -44 117t-118 41h-112v88h108q70 0 111 38.5t41 108.5q0 144 -170 144q-82 0 -128 -36t-67 -114l-96 17q21 97 92 159t199 62q132 0 202 -60t70 -164q0 -130 -117 -190q68 -24 102 -79t34 -132q0 -119 -74 -186.5 t-217 -67.5q-134 0 -215.5 69t-85.5 189z" />
<glyph horiz-adv-x="843" d="M102 799v71l416 537h96v-522h103l-17 -86h-86v-209h-102v209h-410zM217 885h295v381z" />
<glyph horiz-adv-x="843" d="M145 793h95q30 -146 190 -146q86 0 131 50t45 145q0 186 -176 186q-123 0 -190 -76h-80l39 455h454v-90h-370l-21 -258q80 53 182 53q131 0 198 -71.5t67 -198.5q0 -137 -73 -210t-206 -73q-128 0 -200.5 59.5t-84.5 174.5z" />
<glyph horiz-adv-x="843" d="M133 948q0 106 16.5 191t52.5 153.5t100 106t153 37.5q216 0 254 -199l-88 -14q-15 65 -55.5 96t-110.5 31q-212 0 -224 -344q76 106 226 106q132 0 201 -72.5t69 -197.5q0 -128 -80 -205.5t-213 -77.5q-80 0 -139 29.5t-94 83.5t-51.5 122.5t-16.5 153.5zM246 852 q0 -88 49 -146.5t137 -58.5q91 0 142 51t51 142q0 89 -45 139.5t-136 50.5q-88 0 -143 -46.5t-55 -131.5z" />
<glyph horiz-adv-x="843" d="M123 1313v94h582v-82q-203 -352 -302 -735h-114q60 205 128.5 374t166.5 349h-461z" />
<glyph horiz-adv-x="843" d="M117 805q0 73 40.5 125t108.5 76q-57 25 -89 76.5t-32 121.5q0 106 72.5 170t204.5 64q134 0 206 -64t72 -170q0 -69 -32.5 -120t-89.5 -76q69 -23 110 -74.5t41 -128.5q0 -114 -79 -179t-228 -65q-148 0 -226.5 64.5t-78.5 179.5zM219 803q0 -75 51.5 -116.5 t151.5 -41.5t151.5 41.5t51.5 116.5q0 72 -52 113.5t-151 41.5q-100 0 -151.5 -41t-51.5 -114zM244 1200q0 -73 46 -113t132 -40q87 0 131.5 40.5t44.5 114.5q0 70 -44.5 111t-131.5 41q-86 0 -132 -41.5t-46 -112.5z" />
<glyph horiz-adv-x="843" d="M117 1155q0 126 80 203.5t213 77.5q299 0 299 -396q0 -105 -13.5 -186t-46 -150.5t-94.5 -107t-152 -37.5q-247 0 -272 215h92q14 -70 58.5 -98.5t119.5 -28.5q107 0 156 79.5t53 268.5q-74 -112 -223 -112q-132 0 -201 73.5t-69 198.5zM219 1157q0 -85 43 -136.5 t135 -51.5q86 0 143.5 44t57.5 132t-48 146.5t-138 58.5q-89 0 -141 -50.5t-52 -142.5z" />
<glyph horiz-adv-x="1830" d="M129 1202q62 234 299 234q124 0 197 -65t73 -177q0 -107 -64 -195t-194 -198q-19 -15 -145 -117h403v-94h-561v84q47 39 127 106.5t92 77.5q132 111 182 179t50 151q0 74 -42 113.5t-120 39.5q-154 0 -197 -153zM494 0l723 1415h118l-721 -1415h-120zM1110 723v94h582 v-82q-201 -349 -301 -735h-115q60 205 128.5 374t166.5 349h-461z" />
<glyph horiz-adv-x="1830" d="M117 817h96q19 -170 205 -170q184 0 184 166q0 76 -44 117t-118 41h-112v88h108q70 0 111 38.5t41 108.5q0 144 -170 144q-82 0 -128 -36t-67 -114l-96 17q21 97 92 159t199 62q132 0 202 -60t70 -164q0 -130 -117 -190q68 -24 102 -79t34 -132q0 -119 -74 -186.5 t-217 -67.5q-134 0 -215.5 69t-85.5 189zM494 0l723 1415h118l-721 -1415h-120zM1110 723v94h582v-82q-201 -349 -301 -735h-115q60 205 128.5 374t166.5 349h-461z" />
<glyph horiz-adv-x="1830" d="M102 799v71l416 537h96v-522h103l-17 -86h-86v-209h-102v209h-410zM217 885h295v381zM494 0l723 1415h118l-721 -1415h-120zM1110 723v94h582v-82q-201 -349 -301 -735h-115q60 205 128.5 374t166.5 349h-461z" />
<glyph horiz-adv-x="1830" d="M145 793h95q30 -146 190 -146q86 0 131 50t45 145q0 186 -176 186q-123 0 -190 -76h-80l39 455h454v-90h-370l-21 -258q80 53 182 53q131 0 198 -71.5t67 -198.5q0 -137 -73 -210t-206 -73q-128 0 -200.5 59.5t-84.5 174.5zM494 0l723 1415h118l-721 -1415h-120z M1110 723v94h582v-82q-201 -349 -301 -735h-115q60 205 128.5 374t166.5 349h-461z" />
<glyph horiz-adv-x="1830" d="M133 948q0 106 16.5 191t52.5 153.5t100 106t153 37.5q216 0 254 -199l-88 -14q-15 65 -55.5 96t-110.5 31q-212 0 -224 -344q76 106 226 106q132 0 201 -72.5t69 -197.5q0 -128 -80 -205.5t-213 -77.5q-80 0 -139 29.5t-94 83.5t-51.5 122.5t-16.5 153.5zM246 852 q0 -88 49 -146.5t137 -58.5q91 0 142 51t51 142q0 89 -45 139.5t-136 50.5q-88 0 -143 -46.5t-55 -131.5zM494 0l723 1415h118l-721 -1415h-120zM1110 723v94h582v-82q-201 -349 -301 -735h-115q60 205 128.5 374t166.5 349h-461z" />
<glyph horiz-adv-x="1830" d="M129 1202q62 234 299 234q124 0 197 -65t73 -177q0 -107 -64 -195t-194 -198q-19 -15 -145 -117h403v-94h-561v84q47 39 127 106.5t92 77.5q132 111 182 179t50 151q0 74 -42 113.5t-120 39.5q-154 0 -197 -153zM494 0l723 1415h118l-721 -1415h-120zM1104 565 q0 126 80 203.5t213 77.5q299 0 299 -395q0 -83 -7.5 -150.5t-28.5 -131t-54.5 -106.5t-88 -68.5t-126.5 -25.5q-248 0 -273 215h92q14 -70 59 -98.5t120 -28.5q107 0 155.5 80t52.5 269q-75 -113 -223 -113q-132 0 -201 73.5t-69 198.5zM1206 567q0 -85 43 -136.5 t135 -51.5q86 0 143.5 44t57.5 132t-48 146.5t-138 58.5q-89 0 -141 -50.5t-52 -142.5z" />
<glyph horiz-adv-x="1830" d="M102 799v71l416 537h96v-522h103l-17 -86h-86v-209h-102v209h-410zM217 885h295v381zM494 0l723 1415h118l-721 -1415h-120zM1104 565q0 126 80 203.5t213 77.5q299 0 299 -395q0 -83 -7.5 -150.5t-28.5 -131t-54.5 -106.5t-88 -68.5t-126.5 -25.5q-248 0 -273 215h92 q14 -70 59 -98.5t120 -28.5q107 0 155.5 80t52.5 269q-75 -113 -223 -113q-132 0 -201 73.5t-69 198.5zM1206 567q0 -85 43 -136.5t135 -51.5q86 0 143.5 44t57.5 132t-48 146.5t-138 58.5q-89 0 -141 -50.5t-52 -142.5z" />
<glyph horiz-adv-x="1830" d="M145 793h95q30 -146 190 -146q86 0 131 50t45 145q0 186 -176 186q-123 0 -190 -76h-80l39 455h454v-90h-370l-21 -258q80 53 182 53q131 0 198 -71.5t67 -198.5q0 -137 -73 -210t-206 -73q-128 0 -200.5 59.5t-84.5 174.5zM494 0l723 1415h118l-721 -1415h-120z M1104 565q0 126 80 203.5t213 77.5q299 0 299 -395q0 -83 -7.5 -150.5t-28.5 -131t-54.5 -106.5t-88 -68.5t-126.5 -25.5q-248 0 -273 215h92q14 -70 59 -98.5t120 -28.5q107 0 155.5 80t52.5 269q-75 -113 -223 -113q-132 0 -201 73.5t-69 198.5zM1206 567q0 -85 43 -136.5 t135 -51.5q86 0 143.5 44t57.5 132t-48 146.5t-138 58.5q-89 0 -141 -50.5t-52 -142.5z" />
<glyph horiz-adv-x="1830" d="M123 1313v94h582v-82q-203 -352 -302 -735h-114q60 205 128.5 374t166.5 349h-461zM494 0l723 1415h118l-721 -1415h-120zM1104 565q0 126 80 203.5t213 77.5q299 0 299 -395q0 -83 -7.5 -150.5t-28.5 -131t-54.5 -106.5t-88 -68.5t-126.5 -25.5q-248 0 -273 215h92 q14 -70 59 -98.5t120 -28.5q107 0 155.5 80t52.5 269q-75 -113 -223 -113q-132 0 -201 73.5t-69 198.5zM1206 567q0 -85 43 -136.5t135 -51.5q86 0 143.5 44t57.5 132t-48 146.5t-138 58.5q-89 0 -141 -50.5t-52 -142.5z" />
<glyph horiz-adv-x="1830" d="M117 805q0 73 40.5 125t108.5 76q-57 25 -89 76.5t-32 121.5q0 106 72.5 170t204.5 64q134 0 206 -64t72 -170q0 -69 -32.5 -120t-89.5 -76q69 -23 110 -74.5t41 -128.5q0 -114 -79 -179t-228 -65q-148 0 -226.5 64.5t-78.5 179.5zM219 803q0 -75 51.5 -116.5 t151.5 -41.5t151.5 41.5t51.5 116.5q0 72 -52 113.5t-151 41.5q-100 0 -151.5 -41t-51.5 -114zM244 1200q0 -73 46 -113t132 -40q87 0 131.5 40.5t44.5 114.5q0 70 -44.5 111t-131.5 41q-86 0 -132 -41.5t-46 -112.5zM494 0l723 1415h118l-721 -1415h-120zM1104 565 q0 126 80 203.5t213 77.5q299 0 299 -395q0 -83 -7.5 -150.5t-28.5 -131t-54.5 -106.5t-88 -68.5t-126.5 -25.5q-248 0 -273 215h92q14 -70 59 -98.5t120 -28.5q107 0 155.5 80t52.5 269q-75 -113 -223 -113q-132 0 -201 73.5t-69 198.5zM1206 567q0 -85 43 -136.5 t135 -51.5q86 0 143.5 44t57.5 132t-48 146.5t-138 58.5q-89 0 -141 -50.5t-52 -142.5z" />
<glyph horiz-adv-x="436" d="M154 1239v221h131v-221h-131zM158 0l4 1063h114l5 -1063h-123z" />
<glyph horiz-adv-x="980" d="M84 362q0 108 41.5 190.5t122.5 160.5q117 112 160 179t43 159v24h120v-22q0 -71 -18 -123q-17 -53 -62.5 -112t-140.5 -154q-71 -71 -106 -137t-35 -152q0 -134 77.5 -209.5t213.5 -75.5q141 0 219 66t115 213l110 -19q-31 -171 -140 -268.5t-304 -97.5 q-194 0 -305 103.5t-111 274.5zM430 1395q0 38 22 60t60 22t60 -22t22 -60t-22 -60t-60 -22t-60 22t-22 60z" />
<glyph horiz-adv-x="403" d="M119 993q0 38 22 60t60 22t60 -22t22 -60t-22 -60t-60 -22t-60 22t-22 60z" />
<glyph horiz-adv-x="673" d="M90 801q0 108 70.5 175.5t177.5 67.5t175.5 -67.5t68.5 -175.5t-68 -176t-176 -68q-109 0 -178.5 68.5t-69.5 175.5z" />
<glyph horiz-adv-x="626" d="M23 -29l460 1504h125l-463 -1504h-122z" />
<glyph horiz-adv-x="626" d="M23 1475h120l465 -1504h-125z" />
<glyph horiz-adv-x="796" d="M100 729v117h596v-117h-596z" />
<glyph horiz-adv-x="1024" d="M0 729v117h1024v-117h-1024z" />
<glyph horiz-adv-x="2048" d="M0 729v117h2048v-117h-2048z" />
<glyph horiz-adv-x="495" d="M119 778q0 505 233 879h113q-219 -397 -219 -879q0 -481 219 -878h-113q-233 374 -233 878z" />
<glyph horiz-adv-x="495" d="M31 -100q219 392 219 878q0 487 -219 879h114q232 -368 232 -879q0 -510 -232 -878h-114z" />
<glyph horiz-adv-x="563" d="M57 725v102h11q139 0 139 150v455q0 223 217 223h121v-103h-109q-112 0 -112 -118v-480q0 -143 -109 -178q109 -30 109 -178v-479q0 -119 112 -119h109v-102h-121q-217 0 -217 223v454q0 150 -139 150h-11z" />
<glyph horiz-adv-x="563" d="M18 0h111q54 0 83.5 30.5t29.5 88.5v479q0 149 108 178q-108 34 -108 178v480q0 58 -29 88t-84 30h-111v103h121q219 0 219 -223v-455q0 -150 138 -150h10v-102h-10q-138 0 -138 -150v-454q0 -223 -219 -223h-121v102z" />
<glyph horiz-adv-x="552" d="M158 -100v1757h370v-105h-247v-1548h247v-104h-370z" />
<glyph horiz-adv-x="552" d="M25 4h247v1548h-247v105h370v-1757h-370v104z" />
<glyph horiz-adv-x="962" d="M86 823l289 455h123l-275 -453l275 -460h-125zM432 823l289 455h123l-275 -453l275 -460h-125z" />
<glyph horiz-adv-x="962" d="M78 365l274 452l-274 461h125l289 -459l-291 -454h-123zM440 365l275 452l-275 461h125l289 -459l-291 -454h-123z" />
<glyph horiz-adv-x="575" d="M86 823l289 455h123l-275 -453l275 -460h-125z" />
<glyph horiz-adv-x="575" d="M78 365l274 452l-274 461h125l289 -459l-291 -454h-123z" />
<glyph horiz-adv-x="1906" d="M94 762q0 180 49.5 337.5t137 274.5t204.5 201.5t255 127t286 42.5q239 0 428 -88.5t300.5 -262.5t111.5 -409q0 -116 -28.5 -222t-83 -190t-141 -134t-194.5 -50q-85 0 -147.5 40t-75.5 116q-104 -168 -303 -168q-159 0 -262 110t-103 277q0 231 119 375.5t320 144.5 q101 0 184 -48.5t123 -137.5l24 164h111l-109 -633q-4 -28 -4 -35q0 -56 33 -86.5t96 -30.5q150 0 242 141.5t92 358.5q0 311 -200.5 491.5t-534.5 180.5q-172 0 -322.5 -63.5t-260 -177.5t-173 -280.5t-63.5 -363.5q0 -222 97 -387t269.5 -251.5t397.5 -86.5 q191 0 313.5 51.5t214.5 163.5h119q-96 -155 -255.5 -234t-399.5 -79q-185 0 -344 57.5t-275 162t-182 259.5t-66 342zM647 768q0 -138 70 -216.5t180 -78.5q143 0 225.5 93.5t98.5 244.5l6 70q12 133 -57 221t-199 88q-147 0 -235.5 -114t-88.5 -308z" />
<glyph horiz-adv-x="1212" d="M125 698q0 245 124 396t341 168v172h92v-172q162 -8 270 -93.5t142 -246.5l-119 -23q-26 126 -111.5 194t-220.5 68q-189 0 -291 -118.5t-102 -340.5q0 -213 102 -332.5t285 -119.5q147 0 236.5 74t113.5 206h121q-28 -170 -137.5 -268t-288.5 -110v-170h-92v170 q-218 14 -341.5 158.5t-123.5 387.5z" />
<glyph horiz-adv-x="1212" d="M94 369h117q20 -149 120.5 -225t270.5 -76q359 0 359 299q0 125 -68 194t-215 94l-166 29q-196 33 -288.5 124t-92.5 265q0 168 113 268t311 111v162h94v-162q178 -9 281.5 -98t140.5 -262l-115 -21q-40 151 -121.5 216t-232.5 65q-166 0 -259 -67t-93 -210 q0 -123 66.5 -189t230.5 -93l153 -27q195 -33 289 -127t94 -272q0 -184 -114.5 -287.5t-319.5 -112.5v-188h-94v188q-206 10 -326 115.5t-135 286.5z" />
<glyph d="M-903 1348v102h760v-102h-760z" />
<glyph d="M-961 1348h814v270h-109v-168h-705v-102z" />
<glyph d="M-891 1348v102h461q-6 18 -6 45q0 61 41.5 99t109.5 38t110 -39t42 -100q0 -65 -42.5 -105t-113.5 -40h-602zM-344 1491q0 -68 59 -68q60 0 60 70q0 68 -60 68q-28 0 -43.5 -19.5t-15.5 -50.5z" />
<glyph d="M-891 1348v102h430v168h109v-168h96v168h109v-270h-744z" />
<glyph d="M-385 1513q0 84 51 134.5t137 50.5t137.5 -50.5t51.5 -134.5q0 -83 -51.5 -133.5t-137.5 -50.5t-137 50t-51 134zM-283 1513q0 -44 22.5 -68t63.5 -24t63.5 24t22.5 68t-22.5 68.5t-63.5 24.5t-63.5 -24.5t-22.5 -68.5zM-250 1817v266h107v-266h-107z" />
<glyph d="M-528 1997v96q29 2 77 2q82 0 123 -44t41 -118v-18h269v-98h-379v94q0 48 -17 67t-63 19h-51zM-385 1513q0 84 51 134.5t137 50.5t137.5 -50.5t51.5 -134.5q0 -83 -51.5 -133.5t-137.5 -50.5t-137 50t-51 134zM-283 1513q0 -44 22.5 -68t63.5 -24t63.5 24t22.5 68 t-22.5 68.5t-63.5 24.5t-63.5 -24.5t-22.5 -68.5z" />
<glyph d="M-487 1898q0 75 39 121.5t112 46.5q87 0 121 -79q34 79 125 79q65 0 102 -39t37 -106v-27h127v-98h-229v96q0 80 -53 80q-59 0 -66 -82h-86q-18 82 -66 82q-27 0 -41 -21.5t-14 -58.5q0 -55 12 -96h-104q-16 62 -16 102zM-385 1513q0 84 51 134.5t137 50.5t137.5 -50.5 t51.5 -134.5q0 -83 -51.5 -133.5t-137.5 -50.5t-137 50t-51 134zM-283 1513q0 -44 22.5 -68t63.5 -24t63.5 24t22.5 68t-22.5 68.5t-63.5 24.5t-63.5 -24.5t-22.5 -68.5z" />
<glyph d="M-385 1513q0 84 51 134.5t137 50.5t137.5 -50.5t51.5 -134.5q0 -83 -51.5 -133.5t-137.5 -50.5t-137 50t-51 134zM-360 1911v92h112v106h98v-106h113v-92h-113v-107h-98v107h-112zM-283 1513q0 -44 22.5 -68t63.5 -24t63.5 24t22.5 68t-22.5 68.5t-63.5 24.5t-63.5 -24.5 t-22.5 -68.5z" />
<glyph d="M-786 1456q0 44 26 72t70 39q-51 36 -51 90q0 52 46.5 81t110.5 29q61 0 107 -14l-15 -88q-47 12 -71 12q-76 0 -76 -41t117 -47l-15 -84q-44 6 -67 6q-78 0 -78 -49q0 -45 88 -45q12 0 27 1t18 1l-14 -88q-32 -4 -51 -4q-72 0 -122 33.5t-50 95.5z" />
<glyph d="M-821 1513q0 84 51 134.5t137 50.5t137.5 -50.5t51.5 -134.5q0 -83 -51.5 -133.5t-137.5 -50.5t-137 50t-51 134zM-719 1513q0 -44 22.5 -68t63.5 -24t63.5 24t22.5 68t-22.5 68.5t-63.5 24.5t-63.5 -24.5t-22.5 -68.5zM-686 1817v266h106v-266h-106z" />
<glyph d="M-965 1997v96q29 2 78 2q82 0 123 -44t41 -118v-18h268v-98h-379v94q0 48 -16.5 67t-62.5 19h-52zM-821 1513q0 84 51 134.5t137 50.5t137.5 -50.5t51.5 -134.5q0 -83 -51.5 -133.5t-137.5 -50.5t-137 50t-51 134zM-719 1513q0 -44 22.5 -68t63.5 -24t63.5 24t22.5 68 t-22.5 68.5t-63.5 24.5t-63.5 -24.5t-22.5 -68.5z" />
<glyph d="M-905 1907q0 75 39 121.5t112 46.5q86 0 121 -80q35 80 125 80q65 0 102 -39.5t37 -106.5v-26h127v-99h-229v97q0 79 -53 79q-59 0 -66 -82h-86q-9 42 -24 62t-41 20q-27 0 -41.5 -21.5t-14.5 -57.5q0 -53 13 -97h-105q-16 62 -16 103zM-821 1513q0 84 51 134.5t137 50.5 t137.5 -50.5t51.5 -134.5q0 -83 -51.5 -133.5t-137.5 -50.5t-137 50t-51 134zM-719 1513q0 -44 22.5 -68t63.5 -24t63.5 24t22.5 68t-22.5 68.5t-63.5 24.5t-63.5 -24.5t-22.5 -68.5z" />
<glyph d="M-821 1513q0 84 51 134.5t137 50.5t137.5 -50.5t51.5 -134.5q0 -83 -51.5 -133.5t-137.5 -50.5t-137 50t-51 134zM-797 1927v92h113v107h98v-107h113v-92h-113v-106h-98v106h-113zM-719 1513q0 -44 22.5 -68t63.5 -24t63.5 24t22.5 68t-22.5 68.5t-63.5 24.5t-63.5 -24.5 t-22.5 -68.5z" />
<glyph d="M475 1049l64 413h127l-93 -413h-98z" />
<glyph d="M-317 1233q0 254 167 254q49 0 85 -20.5t85 -73.5l17 -17l16.5 -16.5t14.5 -14t16 -13t14.5 -8.5t16.5 -7t16 -2q86 0 86 166h88q0 -254 -168 -254q-50 0 -84.5 20.5t-85.5 73.5q-49 54 -69 67t-41 13q-84 0 -84 -168h-90z" />
<glyph d="M-254 1698q0 40 22.5 62t63.5 22q40 0 62 -22t22 -62q0 -41 -22 -63.5t-62 -22.5q-41 0 -63.5 22.5t-22.5 63.5zM82 1698q0 40 22.5 62t63.5 22q40 0 62 -22t22 -62q0 -41 -22 -63.5t-62 -22.5q-41 0 -63.5 22.5t-22.5 63.5z" />
<glyph d="M-84 1694q0 40 22 63t62 23t62 -23t22 -63t-22 -62t-62 -22t-62 22t-22 62z" />
<glyph d="M-281 1849h154l231 -266h-124z" />
<glyph d="M-104 1583l231 266h154l-261 -266h-124z" />
<glyph d="M-229 1583l215 266h143l-244 -266h-114zM100 1583l215 266h146l-246 -266h-115z" />
<glyph d="M-291 1583l230 266h120l232 -266h-123l-168 182l-170 -182h-121z" />
<glyph d="M-291 1849h123l168 -182l170 182h121l-230 -266h-120z" />
<glyph d="M-260 1839h98q0 -86 43 -130t119 -44t120 43.5t44 130.5h96q0 -124 -69 -191t-191 -67t-191 67t-69 191z" />
<glyph d="M-195 1708q0 91 55 143t140 52q86 0 140.5 -52t54.5 -143q0 -93 -54.5 -145t-140.5 -52q-85 0 -140 52.5t-55 144.5zM-111 1708q0 -55 29.5 -88t81.5 -33q53 0 82 32.5t29 88.5q0 55 -29.5 87t-81.5 32q-53 0 -82 -31.5t-29 -87.5z" />
<glyph d="M-315 1587q0 250 168 250q49 0 87 -19t87 -73q37 -39 62.5 -57.5t51.5 -18.5q84 0 84 162h90q0 -248 -170 -248q-48 0 -85 19.5t-89 72.5q-35 38 -61 57t-53 19q-82 0 -82 -164h-90z" />
<glyph d="M-289 1642v99h578v-99h-578z" />
<glyph d="M-139 1843v76q54 23 121 23q99 0 152.5 -46.5t53.5 -117.5q0 -87 -69.5 -140t-206.5 -63v74q178 24 178 125q0 88 -129 88q-45 0 -100 -19z" />
<glyph d="M-84 -283q0 40 23 62t63 22t62 -22t22 -62q0 -41 -22 -63.5t-62 -22.5t-63 22.5t-23 63.5z" />
<glyph d="M-176 -436l151 293h138l-179 -293h-110z" />
<glyph d="M-170 -336q64 -10 125 -10q75 0 108 20t33 62q0 33 -23 51.5t-57.5 24.5t-89.5 6h-37l70 188l84 -2l-45 -121q205 -11 205 -155q0 -83 -61.5 -120.5t-184.5 -37.5q-73 0 -127 10v84z" />
<glyph d="M-184 -213q0 109 137 219l110 -6q-135 -99 -135 -190q0 -86 99 -86q33 0 53 4v-88q-15 -5 -62 -5q-202 0 -202 152z" />
<glyph d="M-285 1499h92q2 -111 45.5 -162t147.5 -51q105 0 149 51.5t44 161.5h92q0 -148 -69 -221.5t-216 -73.5q-146 0 -214.5 73.5t-70.5 221.5z" />
<glyph d="M-55 1204l151 346h135l-184 -346h-102z" />
<glyph d="M-150 -207q0 107 136 213l102 -6q-131 -101 -131 -186q0 -42 27 -62t71 -20q26 0 54 4v-86q-32 -4 -62 -4q-197 0 -197 147z" />
<glyph d="M-70 1192l50 301h110l-70 -301h-90z" />
<glyph d="M-315 1587q0 250 168 250q49 0 87 -19t87 -73q37 -39 62.5 -57.5t51.5 -18.5q84 0 84 162h90q0 -248 -170 -248q-48 0 -85 19.5t-89 72.5q-35 38 -61 57t-53 19q-82 0 -82 -164h-90z" />
<glyph d="M-295 1847h102q0 -87 45 -129.5t148 -42.5t148 42.5t47 129.5h100q0 -124 -72 -193t-223 -69t-223 69t-72 193z" />
<glyph d="M-94 1034l147 428h133l-176 -428h-104z" />
<glyph d="M-172 -215q0 109 137 213l105 -4q-131 -101 -131 -189q0 -81 96 -81q37 0 53 2v-86q-40 -5 -59 -5q-201 0 -201 150z" />
<glyph horiz-adv-x="1654" d="M127 1583l231 266h154l-260 -266h-125zM168 0v1462h127v-1462h-127zM518 424h127q26 -173 115 -260.5t258 -87.5q182 0 268 103.5t86 305.5v977h127v-987q0 -249 -124.5 -379.5t-352.5 -130.5q-222 0 -351.5 115.5t-152.5 343.5zM1333 1583l232 266h153l-260 -266h-125z " />
<glyph horiz-adv-x="821" d="M109 1212l225 283h147l-252 -283h-120zM145 0v1053h121v-1053h-121zM287 -391l22 96q54 -20 101 -20q73 0 109 43t36 149v1176h121v-1162q0 -157 -65 -234t-203 -77q-57 0 -121 29zM518 1212l225 283h148l-252 -283h-121z" />
</font>
</defs>
</svg>
