<?xml version="1.0" standalone="no"?>
<!DOCTYPE svg PUBLIC "-//W3C//DTD SVG 1.1//EN" "http://www.w3.org/Graphics/SVG/1.1/DTD/svg11.dtd" >
<svg xmlns="http://www.w3.org/2000/svg" xmlns:xlink="http://www.w3.org/1999/xlink" version="1.1">
<metadata></metadata>
<defs>
<font id="better_togetherbold" horiz-adv-x="0" >
<font-face units-per-em="2048" ascent="1638" descent="-410" />
<missing-glyph horiz-adv-x="440" />
<glyph unicode="&#xd;" horiz-adv-x="440" />
<glyph unicode=" "  horiz-adv-x="440" />
<glyph unicode="&#x09;" horiz-adv-x="440" />
<glyph unicode="&#xa0;" horiz-adv-x="440" />
<glyph unicode="!" horiz-adv-x="600" d="M119 1462h362l-32 -1009h-295zM125 158q0 82 48 130t130 48t130 -48t48 -130t-48 -130t-130 -48t-130 48t-48 130z" />
<glyph unicode="&#x22;" horiz-adv-x="882" d="M70 1458h307l-17 -571h-276zM506 1458h307l-16 -571h-277z" />
<glyph unicode="#" horiz-adv-x="1212" d="M43 311v238h172l49 293h-162v237h201l49 310h264l-51 -310h209l51 310h265l-52 -310h131v-237h-170l-47 -293h156v-238h-195l-51 -311h-264l51 311h-209l-51 -311h-262l51 311h-135zM479 549h209l47 293h-209z" />
<glyph unicode="$" horiz-adv-x="1212" d="M35 449h311q21 -197 184 -232v373l-51 10q-211 42 -312 142.5t-101 281.5q0 187 122 298.5t342 125.5v194h123v-194q204 -12 324.5 -116.5t144.5 -301.5l-307 -35q-18 91 -56 140.5t-106 62.5v-342l74 -14q212 -42 314 -145.5t102 -288.5q0 -203 -129 -316.5t-361 -124.5 v-215h-123v215q-228 15 -355 138t-140 344zM369 1047q0 -67 35 -104.5t126 -61.5v321q-161 -19 -161 -155zM653 213q174 18 174 176q0 147 -174 178v-354z" />
<glyph unicode="%" horiz-adv-x="2031" d="M72 1022q0 212 101 326t278 114q178 0 278 -113t100 -327t-99 -326t-279 -112q-177 0 -278 112.5t-101 325.5zM336 1020q0 -111 28.5 -161t86.5 -50t86 50t28 161t-28 163t-86 52q-115 0 -115 -215zM530 0l662 1415h309l-661 -1415h-310zM1202 414q0 212 101 326t278 114 q178 0 278.5 -113.5t100.5 -326.5q0 -214 -99.5 -326.5t-279.5 -112.5q-177 0 -278 113t-101 326zM1466 412q0 -111 28.5 -161t86.5 -50t86.5 50t28.5 161q0 215 -115 215t-115 -215z" />
<glyph unicode="&#x26;" horiz-adv-x="1417" d="M53 399q0 139 75.5 239t221.5 179q-129 171 -129 309q0 159 117 257t303 98q189 0 297.5 -91t108.5 -241q0 -123 -72.5 -216t-212.5 -173l252 -287q43 110 43 260h278q0 -289 -129 -479l224 -254h-347l-63 70q-170 -103 -399 -103q-268 0 -418 111.5t-150 320.5zM379 438 q0 -106 67.5 -164.5t204.5 -58.5q112 0 195 47l-342 377q-125 -86 -125 -201zM516 1122q0 -45 25 -90t75 -104q144 87 144 196q0 59 -32.5 91t-88.5 32q-57 0 -90 -32.5t-33 -92.5z" />
<glyph unicode="'" horiz-adv-x="446" d="M70 1458h307l-17 -571h-276z" />
<glyph unicode="(" horiz-adv-x="681" d="M92 625q0 241 64 466.5t186 411.5h330q-228 -414 -228 -878q0 -465 228 -879h-330q-122 186 -186 412t-64 467z" />
<glyph unicode=")" horiz-adv-x="681" d="M8 -254q119 211 173.5 426t54.5 453t-54.5 452.5t-173.5 425.5h330q122 -185 186 -410t64 -468t-64 -468.5t-186 -410.5h-330z" />
<glyph unicode="*" horiz-adv-x="862" d="M25 1085l96 242l215 -125l-39 260h266l-41 -254l221 125l95 -241l-260 -60l200 -194l-211 -158l-131 235l-133 -239l-211 158l193 190z" />
<glyph unicode="+" horiz-adv-x="1212" d="M106 553v289h349v375h303v-375h346v-289h-346v-375h-303v375h-349z" />
<glyph unicode="," horiz-adv-x="536" d="M68 -190l69 552h324l-135 -552h-258z" />
<glyph unicode="-" horiz-adv-x="843" d="M82 457v305h680v-305h-680z" />
<glyph unicode="." horiz-adv-x="536" d="M90 158q0 82 48 130t130 48t130 -48t48 -130t-48 -130t-130 -48t-130 48t-48 130z" />
<glyph unicode="/" horiz-adv-x="841" d="M18 0l471 1503h334l-473 -1503h-332z" />
<glyph unicode="0" horiz-adv-x="1253" d="M72 705q0 377 145 563t416 186q549 0 549 -743q0 -378 -144 -563t-417 -185q-549 0 -549 742zM412 709q0 -232 51 -345.5t164 -113.5q111 0 163 113t52 346q0 232 -52 345t-163 113q-113 0 -164 -113t-51 -345z" />
<glyph unicode="1" horiz-adv-x="1028" d="M59 1118l455 297h287v-1415h-340v1044l-246 -167z" />
<glyph unicode="2" horiz-adv-x="1253" d="M82 1008q33 212 176.5 329t382.5 117q234 0 372 -117.5t138 -316.5q0 -73 -15.5 -137t-42 -115t-71 -103.5t-92.5 -95t-117 -96.5q-36 -28 -121 -94.5t-125 -97.5h584v-281h-1047v256q67 54 196 155.5t167 131.5q17 14 57.5 45.5t58 46t51.5 43t50 46t41 45.5t37 51 t25.5 51.5t18.5 58.5t5 63q0 85 -47.5 129.5t-136.5 44.5q-182 0 -226 -192z" />
<glyph unicode="3" horiz-adv-x="1302" d="M98 457h320q15 -215 225 -215q94 0 152.5 49t58.5 135q0 90 -52.5 132t-162.5 42h-121v256h125q186 0 186 162q0 72 -52 112.5t-138 40.5q-89 0 -142 -43.5t-75 -136.5l-311 33q25 204 169.5 317t378.5 113q227 0 363.5 -106.5t136.5 -278.5q0 -232 -207 -317 q240 -86 240 -346q0 -196 -142.5 -319.5t-398.5 -123.5q-269 0 -410 135t-143 359z" />
<glyph unicode="4" horiz-adv-x="1253" d="M57 291v258l627 866h330v-872h184v-252h-184v-291h-309v291h-648zM352 543h353v485z" />
<glyph unicode="5" horiz-adv-x="1253" d="M102 403h326q26 -163 207 -163q91 0 146 57.5t55 167.5q0 100 -53.5 155.5t-151.5 55.5q-112 0 -187 -84h-290l73 823h854v-280h-589l-25 -269q104 70 250 70q206 0 328 -129t122 -344q0 -238 -142 -369t-384 -131q-238 0 -380 114t-159 326z" />
<glyph unicode="6" horiz-adv-x="1232" d="M111 453q0 119 38 222t117 234l309 504h328l-309 -512q39 8 94 8q214 0 343.5 -122t129.5 -330q0 -222 -144 -358t-384 -136q-109 0 -198.5 29.5t-148.5 78.5t-99.5 113.5t-58 132t-17.5 136.5zM428 453q0 -101 56.5 -163.5t146.5 -62.5q95 0 153 60t58 164 q0 98 -55.5 156.5t-153.5 58.5q-97 0 -151 -56.5t-54 -156.5z" />
<glyph unicode="7" horiz-adv-x="1130" d="M41 1122v293h1016v-252q-146 -287 -257.5 -564.5t-205.5 -598.5h-352q181 592 452 1122h-653z" />
<glyph unicode="8" horiz-adv-x="1253" d="M82 391q0 139 65 228t179 131q-185 94 -185 309q0 180 131 287.5t359 107.5q229 0 354 -109t125 -284q0 -215 -182 -307q243 -90 243 -361q0 -199 -147 -314.5t-401 -115.5q-253 0 -397 114.5t-144 313.5zM403 424q0 -91 58.5 -144t165.5 -53t165 53t58 144 q0 92 -55.5 142t-167.5 50t-168 -50.5t-56 -141.5zM446 1028q0 -160 179 -160q178 0 178 162q0 75 -45 119.5t-133 44.5q-85 0 -132 -45t-47 -121z" />
<glyph unicode="9" horiz-adv-x="1232" d="M72 961q0 222 144 357.5t384 135.5q109 0 198.5 -29.5t148.5 -78t99.5 -113t58 -132t17.5 -136.5q0 -119 -38 -222.5t-117 -234.5l-310 -508h-327l309 516q-39 -8 -94 -8q-214 0 -343.5 122.5t-129.5 330.5zM391 967q0 -98 55.5 -156.5t153.5 -58.5q97 0 151 56.5 t54 156.5q0 101 -56.5 163t-146.5 62q-95 0 -153 -59.5t-58 -163.5z" />
<glyph unicode=":" horiz-adv-x="536" d="M90 158q0 82 48 130t130 48t130 -48t48 -130t-48 -130t-130 -48t-130 48t-48 130zM90 834q0 82 48 130t130 48t130 -48t48 -130t-48 -130.5t-130 -48.5t-130 48.5t-48 130.5z" />
<glyph unicode=";" horiz-adv-x="536" d="M45 -190l70 552h323l-135 -552h-258zM90 1362q0 82 48 130t130 48t130 -48t48 -130t-48 -130t-130 -48t-130 48t-48 130z" />
<glyph unicode="&#x3c;" horiz-adv-x="1212" d="M137 557v277l946 395v-301l-583 -230l583 -229v-307z" />
<glyph unicode="=" horiz-adv-x="1212" d="M156 324v278h901v-278h-901zM156 795v278h901v-278h-901z" />
<glyph unicode="&#x3e;" horiz-adv-x="1212" d="M129 162v299l584 229l-584 230v309l946 -395v-277z" />
<glyph unicode="?" horiz-adv-x="1095" d="M35 1057q26 202 158 316t368 114q224 0 349.5 -102.5t125.5 -280.5q0 -106 -45.5 -191t-140.5 -170q-90 -80 -125 -136.5t-35 -131.5v-22h-299v34q0 71 15 127q15 52 56 107t120 131q64 64 90 105.5t26 97.5q0 75 -40 115t-115 40q-87 0 -133.5 -44t-65.5 -140zM362 158 q0 82 48.5 130t130.5 48t130 -48t48 -130t-48 -130t-130 -48t-130.5 48t-48.5 130z" />
<glyph unicode="@" horiz-adv-x="2048" d="M80 408q0 188 53 352.5t148 288t223 213t281.5 135t320.5 45.5q254 0 449.5 -95t306 -276.5t110.5 -425.5q0 -184 -59 -325t-174.5 -221.5t-270.5 -80.5q-107 0 -179.5 40t-100.5 116q-41 -80 -114.5 -120t-164.5 -40q-153 0 -254.5 113.5t-101.5 294.5 q0 229 123.5 374.5t318.5 145.5q153 0 232 -111l8 91h276l-77 -568q-4 -20 -4 -37q0 -92 73 -92q103 0 164.5 116t61.5 292q0 284 -165.5 440t-463.5 156q-167 0 -310.5 -59.5t-245 -166t-159 -259t-57.5 -332.5q0 -309 170 -484.5t473 -175.5q137 0 231.5 33.5t179.5 105.5 h308q-106 -167 -294.5 -258.5t-439.5 -91.5q-261 0 -459 105t-307.5 302t-109.5 460zM856 440q0 -91 33 -136.5t94 -45.5q79 0 121.5 55t50.5 150l4 49q8 90 -21.5 146.5t-103.5 56.5q-85 0 -131.5 -70t-46.5 -205z" />
<glyph unicode="A" horiz-adv-x="1513" d="M33 0l514 1462h424l508 -1462h-363l-98 305h-533l-98 -305h-354zM569 588h365l-182 573z" />
<glyph unicode="B" horiz-adv-x="1390" d="M139 0v1462h625q250 0 381 -90t131 -285q0 -213 -191 -311q234 -100 234 -348q0 -209 -141.5 -318.5t-409.5 -109.5h-629zM467 262h268q132 0 188 44.5t56 139.5q0 97 -56 143t-182 46h-274v-373zM467 883h260q111 0 161 39t50 120q0 85 -51 121.5t-172 36.5h-248v-317z " />
<glyph unicode="C" horiz-adv-x="1536" d="M92 721q0 358 193 568t526 210q271 0 446 -145.5t201 -405.5l-352 -41q-24 128 -100 207.5t-205 79.5q-159 0 -247.5 -115.5t-88.5 -345.5q0 -222 91.5 -343.5t254.5 -121.5q136 0 213.5 67.5t91.5 192.5h354q-12 -256 -190.5 -410.5t-476.5 -154.5q-329 0 -520 205 t-191 553z" />
<glyph unicode="D" horiz-adv-x="1525" d="M139 0v1462h514q378 0 578.5 -183t200.5 -538q0 -361 -208 -551t-589 -190h-496zM487 299h162q211 0 316.5 111.5t105.5 324.5t-100 320.5t-307 107.5h-177v-864z" />
<glyph unicode="E" horiz-adv-x="1267" d="M139 0v1462h1030v-280h-682v-297h641v-281h-641v-323h707v-281h-1055z" />
<glyph unicode="F" horiz-adv-x="1200" d="M139 0v1462h983v-286h-635v-336h598v-287h-598v-553h-348z" />
<glyph unicode="G" horiz-adv-x="1576" d="M86 725q0 357 194 565.5t523 208.5q281 0 452.5 -126t202.5 -353l-352 -41q-38 221 -303 221q-174 0 -263 -123.5t-89 -341.5q0 -238 97 -355.5t269 -117.5q138 0 219.5 74.5t93.5 200.5h-286v278h635v-188q0 -162 -50.5 -289.5t-140.5 -209t-211.5 -123.5t-267.5 -42 q-335 0 -529 198.5t-194 563.5z" />
<glyph unicode="H" horiz-adv-x="1556" d="M139 0v1462h355v-549h569v549h354v-1462h-354v596h-569v-596h-355z" />
<glyph unicode="I" horiz-adv-x="630" d="M139 0v1462h355v-1462h-355z" />
<glyph unicode="J" horiz-adv-x="1333" d="M53 522h355q11 -128 64 -191t163 -63q113 0 165 65t52 193v936h354v-930q0 -277 -148 -423t-421 -146q-275 0 -423 140t-161 419z" />
<glyph unicode="K" horiz-adv-x="1452" d="M139 0v1462h355v-590l526 590h379l-549 -614l582 -848h-392l-403 618l-143 -153v-465h-355z" />
<glyph unicode="L" horiz-adv-x="1204" d="M139 0v1462h355v-1155h659v-307h-1014z" />
<glyph unicode="M" horiz-adv-x="1843" d="M139 0v1462h412l373 -1046l370 1046h410v-1462h-326v944l-331 -944h-259l-331 944v-944h-318z" />
<glyph unicode="N" horiz-adv-x="1544" d="M137 0v1462h314l622 -913v913h334v-1462h-309l-629 915v-915h-332z" />
<glyph unicode="O" horiz-adv-x="1650" d="M94 727q0 355 197 563.5t538 208.5q335 0 531 -202t196 -560q0 -363 -198.5 -568.5t-536.5 -205.5t-532.5 203t-194.5 561zM461 731q0 -223 94.5 -343t269.5 -120q174 0 269.5 120.5t95.5 342.5q0 224 -95.5 343.5t-269.5 119.5t-269 -120.5t-95 -342.5z" />
<glyph unicode="P" horiz-adv-x="1331" d="M139 0v1462h514q289 0 443.5 -126t154.5 -369q0 -246 -154 -376t-444 -130h-172v-461h-342zM481 741h181q264 0 264 222q0 219 -267 219h-178v-441z" />
<glyph unicode="Q" horiz-adv-x="1650" d="M94 727q0 226 87 400t254.5 273t391.5 99q331 0 530 -206t199 -552q0 -188 -51.5 -338.5t-152.5 -234.5l188 -229h-321l-76 90q-135 -66 -326 -66q-219 0 -384 97t-252 269.5t-87 397.5zM457 727q0 -221 98 -343t270 -122q74 0 107 10l-215 246h323l72 -88 q39 48 60.5 129t21.5 168q0 224 -99 345.5t-270 121.5q-170 0 -269 -123t-99 -344z" />
<glyph unicode="R" horiz-adv-x="1382" d="M139 0v1462h568q275 0 423 -113t148 -339q0 -336 -287 -447l342 -563h-368l-306 516h-184v-516h-336zM475 782h217q131 0 189.5 53.5t58.5 159.5q0 103 -60 150t-198 47h-207v-410z" />
<glyph unicode="S" horiz-adv-x="1376" d="M63 457h351q19 -113 91 -165t208 -52q233 0 233 174q0 66 -41.5 103.5t-142.5 57.5l-193 37q-238 45 -355.5 146.5t-117.5 292.5q0 203 148 325.5t422 122.5q271 0 429.5 -112.5t178.5 -315.5l-342 -33q-27 185 -254 185q-109 0 -172.5 -36.5t-63.5 -115.5 q0 -65 42 -100.5t147 -55.5l198 -38q250 -50 360.5 -153.5t110.5 -291.5q0 -224 -160 -346.5t-444 -122.5q-291 0 -452 123t-181 371z" />
<glyph unicode="T" horiz-adv-x="1320" d="M45 1155v307h1231v-307h-438v-1155h-355v1155h-438z" />
<glyph unicode="U" horiz-adv-x="1490" d="M117 602v860h354v-887q0 -152 70 -229.5t204 -77.5t203.5 77.5t69.5 229.5v887h354v-862q0 -305 -166 -471t-465 -166t-461.5 165t-162.5 474z" />
<glyph unicode="V" horiz-adv-x="1476" d="M35 1462h385l321 -1095l326 1095h375l-490 -1462h-428z" />
<glyph unicode="W" horiz-adv-x="2027" d="M35 1462h377l211 -1050l233 1042h328l231 -1042l211 1050h367l-383 -1462h-371l-227 1006l-224 -1006h-368z" />
<glyph unicode="X" horiz-adv-x="1454" d="M20 0l480 770l-443 692h400l270 -469l270 469h379l-440 -708l498 -754h-398l-327 535l-308 -535h-381z" />
<glyph unicode="Y" horiz-adv-x="1382" d="M23 1462h383l288 -604l295 604h369l-488 -895v-567h-356v569z" />
<glyph unicode="Z" horiz-adv-x="1286" d="M74 0v258l700 913h-686v291h1104v-260l-696 -909h733v-293h-1155z" />
<glyph unicode="[" horiz-adv-x="747" d="M135 -254v1757h567v-284h-231v-1188h231v-285h-567z" />
<glyph unicode="\" horiz-adv-x="841" d="M18 1503h334l471 -1503h-331z" />
<glyph unicode="]" horiz-adv-x="747" d="M45 31h231v1188h-231v284h567v-1757h-567v285z" />
<glyph unicode="^" horiz-adv-x="1212" d="M63 596l398 866h289l397 -866h-336l-209 512l-209 -512h-330z" />
<glyph unicode="_" horiz-adv-x="1024" d="M0 -252h1024v-106h-1024v106z" />
<glyph unicode="`" horiz-adv-x="1236" d="M614 1536h367l252 -336h-299z" />
<glyph unicode="a" horiz-adv-x="1171" d="M59 299q0 336 482 346l204 4v58q0 89 -37.5 128t-121.5 39q-75 0 -117.5 -32.5t-50.5 -89.5l-299 41q15 152 139.5 232.5t337.5 80.5q241 0 354 -108t113 -326v-672h-307v115q-124 -142 -332 -142q-165 0 -265 87t-100 239zM373 322q0 -57 35.5 -89t105.5 -32 q108 0 169.5 57t61.5 156v47l-204 -6q-168 -3 -168 -133z" />
<glyph unicode="b" horiz-adv-x="1318" d="M117 0v1462h334v-495q115 139 329 139t344.5 -147t130.5 -408q0 -178 -66 -312t-177.5 -203t-251.5 -69q-99 0 -183.5 38t-136.5 112v-117h-323zM451 516q0 -136 64 -208t167 -72q109 0 172.5 80.5t63.5 222.5q0 132 -62.5 214.5t-167.5 82.5q-102 0 -169.5 -75.5 t-67.5 -199.5v-45z" />
<glyph unicode="c" horiz-adv-x="1208" d="M84 530q0 267 143.5 421.5t395.5 154.5q215 0 355 -103t157 -286l-316 -41q-22 160 -196 160q-101 0 -151 -77t-50 -220t55.5 -223t163.5 -80q79 0 128 44t60 123h318q-23 -209 -157 -322.5t-357 -113.5q-253 0 -401 150t-148 413z" />
<glyph unicode="d" horiz-adv-x="1298" d="M84 524q0 266 131 424t344 158q190 0 287 -100v456h334v-1462h-322v88q-105 -121 -299 -121q-210 0 -342.5 150.5t-132.5 406.5zM422 539q0 -138 54 -219.5t157 -81.5q102 0 158.5 74.5t56.5 199.5v47q0 136 -54.5 207.5t-154.5 71.5q-106 0 -161.5 -78t-55.5 -221z" />
<glyph unicode="e" horiz-adv-x="1228" d="M92 524q0 275 143.5 428.5t391.5 153.5q244 0 377 -144t133 -397v-102h-723q21 -258 211 -258q85 0 129.5 31.5t62.5 95.5h309q-31 -177 -156 -271t-339 -94q-256 0 -397.5 150t-141.5 407zM416 645h409q-2 53 -11 90t-29.5 70t-59.5 50t-96 17q-102 0 -151 -56.5 t-62 -170.5z" />
<glyph unicode="f" horiz-adv-x="811" d="M33 774v262h172v47q0 192 103.5 294t291.5 102q118 0 246 -35l-45 -238q-67 17 -119 17q-143 0 -143 -138v-49h241v-262h-241v-774h-334v774h-172z" />
<glyph unicode="g" horiz-adv-x="1284" d="M84 567q0 247 125.5 393t331.5 146q90 0 170 -37.5t133 -107.5v112h323v-954q0 -539 -549 -539q-471 0 -505 369h321q14 -68 56 -98.5t126 -30.5q114 0 166 60.5t52 197.5v94q-47 -60 -122 -94.5t-167 -34.5q-213 0 -337 139.5t-124 384.5zM422 575q0 -120 53.5 -190 t153.5 -70q103 0 154 65t51 179v29q0 115 -50 182.5t-149 67.5q-97 0 -155 -66.5t-58 -196.5z" />
<glyph unicode="h" horiz-adv-x="1277" d="M117 0v1462h334v-473q126 117 323 117q177 0 286 -103t109 -284v-719h-333v657q0 85 -51.5 128.5t-127.5 43.5q-100 0 -153 -65q-53 -56 -53 -135v-629h-334z" />
<glyph unicode="i" horiz-adv-x="569" d="M80 1417q0 80 52 133.5t151 53.5t150.5 -53.5t51.5 -133.5q0 -81 -51.5 -133.5t-150.5 -52.5t-151 52.5t-52 133.5zM119 0v1073h334v-1073h-334z" />
<glyph unicode="j" horiz-adv-x="575" d="M-139 -383l47 233q51 -14 108 -14q60 0 84.5 32t24.5 103v1102h334v-1096q0 -189 -93.5 -293t-283.5 -104q-123 0 -221 37zM86 1417q0 80 52 133.5t151 53.5t151 -53.5t52 -133.5q0 -81 -52 -133.5t-151 -52.5t-151 52.5t-52 133.5z" />
<glyph unicode="k" horiz-adv-x="1222" d="M117 0v1462h321v-768l363 379h379l-408 -418l442 -655h-352l-291 457l-133 -133v-324h-321z" />
<glyph unicode="l" horiz-adv-x="569" d="M119 0v1462h334v-1462h-334z" />
<glyph unicode="m" horiz-adv-x="1835" d="M117 0v1073h325v-98q116 131 306 131q97 0 172 -38.5t116 -109.5q61 72 151 110t185 38q165 0 261 -96.5t96 -278.5v-731h-336v678q0 151 -136 151q-67 0 -120 -53q-47 -53 -47 -117v-659h-334v678q0 151 -127 151q-75 0 -131 -59q-16 -20 -23.5 -31.5t-15.5 -37 t-8 -56.5v-645h-334z" />
<glyph unicode="n" horiz-adv-x="1257" d="M117 0v1073h325v-131q138 164 332 164q175 0 275 -101.5t100 -285.5v-719h-334v657q0 87 -42.5 129.5t-115.5 42.5q-100 0 -153 -65q-53 -56 -53 -135v-629h-334z" />
<glyph unicode="o" horiz-adv-x="1325" d="M84 532q0 267 160.5 420.5t421.5 153.5q263 0 419 -150t156 -415q0 -263 -159 -418.5t-425 -155.5q-263 0 -418 149t-155 416zM422 537q0 -141 63 -221t177 -80q113 0 176 79.5t63 221.5q0 143 -62 221t-177 78q-114 0 -177 -78.5t-63 -220.5z" />
<glyph unicode="p" horiz-adv-x="1318" d="M117 -397v1470h323v-123q119 156 340 156q212 0 333.5 -146t121.5 -409q0 -270 -131.5 -427t-343.5 -157q-202 0 -309 139v-503h-334zM451 516q0 -131 58 -205.5t163 -74.5q108 0 166.5 80.5t58.5 222.5q0 135 -57 216t-162 81q-106 0 -166.5 -75.5t-60.5 -199.5v-45z " />
<glyph unicode="q" horiz-adv-x="1318" d="M84 524q0 267 131 424.5t344 157.5q98 0 181.5 -38t138.5 -116v121h323v-1470h-334v508q-125 -144 -329 -144q-210 0 -332.5 148.5t-122.5 408.5zM422 539q0 -136 57.5 -218.5t161.5 -82.5q105 0 166 75.5t61 198.5v47q0 136 -60 207.5t-161 71.5q-107 0 -166 -79 t-59 -220z" />
<glyph unicode="r" horiz-adv-x="866" d="M117 0v1073h325v-131q104 150 287 150q52 0 102 -13l-20 -282q-62 10 -109 10q-104 0 -174 -53q-77 -56 -77 -193v-561h-334z" />
<glyph unicode="s" horiz-adv-x="1101" d="M51 332h316q13 -69 59.5 -99t134.5 -30q84 0 121 25.5t37 78.5q0 45 -29.5 72t-97.5 39l-121 20q-208 36 -302.5 113t-94.5 221q0 155 126.5 244.5t344.5 89.5q208 0 333 -80.5t142 -237.5l-305 -40q-16 133 -172 133q-80 0 -117 -27.5t-37 -71.5t30.5 -67.5t108.5 -38.5 l125 -25q213 -42 301 -116t88 -224q0 -162 -122 -253t-353 -91q-235 0 -369 89.5t-147 275.5z" />
<glyph unicode="t" horiz-adv-x="847" d="M33 811v262h170v283h336v-283h245v-262h-245v-432q0 -129 125 -129q48 0 106 16l41 -246q-106 -40 -242 -40q-193 0 -279.5 96t-86.5 299v436h-170z" />
<glyph unicode="u" horiz-adv-x="1230" d="M96 354v719h334v-661q0 -86 42.5 -127t117.5 -41q91 0 145 63q26 26 35.5 56.5t9.5 76.5v633h334v-1073h-326v131q-114 -164 -319 -164q-172 0 -272.5 102t-100.5 285z" />
<glyph unicode="v" horiz-adv-x="1169" d="M18 1073h359l213 -743l217 743h344l-389 -1073h-356z" />
<glyph unicode="w" horiz-adv-x="1626" d="M18 1073h334l154 -696l178 686h272l179 -672l151 682h322l-301 -1073h-312l-182 678l-174 -678h-320z" />
<glyph unicode="x" horiz-adv-x="1155" d="M14 0l381 545l-344 528h371l168 -291l184 291h336l-340 -510l371 -563h-361l-209 326l-206 -326h-351z" />
<glyph unicode="y" horiz-adv-x="1185" d="M18 1073h359l233 -653l211 653h346l-442 -1102l-147 -391h-310l191 502z" />
<glyph unicode="z" horiz-adv-x="1046" d="M66 0v215l514 600h-502v258h905v-215l-516 -602h543v-256h-944z" />
<glyph unicode="{" horiz-adv-x="765" d="M41 487v275h16q131 0 131 147v252q0 175 90.5 258.5t270.5 83.5h176v-282h-113q-102 0 -102 -115v-258q0 -174 -133 -223q133 -49 133 -224v-258q0 -59 25 -86.5t77 -27.5h113v-283h-176q-180 0 -270.5 83.5t-90.5 258.5v252q0 147 -131 147h-16z" />
<glyph unicode="|" horiz-adv-x="581" d="M131 -254v1757h320v-1757h-320z" />
<glyph unicode="}" horiz-adv-x="765" d="M41 29h113q52 0 77 27.5t25 86.5v258q0 175 133 224q-133 49 -133 223v258q0 115 -102 115h-113v282h174q180 0 270 -83.5t90 -258.5v-252q0 -147 134 -147h16v-275h-16q-134 0 -134 -147v-252q0 -175 -90 -258.5t-270 -83.5h-174v283z" />
<glyph unicode="~" horiz-adv-x="1212" d="M49 457q0 238 88 354.5t254 116.5q65 0 121.5 -23.5t134.5 -81.5q47 -34 76 -48.5t57 -14.5q103 0 103 153h278q0 -471 -340 -471q-63 0 -121 24t-135 81q-88 63 -133 63q-53 0 -77.5 -37t-24.5 -116h-281z" />
<glyph unicode="&#xa1;" horiz-adv-x="600" d="M119 -387l35 1008h295l32 -1008h-362zM141 752v321h320v-321h-320z" />
<glyph unicode="&#xa2;" horiz-adv-x="1212" d="M88 725q0 251 126 402t353 171v185h121v-185q182 -12 293.5 -111t138.5 -282l-303 -33q-20 140 -129 164v-606q117 21 137 168h305q-22 -194 -133.5 -304.5t-308.5 -125.5v-188h-121v188q-228 17 -353.5 161.5t-125.5 395.5zM414 733q0 -260 153 -301v602 q-153 -44 -153 -301z" />
<glyph unicode="&#xa3;" horiz-adv-x="1212" d="M86 573v248h127q-18 102 -18 178q0 208 127 331.5t346 123.5q206 0 326 -102.5t139 -296.5l-304 -35q-15 83 -49.5 117t-107.5 34q-164 0 -164 -188q0 -61 16 -162h408v-248h-375q0 -184 -90 -301h682v-272h-1020v229q69 78 97 151t28 169v24h-168z" />
<glyph unicode="&#xa4;" horiz-adv-x="1212" d="M68 276l122 138q-67 118 -67 270q0 156 67 272l-120 136l202 182l119 -133q98 45 219 45q120 0 213 -43l115 131l205 -182l-117 -129q68 -123 68 -277q0 -157 -70 -278l119 -132l-205 -180l-119 131q-93 -41 -213 -41t-213 43l-121 -133zM389 686q0 -131 55.5 -204.5 t165.5 -73.5t165.5 73.5t55.5 204.5q0 130 -56 204.5t-165 74.5t-165 -74.5t-56 -204.5z" />
<glyph unicode="&#xa5;" horiz-adv-x="1212" d="M25 1415h344l243 -559l244 559h334l-330 -659h240v-166h-328v-148h328v-166h-328v-276h-330v276h-325v166h325v148h-325v166h239z" />
<glyph unicode="&#xa6;" horiz-adv-x="581" d="M131 -254v719h320v-719h-320zM131 807v696h320v-696h-320z" />
<glyph unicode="&#xa7;" horiz-adv-x="1169" d="M72 141h319q15 -82 64.5 -116.5t146.5 -34.5q170 0 170 119q0 48 -30 79t-107 52l-162 39q-201 50 -292 126t-91 220q0 185 158 266q-154 79 -154 258q0 164 131.5 257t358.5 93q208 0 338.5 -85.5t162.5 -250.5l-311 -35q-20 76 -62.5 111t-129.5 35t-129.5 -32 t-42.5 -89q0 -45 31 -76.5t104 -50.5l143 -35q73 -18 125.5 -35t108 -46t90 -63.5t56.5 -86t22 -115.5q0 -179 -162 -270q164 -83 164 -273q0 -177 -126.5 -263.5t-357.5 -86.5q-241 0 -380 94.5t-156 294.5zM369 649q0 -52 32 -86.5t109 -56.5l82 -21q33 -8 63 -8 q65 0 108.5 39t43.5 100q0 53 -32 87.5t-109 54.5l-91 22q-42 11 -59 11q-68 0 -107.5 -39t-39.5 -103z" />
<glyph unicode="&#xa8;" horiz-adv-x="1236" d="M543 1386q0 72 47 120t137 48t137 -48t47 -120q0 -75 -46.5 -122t-137.5 -47t-137.5 47t-46.5 122zM1024 1386q0 72 47 120t137 48t137.5 -48t47.5 -120q0 -75 -47 -122t-138 -47t-137.5 47t-46.5 122z" />
<glyph unicode="&#xa9;" horiz-adv-x="1595" d="M72 731q0 160 57 297.5t154.5 232t230.5 148t283 53.5q155 0 289.5 -53.5t230 -148.5t150.5 -232t55 -297q0 -213 -96.5 -381t-261.5 -259t-367 -91q-208 0 -372.5 91t-258.5 258.5t-94 381.5zM256 731q0 -251 151 -408t390 -157q238 0 389 157t151 408 q0 254 -151.5 409.5t-388.5 155.5q-238 0 -389.5 -155t-151.5 -410zM401 725q0 190 112.5 303t295.5 113q153 0 251 -75.5t118 -211.5l-226 -27q-9 51 -49 80t-96 29q-78 0 -123 -55t-45 -148q0 -96 46.5 -151.5t125.5 -55.5q59 0 101 28.5t51 82.5h225 q-12 -146 -115 -229.5t-266 -83.5q-187 0 -296.5 106.5t-109.5 294.5z" />
<glyph unicode="&#xaa;" horiz-adv-x="892" d="M57 903q0 133 87.5 193t265.5 63l151 4v43q0 61 -25.5 89t-84.5 28q-100 0 -119 -82l-230 19q43 239 357 239q180 0 263 -79t83 -240v-490h-236v80q-94 -100 -237 -100q-124 0 -199.5 61.5t-75.5 171.5zM303 926q0 -84 96 -84q82 0 129 53q33 41 33 92v29l-133 -2 q-125 -3 -125 -88z" />
<glyph unicode="&#xab;" horiz-adv-x="1249" d="M66 524l256 467h340l-226 -465l226 -467h-343zM592 524l256 467h340l-225 -465l225 -467h-342z" />
<glyph unicode="&#xac;" horiz-adv-x="1212" d="M129 623v290h915v-600h-301v310h-614z" />
<glyph unicode="&#xad;" horiz-adv-x="843" d="M82 457v305h680v-305h-680z" />
<glyph unicode="&#xae;" horiz-adv-x="1019" d="M63 1047q0 203 124.5 327.5t322.5 124.5q200 0 322 -123.5t122 -328.5q0 -203 -123 -329t-321 -126q-201 0 -324 125.5t-123 329.5zM190 1047q0 -160 85 -250t233 -90q150 0 235.5 90t85.5 250q0 159 -86 249t-235 90t-233.5 -89.5t-84.5 -249.5zM332 834v434h186 q180 0 180 -144q0 -86 -61 -120l84 -170h-139l-64 139h-59v-139h-127zM459 1071h49q36 0 49.5 12.5t13.5 36.5q0 47 -67 47h-45v-96z" />
<glyph unicode="&#xaf;" horiz-adv-x="1236" d="M655 1247v223h625v-223h-625z" />
<glyph unicode="&#xb0;" horiz-adv-x="763" d="M53 1130q0 140 94 233t236 93t235 -92.5t93 -233.5t-93 -233t-235 -92q-143 0 -236.5 92t-93.5 233zM264 1130q0 -55 33 -88.5t86 -33.5q51 0 83 33.5t32 88.5t-32 89t-83 34q-53 0 -86 -34t-33 -89z" />
<glyph unicode="&#xb1;" horiz-adv-x="1212" d="M113 657v267h340v293h307v-293h342v-267h-342v-295h-307v295h-340zM147 0v262h920v-262h-920z" />
<glyph unicode="&#xb2;" horiz-adv-x="843" d="M92 1395q26 137 114.5 207.5t231.5 70.5t226.5 -70.5t83.5 -193.5q0 -89 -45.5 -160t-151.5 -157q-44 -36 -94 -72h293v-201h-641v178q51 37 131.5 101t87.5 69q102 80 139 125.5t37 102.5q0 80 -78 80q-83 0 -104 -103z" />
<glyph unicode="&#xb3;" horiz-adv-x="843" d="M76 1096h229q9 -119 113 -119q102 0 102 94q0 86 -98 86h-68v172h66q41 0 63.5 21t22.5 61q0 80 -88 80q-45 0 -70.5 -23t-36.5 -73l-225 22q14 118 101 187t241 69q152 0 237 -64t85 -173q0 -116 -97 -176q115 -59 115 -199q0 -123 -89.5 -194.5t-252.5 -71.5 q-164 0 -255 77t-95 224z" />
<glyph unicode="&#xb4;" horiz-adv-x="1236" d="M705 1200l249 336h367l-320 -336h-296z" />
<glyph unicode="&#xb5;" horiz-adv-x="1271" d="M117 -395v1468h334v-663q0 -86 44 -126t115 -40q104 0 164 63q47 47 47 127v639h334v-1073h-326v113q-51 -63 -118.5 -95t-137.5 -32q-72 0 -124 37v-418h-332z" />
<glyph unicode="&#xb6;" horiz-adv-x="1398" d="M35 975q0 243 154.5 365t447.5 122h629v-1747h-297v1489h-172v-1489h-299v789q-219 22 -341 144t-122 327z" />
<glyph unicode="&#xb7;" horiz-adv-x="536" d="M90 1130q0 82 48 130.5t130 48.5t130 -48.5t48 -130.5t-48 -130t-130 -48t-130 48t-48 130z" />
<glyph unicode="&#xb8;" horiz-adv-x="1236" d="M750 -285q79 -8 129 -8q98 0 98 49q0 18 -11 29.5t-32.5 15.5t-36.5 5t-41 1h-59l82 211l159 -14l-34 -96q102 -15 150 -58.5t48 -117.5q0 -183 -293 -183q-67 0 -159 15v151z" />
<glyph unicode="&#xb9;" horiz-adv-x="843" d="M94 1473l289 176h233v-830h-249v576l-166 -101z" />
<glyph unicode="&#xba;" horiz-adv-x="909" d="M41 1073q0 201 109.5 313.5t304.5 112.5q197 0 305 -112t108 -312t-109 -313t-306 -113q-195 0 -303.5 112t-108.5 312zM305 1073q0 -209 150 -209q147 0 147 209q0 211 -147 211q-150 0 -150 -211z" />
<glyph unicode="&#xbb;" horiz-adv-x="1247" d="M61 59l224 465l-224 467h340l254 -465l-256 -467h-338zM627 59l223 465l-223 467h340l254 -465l-256 -467h-338z" />
<glyph unicode="&#xbc;" horiz-adv-x="1941" d="M94 1188l289 176h233v-829h-249v575l-166 -100zM485 0l662 1415h309l-661 -1415h-310zM1161 160v172l367 497h252v-489h102l-20 -180h-82v-160h-236v160h-383zM1376 340h168v231z" />
<glyph unicode="&#xbd;" horiz-adv-x="1941" d="M94 1188l289 176h233v-829h-249v575l-166 -100zM485 0l662 1415h309l-661 -1415h-310zM1190 575q26 137 114.5 208t231.5 71t226 -70.5t83 -193.5q0 -89 -45.5 -161t-150.5 -157q-22 -18 -95 -71h293v-201h-641v178q51 37 131.5 101t87.5 69q103 81 140 125.5t37 101.5 q0 80 -78 80q-84 0 -105 -102z" />
<glyph unicode="&#xbe;" horiz-adv-x="1941" d="M76 811h229q9 -119 113 -119q102 0 102 94q0 86 -98 86h-68v172h66q41 0 63.5 21t22.5 61q0 80 -88 80q-45 0 -70.5 -23t-36.5 -73l-225 23q14 118 101 187t241 69q152 0 237 -64.5t85 -173.5q0 -116 -97 -176q115 -59 115 -199q0 -123 -89.5 -194.5t-252.5 -71.5 q-164 0 -255 77t-95 224zM485 0l662 1415h309l-661 -1415h-310zM1161 160v172l367 497h252v-489h102l-20 -180h-82v-160h-236v160h-383zM1376 340h168v231z" />
<glyph unicode="&#xbf;" horiz-adv-x="1091" d="M55 -33q0 106 46 190.5t141 170.5q89 79 124 135.5t35 132.5v22h299v-34q0 -75 -14 -127q-15 -52 -56 -107t-120 -131q-65 -65 -91 -106t-26 -97q0 -75 40.5 -115t115.5 -40q87 0 133.5 44t65.5 140l309 -31q-26 -202 -158.5 -316t-368.5 -114q-224 0 -349.5 102.5 t-125.5 280.5zM373 913q0 82 48 130.5t130 48.5t130 -48.5t48 -130.5t-48 -130t-130 -48t-130 48t-48 130z" />
<glyph unicode="&#xc0;" horiz-adv-x="1513" d="M33 0l514 1462h424l508 -1462h-363l-98 305h-533l-98 -305h-354zM324 1896h387l252 -315h-316zM569 588h365l-182 573z" />
<glyph unicode="&#xc1;" horiz-adv-x="1513" d="M33 0l514 1462h424l508 -1462h-363l-98 305h-533l-98 -305h-354zM553 1581l252 315h387l-324 -315h-315zM569 588h365l-182 573z" />
<glyph unicode="&#xc2;" horiz-adv-x="1513" d="M33 0l514 1462h424l508 -1462h-363l-98 305h-533l-98 -305h-354zM358 1604l246 335h307l246 -335h-268l-131 172l-133 -172h-267zM569 588h365l-182 573z" />
<glyph unicode="&#xc3;" horiz-adv-x="1513" d="M33 0l514 1462h424l508 -1462h-363l-98 305h-533l-98 -305h-354zM358 1583q0 320 226 320q54 0 99 -16t105 -58q2 -1 13 -8.5t14 -9.5t13 -8t14.5 -8.5t12.5 -6.5t13.5 -5.5t12 -3t12.5 -1.5q32 0 43.5 30.5t11.5 87.5h207q0 -319 -225 -319q-52 0 -95.5 16.5 t-109.5 57.5q-74 53 -104 53q-19 0 -31 -10.5t-17 -31t-6.5 -37.5t-1.5 -42h-207zM569 588h365l-182 573z" />
<glyph unicode="&#xc4;" horiz-adv-x="1513" d="M33 0l514 1462h424l508 -1462h-363l-98 305h-533l-98 -305h-354zM332 1790q0 72 47 120t137 48t137 -48t47 -120q0 -75 -46.5 -122.5t-137.5 -47.5t-137.5 47.5t-46.5 122.5zM569 588h365l-182 573zM813 1790q0 72 47 120t137 48t137.5 -48t47.5 -120q0 -75 -47 -122.5 t-138 -47.5t-137.5 47.5t-46.5 122.5z" />
<glyph unicode="&#xc5;" horiz-adv-x="1513" d="M33 0l514 1462h424l508 -1462h-363l-98 305h-533l-98 -305h-354zM508 1825q0 111 69.5 177t178.5 66t179.5 -66t70.5 -177q0 -110 -70 -175t-180 -65q-109 0 -178.5 65t-69.5 175zM569 588h365l-182 573zM672 1825q0 -86 84 -86q40 0 63 22.5t23 63.5q0 44 -23 67t-63 23 q-84 0 -84 -90z" />
<glyph unicode="&#xc6;" horiz-adv-x="2199" d="M29 0l821 1462h1251v-280h-633v-297h592v-281h-592v-323h656v-281h-989v410h-519l-221 -410h-366zM760 692h375v490h-113z" />
<glyph unicode="&#xc7;" horiz-adv-x="1536" d="M92 721q0 358 193 568t526 210q271 0 446 -145.5t201 -405.5l-352 -41q-24 128 -100 207.5t-205 79.5q-159 0 -247.5 -115.5t-88.5 -345.5q0 -222 91.5 -343.5t254.5 -121.5q136 0 213.5 67.5t91.5 192.5h354q-12 -253 -187.5 -407.5t-467.5 -157.5l-20 -55 q102 -15 150 -58.5t48 -117.5q0 -183 -293 -183q-68 0 -159 15v151q79 -8 129 -8q98 0 98 49q0 18 -11 29.5t-32.5 15.5t-36.5 5t-41 1h-59l65 168q-264 44 -412.5 242t-148.5 504z" />
<glyph unicode="&#xc8;" horiz-adv-x="1267" d="M139 0v1462h1030v-280h-682v-297h641v-281h-641v-323h707v-281h-1055zM201 1896h387l252 -315h-316z" />
<glyph unicode="&#xc9;" horiz-adv-x="1267" d="M139 0v1462h1030v-280h-682v-297h641v-281h-641v-323h707v-281h-1055zM430 1581l252 315h387l-324 -315h-315z" />
<glyph unicode="&#xca;" horiz-adv-x="1267" d="M139 0v1462h1030v-280h-682v-297h641v-281h-641v-323h707v-281h-1055zM236 1604l245 335h307l246 -335h-268l-131 172l-133 -172h-266z" />
<glyph unicode="&#xcb;" horiz-adv-x="1267" d="M139 0v1462h1030v-280h-682v-297h641v-281h-641v-323h707v-281h-1055zM209 1790q0 72 47 120t137 48t137.5 -48t47.5 -120q0 -75 -47 -122.5t-138 -47.5t-137.5 47.5t-46.5 122.5zM690 1790q0 72 47 120t137 48t137.5 -48t47.5 -120q0 -75 -47 -122.5t-138 -47.5 t-137.5 47.5t-46.5 122.5z" />
<glyph unicode="&#xcc;" horiz-adv-x="630" d="M-119 1896h387l252 -315h-315zM139 0v1462h355v-1462h-355z" />
<glyph unicode="&#xcd;" horiz-adv-x="630" d="M111 1581l251 315h388l-324 -315h-315zM139 0v1462h355v-1462h-355z" />
<glyph unicode="&#xce;" horiz-adv-x="630" d="M-84 1604l246 335h307l246 -335h-269l-131 172l-133 -172h-266zM139 0v1462h355v-1462h-355z" />
<glyph unicode="&#xcf;" horiz-adv-x="630" d="M-111 1790q0 72 47.5 120t137.5 48t137 -48t47 -120q0 -75 -46.5 -122.5t-137.5 -47.5t-138 47.5t-47 122.5zM139 0v1462h355v-1462h-355zM371 1790q0 72 47 120t137 48t137 -48t47 -120q0 -75 -46.5 -122.5t-137.5 -47.5t-137.5 47.5t-46.5 122.5z" />
<glyph unicode="&#xd0;" horiz-adv-x="1572" d="M20 600v281h166v581h514q378 0 578.5 -183t200.5 -538q0 -361 -208 -551t-589 -190h-496v600h-166zM535 299h161q211 0 316.5 111.5t105.5 324.5t-100 320.5t-307 107.5h-176v-282h260v-281h-260v-301z" />
<glyph unicode="&#xd1;" horiz-adv-x="1544" d="M137 0v1462h314l622 -913v913h334v-1462h-309l-629 915v-915h-332zM373 1583q0 320 225 320q54 0 99.5 -16t105.5 -58q3 -2 14.5 -9.5t16 -10.5t15 -9.5t16 -9t14 -6t15.5 -5t13 -1.5q33 0 44.5 30.5t11.5 87.5h206q0 -319 -225 -319q-52 0 -95.5 16.5t-109.5 57.5 q-74 53 -104 53q-19 0 -31 -10.5t-16.5 -31t-6 -37t-1.5 -42.5h-207z" />
<glyph unicode="&#xd2;" horiz-adv-x="1650" d="M94 727q0 355 197 563.5t538 208.5q335 0 531 -202t196 -560q0 -363 -198.5 -568.5t-536.5 -205.5t-532.5 203t-194.5 561zM391 1896h387l252 -315h-315zM461 731q0 -223 94.5 -343t269.5 -120q174 0 269.5 120.5t95.5 342.5q0 224 -95.5 343.5t-269.5 119.5t-269 -120.5 t-95 -342.5z" />
<glyph unicode="&#xd3;" horiz-adv-x="1650" d="M94 727q0 355 197 563.5t538 208.5q335 0 531 -202t196 -560q0 -363 -198.5 -568.5t-536.5 -205.5t-532.5 203t-194.5 561zM461 731q0 -223 94.5 -343t269.5 -120q174 0 269.5 120.5t95.5 342.5q0 224 -95.5 343.5t-269.5 119.5t-269 -120.5t-95 -342.5zM621 1581 l251 315h388l-324 -315h-315z" />
<glyph unicode="&#xd4;" horiz-adv-x="1650" d="M94 727q0 355 197 563.5t538 208.5q335 0 531 -202t196 -560q0 -363 -198.5 -568.5t-536.5 -205.5t-532.5 203t-194.5 561zM426 1604l246 335h307l246 -335h-269l-131 172l-133 -172h-266zM461 731q0 -223 94.5 -343t269.5 -120q174 0 269.5 120.5t95.5 342.5 q0 224 -95.5 343.5t-269.5 119.5t-269 -120.5t-95 -342.5z" />
<glyph unicode="&#xd5;" horiz-adv-x="1650" d="M94 727q0 355 197 563.5t538 208.5q335 0 531 -202t196 -560q0 -363 -198.5 -568.5t-536.5 -205.5t-532.5 203t-194.5 561zM426 1583q0 320 225 320q54 0 99.5 -16t105.5 -58q2 -1 13 -8.5t14 -9.5t13 -8t14.5 -8.5t12.5 -6.5t13.5 -5.5t12 -3t12.5 -1.5q32 0 43.5 30.5 t11.5 87.5h207q0 -319 -226 -319q-52 0 -95 16t-109 58q-74 53 -105 53q-19 0 -31 -10.5t-16.5 -31t-6 -37t-1.5 -42.5h-207zM461 731q0 -223 94.5 -343t269.5 -120q174 0 269.5 120.5t95.5 342.5q0 224 -95.5 343.5t-269.5 119.5t-269 -120.5t-95 -342.5z" />
<glyph unicode="&#xd6;" horiz-adv-x="1650" d="M94 727q0 355 197 563.5t538 208.5q335 0 531 -202t196 -560q0 -363 -198.5 -568.5t-536.5 -205.5t-532.5 203t-194.5 561zM399 1790q0 72 47.5 120t137.5 48t137 -48t47 -120q0 -75 -46.5 -122.5t-137.5 -47.5t-138 47.5t-47 122.5zM461 731q0 -223 94.5 -343 t269.5 -120q174 0 269.5 120.5t95.5 342.5q0 224 -95.5 343.5t-269.5 119.5t-269 -120.5t-95 -342.5zM881 1790q0 72 47 120t137 48t137 -48t47 -120q0 -75 -46.5 -122.5t-137.5 -47.5t-137.5 47.5t-46.5 122.5z" />
<glyph unicode="&#xd7;" horiz-adv-x="1212" d="M129 422l277 274l-277 277l201 201l276 -275l277 275l200 -201l-276 -277l276 -274l-200 -203l-277 275l-276 -275z" />
<glyph unicode="&#xd8;" horiz-adv-x="1624" d="M94 727q0 355 197 563.5t538 208.5q202 0 357 -76l114 166l154 -104l-115 -168q105 -98 161 -245.5t56 -334.5q0 -363 -198.5 -568.5t-536.5 -205.5q-203 0 -358 76l-117 -168l-153 104l116 170q-215 206 -215 582zM461 731q0 -174 57 -282l483 704q-74 41 -176 41 q-174 0 -269 -120.5t-95 -342.5zM647 309q77 -41 178 -41q174 0 269.5 120.5t95.5 342.5q0 171 -57 285z" />
<glyph unicode="&#xd9;" horiz-adv-x="1490" d="M117 602v860h354v-887q0 -152 70 -229.5t204 -77.5t203.5 77.5t69.5 229.5v887h354v-862q0 -305 -166 -471t-465 -166t-461.5 165t-162.5 474zM311 1896h387l252 -315h-315z" />
<glyph unicode="&#xda;" horiz-adv-x="1490" d="M117 602v860h354v-887q0 -152 70 -229.5t204 -77.5t203.5 77.5t69.5 229.5v887h354v-862q0 -305 -166 -471t-465 -166t-461.5 165t-162.5 474zM541 1581l252 315h387l-324 -315h-315z" />
<glyph unicode="&#xdb;" horiz-adv-x="1490" d="M117 602v860h354v-887q0 -152 70 -229.5t204 -77.5t203.5 77.5t69.5 229.5v887h354v-862q0 -305 -166 -471t-465 -166t-461.5 165t-162.5 474zM346 1604l246 335h307l246 -335h-268l-132 172l-133 -172h-266z" />
<glyph unicode="&#xdc;" horiz-adv-x="1490" d="M117 602v860h354v-887q0 -152 70 -229.5t204 -77.5t203.5 77.5t69.5 229.5v887h354v-862q0 -305 -166 -471t-465 -166t-461.5 165t-162.5 474zM319 1790q0 72 47.5 120t137.5 48t137 -48t47 -120q0 -75 -46.5 -122.5t-137.5 -47.5t-138 47.5t-47 122.5zM801 1790 q0 72 47 120t137 48t137 -48t47 -120q0 -75 -46.5 -122.5t-137.5 -47.5t-137.5 47.5t-46.5 122.5z" />
<glyph unicode="&#xdd;" horiz-adv-x="1382" d="M23 1462h383l288 -604l295 604h369l-488 -895v-567h-356v569zM487 1581l252 315h387l-323 -315h-316z" />
<glyph unicode="&#xde;" horiz-adv-x="1323" d="M137 0v1462h342v-235h195q283 0 430 -116t147 -363q0 -252 -145 -373t-432 -121h-195v-254h-342zM479 535h197q136 0 193 50t57 158t-58 155.5t-194 47.5h-195v-411z" />
<glyph unicode="&#xdf;" horiz-adv-x="1280" d="M117 0v987q0 231 139.5 361.5t382.5 130.5q225 0 355 -105.5t130 -279.5q0 -105 -45 -182t-129 -119q123 -37 192.5 -135.5t69.5 -241.5q0 -198 -120 -316t-336 -118q-118 0 -219 32l36 244q63 -14 119 -14q95 0 144 47.5t49 138.5q0 191 -250 191h-74v249h57 q87 0 136 47.5t49 131.5q0 78 -44 124t-126 46q-91 0 -140 -51.5t-49 -151.5v-1016h-327z" />
<glyph unicode="&#xe0;" horiz-adv-x="1171" d="M59 299q0 336 482 346l204 4v58q0 89 -37.5 128t-121.5 39q-75 0 -117.5 -32.5t-50.5 -89.5l-299 41q15 152 139.5 232.5t337.5 80.5q241 0 354 -108t113 -326v-672h-307v115q-124 -142 -332 -142q-165 0 -265 87t-100 239zM166 1536h366l252 -336h-299zM373 322 q0 -57 35.5 -89t105.5 -32q108 0 169.5 57t61.5 156v47l-204 -6q-168 -3 -168 -133z" />
<glyph unicode="&#xe1;" horiz-adv-x="1171" d="M59 299q0 336 482 346l204 4v58q0 89 -37.5 128t-121.5 39q-75 0 -117.5 -32.5t-50.5 -89.5l-299 41q15 152 139.5 232.5t337.5 80.5q241 0 354 -108t113 -326v-672h-307v115q-124 -142 -332 -142q-165 0 -265 87t-100 239zM373 322q0 -57 35.5 -89t105.5 -32 q108 0 169.5 57t61.5 156v47l-204 -6q-168 -3 -168 -133zM391 1200l250 336h367l-320 -336h-297z" />
<glyph unicode="&#xe2;" horiz-adv-x="1171" d="M59 299q0 336 482 346l204 4v58q0 89 -37.5 128t-121.5 39q-75 0 -117.5 -32.5t-50.5 -89.5l-299 41q15 152 139.5 232.5t337.5 80.5q241 0 354 -108t113 -326v-672h-307v115q-124 -142 -332 -142q-165 0 -265 87t-100 239zM186 1200l246 336h307l246 -336h-268l-131 172 l-133 -172h-267zM373 322q0 -57 35.5 -89t105.5 -32q108 0 169.5 57t61.5 156v47l-204 -6q-168 -3 -168 -133z" />
<glyph unicode="&#xe3;" horiz-adv-x="1171" d="M59 299q0 336 482 346l204 4v58q0 89 -37.5 128t-121.5 39q-75 0 -117.5 -32.5t-50.5 -89.5l-299 41q15 152 139.5 232.5t337.5 80.5q241 0 354 -108t113 -326v-672h-307v115q-124 -142 -332 -142q-165 0 -265 87t-100 239zM195 1208q0 164 57 248t168 84q52 0 94 -18 t98 -64q3 -2 17 -13t21 -15.5t19.5 -12t23 -11t20.5 -3.5q63 0 63 129h201q0 -163 -57.5 -247.5t-167.5 -84.5q-53 0 -95.5 18.5t-97.5 63.5q-21 18 -31.5 26t-31 18.5t-37.5 10.5q-64 0 -64 -129h-200zM373 322q0 -57 35.5 -89t105.5 -32q108 0 169.5 57t61.5 156v47 l-204 -6q-168 -3 -168 -133z" />
<glyph unicode="&#xe4;" horiz-adv-x="1171" d="M59 299q0 336 482 346l204 4v58q0 89 -37.5 128t-121.5 39q-75 0 -117.5 -32.5t-50.5 -89.5l-299 41q15 152 139.5 232.5t337.5 80.5q241 0 354 -108t113 -326v-672h-307v115q-124 -142 -332 -142q-165 0 -265 87t-100 239zM160 1386q0 72 47 120t137 48t137 -48t47 -120 q0 -75 -46.5 -122t-137.5 -47t-137.5 47t-46.5 122zM373 322q0 -57 35.5 -89t105.5 -32q108 0 169.5 57t61.5 156v47l-204 -6q-168 -3 -168 -133zM641 1386q0 72 47 120t137 48t137.5 -48t47.5 -120q0 -75 -47 -122t-138 -47t-137.5 47t-46.5 122z" />
<glyph unicode="&#xe5;" horiz-adv-x="1171" d="M59 299q0 336 482 346l204 4v58q0 89 -37.5 128t-121.5 39q-75 0 -117.5 -32.5t-50.5 -89.5l-299 41q15 152 139.5 232.5t337.5 80.5q241 0 354 -108t113 -326v-672h-307v115q-124 -142 -332 -142q-165 0 -265 87t-100 239zM336 1421q0 111 69.5 177.5t178.5 66.5 t179.5 -66.5t70.5 -177.5q0 -110 -70 -174.5t-180 -64.5t-179 64.5t-69 174.5zM373 322q0 -57 35.5 -89t105.5 -32q108 0 169.5 57t61.5 156v47l-204 -6q-168 -3 -168 -133zM500 1421q0 -86 84 -86q40 0 63 22.5t23 63.5q0 44 -23 67t-63 23q-84 0 -84 -90z" />
<glyph unicode="&#xe6;" horiz-adv-x="1882" d="M59 297q0 354 516 354h179v51q0 172 -172 172q-74 0 -113 -28.5t-51 -87.5l-299 24q29 157 155.5 240.5t329.5 83.5q113 0 199.5 -38t128.5 -103q129 141 342 141q238 0 377 -146t139 -395v-102h-729q11 -118 67 -188t160 -70q149 0 180 127h312q-31 -175 -154 -270 t-330 -95q-292 0 -422 197q-125 -191 -421 -191q-184 0 -289 84.5t-105 239.5zM373 317q0 -116 143 -116q101 0 169.5 59t68.5 154v47l-164 -2q-52 -1 -88 -7t-67 -20.5t-46.5 -43t-15.5 -71.5zM1061 645h418q-12 227 -207 227q-101 0 -149.5 -56.5t-61.5 -170.5z" />
<glyph unicode="&#xe7;" horiz-adv-x="1208" d="M84 530q0 267 143.5 421.5t395.5 154.5q215 0 355 -103t157 -286l-316 -41q-22 160 -196 160q-101 0 -151 -77t-50 -220t55.5 -223t163.5 -80q79 0 128 44t60 123h318q-23 -204 -151.5 -318t-342.5 -118l-22 -59q102 -15 150 -58.5t48 -117.5q0 -183 -292 -183 q-69 0 -160 15v151q79 -8 129 -8q98 0 98 49q0 18 -11 29.5t-32.5 15.5t-36.5 5t-41 1h-59l68 175q-192 39 -300 182t-108 366z" />
<glyph unicode="&#xe8;" horiz-adv-x="1228" d="M92 524q0 275 143.5 428.5t391.5 153.5q244 0 377 -144t133 -397v-102h-723q21 -258 211 -258q85 0 129.5 31.5t62.5 95.5h309q-31 -177 -156 -271t-339 -94q-256 0 -397.5 150t-141.5 407zM195 1536h366l252 -336h-299zM416 645h409q-2 53 -11 90t-29.5 70t-59.5 50 t-96 17q-102 0 -151 -56.5t-62 -170.5z" />
<glyph unicode="&#xe9;" horiz-adv-x="1228" d="M92 524q0 275 143.5 428.5t391.5 153.5q244 0 377 -144t133 -397v-102h-723q21 -258 211 -258q85 0 129.5 31.5t62.5 95.5h309q-31 -177 -156 -271t-339 -94q-256 0 -397.5 150t-141.5 407zM416 645h409q-2 53 -11 90t-29.5 70t-59.5 50t-96 17q-102 0 -151 -56.5 t-62 -170.5zM420 1200l250 336h366l-319 -336h-297z" />
<glyph unicode="&#xea;" horiz-adv-x="1228" d="M92 524q0 275 143.5 428.5t391.5 153.5q244 0 377 -144t133 -397v-102h-723q21 -258 211 -258q85 0 129.5 31.5t62.5 95.5h309q-31 -177 -156 -271t-339 -94q-256 0 -397.5 150t-141.5 407zM215 1200l246 336h307l246 -336h-269l-131 172l-133 -172h-266zM416 645h409 q-2 53 -11 90t-29.5 70t-59.5 50t-96 17q-102 0 -151 -56.5t-62 -170.5z" />
<glyph unicode="&#xeb;" horiz-adv-x="1228" d="M92 524q0 275 143.5 428.5t391.5 153.5q244 0 377 -144t133 -397v-102h-723q21 -258 211 -258q85 0 129.5 31.5t62.5 95.5h309q-31 -177 -156 -271t-339 -94q-256 0 -397.5 150t-141.5 407zM188 1386q0 72 47.5 120t137.5 48t137 -48t47 -120q0 -75 -46.5 -122 t-137.5 -47t-138 47t-47 122zM416 645h409q-2 53 -11 90t-29.5 70t-59.5 50t-96 17q-102 0 -151 -56.5t-62 -170.5zM670 1386q0 72 47 120t137 48t137 -48t47 -120q0 -75 -46.5 -122t-137.5 -47t-137.5 47t-46.5 122z" />
<glyph unicode="&#xec;" horiz-adv-x="569" d="M-135 1536h366l252 -336h-299zM119 0v1073h334v-1073h-334z" />
<glyph unicode="&#xed;" horiz-adv-x="569" d="M90 1200l250 336h367l-320 -336h-297zM119 0v1073h334v-1073h-334z" />
<glyph unicode="&#xee;" horiz-adv-x="569" d="M-115 1200l246 336h307l246 -336h-268l-131 172l-133 -172h-267zM119 0v1073h334v-1073h-334z" />
<glyph unicode="&#xef;" horiz-adv-x="569" d="M-141 1386q0 72 47 120t137 48t137 -48t47 -120q0 -75 -46.5 -122t-137.5 -47t-137.5 47t-46.5 122zM119 0v1073h334v-1073h-334zM340 1386q0 72 47 120t137 48t137.5 -48t47.5 -120q0 -75 -47 -122t-138 -47t-137.5 47t-46.5 122z" />
<glyph unicode="&#xf0;" horiz-adv-x="1267" d="M84 469q0 101 30.5 192t88 163.5t149.5 115.5t205 43q179 0 287 -102q-44 216 -217 313l-146 -143l-98 100l100 100q-94 24 -213 33l43 240q206 -12 371 -74l143 143l97 -102l-107 -105q361 -213 361 -761q0 -110 -17.5 -204.5t-58.5 -179.5t-104.5 -144.5t-160.5 -94.5 t-221 -35q-249 0 -390.5 133.5t-141.5 368.5zM422 477q0 -119 54 -185.5t155 -66.5q108 0 158.5 71.5t50.5 186.5q0 123 -54 185.5t-159 62.5t-155 -72t-50 -182z" />
<glyph unicode="&#xf1;" horiz-adv-x="1257" d="M117 0v1073h325v-131q138 164 332 164q175 0 275 -101.5t100 -285.5v-719h-334v657q0 87 -42.5 129.5t-115.5 42.5q-100 0 -153 -65q-53 -56 -53 -135v-629h-334zM238 1208q0 164 57 248t168 84q52 0 94 -18t98 -64q3 -2 17 -13t21 -15.5t19.5 -12t23 -11t20.5 -3.5 q63 0 63 129h201q0 -163 -57.5 -247.5t-167.5 -84.5q-53 0 -95.5 18.5t-97.5 63.5q-21 18 -31.5 26t-31 18.5t-37.5 10.5q-64 0 -64 -129h-200z" />
<glyph unicode="&#xf2;" horiz-adv-x="1325" d="M84 532q0 267 160.5 420.5t421.5 153.5q263 0 419 -150t156 -415q0 -263 -159 -418.5t-425 -155.5q-263 0 -418 149t-155 416zM244 1536h366l252 -336h-299zM422 537q0 -141 63 -221t177 -80q113 0 176 79.5t63 221.5q0 143 -62 221t-177 78q-114 0 -177 -78.5 t-63 -220.5z" />
<glyph unicode="&#xf3;" horiz-adv-x="1325" d="M84 532q0 267 160.5 420.5t421.5 153.5q263 0 419 -150t156 -415q0 -263 -159 -418.5t-425 -155.5q-263 0 -418 149t-155 416zM422 537q0 -141 63 -221t177 -80q113 0 176 79.5t63 221.5q0 143 -62 221t-177 78q-114 0 -177 -78.5t-63 -220.5zM469 1200l250 336h366 l-319 -336h-297z" />
<glyph unicode="&#xf4;" horiz-adv-x="1325" d="M84 532q0 267 160.5 420.5t421.5 153.5q263 0 419 -150t156 -415q0 -263 -159 -418.5t-425 -155.5q-263 0 -418 149t-155 416zM264 1200l246 336h307l246 -336h-268l-131 172l-134 -172h-266zM422 537q0 -141 63 -221t177 -80q113 0 176 79.5t63 221.5q0 143 -62 221 t-177 78q-114 0 -177 -78.5t-63 -220.5z" />
<glyph unicode="&#xf5;" horiz-adv-x="1325" d="M84 532q0 267 160.5 420.5t421.5 153.5q263 0 419 -150t156 -415q0 -263 -159 -418.5t-425 -155.5q-263 0 -418 149t-155 416zM272 1208q0 164 57.5 248t168.5 84q52 0 94 -18t98 -64q3 -2 17 -13t21 -15.5t19.5 -12t23 -11t20.5 -3.5q63 0 63 129h201q0 -163 -58 -247.5 t-168 -84.5q-53 0 -95 18.5t-97 63.5q-21 18 -31.5 26t-31 18.5t-37.5 10.5q-64 0 -64 -129h-201zM422 537q0 -141 63 -221t177 -80q113 0 176 79.5t63 221.5q0 143 -62 221t-177 78q-114 0 -177 -78.5t-63 -220.5z" />
<glyph unicode="&#xf6;" horiz-adv-x="1325" d="M84 532q0 267 160.5 420.5t421.5 153.5q263 0 419 -150t156 -415q0 -263 -159 -418.5t-425 -155.5q-263 0 -418 149t-155 416zM238 1386q0 72 47 120t137 48t137 -48t47 -120q0 -75 -46.5 -122t-137.5 -47t-137.5 47t-46.5 122zM422 537q0 -141 63 -221t177 -80 q113 0 176 79.5t63 221.5q0 143 -62 221t-177 78q-114 0 -177 -78.5t-63 -220.5zM719 1386q0 72 47 120t137 48t137 -48t47 -120q0 -75 -46.5 -122t-137.5 -47t-137.5 47t-46.5 122z" />
<glyph unicode="&#xf7;" horiz-adv-x="1212" d="M121 551v293h971v-293h-971zM461 162v264h291v-264h-291zM461 969v264h291v-264h-291z" />
<glyph unicode="&#xf8;" horiz-adv-x="1325" d="M84 532q0 267 160.5 420.5t421.5 153.5q161 0 280 -55l109 143l139 -100l-107 -142q154 -151 154 -411q0 -263 -159 -418.5t-425 -155.5q-154 0 -268 51l-119 -157l-139 102l113 150q-160 151 -160 419zM422 537q0 -89 24 -154l322 430q-51 23 -106 23q-114 0 -177 -78.5 t-63 -220.5zM565 254q43 -18 97 -18q113 0 176 79.5t63 221.5q0 83 -20 139z" />
<glyph unicode="&#xf9;" horiz-adv-x="1230" d="M96 354v719h334v-661q0 -86 42.5 -127t117.5 -41q91 0 145 63q26 26 35.5 56.5t9.5 76.5v633h334v-1073h-326v131q-114 -164 -319 -164q-172 0 -272.5 102t-100.5 285zM197 1536h366l252 -336h-299z" />
<glyph unicode="&#xfa;" horiz-adv-x="1230" d="M96 354v719h334v-661q0 -86 42.5 -127t117.5 -41q91 0 145 63q26 26 35.5 56.5t9.5 76.5v633h334v-1073h-326v131q-114 -164 -319 -164q-172 0 -272.5 102t-100.5 285zM422 1200l250 336h366l-319 -336h-297z" />
<glyph unicode="&#xfb;" horiz-adv-x="1230" d="M96 354v719h334v-661q0 -86 42.5 -127t117.5 -41q91 0 145 63q26 26 35.5 56.5t9.5 76.5v633h334v-1073h-326v131q-114 -164 -319 -164q-172 0 -272.5 102t-100.5 285zM217 1200l246 336h307l246 -336h-268l-132 172l-133 -172h-266z" />
<glyph unicode="&#xfc;" horiz-adv-x="1230" d="M96 354v719h334v-661q0 -86 42.5 -127t117.5 -41q91 0 145 63q26 26 35.5 56.5t9.5 76.5v633h334v-1073h-326v131q-114 -164 -319 -164q-172 0 -272.5 102t-100.5 285zM190 1386q0 72 47.5 120t137.5 48t137 -48t47 -120q0 -75 -46.5 -122t-137.5 -47t-138 47t-47 122z M672 1386q0 72 47 120t137 48t137 -48t47 -120q0 -75 -46.5 -122t-137.5 -47t-137.5 47t-46.5 122z" />
<glyph unicode="&#xfd;" horiz-adv-x="1185" d="M18 1073h359l233 -653l211 653h346l-442 -1102l-147 -391h-310l191 502zM399 1200l250 336h367l-320 -336h-297z" />
<glyph unicode="&#xfe;" horiz-adv-x="1304" d="M117 -397v1859h334v-497q123 141 329 141q212 0 333.5 -146t121.5 -409q0 -270 -131.5 -427t-343.5 -157q-92 0 -174 35t-135 104v-503h-334zM451 516q0 -131 58 -205.5t163 -74.5q108 0 166.5 80.5t58.5 222.5q0 135 -57 216t-162 81q-106 0 -166.5 -77t-60.5 -198v-45z " />
<glyph unicode="&#xff;" horiz-adv-x="1185" d="M18 1073h359l233 -653l211 653h346l-442 -1102l-147 -391h-310l191 502zM168 1386q0 72 47 120t137 48t137.5 -48t47.5 -120q0 -75 -47 -122t-138 -47t-137.5 47t-46.5 122zM649 1386q0 72 47.5 120t137.5 48t137 -48t47 -120q0 -75 -46.5 -122t-137.5 -47t-138 47 t-47 122z" />
<glyph unicode="&#x100;" horiz-adv-x="1513" d="M33 0l514 1462h424l508 -1462h-363l-98 305h-533l-98 -305h-354zM444 1651v223h625v-223h-625zM569 588h365l-182 573z" />
<glyph unicode="&#x101;" horiz-adv-x="1171" d="M59 299q0 336 482 346l204 4v58q0 89 -37.5 128t-121.5 39q-75 0 -117.5 -32.5t-50.5 -89.5l-299 41q15 152 139.5 232.5t337.5 80.5q241 0 354 -108t113 -326v-672h-307v115q-124 -142 -332 -142q-165 0 -265 87t-100 239zM272 1247v223h625v-223h-625zM373 322 q0 -57 35.5 -89t105.5 -32q108 0 169.5 57t61.5 156v47l-204 -6q-168 -3 -168 -133z" />
<glyph unicode="&#x102;" horiz-adv-x="1513" d="M33 0l514 1462h424l508 -1462h-363l-98 305h-533l-98 -305h-354zM406 1937h233q0 -74 31.5 -110.5t87.5 -36.5q55 0 85.5 36.5t30.5 110.5h234q0 -161 -92.5 -248t-261.5 -87q-168 0 -258 86.5t-90 248.5zM569 588h365l-182 573z" />
<glyph unicode="&#x103;" horiz-adv-x="1171" d="M59 299q0 336 482 346l204 4v58q0 89 -37.5 128t-121.5 39q-75 0 -117.5 -32.5t-50.5 -89.5l-299 41q15 152 139.5 232.5t337.5 80.5q241 0 354 -108t113 -326v-672h-307v115q-124 -142 -332 -142q-165 0 -265 87t-100 239zM233 1534h234q0 -74 31.5 -111t87.5 -37 q54 0 85 37t31 111h234q0 -161 -92.5 -248.5t-261.5 -87.5q-168 0 -258.5 87t-90.5 249zM373 322q0 -57 35.5 -89t105.5 -32q108 0 169.5 57t61.5 156v47l-204 -6q-168 -3 -168 -133z" />
<glyph unicode="&#x104;" horiz-adv-x="1513" d="M33 0l514 1462h424l508 -1462h-136q-118 -78 -118 -143q0 -62 80 -62q17 0 57 4v-188q-54 -10 -125 -10q-143 0 -208.5 44.5t-65.5 137.5q0 63 34.5 115.5t114.5 111.5l-94 295h-533l-98 -305h-354zM569 588h365l-182 573z" />
<glyph unicode="&#x105;" horiz-adv-x="1171" d="M59 299q0 336 482 346l204 4v58q0 89 -37.5 128t-121.5 39q-75 0 -117.5 -32.5t-50.5 -89.5l-299 41q15 152 139.5 232.5t337.5 80.5q241 0 354 -108t113 -326v-672h-27q-118 -78 -118 -143q0 -62 79 -62q18 0 58 4v-188q-54 -10 -125 -10q-143 0 -209 44.5t-66 137.5 q0 60 32 110.5t104 106.5h-35v115q-124 -142 -332 -142q-165 0 -265 87t-100 239zM373 322q0 -57 35.5 -89t105.5 -32q108 0 169.5 57t61.5 156v47l-204 -6q-168 -3 -168 -133z" />
<glyph unicode="&#x106;" horiz-adv-x="1536" d="M92 721q0 358 193 568t526 210q271 0 446 -145.5t201 -405.5l-352 -41q-24 128 -100 207.5t-205 79.5q-159 0 -247.5 -115.5t-88.5 -345.5q0 -222 91.5 -343.5t254.5 -121.5q136 0 213.5 67.5t91.5 192.5h354q-12 -256 -190.5 -410.5t-476.5 -154.5q-329 0 -520 205 t-191 553zM563 1581l252 315h387l-323 -315h-316z" />
<glyph unicode="&#x107;" horiz-adv-x="1208" d="M84 530q0 267 143.5 421.5t395.5 154.5q215 0 355 -103t157 -286l-316 -41q-22 160 -196 160q-101 0 -151 -77t-50 -220t55.5 -223t163.5 -80q79 0 128 44t60 123h318q-23 -209 -157 -322.5t-357 -113.5q-253 0 -401 150t-148 413zM410 1200l249 336h367l-319 -336h-297z " />
<glyph unicode="&#x108;" horiz-adv-x="1536" d="M92 721q0 358 193 568t526 210q271 0 446 -145.5t201 -405.5l-352 -41q-24 128 -100 207.5t-205 79.5q-159 0 -247.5 -115.5t-88.5 -345.5q0 -222 91.5 -343.5t254.5 -121.5q136 0 213.5 67.5t91.5 192.5h354q-12 -256 -190.5 -410.5t-476.5 -154.5q-329 0 -520 205 t-191 553zM369 1604l245 335h308l245 -335h-268l-131 172l-133 -172h-266z" />
<glyph unicode="&#x109;" horiz-adv-x="1208" d="M84 530q0 267 143.5 421.5t395.5 154.5q215 0 355 -103t157 -286l-316 -41q-22 160 -196 160q-101 0 -151 -77t-50 -220t55.5 -223t163.5 -80q79 0 128 44t60 123h318q-23 -209 -157 -322.5t-357 -113.5q-253 0 -401 150t-148 413zM205 1200l246 336h307l246 -336h-269 l-131 172l-133 -172h-266z" />
<glyph unicode="&#x10a;" horiz-adv-x="1536" d="M92 721q0 358 193 568t526 210q271 0 446 -145.5t201 -405.5l-352 -41q-24 128 -100 207.5t-205 79.5q-159 0 -247.5 -115.5t-88.5 -345.5q0 -222 91.5 -343.5t254.5 -121.5q136 0 213.5 67.5t91.5 192.5h354q-12 -256 -190.5 -410.5t-476.5 -154.5q-329 0 -520 205 t-191 553zM565 1821q0 80 52 133t151 53t151 -53t52 -133q0 -81 -52 -134t-151 -53t-151 53t-52 134z" />
<glyph unicode="&#x10b;" horiz-adv-x="1208" d="M84 530q0 267 143.5 421.5t395.5 154.5q215 0 355 -103t157 -286l-316 -41q-22 160 -196 160q-101 0 -151 -77t-50 -220t55.5 -223t163.5 -80q79 0 128 44t60 123h318q-23 -209 -157 -322.5t-357 -113.5q-253 0 -401 150t-148 413zM401 1417q0 80 52 133.5t151 53.5 t151 -53.5t52 -133.5q0 -81 -52 -133.5t-151 -52.5t-151 52.5t-52 133.5z" />
<glyph unicode="&#x10c;" horiz-adv-x="1536" d="M92 721q0 358 193 568t526 210q271 0 446 -145.5t201 -405.5l-352 -41q-24 128 -100 207.5t-205 79.5q-159 0 -247.5 -115.5t-88.5 -345.5q0 -222 91.5 -343.5t254.5 -121.5q136 0 213.5 67.5t91.5 192.5h354q-12 -256 -190.5 -410.5t-476.5 -154.5q-329 0 -520 205 t-191 553zM369 1939h268l131 -172l133 172h266l-245 -335h-308z" />
<glyph unicode="&#x10d;" horiz-adv-x="1208" d="M84 530q0 267 143.5 421.5t395.5 154.5q215 0 355 -103t157 -286l-316 -41q-22 160 -196 160q-101 0 -151 -77t-50 -220t55.5 -223t163.5 -80q79 0 128 44t60 123h318q-23 -209 -157 -322.5t-357 -113.5q-253 0 -401 150t-148 413zM205 1536h268l131 -172l133 172h267 l-246 -336h-307z" />
<glyph unicode="&#x10e;" horiz-adv-x="1525" d="M139 0v1462h514q378 0 578.5 -183t200.5 -538q0 -361 -208 -551t-589 -190h-496zM365 1939h268l131 -172l133 172h266l-245 -335h-308zM487 299h162q211 0 316.5 111.5t105.5 324.5t-100 320.5t-307 107.5h-177v-864z" />
<glyph unicode="&#x10f;" horiz-adv-x="1421" d="M84 524q0 266 131 424t344 158q190 0 287 -100v456h334v-1462h-322v88q-105 -121 -299 -121q-210 0 -342.5 150.5t-132.5 406.5zM422 539q0 -138 54 -219.5t157 -81.5q102 0 158.5 74.5t56.5 199.5v47q0 136 -54.5 207.5t-154.5 71.5q-106 0 -161.5 -78t-55.5 -221z M1298 909l70 553h324l-136 -553h-258z" />
<glyph unicode="&#x110;" horiz-adv-x="1572" d="M20 600v281h166v581h514q378 0 578.5 -183t200.5 -538q0 -361 -208 -551t-589 -190h-496v600h-166zM535 299h161q211 0 316.5 111.5t105.5 324.5t-100 320.5t-307 107.5h-176v-282h260v-281h-260v-301z" />
<glyph unicode="&#x111;" horiz-adv-x="1286" d="M84 492q0 85 16 162.5t51.5 148t87 122t129 81.5t171.5 30q184 0 288 -135v242h-309v190h309v129h334v-129h133v-190h-133v-1143h-323v125q-121 -158 -320 -158q-205 0 -319.5 140.5t-114.5 384.5zM422 504q0 -121 51 -194.5t148 -73.5q95 0 150.5 67.5t55.5 175.5v39 q0 123 -51.5 189.5t-148.5 66.5q-107 0 -156 -76.5t-49 -193.5z" />
<glyph unicode="&#x112;" horiz-adv-x="1267" d="M139 0v1462h1030v-280h-682v-297h641v-281h-641v-323h707v-281h-1055zM322 1651v223h624v-223h-624z" />
<glyph unicode="&#x113;" horiz-adv-x="1228" d="M92 524q0 275 143.5 428.5t391.5 153.5q244 0 377 -144t133 -397v-102h-723q21 -258 211 -258q85 0 129.5 31.5t62.5 95.5h309q-31 -177 -156 -271t-339 -94q-256 0 -397.5 150t-141.5 407zM301 1247v223h625v-223h-625zM416 645h409q-2 53 -11 90t-29.5 70t-59.5 50 t-96 17q-102 0 -151 -56.5t-62 -170.5z" />
<glyph unicode="&#x114;" horiz-adv-x="1267" d="M139 0v1462h1030v-280h-682v-297h641v-281h-641v-323h707v-281h-1055zM283 1937h233q0 -74 31.5 -110.5t87.5 -36.5q55 0 86 36.5t31 110.5h233q0 -161 -92.5 -248t-261.5 -87q-168 0 -258 86.5t-90 248.5z" />
<glyph unicode="&#x115;" horiz-adv-x="1228" d="M92 524q0 275 143.5 428.5t391.5 153.5q244 0 377 -144t133 -397v-102h-723q21 -258 211 -258q85 0 129.5 31.5t62.5 95.5h309q-31 -177 -156 -271t-339 -94q-256 0 -397.5 150t-141.5 407zM262 1534h234q0 -74 31 -111t87 -37q55 0 86 37t31 111h234q0 -161 -93 -248.5 t-262 -87.5q-168 0 -258 87t-90 249zM416 645h409q-2 53 -11 90t-29.5 70t-59.5 50t-96 17q-102 0 -151 -56.5t-62 -170.5z" />
<glyph unicode="&#x116;" horiz-adv-x="1267" d="M139 0v1462h1030v-280h-682v-297h641v-281h-641v-323h707v-281h-1055zM432 1821q0 80 52 133t151 53t151 -53t52 -133q0 -81 -52 -134t-151 -53t-151 53t-52 134z" />
<glyph unicode="&#x117;" horiz-adv-x="1228" d="M92 524q0 275 143.5 428.5t391.5 153.5q244 0 377 -144t133 -397v-102h-723q21 -258 211 -258q85 0 129.5 31.5t62.5 95.5h309q-31 -177 -156 -271t-339 -94q-256 0 -397.5 150t-141.5 407zM412 1417q0 80 51.5 133.5t150.5 53.5t151 -53.5t52 -133.5q0 -81 -52 -133.5 t-151 -52.5t-150.5 52.5t-51.5 133.5zM416 645h409q-2 53 -11 90t-29.5 70t-59.5 50t-96 17q-102 0 -151 -56.5t-62 -170.5z" />
<glyph unicode="&#x118;" horiz-adv-x="1267" d="M139 0v1462h1030v-280h-682v-297h641v-281h-641v-323h707v-281h-72q-118 -78 -118 -143q0 -62 79 -62q18 0 58 4v-188q-54 -10 -125 -10q-143 0 -209 44.5t-66 137.5q0 60 32 110.5t104 106.5h-738z" />
<glyph unicode="&#x119;" horiz-adv-x="1228" d="M92 524q0 275 143.5 428.5t391.5 153.5q244 0 377 -144t133 -397v-102h-723q21 -258 211 -258q85 0 129.5 31.5t62.5 95.5h309q-51 -287 -333 -348q-95 -72 -95 -127q0 -62 80 -62q18 0 58 4v-188q-54 -10 -125 -10q-143 0 -209 44.5t-66 137.5q0 100 103 190 q-214 26 -330.5 172t-116.5 379zM416 645h409q-2 53 -11 90t-29.5 70t-59.5 50t-96 17q-102 0 -151 -56.5t-62 -170.5z" />
<glyph unicode="&#x11a;" horiz-adv-x="1267" d="M139 0v1462h1030v-280h-682v-297h641v-281h-641v-323h707v-281h-1055zM236 1939h268l131 -172l133 172h266l-246 -335h-307z" />
<glyph unicode="&#x11b;" horiz-adv-x="1228" d="M92 524q0 275 143.5 428.5t391.5 153.5q244 0 377 -144t133 -397v-102h-723q21 -258 211 -258q85 0 129.5 31.5t62.5 95.5h309q-31 -177 -156 -271t-339 -94q-256 0 -397.5 150t-141.5 407zM215 1536h268l131 -172l134 172h266l-246 -336h-307zM416 645h409q-2 53 -11 90 t-29.5 70t-59.5 50t-96 17q-102 0 -151 -56.5t-62 -170.5z" />
<glyph unicode="&#x11c;" horiz-adv-x="1576" d="M86 725q0 357 194 565.5t523 208.5q281 0 452.5 -126t202.5 -353l-352 -41q-38 221 -303 221q-174 0 -263 -123.5t-89 -341.5q0 -238 97 -355.5t269 -117.5q138 0 219.5 74.5t93.5 200.5h-286v278h635v-188q0 -162 -50.5 -289.5t-140.5 -209t-211.5 -123.5t-267.5 -42 q-335 0 -529 198.5t-194 563.5zM389 1604l246 335h307l246 -335h-268l-132 172l-133 -172h-266z" />
<glyph unicode="&#x11d;" horiz-adv-x="1284" d="M84 567q0 247 125.5 393t331.5 146q90 0 170 -37.5t133 -107.5v112h323v-954q0 -539 -549 -539q-471 0 -505 369h321q14 -68 56 -98.5t126 -30.5q114 0 166 60.5t52 197.5v94q-47 -60 -122 -94.5t-167 -34.5q-213 0 -337 139.5t-124 384.5zM244 1200l245 336h308 l245 -336h-268l-131 172l-133 -172h-266zM422 575q0 -120 53.5 -190t153.5 -70q103 0 154 65t51 179v29q0 115 -50 182.5t-149 67.5q-97 0 -155 -66.5t-58 -196.5z" />
<glyph unicode="&#x11e;" horiz-adv-x="1576" d="M86 725q0 357 194 565.5t523 208.5q281 0 452.5 -126t202.5 -353l-352 -41q-38 221 -303 221q-174 0 -263 -123.5t-89 -341.5q0 -238 97 -355.5t269 -117.5q138 0 219.5 74.5t93.5 200.5h-286v278h635v-188q0 -162 -50.5 -289.5t-140.5 -209t-211.5 -123.5t-267.5 -42 q-335 0 -529 198.5t-194 563.5zM436 1937h234q0 -74 31 -110.5t87 -36.5q55 0 86 36.5t31 110.5h234q0 -161 -93 -248t-262 -87q-168 0 -258 86.5t-90 248.5z" />
<glyph unicode="&#x11f;" horiz-adv-x="1284" d="M84 567q0 247 125.5 393t331.5 146q90 0 170 -37.5t133 -107.5v112h323v-954q0 -539 -549 -539q-471 0 -505 369h321q14 -68 56 -98.5t126 -30.5q114 0 166 60.5t52 197.5v94q-47 -60 -122 -94.5t-167 -34.5q-213 0 -337 139.5t-124 384.5zM291 1534h233q0 -74 31.5 -111 t87.5 -37q55 0 86 37t31 111h233q0 -161 -92.5 -248.5t-261.5 -87.5q-168 0 -258 87t-90 249zM422 575q0 -120 53.5 -190t153.5 -70q103 0 154 65t51 179v29q0 115 -50 182.5t-149 67.5q-97 0 -155 -66.5t-58 -196.5z" />
<glyph unicode="&#x120;" horiz-adv-x="1576" d="M86 725q0 357 194 565.5t523 208.5q281 0 452.5 -126t202.5 -353l-352 -41q-38 221 -303 221q-174 0 -263 -123.5t-89 -341.5q0 -238 97 -355.5t269 -117.5q138 0 219.5 74.5t93.5 200.5h-286v278h635v-188q0 -162 -50.5 -289.5t-140.5 -209t-211.5 -123.5t-267.5 -42 q-335 0 -529 198.5t-194 563.5zM586 1821q0 80 51.5 133t150.5 53t151 -53t52 -133q0 -81 -52 -134t-151 -53t-150.5 52.5t-51.5 134.5z" />
<glyph unicode="&#x121;" horiz-adv-x="1284" d="M84 567q0 247 125.5 393t331.5 146q90 0 170 -37.5t133 -107.5v112h323v-954q0 -539 -549 -539q-471 0 -505 369h321q14 -68 56 -98.5t126 -30.5q114 0 166 60.5t52 197.5v94q-47 -60 -122 -94.5t-167 -34.5q-213 0 -337 139.5t-124 384.5zM422 575q0 -120 53.5 -190 t153.5 -70q103 0 154 65t51 179v29q0 115 -50 182.5t-149 67.5q-97 0 -155 -66.5t-58 -196.5zM440 1417q0 80 52 133.5t151 53.5t151 -53.5t52 -133.5q0 -81 -52 -133.5t-151 -52.5t-151 52.5t-52 133.5z" />
<glyph unicode="&#x122;" horiz-adv-x="1531" d="M86 725q0 357 194 565.5t523 208.5q281 0 452.5 -126t202.5 -353l-352 -41q-38 221 -303 221q-174 0 -263 -123.5t-89 -341.5q0 -238 97 -355.5t269 -117.5q138 0 219.5 74.5t93.5 200.5h-286v278h635v-188q0 -162 -50.5 -289.5t-140.5 -209t-211.5 -123.5t-267.5 -42 q-335 0 -529 198.5t-194 563.5zM479 -487l174 352h361l-240 -352h-295z" />
<glyph unicode="&#x123;" horiz-adv-x="1275" d="M84 567q0 247 125.5 393t331.5 146q90 0 170 -37.5t133 -107.5v112h323v-954q0 -539 -549 -539q-471 0 -505 369h321q14 -68 56 -98.5t126 -30.5q114 0 166 60.5t52 197.5v94q-47 -60 -122 -94.5t-167 -34.5q-213 0 -337 139.5t-124 384.5zM422 575q0 -120 53.5 -190 t153.5 -70q103 0 154 65t51 179v29q0 115 -50 182.5t-149 67.5q-97 0 -155 -66.5t-58 -196.5zM821 1200l234 336h297l-166 -336h-365z" />
<glyph unicode="&#x124;" horiz-adv-x="1556" d="M139 0v1462h355v-549h569v549h354v-1462h-354v596h-569v-596h-355zM379 1604l246 335h307l246 -335h-269l-131 172l-133 -172h-266z" />
<glyph unicode="&#x125;" horiz-adv-x="1277" d="M-115 1604l246 335h307l246 -335h-268l-131 172l-133 -172h-267zM117 0v1462h334v-473q126 117 323 117q177 0 286 -103t109 -284v-719h-333v657q0 85 -51.5 128.5t-127.5 43.5q-100 0 -153 -65q-53 -56 -53 -135v-629h-334z" />
<glyph unicode="&#x126;" horiz-adv-x="1611" d="M20 1057v231h166v174h355v-174h530v174h354v-174h166v-231h-166v-1057h-354v547h-530v-547h-355v1057h-166zM541 852h530v205h-530v-205z" />
<glyph unicode="&#x127;" horiz-adv-x="1245" d="M-8 1143v190h135v129h334v-129h309v-190h-309v-260q130 153 321 153q176 0 266.5 -99.5t90.5 -285.5v-651h-334v588q0 91 -34.5 131.5t-104.5 40.5q-96 0 -154 -64q-51 -54 -51 -137v-559h-334v1143h-135z" />
<glyph unicode="&#x128;" horiz-adv-x="630" d="M-84 1583q0 320 225 320q54 0 99.5 -16t105.5 -58q2 -1 13 -8.5t14 -9.5t13 -8t14.5 -8.5t12.5 -6.5t13.5 -5.5t12 -3t12.5 -1.5q32 0 43.5 30.5t11.5 87.5h207q0 -319 -226 -319q-52 0 -95 16t-109 58q-74 53 -105 53q-19 0 -31 -10.5t-16.5 -31t-6 -37t-1.5 -42.5h-207 zM139 0v1462h355v-1462h-355z" />
<glyph unicode="&#x129;" horiz-adv-x="569" d="M-106 1208q0 164 57 248t168 84q52 0 94 -18t98 -64q3 -2 17 -13t21 -15.5t19.5 -12t23 -11t20.5 -3.5q63 0 63 129h201q0 -163 -57.5 -247.5t-167.5 -84.5q-53 0 -95.5 18.5t-97.5 63.5q-21 18 -31.5 26t-31 18.5t-37.5 10.5q-64 0 -64 -129h-200zM119 0v1073h334v-1073 h-334z" />
<glyph unicode="&#x12a;" horiz-adv-x="630" d="M2 1651v223h625v-223h-625zM139 0v1462h355v-1462h-355z" />
<glyph unicode="&#x12b;" horiz-adv-x="569" d="M109 1247v223h624v-223h-624zM119 0v1073h334v-1073h-334z" />
<glyph unicode="&#x12c;" horiz-adv-x="630" d="M-37 1937h234q0 -74 31 -110.5t87 -36.5q55 0 86 36.5t31 110.5h234q0 -161 -93 -248t-262 -87q-168 0 -258 86.5t-90 248.5zM139 0v1462h355v-1462h-355z" />
<glyph unicode="&#x12d;" horiz-adv-x="569" d="M-68 1534h234q0 -74 31.5 -111t87.5 -37q54 0 85 37t31 111h234q0 -161 -92.5 -248.5t-261.5 -87.5q-168 0 -258.5 87t-90.5 249zM119 0v1073h334v-1073h-334z" />
<glyph unicode="&#x12e;" horiz-adv-x="630" d="M139 0v1462h355v-1448l73 -2q-56 -35 -96.5 -76t-40.5 -79q0 -62 80 -62q17 0 57 4v-188q-54 -10 -125 -10q-143 0 -208.5 44.5t-65.5 137.5q0 60 31.5 111t103.5 106h-164z" />
<glyph unicode="&#x12f;" horiz-adv-x="569" d="M31 -217q0 60 31.5 111t103.5 106h-47v1073h334v-1073h-41q-119 -79 -119 -143q0 -62 80 -62q17 0 57 4v-188q-54 -10 -125 -10q-143 0 -208.5 44.5t-65.5 137.5zM82 1417q0 80 52 133.5t151 53.5t150.5 -53.5t51.5 -133.5q0 -81 -51.5 -133.5t-150.5 -52.5t-151 52.5 t-52 133.5z" />
<glyph unicode="&#x130;" horiz-adv-x="630" d="M113 1821q0 80 51.5 133t150.5 53t151 -53t52 -133q0 -81 -52 -134t-151 -53t-150.5 52.5t-51.5 134.5zM139 0v1462h355v-1462h-355z" />
<glyph unicode="&#x131;" horiz-adv-x="569" d="M119 0v1073h334v-1073h-334z" />
<glyph unicode="&#x132;" horiz-adv-x="1964" d="M139 0v1462h355v-1462h-355zM991 522h355q11 -128 64 -191t163 -63q113 0 165 65t52 193v936h354v-930q0 -277 -148 -423t-421 -146q-275 0 -423 140t-161 419z" />
<glyph unicode="&#x133;" horiz-adv-x="1146" d="M119 0v1073h334v-1073h-334zM219 1417q0 80 52 133.5t151 53.5t151 -53.5t52 -133.5q0 -81 -52 -133.5t-151 -52.5t-151 52.5t-52 133.5zM707 -383l47 233q51 -14 108 -14q60 0 84.5 32t24.5 103v1102h334v-1096q0 -189 -93.5 -293t-283.5 -104q-123 0 -221 37z M1069 1417q0 80 52 133.5t151 53.5t151 -53.5t52 -133.5q0 -81 -52 -133.5t-151 -52.5t-151 52.5t-52 133.5z" />
<glyph unicode="&#x134;" horiz-adv-x="1333" d="M53 522h355q11 -128 64 -191t163 -63q113 0 165 65t52 193v936h354v-930q0 -277 -148 -423t-421 -146q-275 0 -423 140t-161 419zM631 1604l246 335h307l246 -335h-269l-131 172l-133 -172h-266z" />
<glyph unicode="&#x135;" horiz-adv-x="575" d="M-139 -383l47 233q51 -14 108 -14q60 0 84.5 32t24.5 103v1102h334v-1096q0 -189 -93.5 -293t-283.5 -104q-123 0 -221 37zM-111 1200l246 336h307l246 -336h-268l-131 172l-133 -172h-267z" />
<glyph unicode="&#x136;" horiz-adv-x="1452" d="M139 0v1462h355v-590l526 590h379l-549 -614l582 -848h-392l-403 618l-143 -153v-465h-355zM432 -487l174 352h361l-240 -352h-295z" />
<glyph unicode="&#x137;" horiz-adv-x="1222" d="M117 0v1462h321v-768l363 379h379l-408 -418l442 -655h-352l-291 457l-133 -133v-324h-321zM580 -477l170 342h364l-235 -342h-299z" />
<glyph unicode="&#x139;" horiz-adv-x="1204" d="M113 1581l252 315h387l-324 -315h-315zM139 0v1462h355v-1155h659v-307h-1014z" />
<glyph unicode="&#x13a;" horiz-adv-x="569" d="M90 1604l250 335h367l-320 -335h-297zM119 0v1462h334v-1462h-334z" />
<glyph unicode="&#x13b;" horiz-adv-x="1204" d="M139 0v1462h355v-1155h659v-307h-1014zM358 -487l174 352h361l-240 -352h-295z" />
<glyph unicode="&#x13c;" horiz-adv-x="569" d="M70 -477l170 342h364l-235 -342h-299zM119 0v1462h334v-1462h-334z" />
<glyph unicode="&#x13d;" horiz-adv-x="1204" d="M139 0v1462h355v-1155h659v-307h-1014zM762 909l69 553h324l-135 -553h-258z" />
<glyph unicode="&#x13e;" horiz-adv-x="651" d="M119 0v1462h334v-1462h-334zM569 909l70 553h324l-136 -553h-258z" />
<glyph unicode="&#x141;" horiz-adv-x="1253" d="M20 332v309l166 102v719h355v-493l336 211v-310l-336 -211v-352h669l-34 -307h-990v434z" />
<glyph unicode="&#x142;" horiz-adv-x="749" d="M23 455v274l184 105v628h336v-444l184 104v-270l-184 -107v-745h-336v561z" />
<glyph unicode="&#x143;" horiz-adv-x="1544" d="M137 0v1462h314l622 -913v913h334v-1462h-309l-629 915v-915h-332zM567 1581l252 315h387l-323 -315h-316z" />
<glyph unicode="&#x144;" horiz-adv-x="1257" d="M117 0v1073h325v-131q138 164 332 164q175 0 275 -101.5t100 -285.5v-719h-334v657q0 87 -42.5 129.5t-115.5 42.5q-100 0 -153 -65q-53 -56 -53 -135v-629h-334zM434 1200l250 336h367l-320 -336h-297z" />
<glyph unicode="&#x145;" horiz-adv-x="1501" d="M137 0v1462h314l622 -913v913h334v-1462h-309l-629 915v-915h-332zM492 -487l174 352h360l-240 -352h-294z" />
<glyph unicode="&#x146;" horiz-adv-x="1236" d="M117 0v1073h325v-131q138 164 332 164q175 0 275 -101.5t100 -285.5v-719h-334v657q0 87 -42.5 129.5t-115.5 42.5q-100 0 -153 -65q-53 -56 -53 -135v-629h-334zM621 -477l170 342h364l-235 -342h-299z" />
<glyph unicode="&#x147;" horiz-adv-x="1544" d="M137 0v1462h314l622 -913v913h334v-1462h-309l-629 915v-915h-332zM373 1939h268l131 -172l133 172h266l-245 -335h-308z" />
<glyph unicode="&#x148;" horiz-adv-x="1257" d="M117 0v1073h325v-131q138 164 332 164q175 0 275 -101.5t100 -285.5v-719h-334v657q0 87 -42.5 129.5t-115.5 42.5q-100 0 -153 -65q-53 -56 -53 -135v-629h-334zM229 1536h269l131 -172l133 172h266l-246 -336h-307z" />
<glyph unicode="&#x14a;" horiz-adv-x="1542" d="M139 0v1462h314l618 -927v927h334v-1409q0 -252 -114.5 -367.5t-354.5 -115.5q-189 0 -318 49l68 266q100 -28 184 -28q103 0 151.5 42t51.5 132l-602 899v-930h-332z" />
<glyph unicode="&#x14b;" horiz-adv-x="1257" d="M117 0v1073h325v-131q138 164 332 164q175 0 275 -102t100 -285v-744q0 -191 -78 -293t-258 -102q-108 0 -240 37l48 233q68 -14 94 -14q53 0 76.5 32.5t23.5 102.5v686q0 87 -42.5 129.5t-115.5 42.5q-94 0 -153 -65q-53 -53 -53 -135v-629h-334z" />
<glyph unicode="&#x14c;" horiz-adv-x="1650" d="M94 727q0 355 197 563.5t538 208.5q335 0 531 -202t196 -560q0 -363 -198.5 -568.5t-536.5 -205.5t-532.5 203t-194.5 561zM461 731q0 -223 94.5 -343t269.5 -120q174 0 269.5 120.5t95.5 342.5q0 224 -95.5 343.5t-269.5 119.5t-269 -120.5t-95 -342.5zM512 1651v223 h625v-223h-625z" />
<glyph unicode="&#x14d;" horiz-adv-x="1325" d="M84 532q0 267 160.5 420.5t421.5 153.5q263 0 419 -150t156 -415q0 -263 -159 -418.5t-425 -155.5q-263 0 -418 149t-155 416zM350 1247v223h625v-223h-625zM422 537q0 -141 63 -221t177 -80q113 0 176 79.5t63 221.5q0 143 -62 221t-177 78q-114 0 -177 -78.5 t-63 -220.5z" />
<glyph unicode="&#x14e;" horiz-adv-x="1650" d="M94 727q0 355 197 563.5t538 208.5q335 0 531 -202t196 -560q0 -363 -198.5 -568.5t-536.5 -205.5t-532.5 203t-194.5 561zM461 731q0 -223 94.5 -343t269.5 -120q174 0 269.5 120.5t95.5 342.5q0 224 -95.5 343.5t-269.5 119.5t-269 -120.5t-95 -342.5zM473 1937h234 q0 -74 31 -110.5t87 -36.5q55 0 86 36.5t31 110.5h234q0 -161 -93 -248t-262 -87q-168 0 -258 86.5t-90 248.5z" />
<glyph unicode="&#x14f;" horiz-adv-x="1325" d="M84 532q0 267 160.5 420.5t421.5 153.5q263 0 419 -150t156 -415q0 -263 -159 -418.5t-425 -155.5q-263 0 -418 149t-155 416zM311 1534h234q0 -74 31.5 -111t87.5 -37q54 0 85 37t31 111h234q0 -161 -93 -248.5t-262 -87.5q-168 0 -258 87t-90 249zM422 537 q0 -141 63 -221t177 -80q113 0 176 79.5t63 221.5q0 143 -62 221t-177 78q-114 0 -177 -78.5t-63 -220.5z" />
<glyph unicode="&#x150;" horiz-adv-x="1650" d="M94 727q0 355 197 563.5t538 208.5q335 0 531 -202t196 -560q0 -363 -198.5 -568.5t-536.5 -205.5t-532.5 203t-194.5 561zM336 1604l225 335h316l-281 -335h-260zM461 731q0 -223 94.5 -343t269.5 -120q174 0 269.5 120.5t95.5 342.5q0 224 -95.5 343.5t-269.5 119.5 t-269 -120.5t-95 -342.5zM772 1604l225 335h316l-283 -335h-258z" />
<glyph unicode="&#x151;" horiz-adv-x="1325" d="M84 532q0 267 160.5 420.5t421.5 153.5q263 0 419 -150t156 -415q0 -263 -159 -418.5t-425 -155.5q-263 0 -418 149t-155 416zM174 1200l225 336h316l-281 -336h-260zM422 537q0 -141 63 -221t177 -80q113 0 176 79.5t63 221.5q0 143 -62 221t-177 78q-114 0 -177 -78.5 t-63 -220.5zM610 1200l226 336h315l-283 -336h-258z" />
<glyph unicode="&#x152;" horiz-adv-x="2277" d="M94 731q0 121 26.5 233t82.5 209.5t135.5 170t192.5 114t247 41.5q281 0 422 -156v119h981v-280h-633v-297h592v-281h-592v-323h656v-281h-1004v125q-141 -162 -422 -162q-212 0 -368.5 100.5t-236 273.5t-79.5 394zM461 733q0 -221 101.5 -343t277.5 -122 q169 0 264.5 120.5t95.5 342.5q0 219 -96.5 341t-265.5 122q-80 0 -145 -26t-107.5 -70t-71 -104t-41 -125t-12.5 -136z" />
<glyph unicode="&#x153;" horiz-adv-x="2070" d="M84 532q0 268 156 421t419 153q287 0 414 -174q133 174 389 174q250 0 383 -144.5t133 -396.5v-102h-749q21 -258 229 -258q92 0 137.5 31t63.5 96h309q-30 -177 -155 -271t-347 -94q-272 0 -399 174q-133 -174 -416 -174q-265 0 -416 150t-151 415zM422 537 q0 -143 62 -222t182 -79q119 0 181 79.5t62 221.5q0 143 -62 221t-181 78t-181.5 -78t-62.5 -221zM1231 645h436q-8 112 -57.5 169.5t-149.5 57.5q-106 0 -160.5 -57.5t-68.5 -169.5z" />
<glyph unicode="&#x154;" horiz-adv-x="1382" d="M139 0v1462h568q275 0 423 -113t148 -339q0 -336 -287 -447l342 -563h-368l-306 516h-184v-516h-336zM475 782h217q131 0 189.5 53.5t58.5 159.5q0 103 -60 150t-198 47h-207v-410zM487 1581l252 315h387l-323 -315h-316z" />
<glyph unicode="&#x155;" horiz-adv-x="866" d="M117 0v1073h325v-131q104 150 287 150q52 0 102 -13l-20 -282q-62 10 -109 10q-104 0 -174 -53q-77 -56 -77 -193v-561h-334zM240 1200l249 336h367l-319 -336h-297z" />
<glyph unicode="&#x156;" horiz-adv-x="1382" d="M139 0v1462h568q275 0 423 -113t148 -339q0 -336 -287 -447l342 -563h-368l-306 516h-184v-516h-336zM440 -487l174 352h361l-240 -352h-295zM475 782h217q131 0 189.5 53.5t58.5 159.5q0 103 -60 150t-198 47h-207v-410z" />
<glyph unicode="&#x157;" horiz-adv-x="866" d="M63 -477l170 342h365l-236 -342h-299zM117 0v1073h325v-131q104 150 287 150q52 0 102 -13l-20 -282q-62 10 -109 10q-104 0 -174 -53q-77 -56 -77 -193v-561h-334z" />
<glyph unicode="&#x158;" horiz-adv-x="1382" d="M139 0v1462h568q275 0 423 -113t148 -339q0 -336 -287 -447l342 -563h-368l-306 516h-184v-516h-336zM293 1939h268l131 -172l133 172h267l-246 -335h-307zM475 782h217q131 0 189.5 53.5t58.5 159.5q0 103 -60 150t-198 47h-207v-410z" />
<glyph unicode="&#x159;" horiz-adv-x="866" d="M35 1536h268l131 -172l133 172h267l-246 -336h-307zM117 0v1073h325v-131q104 150 287 150q52 0 102 -13l-20 -282q-62 10 -109 10q-104 0 -174 -53q-77 -56 -77 -193v-561h-334z" />
<glyph unicode="&#x15a;" horiz-adv-x="1376" d="M63 457h351q19 -113 91 -165t208 -52q233 0 233 174q0 66 -41.5 103.5t-142.5 57.5l-193 37q-238 45 -355.5 146.5t-117.5 292.5q0 203 148 325.5t422 122.5q271 0 429.5 -112.5t178.5 -315.5l-342 -33q-27 185 -254 185q-109 0 -172.5 -36.5t-63.5 -115.5 q0 -65 42 -100.5t147 -55.5l198 -38q250 -50 360.5 -153.5t110.5 -291.5q0 -224 -160 -346.5t-444 -122.5q-291 0 -452 123t-181 371zM483 1581l252 315h387l-323 -315h-316z" />
<glyph unicode="&#x15b;" horiz-adv-x="1101" d="M51 332h316q13 -69 59.5 -99t134.5 -30q84 0 121 25.5t37 78.5q0 45 -29.5 72t-97.5 39l-121 20q-208 36 -302.5 113t-94.5 221q0 155 126.5 244.5t344.5 89.5q208 0 333 -80.5t142 -237.5l-305 -40q-16 133 -172 133q-80 0 -117 -27.5t-37 -71.5t30.5 -67.5t108.5 -38.5 l125 -25q213 -42 301 -116t88 -224q0 -162 -122 -253t-353 -91q-235 0 -369 89.5t-147 275.5zM356 1200l250 336h367l-320 -336h-297z" />
<glyph unicode="&#x15c;" horiz-adv-x="1376" d="M63 457h351q19 -113 91 -165t208 -52q233 0 233 174q0 66 -41.5 103.5t-142.5 57.5l-193 37q-238 45 -355.5 146.5t-117.5 292.5q0 203 148 325.5t422 122.5q271 0 429.5 -112.5t178.5 -315.5l-342 -33q-27 185 -254 185q-109 0 -172.5 -36.5t-63.5 -115.5 q0 -65 42 -100.5t147 -55.5l198 -38q250 -50 360.5 -153.5t110.5 -291.5q0 -224 -160 -346.5t-444 -122.5q-291 0 -452 123t-181 371zM289 1604l246 335h307l245 -335h-268l-131 172l-133 -172h-266z" />
<glyph unicode="&#x15d;" horiz-adv-x="1101" d="M51 332h316q13 -69 59.5 -99t134.5 -30q84 0 121 25.5t37 78.5q0 45 -29.5 72t-97.5 39l-121 20q-208 36 -302.5 113t-94.5 221q0 155 126.5 244.5t344.5 89.5q208 0 333 -80.5t142 -237.5l-305 -40q-16 133 -172 133q-80 0 -117 -27.5t-37 -71.5t30.5 -67.5t108.5 -38.5 l125 -25q213 -42 301 -116t88 -224q0 -162 -122 -253t-353 -91q-235 0 -369 89.5t-147 275.5zM152 1200l245 336h308l245 -336h-268l-131 172l-133 -172h-266z" />
<glyph unicode="&#x15e;" horiz-adv-x="1376" d="M63 457h351q19 -113 91 -165t208 -52q233 0 233 174q0 66 -41.5 103.5t-142.5 57.5l-193 37q-238 45 -355.5 146.5t-117.5 292.5q0 203 148 325.5t422 122.5q271 0 429.5 -112.5t178.5 -315.5l-342 -33q-27 185 -254 185q-109 0 -172.5 -36.5t-63.5 -115.5 q0 -65 42 -100.5t147 -55.5l198 -38q250 -50 360.5 -153.5t110.5 -291.5q0 -216 -149 -338t-416 -131l-20 -55q102 -15 150 -58.5t48 -117.5q0 -183 -292 -183q-69 0 -160 15v151q79 -8 129 -8q98 0 98 49q0 18 -11 29.5t-32.5 15.5t-36.5 5t-41 1h-59l63 162 q-471 51 -508 488z" />
<glyph unicode="&#x15f;" horiz-adv-x="1101" d="M51 332h316q13 -69 59.5 -99t134.5 -30q84 0 121 25.5t37 78.5q0 45 -29.5 72t-97.5 39l-121 20q-208 36 -302.5 113t-94.5 221q0 155 126.5 244.5t344.5 89.5q208 0 333 -80.5t142 -237.5l-305 -40q-16 133 -172 133q-80 0 -117 -27.5t-37 -71.5t30.5 -67.5t108.5 -38.5 l125 -25q213 -42 301 -116t88 -224q0 -156 -113.5 -247t-328.5 -97l-22 -59q102 -15 150 -58.5t48 -117.5q0 -183 -293 -183q-67 0 -159 15v151q79 -8 129 -8q98 0 98 49q0 18 -11 29.5t-32.5 15.5t-36.5 5t-41 1h-59l65 168q-362 46 -385 357z" />
<glyph unicode="&#x160;" horiz-adv-x="1376" d="M63 457h351q19 -113 91 -165t208 -52q233 0 233 174q0 66 -41.5 103.5t-142.5 57.5l-193 37q-238 45 -355.5 146.5t-117.5 292.5q0 203 148 325.5t422 122.5q271 0 429.5 -112.5t178.5 -315.5l-342 -33q-27 185 -254 185q-109 0 -172.5 -36.5t-63.5 -115.5 q0 -65 42 -100.5t147 -55.5l198 -38q250 -50 360.5 -153.5t110.5 -291.5q0 -224 -160 -346.5t-444 -122.5q-291 0 -452 123t-181 371zM289 1939h268l131 -172l133 172h266l-245 -335h-307z" />
<glyph unicode="&#x161;" horiz-adv-x="1101" d="M51 332h316q13 -69 59.5 -99t134.5 -30q84 0 121 25.5t37 78.5q0 45 -29.5 72t-97.5 39l-121 20q-208 36 -302.5 113t-94.5 221q0 155 126.5 244.5t344.5 89.5q208 0 333 -80.5t142 -237.5l-305 -40q-16 133 -172 133q-80 0 -117 -27.5t-37 -71.5t30.5 -67.5t108.5 -38.5 l125 -25q213 -42 301 -116t88 -224q0 -162 -122 -253t-353 -91q-235 0 -369 89.5t-147 275.5zM152 1536h268l131 -172l133 172h266l-245 -336h-308z" />
<glyph unicode="&#x162;" horiz-adv-x="1320" d="M45 1155v307h1231v-307h-438v-1155h-117l-33 -92q199 -29 199 -176q0 -183 -293 -183q-68 0 -160 15v151q79 -8 129 -8q99 0 99 49q0 18 -11 29.5t-32.5 15.5t-36.5 5t-41 1h-60l76 193h-74v1155h-438z" />
<glyph unicode="&#x163;" horiz-adv-x="847" d="M33 811v262h170v283h336v-283h245v-262h-245v-432q0 -129 125 -129q48 0 106 16l41 -246q-106 -40 -242 -40q-49 0 -90 6l-28 -78q102 -15 150 -58.5t48 -117.5q0 -183 -293 -183q-68 0 -159 15v151q79 -8 129 -8q98 0 98 49q0 18 -11 29.5t-32.5 15.5t-36.5 5t-41 1h-59 l82 211l51 -4q-174 76 -174 361v436h-170z" />
<glyph unicode="&#x164;" horiz-adv-x="1320" d="M45 1155v307h1231v-307h-438v-1155h-355v1155h-438zM262 1939h268l132 -172l133 172h266l-246 -335h-307z" />
<glyph unicode="&#x165;" horiz-adv-x="847" d="M33 811v262h170v283h336v-283h245v-262h-245v-432q0 -129 125 -129q48 0 106 16l41 -246q-106 -40 -242 -40q-193 0 -279.5 96t-86.5 299v436h-170zM696 1188l70 553h324l-136 -553h-258z" />
<glyph unicode="&#x166;" horiz-adv-x="1320" d="M45 1155v307h1231v-307h-438v-371h272v-280h-272v-504h-355v504h-272v280h272v371h-438z" />
<glyph unicode="&#x167;" horiz-adv-x="878" d="M51 469v197h170v182h-170v225h170v283h336v-283h246v-225h-246v-182h246v-197h-246v-90q0 -129 125 -129q48 0 106 16l41 -246q-106 -40 -241 -40q-193 0 -280 96t-87 299v94h-170z" />
<glyph unicode="&#x168;" horiz-adv-x="1490" d="M117 602v860h354v-887q0 -152 70 -229.5t204 -77.5t203.5 77.5t69.5 229.5v887h354v-862q0 -305 -166 -471t-465 -166t-461.5 165t-162.5 474zM346 1583q0 320 225 320q54 0 99.5 -16t105.5 -58q2 -1 13 -8.5t14 -9.5t13 -8t14.5 -8.5t12.5 -6.5t13.5 -5.5t12 -3 t12.5 -1.5q32 0 43.5 30.5t11.5 87.5h207q0 -319 -225 -319q-52 0 -95.5 16.5t-109.5 57.5q-74 53 -105 53q-19 0 -31 -10.5t-16.5 -31t-6 -37t-1.5 -42.5h-207z" />
<glyph unicode="&#x169;" horiz-adv-x="1230" d="M96 354v719h334v-661q0 -86 42.5 -127t117.5 -41q91 0 145 63q26 26 35.5 56.5t9.5 76.5v633h334v-1073h-326v131q-114 -164 -319 -164q-172 0 -272.5 102t-100.5 285zM225 1208q0 164 57.5 248t168.5 84q52 0 94 -18t98 -64q4 -3 17 -13t20.5 -15.5t19.5 -12.5 t22.5 -10.5t20.5 -3.5q64 0 64 129h201q0 -163 -58 -247.5t-168 -84.5q-53 0 -95 18.5t-97 63.5q-65 55 -101 55q-63 0 -63 -129h-201z" />
<glyph unicode="&#x16a;" horiz-adv-x="1490" d="M117 602v860h354v-887q0 -152 70 -229.5t204 -77.5t203.5 77.5t69.5 229.5v887h354v-862q0 -305 -166 -471t-465 -166t-461.5 165t-162.5 474zM432 1651v223h625v-223h-625z" />
<glyph unicode="&#x16b;" horiz-adv-x="1230" d="M96 354v719h334v-661q0 -86 42.5 -127t117.5 -41q91 0 145 63q26 26 35.5 56.5t9.5 76.5v633h334v-1073h-326v131q-114 -164 -319 -164q-172 0 -272.5 102t-100.5 285zM303 1247v223h625v-223h-625z" />
<glyph unicode="&#x16c;" horiz-adv-x="1490" d="M117 602v860h354v-887q0 -152 70 -229.5t204 -77.5t203.5 77.5t69.5 229.5v887h354v-862q0 -305 -166 -471t-465 -166t-461.5 165t-162.5 474zM393 1937h234q0 -74 31 -110.5t87 -36.5q55 0 86 36.5t31 110.5h234q0 -161 -93 -248t-262 -87q-168 0 -258 86.5t-90 248.5z " />
<glyph unicode="&#x16d;" horiz-adv-x="1230" d="M96 354v719h334v-661q0 -86 42.5 -127t117.5 -41q91 0 145 63q26 26 35.5 56.5t9.5 76.5v633h334v-1073h-326v131q-114 -164 -319 -164q-172 0 -272.5 102t-100.5 285zM264 1534h234q0 -74 31 -111t87 -37q55 0 86 37t31 111h234q0 -161 -93 -248.5t-262 -87.5 q-168 0 -258 87t-90 249z" />
<glyph unicode="&#x16e;" horiz-adv-x="1490" d="M117 602v860h354v-887q0 -152 70 -229.5t204 -77.5t203.5 77.5t69.5 229.5v887h354v-862q0 -305 -166 -471t-465 -166t-461.5 165t-162.5 474zM496 1825q0 111 69 177t178 66t179.5 -66t70.5 -177q0 -110 -70 -175t-180 -65q-109 0 -178 64.5t-69 175.5zM659 1825 q0 -86 84 -86q40 0 63 22.5t23 63.5q0 44 -23 67t-63 23q-84 0 -84 -90z" />
<glyph unicode="&#x16f;" horiz-adv-x="1230" d="M96 354v719h334v-661q0 -86 42.5 -127t117.5 -41q91 0 145 63q26 26 35.5 56.5t9.5 76.5v633h334v-1073h-326v131q-114 -164 -319 -164q-172 0 -272.5 102t-100.5 285zM367 1421q0 111 69 177.5t178 66.5t179.5 -66.5t70.5 -177.5q0 -110 -70 -174.5t-180 -64.5 q-109 0 -178 64.5t-69 174.5zM530 1421q0 -86 84 -86q40 0 63 22.5t23 63.5q0 44 -23 67t-63 23q-84 0 -84 -90z" />
<glyph unicode="&#x170;" horiz-adv-x="1490" d="M117 602v860h354v-887q0 -152 70 -229.5t204 -77.5t203.5 77.5t69.5 229.5v887h354v-862q0 -305 -166 -471t-465 -166t-461.5 165t-162.5 474zM256 1604l225 335h316l-281 -335h-260zM692 1604l226 335h315l-283 -335h-258z" />
<glyph unicode="&#x171;" horiz-adv-x="1230" d="M96 354v719h334v-661q0 -86 42.5 -127t117.5 -41q91 0 145 63q26 26 35.5 56.5t9.5 76.5v633h334v-1073h-326v131q-114 -164 -319 -164q-172 0 -272.5 102t-100.5 285zM127 1200l225 336h316l-281 -336h-260zM563 1200l225 336h316l-283 -336h-258z" />
<glyph unicode="&#x172;" horiz-adv-x="1490" d="M117 602v860h354v-887q0 -152 70 -229.5t204 -77.5t203.5 77.5t69.5 229.5v887h354v-862q0 -270 -131.5 -432.5t-372.5 -196.5q-80 -65 -80 -114q0 -62 80 -62q18 0 58 4v-188q-54 -10 -125 -10q-143 0 -209 44.5t-66 137.5q0 103 99 186q-244 31 -376 193.5t-132 439.5z " />
<glyph unicode="&#x173;" horiz-adv-x="1230" d="M96 354v719h334v-661q0 -86 42.5 -127t117.5 -41q91 0 145 63q26 26 35.5 56.5t9.5 76.5v633h334v-1073h-24q-119 -79 -119 -143q0 -62 80 -62q17 0 57 4v-188q-54 -10 -125 -10q-143 0 -208.5 44.5t-65.5 137.5q0 60 31.5 111t103.5 106h-56v131q-114 -164 -319 -164 q-172 0 -272.5 102t-100.5 285z" />
<glyph unicode="&#x174;" horiz-adv-x="2027" d="M35 1462h377l211 -1050l233 1042h328l231 -1042l211 1050h367l-383 -1462h-371l-227 1006l-224 -1006h-368zM614 1604l246 335h307l246 -335h-268l-131 172l-133 -172h-267z" />
<glyph unicode="&#x175;" horiz-adv-x="1626" d="M18 1073h334l154 -696l178 686h272l179 -672l151 682h322l-301 -1073h-312l-182 678l-174 -678h-320zM414 1200l245 336h308l245 -336h-268l-131 172l-133 -172h-266z" />
<glyph unicode="&#x176;" horiz-adv-x="1382" d="M23 1462h383l288 -604l295 604h369l-488 -895v-567h-356v569zM293 1604l246 335h307l246 -335h-269l-131 172l-133 -172h-266z" />
<glyph unicode="&#x177;" horiz-adv-x="1185" d="M18 1073h359l233 -653l211 653h346l-442 -1102l-147 -391h-310l191 502zM195 1200l245 336h308l245 -336h-268l-131 172l-133 -172h-266z" />
<glyph unicode="&#x178;" horiz-adv-x="1382" d="M23 1462h383l288 -604l295 604h369l-488 -895v-567h-356v569zM266 1790q0 72 47.5 120t137.5 48t137 -48t47 -120q0 -75 -46.5 -122.5t-137.5 -47.5t-138 47.5t-47 122.5zM748 1790q0 72 47 120t137 48t137 -48t47 -120q0 -75 -46.5 -122.5t-137.5 -47.5t-137.5 47.5 t-46.5 122.5z" />
<glyph unicode="&#x179;" horiz-adv-x="1286" d="M74 0v258l700 913h-686v291h1104v-260l-696 -909h733v-293h-1155zM438 1581l252 315h387l-323 -315h-316z" />
<glyph unicode="&#x17a;" horiz-adv-x="1046" d="M66 0v215l514 600h-502v258h905v-215l-516 -602h543v-256h-944zM330 1200l250 336h366l-319 -336h-297z" />
<glyph unicode="&#x17b;" horiz-adv-x="1286" d="M74 0v258l700 913h-686v291h1104v-260l-696 -909h733v-293h-1155zM440 1821q0 80 52 133t151 53t151 -53t52 -133q0 -81 -52 -134t-151 -53t-151 53t-52 134z" />
<glyph unicode="&#x17c;" horiz-adv-x="1046" d="M66 0v215l514 600h-502v258h905v-215l-516 -602h543v-256h-944zM322 1417q0 80 51.5 133.5t150.5 53.5t151 -53.5t52 -133.5q0 -81 -52 -133.5t-151 -52.5t-150.5 52.5t-51.5 133.5z" />
<glyph unicode="&#x17d;" horiz-adv-x="1286" d="M74 0v258l700 913h-686v291h1104v-260l-696 -909h733v-293h-1155zM244 1939h268l131 -172l133 172h266l-245 -335h-308z" />
<glyph unicode="&#x17e;" horiz-adv-x="1046" d="M66 0v215l514 600h-502v258h905v-215l-516 -602h543v-256h-944zM125 1536h268l131 -172l133 172h267l-246 -336h-307z" />
<glyph unicode="&#x17f;" horiz-adv-x="583" d="M119 0v1083q0 190 102.5 293t284.5 103q120 0 242 -35l-43 -238q-58 17 -115 17q-137 0 -137 -138v-1085h-334z" />
<glyph unicode="&#x192;" horiz-adv-x="819" d="M-61 -356l47 233q65 -14 110 -14q61 0 88 32.5t27 100.5v778h-172v262h172v47q0 191 104 293.5t291 102.5q118 0 246 -35l-43 -238q-69 17 -121 17q-143 0 -143 -138v-49h241v-262h-241v-772q0 -191 -84.5 -293t-270.5 -102q-136 0 -251 37z" />
<glyph unicode="&#x218;" horiz-adv-x="1376" d="M63 457h351q19 -113 91 -165t208 -52q233 0 233 174q0 66 -41.5 103.5t-142.5 57.5l-193 37q-238 45 -355.5 146.5t-117.5 292.5q0 203 148 325.5t422 122.5q271 0 429.5 -112.5t178.5 -315.5l-342 -33q-27 185 -254 185q-109 0 -172.5 -36.5t-63.5 -115.5 q0 -65 42 -100.5t147 -55.5l198 -38q250 -50 360.5 -153.5t110.5 -291.5q0 -224 -160 -346.5t-444 -122.5q-291 0 -452 123t-181 371zM387 -487l174 352h361l-240 -352h-295z" />
<glyph unicode="&#x219;" horiz-adv-x="1101" d="M51 332h316q13 -69 59.5 -99t134.5 -30q84 0 121 25.5t37 78.5q0 45 -29.5 72t-97.5 39l-121 20q-208 36 -302.5 113t-94.5 221q0 155 126.5 244.5t344.5 89.5q208 0 333 -80.5t142 -237.5l-305 -40q-16 133 -172 133q-80 0 -117 -27.5t-37 -71.5t30.5 -67.5t108.5 -38.5 l125 -25q213 -42 301 -116t88 -224q0 -162 -122 -253t-353 -91q-235 0 -369 89.5t-147 275.5zM512 -477l170 342h365l-236 -342h-299z" />
<glyph unicode="&#x21a;" horiz-adv-x="1320" d="M45 1155v307h1231v-307h-438v-1155h-355v1155h-438zM332 -487l174 352h360l-239 -352h-295z" />
<glyph unicode="&#x21b;" horiz-adv-x="847" d="M33 811v262h170v283h336v-283h245v-262h-245v-432q0 -129 125 -129q48 0 106 16l41 -246q-106 -40 -242 -40q-193 0 -279.5 96t-86.5 299v436h-170zM432 -477l170 342h365l-236 -342h-299z" />
<glyph unicode="&#x237;" horiz-adv-x="575" d="M-139 -383l47 233q51 -14 108 -14q60 0 84.5 32t24.5 103v1102h334v-1096q0 -189 -93.5 -293t-283.5 -104q-123 0 -221 37z" />
<glyph unicode="&#x2bc;" horiz-adv-x="1228" d="M418 909l69 553h324l-135 -553h-258z" />
<glyph unicode="&#x2c6;" horiz-adv-x="1236" d="M569 1200l246 336h307l246 -336h-268l-131 172l-133 -172h-267z" />
<glyph unicode="&#x2c7;" horiz-adv-x="1236" d="M569 1536h269l131 -172l133 172h266l-246 -336h-307z" />
<glyph unicode="&#x2c9;" horiz-adv-x="1236" d="M655 1247v223h625v-223h-625z" />
<glyph unicode="&#x2cb;" horiz-adv-x="1236" d="M614 1536h367l252 -336h-299z" />
<glyph unicode="&#x2d8;" horiz-adv-x="1236" d="M616 1534h234q0 -74 31.5 -111t87.5 -37q54 0 85 37t31 111h234q0 -161 -92.5 -248.5t-261.5 -87.5q-168 0 -258.5 87t-90.5 249z" />
<glyph unicode="&#x2d9;" horiz-adv-x="1236" d="M416 1417q0 80 51.5 133.5t150.5 53.5t151 -53.5t52 -133.5q0 -81 -52 -133.5t-151 -52.5t-150.5 52.5t-51.5 133.5z" />
<glyph unicode="&#x2da;" horiz-adv-x="1236" d="M719 1421q0 111 69.5 177.5t178.5 66.5t179.5 -66.5t70.5 -177.5q0 -110 -70 -174.5t-180 -64.5t-179 64.5t-69 174.5zM883 1421q0 -86 84 -86q40 0 63 22.5t23 63.5q0 44 -23 67t-63 23q-84 0 -84 -90z" />
<glyph unicode="&#x2db;" horiz-adv-x="1236" d="M745 -229q0 66 38 120.5t126 116.5l236 -8q-56 -35 -96.5 -76.5t-40.5 -79.5q0 -61 79 -61q18 0 58 4v-188q-59 -11 -125 -11q-143 0 -209 45t-66 138z" />
<glyph unicode="&#x2dc;" horiz-adv-x="1236" d="M575 1208q0 164 57.5 248t168.5 84q52 0 94 -18t98 -64q3 -2 17 -13t21 -15.5t19.5 -12t23 -11t20.5 -3.5q63 0 63 129h201q0 -163 -57.5 -247.5t-167.5 -84.5q-53 0 -95.5 18.5t-97.5 63.5q-21 18 -31.5 26t-31 18.5t-37.5 10.5q-64 0 -64 -129h-201z" />
<glyph unicode="&#x2dd;" horiz-adv-x="1236" d="M522 1200l226 336h315l-281 -336h-260zM958 1200l226 336h315l-282 -336h-259z" />
<glyph unicode="&#x300;" d="M-420 1536h367l252 -336h-299z" />
<glyph unicode="&#x301;" d="M-195 1200l250 336h367l-320 -336h-297z" />
<glyph unicode="&#x302;" d="M-399 1200l245 336h308l245 -336h-268l-131 172l-133 -172h-266z" />
<glyph unicode="&#x303;" d="M-391 1208q0 164 57 248t168 84q52 0 94.5 -18t98.5 -64q4 -3 17 -13t20.5 -15.5t19.5 -12.5t22.5 -10.5t20.5 -3.5q63 0 63 129h201q0 -163 -57.5 -247.5t-167.5 -84.5q-53 0 -95.5 18.5t-97.5 63.5q-21 18 -31.5 26t-31 18.5t-37.5 10.5q-63 0 -63 -129h-201z" />
<glyph unicode="&#x304;" d="M-313 1247v223h624v-223h-624z" />
<glyph unicode="&#x306;" d="M-352 1534h233q0 -74 31.5 -111t87.5 -37q55 0 86 37t31 111h233q0 -161 -92.5 -248.5t-261.5 -87.5q-168 0 -258 87t-90 249z" />
<glyph unicode="&#x307;" d="M-203 1417q0 80 52 133.5t151 53.5t151 -53.5t52 -133.5q0 -81 -52 -133.5t-151 -52.5t-151 52.5t-52 133.5z" />
<glyph unicode="&#x308;" d="M-426 1386q0 72 47 120t137 48t137.5 -48t47.5 -120q0 -75 -47 -122t-138 -47t-137.5 47t-46.5 122zM55 1386q0 72 47.5 120t137.5 48t137 -48t47 -120q0 -75 -46.5 -122t-137.5 -47t-138 47t-47 122z" />
<glyph unicode="&#x309;" d="M-178 1454v145q64 23 155 23q121 0 184.5 -54.5t63.5 -144.5q0 -233 -362 -239v145q137 12 137 80q0 28 -22 43.5t-60 15.5t-96 -14z" />
<glyph unicode="&#x30a;" d="M-248 1421q0 111 69.5 177.5t178.5 66.5t179.5 -66.5t70.5 -177.5q0 -110 -70 -174.5t-180 -64.5t-179 64.5t-69 174.5zM-84 1421q0 -86 84 -86q40 0 63 22.5t23 63.5q0 44 -23 67t-63 23q-84 0 -84 -90z" />
<glyph unicode="&#x30b;" d="M-356 1200l225 336h315l-280 -336h-260zM80 1200l225 336h316l-283 -336h-258z" />
<glyph unicode="&#x30c;" d="M-399 1536h268l131 -172l133 172h266l-245 -336h-308z" />
<glyph unicode="&#x312;" d="M-213 1200l233 336h297l-165 -336h-365z" />
<glyph unicode="&#x315;" d="M-145 924l63 538h313l-127 -538h-249z" />
<glyph unicode="&#x323;" d="M-201 -350q0 92 54.5 146t146.5 54t146.5 -54t54.5 -146t-54.5 -146.5t-146.5 -54.5t-146.5 54.5t-54.5 146.5z" />
<glyph unicode="&#x326;" d="M-354 -477l170 342h364l-235 -342h-299z" />
<glyph unicode="&#x327;" d="M-211 -285q79 -8 129 -8q98 0 98 49q0 18 -10.5 29.5t-32.5 15.5t-36.5 5t-40.5 1h-60l82 211l160 -14l-35 -96q199 -29 199 -176q0 -183 -293 -183q-69 0 -160 15v151z" />
<glyph unicode="&#x328;" d="M-270 -229q0 66 38 120.5t126 116.5l235 -8q-56 -35 -96.5 -76.5t-40.5 -79.5q0 -61 80 -61q17 0 57 4v-188q-59 -11 -125 -11q-143 0 -208.5 45t-65.5 138z" />
<glyph unicode="&#x3c0;" horiz-adv-x="1228" />
<glyph unicode="&#xe01;" horiz-adv-x="1392" d="M51 739v35q38 199 207 332t412 133q282 0 441 -141t159 -387v-711h-338v713q0 113 -67.5 181.5t-198.5 68.5q-111 0 -181.5 -51.5t-93.5 -137.5l76 -63q23 -19 30 -37t7 -51v-623h-338v643z" />
<glyph unicode="&#xe02;" horiz-adv-x="1310" d="M113 1186q91 37 219 37q319 0 319 -234q0 -57 -19.5 -111.5t-47 -99.5t-55 -91t-47 -104.5t-19.5 -121.5v-33q0 -90 48.5 -142.5t150.5 -52.5q103 0 145.5 53t42.5 152v768h338v-764q0 -123 -37.5 -215t-107.5 -148.5t-165.5 -84t-215.5 -27.5q-122 0 -219 27.5t-169 83 t-110.5 145.5t-38.5 209v33q0 77 28 148t61 115t61 94.5t28 90.5q0 30 -19 45t-51 15q-49 0 -100 -15z" />
<glyph unicode="&#xe03;" horiz-adv-x="1331" d="M70 1147v59h225v-32q0 -51 26 -79t72 -28q99 0 99 107v32h235v-67q0 -134 -29.5 -224.5t-107.5 -199.5q-52 -74 -79.5 -131.5t-27.5 -122.5v-33q0 -90 48.5 -142.5t150.5 -52.5q103 0 145.5 53t42.5 152v768h338v-764q0 -123 -37.5 -215t-107.5 -148.5t-165.5 -84 t-215.5 -27.5q-122 0 -219 27.5t-169 83t-110.5 145.5t-38.5 209v33q0 92 33.5 164.5t97.5 148.5q48 54 80 103q-8 -2 -26 -2q-115 0 -187.5 73.5t-72.5 194.5z" />
<glyph unicode="&#xe04;" horiz-adv-x="1425" d="M119 0v702q0 250 151.5 393.5t438.5 143.5q286 0 437.5 -143.5t151.5 -393.5v-702h-337v686q0 142 -54 214.5t-198 72.5q-76 0 -126.5 -19.5t-77.5 -59t-37.5 -88.5t-10.5 -120v-162q40 68 114 110t158 42q63 0 115 -10l-21 -281q-47 12 -114 12q-125 0 -188.5 -63 t-63.5 -168v-166h-338z" />
<glyph unicode="&#xe05;" horiz-adv-x="1454" d="M127 0v805q0 185 122 301.5t341 116.5l137 -107l137 107q219 0 341 -116.5t122 -301.5v-805h-338v807q0 68 -25 105.5t-87 43.5l-123 -94h-56l-120 94q-62 -6 -87.5 -43.5t-25.5 -105.5v-270q39 66 112 102.5t160 36.5q63 0 115 -10l-21 -281q-46 12 -114 12 q-125 0 -188.5 -63t-63.5 -168v-166h-338z" />
<glyph unicode="&#xe06;" horiz-adv-x="1409" d="M61 1153v53h230v-24q0 -62 22.5 -88.5t81.5 -26.5q55 0 80 33t25 84v22h239v-47q0 -128 -35 -224.5t-116 -217.5q-47 -71 -69.5 -129t-22.5 -127v-25q0 -93 71 -153t187 -60q109 0 151.5 67.5t42.5 184.5v731h338v-774q0 -218 -114.5 -341.5t-325.5 -123.5 q-120 0 -214 46.5t-147 129.5v-143h-329v440q0 101 27.5 174t99.5 158q42 51 86 111q-32 -4 -50 -4q-117 0 -187.5 72.5t-70.5 201.5z" />
<glyph unicode="&#xe07;" horiz-adv-x="1300" d="M31 864h362l273 -569q99 68 153.5 168.5t54.5 228.5q0 134 -62 196t-181 62q-77 0 -137 -22l-41 268q122 25 206 25q258 0 409 -136t151 -385q0 -255 -123 -431.5t-338 -268.5h-295z" />
<glyph unicode="&#xe08;" horiz-adv-x="1310" d="M61 852q36 178 193 282.5t367 104.5q266 0 432 -153.5t166 -405.5q0 -123 -33.5 -230.5t-94 -191t-137.5 -147t-172 -111.5h-303l-131 350q-11 31 -29 45.5t-53 14.5q-51 0 -65 -2v249q55 9 121 9q126 0 194 -41.5t105 -141.5l75 -202q178 139 178 391q0 301 -260 301 q-177 0 -227 -162z" />
<glyph unicode="&#xe09;" horiz-adv-x="1341" d="M123 412v170h338v-109q0 -125 43.5 -180t134.5 -55q108 0 175 80t67 231v246q0 198 -213 198q-193 0 -217 -178l-328 41q20 175 170 279t387 104q256 0 397.5 -123t141.5 -348v-768h-330v158q-44 -91 -127 -141t-199 -50q-204 0 -322 115.5t-118 329.5z" />
<glyph unicode="&#xe0a;" horiz-adv-x="1351" d="M113 1186q91 37 219 37q146 0 227.5 -57t81.5 -177q0 -57 -18.5 -111.5t-44.5 -99.5t-52 -91t-44.5 -104.5t-18.5 -121.5v-33q0 -88 55.5 -141.5t159.5 -53.5q106 0 159.5 55t53.5 150v125q0 88 -35.5 124t-118.5 36v221q84 0 119 39.5t35 142.5v80h338v-59 q0 -259 -182 -322q182 -59 182 -280v-103q0 -122 -41.5 -214.5t-116.5 -148.5t-173.5 -84t-219.5 -28q-122 0 -221.5 27.5t-174.5 83t-116 145.5t-41 209v33q0 77 28 147.5t61 114t61 93t28 89.5q0 30 -19 45t-51 15q-49 0 -100 -15z" />
<glyph unicode="&#xe0b;" horiz-adv-x="1372" d="M70 1147v59h225v-32q0 -51 26 -79t72 -28q99 0 99 107v32h225v-67q0 -134 -29.5 -224.5t-107.5 -199.5q-97 -136 -97 -254v-33q0 -87 57.5 -141t161.5 -54q105 0 157 54.5t52 150.5v125q0 86 -34 123t-115 37v225q83 0 116 37.5t33 140.5v80h338v-59q0 -259 -182 -322 q182 -59 182 -280v-103q0 -122 -40.5 -214.5t-115 -148.5t-172.5 -84t-219 -28q-122 0 -222 27.5t-175.5 83t-117.5 145.5t-42 209v33q0 92 33.5 164.5t97.5 148.5q48 54 80 103q-8 -2 -26 -2q-115 0 -187.5 73.5t-72.5 194.5z" />
<glyph unicode="&#xe0c;" horiz-adv-x="2119" d="M51 739v35q38 199 200.5 332t399.5 133q266 0 419 -147t153 -381v-162q0 -158 63.5 -234.5t173.5 -76.5q115 0 157 60.5t42 195.5v712h338v-774q0 -230 -113.5 -347.5t-331.5 -117.5q-122 0 -209 55t-129 154v-176h-327v713q0 113 -59.5 181.5t-180.5 68.5 q-103 0 -169 -52.5t-87 -136.5l76 -63q23 -19 30 -37t7 -51v-275q0 -56 17 -84t63 -28q35 0 63 4v-236q-69 -16 -139 -16q-181 0 -261.5 90t-80.5 266v299z" />
<glyph unicode="&#xe0d;" horiz-adv-x="2119" d="M51 739v35q38 199 200.5 332t399.5 133q266 0 419 -147t153 -381v-136q0 -138 42.5 -199t157.5 -61q111 0 173.5 78.5t62.5 237.5v575h338v-1067q0 -273 -133 -416t-428 -143q-235 0 -372.5 95t-154.5 280h332q13 -67 60.5 -98t132.5 -31q126 0 179.5 64.5t53.5 207.5 v150q-41 -97 -129 -148t-213 -51q-217 0 -327.5 117t-110.5 348v199q0 116 -59.5 183t-180.5 67q-103 0 -169 -52.5t-87 -136.5l76 -63q23 -19 30 -37t7 -51v-275q0 -56 17 -84t63 -28q35 0 63 4v-236q-69 -16 -139 -16q-181 0 -261.5 90t-80.5 266v299z" />
<glyph unicode="&#xe0e;" horiz-adv-x="1439" d="M98 739v35q38 200 205 332.5t412 132.5q282 0 442 -141.5t160 -386.5v-834q0 -180 -94.5 -271t-264.5 -91q-78 0 -211.5 21.5t-195.5 21.5q-110 0 -229 -39l-25 252q35 19 106.5 33t145.5 14q61 0 170.5 -18.5t154.5 -18.5q54 0 79.5 23t25.5 87v822q0 112 -68.5 181 t-199.5 69q-111 0 -180.5 -51.5t-92.5 -137.5l101 -88q22 -19 29 -37.5t7 -50.5v-254q0 -178 -76 -267t-255 -89q-73 0 -142 16v236q28 -4 64 -4q47 0 64.5 28t17.5 84v262z" />
<glyph unicode="&#xe0f;" horiz-adv-x="1439" d="M98 739v35q38 200 205 332.5t412 132.5q282 0 442 -141.5t160 -386.5v-805q0 -182 -104 -284.5t-277 -102.5q-191 0 -274 133q-28 -67 -109.5 -100t-167.5 -33q-140 0 -197 32l43 254q59 -20 146 -20q158 0 170 123h213q13 -123 117 -123q55 0 78.5 34.5t23.5 106.5v787 q0 112 -68.5 181t-199.5 69q-111 0 -180.5 -51.5t-92.5 -137.5l101 -88q22 -19 29 -37.5t7 -50.5v-254q0 -178 -76 -267t-255 -89q-73 0 -142 16v236q28 -4 64 -4q47 0 64.5 28t17.5 84v262z" />
<glyph unicode="&#xe10;" horiz-adv-x="1310" d="M61 852q36 178 193 282.5t367 104.5q127 0 239 -39l60 103h356l-178 -267q121 -143 121 -356q0 -123 -33.5 -230.5t-94 -191t-137.5 -147t-172 -111.5h-303l-131 350q-11 31 -29 45.5t-53 14.5q-51 0 -65 -2v249q55 9 121 9q126 0 194 -41.5t105 -141.5l75 -202 q178 139 178 391q0 301 -260 301q-177 0 -227 -162zM76 -457l43 250q59 -16 131 -16q153 0 164 119h217q6 -60 42.5 -92.5t96.5 -32.5q66 0 101 34t40 91h320q-12 -171 -116.5 -279.5t-278.5 -108.5q-99 0 -180.5 34.5t-116.5 99.5q-29 -66 -108 -100t-173 -34 q-97 0 -182 35z" />
<glyph unicode="&#xe11;" horiz-adv-x="1556" d="M90 1147v59h225v-32q0 -51 26.5 -79t72.5 -28q98 0 98 107v32h225v-71v-29q114 133 299 133q202 0 298 -122t96 -343v-774h-338v754q0 98 -36.5 144t-111.5 46q-70 0 -118 -46t-115 -157q-47 -79 -60.5 -150t-13.5 -169v-422h-338v449q0 115 16.5 182t63.5 137 q56 85 67 121q-38 -10 -75 -10q-121 0 -201 69t-80 199z" />
<glyph unicode="&#xe12;" horiz-adv-x="2191" d="M96 623q0 298 123 449t365 151l141 -107l139 107q218 0 335.5 -116t117.5 -302v-256q0 -144 61.5 -230t163.5 -86q57 0 95 19t58 56t28 81t8 105v712h337v-774q0 -218 -112 -341.5t-322 -123.5q-224 0 -325 185v-152h-326v803q0 64 -28 103.5t-78 45.5l-125 -94h-56 l-127 94q-47 -4 -73.5 -32.5t-41 -103t-14.5 -208.5q0 -229 39 -310t158 -81q51 0 117 14l30 -235q-77 -29 -180 -29q-269 0 -388.5 163t-119.5 493z" />
<glyph unicode="&#xe13;" horiz-adv-x="2119" d="M51 739v35q38 199 200.5 332t399.5 133q133 0 241 -39.5t179 -110t109.5 -167.5t38.5 -211v-217q0 -134 44.5 -195t159.5 -61q236 0 236 311v657h338v-1206h-330v176q-42 -99 -128 -154t-208 -55q-218 0 -333 117.5t-115 347.5v281q0 116 -57.5 183t-178.5 67 q-103 0 -169 -52.5t-87 -136.5l76 -63q23 -19 30 -37t7 -51v-275q0 -56 17 -84t63 -28q35 0 63 4v-236q-69 -16 -139 -16q-181 0 -261.5 90t-80.5 266v299z" />
<glyph unicode="&#xe14;" horiz-adv-x="1433" d="M98 596q0 298 160.5 470.5t462.5 172.5q284 0 435 -147.5t151 -429.5v-662h-338v666q0 148 -56.5 222.5t-191.5 74.5q-279 0 -279 -357q0 -195 55.5 -286t186.5 -91q43 0 107 11l30 -248q-77 -25 -207 -25q-253 0 -384.5 163t-131.5 466z" />
<glyph unicode="&#xe15;" horiz-adv-x="1495" d="M106 623q0 292 136 446t374 154l146 -117l143 117q219 0 341 -116.5t122 -301.5v-805h-338v803q0 68 -25 105.5t-87 43.5l-130 -104h-55l-131 104q-36 -3 -61.5 -19.5t-46.5 -53t-32 -104.5t-11 -167q0 -206 41.5 -292.5t164.5 -86.5q69 0 125 15l31 -248 q-85 -29 -188 -29q-273 0 -396 158t-123 498z" />
<glyph unicode="&#xe16;" horiz-adv-x="1392" d="M51 739v35q18 96 70 180.5t130.5 148t186.5 100t232 36.5q282 0 441 -141t159 -387v-711h-338v713q0 113 -67.5 181.5t-198.5 68.5q-111 0 -181.5 -51.5t-93.5 -137.5l76 -63q23 -19 30 -37t7 -51v-275q0 -56 17 -84t63 -28q35 0 63 4v-236q-69 -16 -139 -16 q-181 0 -261.5 90t-80.5 266v299z" />
<glyph unicode="&#xe17;" horiz-adv-x="1396" d="M131 0v1206h330v-164q140 197 389 197q208 0 316 -124t108 -341v-774h-338v713q0 65 -7 109t-25.5 82t-56 56.5t-95.5 18.5q-62 0 -107.5 -23t-93.5 -73q-41 -42 -61.5 -105.5t-20.5 -130.5v-647h-338z" />
<glyph unicode="&#xe18;" horiz-adv-x="1351" d="M113 877q0 169 149 265.5t387 96.5q151 0 271 -34t204.5 -112.5t104.5 -195.5l-324 -41q-24 71 -80.5 104t-169.5 33q-99 0 -152.5 -22.5t-53.5 -65.5q0 -49 35 -70.5t108 -27.5l184 -16q103 -9 182.5 -32.5t145.5 -68.5t101.5 -121t35.5 -180q0 -145 -72 -241 t-195.5 -138.5t-297.5 -42.5q-99 0 -180 12t-152.5 40.5t-120 74.5t-76.5 117t-28 164v125h338v-107q0 -92 46.5 -131t168.5 -39q237 0 237 158q0 88 -49.5 121t-161.5 43l-186 16q-196 17 -297.5 99.5t-101.5 216.5z" />
<glyph unicode="&#xe19;" horiz-adv-x="1417" d="M123 432v774h338v-712q0 -138 50.5 -202.5t168.5 -64.5t197 83t79 239v657h338v-1206h-329v176q-41 -95 -145.5 -152t-231.5 -57q-220 0 -342.5 118.5t-122.5 346.5z" />
<glyph unicode="&#xe1a;" horiz-adv-x="1404" d="M123 504v702h338v-706q0 -128 59.5 -197.5t181.5 -69.5t182 69.5t60 197.5v706h338v-702q0 -263 -153.5 -400t-426.5 -137t-426 137t-153 400z" />
<glyph unicode="&#xe1b;" horiz-adv-x="1425" d="M123 504v702h338v-706q0 -126 64.5 -196.5t187.5 -70.5t187.5 70.5t64.5 196.5v1085h338v-1081q0 -262 -158 -399.5t-432 -137.5t-432 137.5t-158 399.5z" />
<glyph unicode="&#xe1c;" horiz-adv-x="1462" d="M123 0v852q0 367 385 367q48 0 137 -13l-24 -233q-35 6 -76 6t-67.5 -30.5t-26.5 -90.5v-477l167 293h246l148 -293v825h327v-1206h-376l-228 446l-246 -446h-366z" />
<glyph unicode="&#xe1d;" horiz-adv-x="1462" d="M123 0v852q0 367 385 367q48 0 137 -13l-24 -233q-35 6 -76 6t-67.5 -30.5t-26.5 -90.5v-477l167 293h246l148 -293v1204h327v-1585h-376l-228 446l-246 -446h-366z" />
<glyph unicode="&#xe1e;" horiz-adv-x="1617" d="M61 1206l230 -1206h325l189 764l196 -764h326l229 1206h-329l-103 -733l-174 725h-274l-168 -729l-105 737h-342z" />
<glyph unicode="&#xe1f;" horiz-adv-x="1597" d="M61 1206h342l115 -737l158 729h274l164 -725l154 1112h329l-280 -1585h-326l-192 764l-172 -764h-326z" />
<glyph unicode="&#xe20;" horiz-adv-x="1439" d="M98 739v35q38 200 205 332.5t412 132.5q282 0 442 -141.5t160 -386.5v-711h-338v713q0 112 -68.5 181t-199.5 69q-111 0 -180.5 -51.5t-92.5 -137.5l101 -88q22 -19 29 -37.5t7 -50.5v-254q0 -178 -76 -267t-255 -89q-73 0 -142 16v236q28 -4 64 -4q47 0 64.5 28t17.5 84 v262z" />
<glyph unicode="&#xe21;" horiz-adv-x="1384" d="M131 0h330v172q133 -205 366 -205q210 0 322.5 124t112.5 341v774h-338v-712q0 -123 -40.5 -189.5t-148.5 -66.5q-107 0 -186.5 86t-79.5 225v657h-338v-1206z" />
<glyph unicode="&#xe22;" horiz-adv-x="1384" d="M102 356q0 112 60.5 187.5t169.5 103.5q-102 32 -164 101t-62 176q0 147 112 225t288 78q130 0 203 -21l-41 -245q-54 12 -113 12q-123 0 -123 -94q0 -53 45 -81t119 -28h80v-242h-76q-78 0 -121 -38t-43 -111q0 -146 236 -146q133 0 192.5 48.5t59.5 156.5v768h338v-764 q0 -155 -78 -264t-209.5 -160t-304.5 -51q-115 0 -214.5 22.5t-180 68t-127 122t-46.5 176.5z" />
<glyph unicode="&#xe23;" horiz-adv-x="1228" d="M82 385h326q12 -89 62.5 -128.5t150.5 -39.5q90 0 135 34.5t45 90.5t-34 86.5t-108 42.5l-147 25q-93 16 -163 41.5t-127.5 67.5t-87.5 107t-30 152q0 122 69.5 208.5t181 126.5t253.5 40q104 0 190 -19t155 -58.5t113 -106t58 -156.5l-321 -41q-42 135 -189 135 q-77 0 -130.5 -26.5t-53.5 -77.5q0 -60 36 -89t109 -42l175 -33q100 -19 168.5 -46t119 -70.5t74 -107.5t23.5 -153q0 -124 -66.5 -211t-180 -128.5t-263.5 -41.5q-114 0 -209.5 24t-170 73t-117.5 131t-46 190z" />
<glyph unicode="&#xe24;" horiz-adv-x="1392" d="M51 739v35q18 96 70 180.5t130.5 148t186.5 100t232 36.5q282 0 441 -141t159 -387v-1121h-338v1123q0 113 -67.5 181.5t-198.5 68.5q-111 0 -181.5 -51.5t-93.5 -137.5l76 -63q23 -19 30 -37t7 -51v-275q0 -56 17 -84t63 -28q35 0 63 4v-236q-69 -16 -139 -16 q-181 0 -261.5 90t-80.5 266v299z" />
<glyph unicode="&#xe25;" horiz-adv-x="1320" d="M98 336q1 127 71.5 212.5t187 123t274.5 37.5h229v106q0 82 -43.5 125t-152.5 43q-205 0 -228 -168l-317 41q20 175 170 279t387 104q257 0 389.5 -113.5t132.5 -337.5v-788h-338v473h-219q-97 0 -150.5 -26.5t-54.5 -92.5q-1 -62 34.5 -90t94.5 -28q45 0 107 10l30 -246 q-94 -27 -202 -27q-187 0 -295 93t-107 270z" />
<glyph unicode="&#xe26;" horiz-adv-x="1423" d="M98 739v35q38 200 205 332.5t412 132.5q282 0 442 -141.5t160 -386.5v-1121h-338v1123q0 112 -68.5 181t-199.5 69q-111 0 -180.5 -51.5t-92.5 -137.5l101 -88q22 -19 29 -37.5t7 -50.5v-254q0 -178 -76 -267t-255 -89q-73 0 -142 16v236q28 -4 64 -4q47 0 64.5 28 t17.5 84v262z" />
<glyph unicode="&#xe27;" horiz-adv-x="1341" d="M92 438h352q13 -215 222 -215q239 0 239 387q0 177 -62 275t-192 98q-102 0 -158.5 -58.5t-72.5 -156.5l-328 61q27 179 177.5 294.5t387.5 115.5q296 0 444 -167t148 -462q0 -145 -35.5 -261.5t-106 -202.5t-184.5 -132.5t-264 -46.5q-269 0 -414 127t-153 344z" />
<glyph unicode="&#xe28;" horiz-adv-x="1425" d="M119 0v702q0 250 151.5 393.5t438.5 143.5q110 0 221 -27l51 91h356l-159 -238q120 -138 120 -363v-702h-337v686q0 142 -54 214.5t-198 72.5q-76 0 -126.5 -19.5t-77.5 -59t-37.5 -88.5t-10.5 -120v-162q40 68 114 110t158 42q63 0 115 -10l-21 -281q-47 12 -114 12 q-125 0 -188.5 -63t-63.5 -168v-166h-338z" />
<glyph unicode="&#xe29;" horiz-adv-x="1396" d="M123 504v702h338v-706q0 -128 59.5 -197.5t181.5 -69.5t182 69.5t60 197.5v75h-246v232h246v399h338v-399h94v-232h-94v-71q0 -263 -153.5 -400t-426.5 -137t-426 137t-153 400z" />
<glyph unicode="&#xe2a;" horiz-adv-x="1341" d="M98 336q1 127 71.5 212.5t187 123t274.5 37.5h229v106q0 168 -203 168q-198 0 -221 -168l-317 41q20 175 170 279t387 104q116 0 225 -39l60 103h356l-184 -277q65 -97 65 -217v-809h-338v473h-219q-97 0 -150.5 -26.5t-54.5 -92.5q-1 -62 34.5 -90t94.5 -28q45 0 107 10 l30 -246q-94 -27 -202 -27q-187 0 -295 93t-107 270z" />
<glyph unicode="&#xe2b;" horiz-adv-x="1363" d="M131 0v1206h338v-372h149q141 0 211 68.5t70 221.5v82h338v-106q0 -131 -63 -227.5t-183 -147.5q135 -35 192.5 -128t57.5 -247v-350h-338v299q0 138 -59 208.5t-199 70.5h-176v-578h-338z" />
<glyph unicode="&#xe2c;" horiz-adv-x="1511" d="M131 0h348l273 453l278 -453h359v764q0 259 -203 323q105 35 164 130t59 221v78h-328v-78q0 -121 -62 -176.5t-190 -55.5v-215q115 0 173.5 -52.5t58.5 -143.5v-332l-205 319h-197l-200 -315v739h-328v-1206z" />
<glyph unicode="&#xe2d;" horiz-adv-x="1402" d="M106 510v154h553v-224h-215q6 -97 71 -154t190 -57q262 0 262 381q0 184 -67.5 275.5t-211.5 91.5q-101 0 -162.5 -51t-83.5 -133l-336 41q37 181 193 293t387 112q308 0 466.5 -168.5t158.5 -460.5q0 -302 -156 -472.5t-448 -170.5q-282 0 -441.5 146t-159.5 397z" />
<glyph unicode="&#xe2e;" horiz-adv-x="1419" d="M106 510v154h553v-224h-215q6 -97 71 -154t190 -57q262 0 262 381q0 184 -67.5 275.5t-211.5 91.5q-101 0 -162.5 -51t-83.5 -133l-336 41q37 181 193 293t387 112q124 0 240 -33l55 97h356l-168 -250q142 -168 142 -443q0 -302 -156 -472.5t-448 -170.5 q-282 0 -441.5 146t-159.5 397z" />
<glyph unicode="&#xe2f;" horiz-adv-x="1249" d="M102 997v209h338v-186q0 -80 37 -128t115 -48q91 0 138.5 49.5t47.5 138.5v174h338v-1206h-338v688q-46 -55 -122 -85t-160 -30q-181 0 -287.5 112.5t-106.5 311.5z" />
<glyph unicode="&#xe30;" horiz-adv-x="901" d="M113 365q0 61 8 129h289v-56q0 -66 35 -91t108 -25h225v-256h-307q-81 0 -143.5 15t-112.5 48.5t-76 92.5t-26 143zM113 938q0 61 8 129h289v-55q0 -66 35 -91.5t108 -25.5h225v-256h-276q-82 0 -149 15t-122.5 48t-86.5 93t-31 143z" />
<glyph unicode="&#xe31;" d="M-887 1653q0 38 4 92h287v-45q0 -68 28.5 -93.5t104.5 -25.5h486v-225h-519q-198 0 -294.5 79t-96.5 218z" />
<glyph unicode="&#xe32;" horiz-adv-x="1114" d="M20 854q15 172 146 278.5t342 106.5q230 0 354.5 -104.5t124.5 -321.5v-813h-338v813q0 160 -149 160q-73 0 -113.5 -44.5t-50.5 -115.5z" />
<glyph unicode="&#xe33;" horiz-adv-x="1114" d="M-543 1587q0 110 72 173t184 63q113 0 184.5 -63t71.5 -173q0 -111 -71.5 -174t-184.5 -63q-112 0 -184 63t-72 174zM-365 1587q0 -39 21 -62.5t57 -23.5q80 0 80 86q0 39 -21 61.5t-59 22.5t-58 -22.5t-20 -61.5zM20 854q15 172 146 278.5t342 106.5q230 0 354.5 -104.5 t124.5 -321.5v-813h-338v813q0 160 -149 160q-73 0 -113.5 -44.5t-50.5 -115.5z" />
<glyph unicode="&#xe34;" d="M-1153 1356v225h989v-225h-989z" />
<glyph unicode="&#xe35;" d="M-1151 1356h1004v385h-287v-160h-717v-225z" />
<glyph unicode="&#xe36;" d="M-1151 1356v225h600q8 83 62 129.5t147 46.5q101 0 156 -54t55 -149q0 -96 -63.5 -147t-167.5 -51h-789zM-410 1552q0 -75 68 -75t68 77q0 37 -18 56.5t-50 19.5q-68 0 -68 -78z" />
<glyph unicode="&#xe37;" d="M-1153 1356v225h457v160h225v-160h92v160h225v-385h-999z" />
<glyph unicode="&#xe38;" d="M-586 -131q52 8 135 8q281 0 281 -233v-258h-256v176q0 48 -20.5 69t-67.5 21h-72v217z" />
<glyph unicode="&#xe39;" d="M-985 -137h369v-195q0 -86 79 -86q40 0 60 23t20 63v195h287v-207q0 -132 -104.5 -207.5t-262.5 -75.5q-154 0 -255 71t-101 196v34h-92v189z" />
<glyph unicode="&#xe3a;" d="M-422 -264q0 66 37.5 103.5t103.5 37.5q69 0 106.5 -36t37.5 -105q0 -67 -38 -103t-106 -36q-65 0 -103 37.5t-38 101.5z" />
<glyph unicode="&#xe3f;" horiz-adv-x="1228" d="M119 0v1462h411v180h123v-180q480 -13 480 -375q0 -213 -191 -311q115 -50 164 -136.5t49 -211.5q0 -204 -125.5 -313t-376.5 -115v-248h-123v248h-411zM446 262h84v373h-84v-373zM446 883h84v317h-84v-317zM653 266q85 10 123.5 54.5t38.5 125.5q0 165 -162 185v-365z M653 885q142 21 142 157q0 71 -34.5 108t-107.5 46v-311z" />
<glyph unicode="&#xe40;" horiz-adv-x="645" d="M102 354v852h338v-819q0 -38 2 -58.5t10.5 -41t27.5 -29t50 -8.5q36 0 64 4v-250q-53 -16 -129 -16q-186 0 -274.5 90t-88.5 276z" />
<glyph unicode="&#xe41;" horiz-adv-x="1265" d="M102 354v852h338v-819q0 -38 2 -58.5t10.5 -41t27.5 -29t50 -8.5q36 0 64 4v-250q-53 -16 -129 -16q-186 0 -274.5 90t-88.5 276zM702 354v852h338v-819q0 -38 2 -58.5t10.5 -41t27.5 -29t50 -8.5q36 0 64 4v-250q-53 -16 -129 -16q-186 0 -274.5 90t-88.5 276z" />
<glyph unicode="&#xe42;" horiz-adv-x="675" d="M-41 1634v219h860v-235h-500q79 -31 120.5 -110t41.5 -185v-936q0 -38 2 -58.5t10.5 -41t27.5 -29t50 -8.5q36 0 64 4v-250q-53 -16 -129 -16q-186 0 -274.5 90t-88.5 276v969q0 253 -184 311z" />
<glyph unicode="&#xe43;" horiz-adv-x="675" d="M-127 1599q20 160 125.5 245t282.5 85q183 0 291 -80.5t108 -234.5q0 -71 -22.5 -125t-71.5 -117q-59 -74 -82 -140.5t-23 -166.5v-678q0 -38 2 -58.5t10.5 -41t27.5 -29t50 -8.5q36 0 64 4v-250q-53 -16 -129 -16q-186 0 -274.5 90t-88.5 276v723q0 65 11.5 121t34 102 t40.5 73.5t47 64.5q40 52 56 86t16 80q0 35 -21.5 57t-56.5 22q-47 0 -70.5 -30t-37.5 -84z" />
<glyph unicode="&#xe44;" horiz-adv-x="675" d="M-53 1618v235h790v-219q-124 -34 -190 -129t-66 -243v-875q0 -38 2 -58.5t10.5 -41t27.5 -29t50 -8.5q36 0 64 4v-250q-53 -16 -129 -16q-186 0 -274.5 90t-88.5 276v908q0 133 62 224t172 132h-430z" />
<glyph unicode="&#xe45;" horiz-adv-x="1114" d="M20 854q15 172 146 278.5t342 106.5q230 0 354.5 -104.5t124.5 -321.5v-1223h-338v1223q0 160 -149 160q-73 0 -113.5 -44.5t-50.5 -115.5z" />
<glyph unicode="&#xe46;" horiz-adv-x="1433" d="M102 815q0 178 90.5 293t253.5 115q176 0 250 -148q83 148 275 148q340 0 340 -418v-1264h-338v1254v10q0 31 -0.5 46.5t-4.5 38.5t-12.5 34t-24.5 19.5t-40 8.5q-22 0 -39 -8.5t-27 -20.5t-18 -34t-12 -38t-9 -44h-163q-15 80 -33.5 112.5t-61.5 32.5q-42 0 -65 -40.5 t-23 -118.5q0 -99 31 -141t94 -42q39 0 86 8l37 -229q-62 -24 -160 -24q-201 0 -313.5 115.5t-112.5 334.5z" />
<glyph unicode="&#xe47;" d="M-1100 1642q0 133 88 213t246 80h473v-204h-463q-41 0 -63.5 -24.5t-22.5 -66.5q0 -32 21.5 -56.5t54.5 -24.5q73 0 82 90h180q0 -45 24 -62.5t74 -17.5h119v-205q-47 -8 -116 -8q-65 0 -119 26.5t-76 79.5q-53 -106 -221 -106q-128 0 -204.5 82.5t-76.5 203.5z" />
<glyph unicode="&#xe48;" d="M-399 1843v344h245v-344h-245z" />
<glyph unicode="&#xe49;" d="M-766 2030v200q57 8 139 8q113 0 188.5 -47.5t88.5 -138.5h301v-209h-545v94q0 47 -16 70t-58 23h-98z" />
<glyph unicode="&#xe4a;" d="M-920 1987q0 99 52.5 155t152.5 56q101 0 150 -91q56 91 157 91q76 0 122.5 -40t54.5 -110h145v-205h-315v101q0 69 -48 69q-24 0 -36.5 -18.5t-18.5 -59.5h-119q-7 44 -15.5 61t-31.5 17t-36 -19t-13 -50q0 -33 19 -101h-191q-29 71 -29 144z" />
<glyph unicode="&#xe4b;" d="M-518 1956v182h129v113h225v-113h129v-182h-129v-113h-225v113h-129z" />
<glyph unicode="&#xe4c;" d="M-631 1929q0 256 332 256h238v-200h-189q-68 0 -96.5 -24.5t-28.5 -88.5v-31h-254q-2 14 -2 88z" />
<glyph unicode="&#xe4d;" d="M-543 1587q0 110 72 173t184 63q113 0 184.5 -63t71.5 -173q0 -111 -71.5 -174t-184.5 -63q-112 0 -184 63t-72 174zM-365 1587q0 -39 21 -62.5t57 -23.5q80 0 80 86q0 39 -21 61.5t-59 22.5t-58 -22.5t-20 -61.5z" />
<glyph unicode="&#xe4e;" d="M-903 1522q0 104 112 147q-67 40 -67 111q0 76 62 116.5t153 40.5q108 0 160 -18l-23 -141q-62 12 -86 12q-67 0 -67 -39q0 -42 124 -49l-20 -119q-55 6 -80 6q-26 0 -45.5 -9.5t-19.5 -29.5q0 -24 28.5 -34.5t61.5 -10.5q31 0 43 2l-21 -149q-32 -4 -78 -4 q-57 0 -110 18.5t-90 58t-37 91.5z" />
<glyph unicode="&#xe4f;" horiz-adv-x="1302" d="M102 592q0 231 156 380.5t393 149.5q154 0 279 -66t197.5 -188t72.5 -276q0 -230 -154 -380.5t-395 -150.5q-114 0 -214.5 38t-174.5 106t-117 168.5t-43 218.5zM319 592q0 -146 90.5 -237t241.5 -91t241.5 91t90.5 237t-92.5 237t-239.5 91t-239.5 -91t-92.5 -237z M465 592q0 82 51.5 134t134.5 52q81 0 134 -48.5t53 -137.5q0 -85 -51 -135.5t-136 -50.5t-135.5 53t-50.5 133z" />
<glyph unicode="&#xe50;" horiz-adv-x="1306" d="M102 500q0 228 152.5 379t398.5 151t398.5 -147t152.5 -383q0 -248 -148.5 -390.5t-402.5 -142.5t-402.5 142t-148.5 391zM385 500q0 -146 72 -229t196 -83q129 0 199 86.5t70 225.5q0 156 -72.5 232.5t-196.5 76.5t-196 -76t-72 -233z" />
<glyph unicode="&#xe51;" horiz-adv-x="1277" d="M102 643q0 182 143 299t369 117q257 0 409.5 -149t152.5 -402q0 -263 -169 -402t-462 -139q-94 0 -191 17l37 227q57 -8 152 -8q164 0 236.5 74.5t72.5 236.5q0 125 -63.5 204t-176.5 79q-90 0 -142 -36.5t-52 -101.5q0 -67 35 -102t100 -35q38 0 88 8l25 -211 q-60 -22 -160 -22q-404 0 -404 346z" />
<glyph unicode="&#xe52;" horiz-adv-x="1658" d="M102 563v748h328v-748q0 -101 25 -168.5t78.5 -104.5t123.5 -52t172 -15q89 0 151 6.5t117 25.5t87 52.5t50.5 87t18.5 129.5v195q0 102 -79 102q-20 0 -35.5 -10t-24.5 -28.5t-14 -34t-10 -37.5h-148q-18 110 -84 110q-26 0 -43.5 -26.5t-17.5 -67.5q0 -125 73 -125 q27 0 50 4l22 -203q-50 -12 -100 -12q-147 0 -225 89t-78 251q0 146 69.5 237t200.5 91q136 0 207 -133q77 133 215 133q159 0 242 -91t83 -251v-189q0 -123 -34 -218t-96 -159.5t-153.5 -106t-200.5 -59.5t-243 -18q-137 0 -245 17.5t-200.5 59.5t-153 109.5t-94.5 170.5 t-34 239z" />
<glyph unicode="&#xe53;" horiz-adv-x="1503" d="M102 506q0 104 12.5 187.5t41.5 153t74 115.5t111 71.5t151 25.5q98 0 171.5 -51.5t108.5 -143.5q37 94 109.5 144.5t173.5 50.5q183 0 264.5 -114.5t81.5 -330.5v-614h-316v614q0 32 -0.5 45t-2.5 39t-7.5 37t-14.5 25.5t-25 20t-38 5.5q-30 0 -50 -12.5t-29 -37 t-12 -50t-3 -61.5v-185h-266v187q0 85 -20.5 122t-77.5 37q-61 0 -85 -73.5t-24 -206.5q0 -143 38.5 -210t117.5 -67q46 0 71 4l27 -245q-70 -15 -133 -15q-237 0 -343 137.5t-106 395.5z" />
<glyph unicode="&#xe54;" horiz-adv-x="1331" d="M102 528q0 236 154 379.5t385 143.5h123q178 0 178 200v60h287v-60q0 -224 -113.5 -335t-331.5 -111h-77q-48 0 -84 -4.5t-75 -21.5t-64 -45.5t-41.5 -79.5t-16.5 -122q0 -155 60 -229t155 -74h55q-84 72 -84 197q0 132 80 198t221 66q119 0 205 -39l-51 -202 q-33 16 -82 16q-43 0 -70.5 -22.5t-27.5 -69.5q0 -63 35.5 -100t107.5 -37h199v-236h-627q-235 0 -367.5 139t-132.5 389z" />
<glyph unicode="&#xe55;" horiz-adv-x="1331" d="M102 528q0 168 82.5 292.5t221.5 183.5q-31 54 -31 108q0 104 66.5 170t172.5 66t174 -65.5t68 -170.5q0 -24 -6 -45q92 42 92 184v60h287v-60q0 -224 -113.5 -335t-331.5 -111h-77q-48 0 -84 -4.5t-75 -21.5t-64 -45.5t-41.5 -79.5t-16.5 -122q0 -155 60 -229t155 -74 h55q-84 72 -84 197q0 132 80 198t221 66q119 0 205 -39l-51 -202q-33 16 -82 16q-43 0 -70.5 -22.5t-27.5 -69.5q0 -63 35.5 -100t107.5 -37h199v-236h-627q-235 0 -367.5 139t-132.5 389zM526 1110q0 -44 23 -72t65 -28t66.5 27t24.5 73q0 49 -26 72.5t-65 23.5 q-43 0 -65.5 -25.5t-22.5 -70.5z" />
<glyph unicode="&#xe56;" horiz-adv-x="1388" d="M61 1311h310l84 -377q60 61 144.5 93t176.5 32q253 0 381.5 -147.5t128.5 -407.5q0 -256 -143 -396.5t-395 -140.5q-235 0 -377.5 109t-155.5 317h330q25 -176 196 -176q116 0 169 78.5t53 208.5q0 149 -55.5 214.5t-174.5 65.5q-168 0 -219 -186h-289z" />
<glyph unicode="&#xe57;" horiz-adv-x="1878" d="M102 518q0 111 22 207t64 171.5t111 119t156 43.5q193 0 270 -191q37 92 110.5 141.5t172.5 49.5q154 0 232.5 -106t78.5 -310v-407q69 0 104 46.5t35 127.5v901h318v-815q0 -234 -135 -365t-371 -131h-246v623q0 77 -18 120t-66 43q-84 0 -84 -157v-148h-266v148 q0 77 -15 117t-59 40q-90 0 -90 -268q0 -166 34.5 -227.5t125.5 -61.5q55 0 71 4l27 -245q-70 -15 -133 -15q-449 0 -449 545z" />
<glyph unicode="&#xe58;" horiz-adv-x="1433" d="M82 477q0 129 34.5 234.5t102 183.5t175 121t247.5 43h133q120 0 169.5 47t49.5 145v60h307v-60q0 -223 -125 -333.5t-360 -110.5h-129q-87 0 -142 -20t-85.5 -65.5t-41.5 -105.5t-11 -153q0 -133 25 -185.5t83 -52.5q104 0 104 127v8h226v-8q0 -125 92 -125q44 0 64 27 t20 90q0 109 -84 109q-15 0 -78 -11l-29 240q77 29 158 29q168 0 256 -94.5t88 -276.5q0 -178 -86.5 -275.5t-245.5 -97.5q-199 0 -274 139q-74 -139 -268 -139q-85 0 -150 25.5t-107 70t-69 110.5t-38 140t-11 164z" />
<glyph unicode="&#xe59;" horiz-adv-x="1413" d="M82 518q0 156 44 276t139.5 192.5t232.5 72.5q104 0 179 -49t105 -127q10 76 52 123t116 47h15q42 0 66 25t24 75v158h286v-172q0 -165 -65.5 -258t-206.5 -93h-14q-37 0 -57.5 -20t-20.5 -55q0 -43 24 -125l179 -588h-308l-176 590q-32 104 -55 138q-38 58 -106 58 q-38 0 -64 -21t-38.5 -60.5t-17.5 -83.5t-5 -103q0 -154 49 -221.5t147 -67.5q47 0 72 4l27 -245q-71 -15 -134 -15q-254 0 -371.5 138t-117.5 407z" />
<glyph unicode="&#xe5a;" horiz-adv-x="1658" d="M102 997v209h338v-186q0 -80 37 -128t115 -48q91 0 138.5 49.5t47.5 138.5v174h338v-1206h-338v688q-46 -55 -122 -85t-160 -30q-181 0 -287.5 112.5t-106.5 311.5zM1219 0v1206h337v-1206h-337z" />
<glyph unicode="&#xe5b;" horiz-adv-x="2150" d="M102 596q0 230 128.5 366t353.5 136q181 0 288 -109.5t113 -294.5l-258 -32q-3 76 -42 128t-107 52q-83 0 -123.5 -64.5t-40.5 -167.5q0 -127 68.5 -196.5t179.5 -69.5q173 0 288 127q113 127 164 383h219l113 -328l108 277h207q47 -138 104 -188t165 -50q21 0 49 4 l30 -237q-27 -10 -86 -10q-114 0 -201 38t-151 142l-125 -305h-207l-112 292q-63 -154 -219 -272q-171 -129 -385 -129q-239 0 -380 140t-141 368z" />
<glyph unicode="&#x1e80;" horiz-adv-x="2027" d="M35 1462h377l211 -1050l233 1042h328l231 -1042l211 1050h367l-383 -1462h-371l-227 1006l-224 -1006h-368zM580 1896h387l252 -315h-316z" />
<glyph unicode="&#x1e81;" horiz-adv-x="1626" d="M18 1073h334l154 -696l178 686h272l179 -672l151 682h322l-301 -1073h-312l-182 678l-174 -678h-320zM393 1536h367l252 -336h-299z" />
<glyph unicode="&#x1e82;" horiz-adv-x="2027" d="M35 1462h377l211 -1050l233 1042h328l231 -1042l211 1050h367l-383 -1462h-371l-227 1006l-224 -1006h-368zM809 1581l252 315h387l-324 -315h-315z" />
<glyph unicode="&#x1e83;" horiz-adv-x="1626" d="M18 1073h334l154 -696l178 686h272l179 -672l151 682h322l-301 -1073h-312l-182 678l-174 -678h-320zM618 1200l250 336h367l-320 -336h-297z" />
<glyph unicode="&#x1e84;" horiz-adv-x="2027" d="M35 1462h377l211 -1050l233 1042h328l231 -1042l211 1050h367l-383 -1462h-371l-227 1006l-224 -1006h-368zM588 1790q0 72 47 120t137 48t137 -48t47 -120q0 -75 -46.5 -122.5t-137.5 -47.5t-137.5 47.5t-46.5 122.5zM1069 1790q0 72 47 120t137 48t137.5 -48t47.5 -120 q0 -75 -47 -122.5t-138 -47.5t-137.5 47.5t-46.5 122.5z" />
<glyph unicode="&#x1e85;" horiz-adv-x="1626" d="M18 1073h334l154 -696l178 686h272l179 -672l151 682h322l-301 -1073h-312l-182 678l-174 -678h-320zM387 1386q0 72 47 120t137 48t137.5 -48t47.5 -120q0 -75 -47 -122t-138 -47t-137.5 47t-46.5 122zM868 1386q0 72 47.5 120t137.5 48t137 -48t47 -120 q0 -75 -46.5 -122t-137.5 -47t-138 47t-47 122z" />
<glyph unicode="&#x1e9e;" horiz-adv-x="1705" d="M125 0v954q0 249 130 378.5t394 129.5h684v-205l-41 -26q-71 -46 -108.5 -71t-82 -58.5t-65 -55t-35 -46.5t-14.5 -48q0 -53 42 -76t140 -46q15 -3 23 -5l61 -14q205 -46 304.5 -148.5t99.5 -265.5q0 -200 -140.5 -317t-388.5 -117q-237 0 -374 107t-160 327h326 q12 -92 63 -134t145 -42q90 0 136.5 41.5t46.5 118.5q0 28 -7.5 50t-26.5 39.5t-37.5 29t-55.5 23.5t-64.5 19t-79.5 19l-49 10q-167 38 -250.5 104t-83.5 187q0 195 256 338h-229q-133 0 -182 -68.5t-49 -240.5v-891h-328z" />
<glyph unicode="&#x1ebc;" horiz-adv-x="1267" d="M139 0v1462h1030v-280h-682v-297h641v-281h-641v-323h707v-281h-1055zM236 1583q0 320 225 320q54 0 99.5 -16t105.5 -58q3 -2 14.5 -9.5t16 -10.5t15 -9.5t16 -9t14 -6t15.5 -5t13 -1.5q32 0 43.5 30.5t11.5 87.5h207q0 -319 -225 -319q-52 0 -95.5 16.5t-109.5 57.5 q-74 53 -104 53q-19 0 -31 -10.5t-17 -31t-6.5 -37.5t-1.5 -42h-206z" />
<glyph unicode="&#x1ebd;" horiz-adv-x="1228" d="M92 524q0 275 143.5 428.5t391.5 153.5q244 0 377 -144t133 -397v-102h-723q21 -258 211 -258q85 0 129.5 31.5t62.5 95.5h309q-31 -177 -156 -271t-339 -94q-256 0 -397.5 150t-141.5 407zM223 1208q0 164 57.5 248t168.5 84q52 0 94 -18t98 -64q4 -3 17 -13t20.5 -15.5 t19.5 -12.5t22.5 -10.5t20.5 -3.5q64 0 64 129h201q0 -163 -58 -247.5t-168 -84.5q-53 0 -95 18.5t-97 63.5q-65 55 -101 55q-63 0 -63 -129h-201zM416 645h409q-2 53 -11 90t-29.5 70t-59.5 50t-96 17q-102 0 -151 -56.5t-62 -170.5z" />
<glyph unicode="&#x1ef2;" horiz-adv-x="1382" d="M23 1462h383l288 -604l295 604h369l-488 -895v-567h-356v569zM258 1896h387l252 -315h-315z" />
<glyph unicode="&#x1ef3;" horiz-adv-x="1185" d="M18 1073h359l233 -653l211 653h346l-442 -1102l-147 -391h-310l191 502zM174 1536h367l252 -336h-299z" />
<glyph unicode="&#x1ef8;" horiz-adv-x="1382" d="M23 1462h383l288 -604l295 604h369l-488 -895v-567h-356v569zM293 1583q0 320 225 320q54 0 99.5 -16t105.5 -58q3 -2 14.5 -9.5t16 -10.5t15 -9.5t16 -9t14 -6t15.5 -5t13 -1.5q33 0 44.5 30.5t11.5 87.5h207q0 -319 -226 -319q-52 0 -95.5 16.5t-109.5 57.5 q-74 53 -104 53q-19 0 -31 -10.5t-16.5 -31t-6 -37t-1.5 -42.5h-207z" />
<glyph unicode="&#x1ef9;" horiz-adv-x="1185" d="M18 1073h359l233 -653l211 653h346l-442 -1102l-147 -391h-310l191 502zM203 1208q0 164 57 248t168 84q52 0 94.5 -18t98.5 -64q4 -3 17 -13t20.5 -15.5t19.5 -12.5t22.5 -10.5t20.5 -3.5q63 0 63 129h201q0 -163 -57.5 -247.5t-167.5 -84.5q-53 0 -95.5 18.5 t-97.5 63.5q-21 18 -31.5 26t-31 18.5t-37.5 10.5q-64 0 -64 -129h-200z" />
<glyph unicode="&#x2000;" horiz-adv-x="1024" />
<glyph unicode="&#x2001;" horiz-adv-x="2048" />
<glyph unicode="&#x2002;" horiz-adv-x="1024" />
<glyph unicode="&#x2003;" horiz-adv-x="2048" />
<glyph unicode="&#x2004;" horiz-adv-x="681" />
<glyph unicode="&#x2005;" horiz-adv-x="512" />
<glyph unicode="&#x2006;" horiz-adv-x="339" />
<glyph unicode="&#x2007;" horiz-adv-x="1212" />
<glyph unicode="&#x2008;" horiz-adv-x="536" />
<glyph unicode="&#x2009;" horiz-adv-x="409" />
<glyph unicode="&#x200a;" horiz-adv-x="102" />
<glyph unicode="&#x200b;" />
<glyph unicode="&#x200c;" d="M-39 -444v1624h80v-1624h-80z" />
<glyph unicode="&#x200d;" d="M-201 979l142 141l-142 144l60 59l141 -143l141 143l60 -59l-144 -144l144 -141l-58 -57l-104 102v-1468h-80v1470l-102 -104z" />
<glyph unicode="&#x200e;" d="M-326 -444v1615h523l-260 248h110l281 -266v-37l-283 -272h-108l260 248h-443v-1536h-80z" />
<glyph unicode="&#x200f;" d="M-326 1116v37l281 266h111l-261 -248h523v-1615h-80v1536h-443l261 -248h-109z" />
<glyph unicode="&#x2010;" horiz-adv-x="843" d="M82 457v305h680v-305h-680z" />
<glyph unicode="&#x2011;" horiz-adv-x="843" d="M82 457v305h680v-305h-680z" />
<glyph unicode="&#x2012;" horiz-adv-x="1212" d="M152 629v293h1024v-293h-1024z" />
<glyph unicode="&#x2013;" horiz-adv-x="1024" d="M0 463v293h1024v-293h-1024z" />
<glyph unicode="&#x2014;" horiz-adv-x="2048" d="M0 463v293h2048v-293h-2048z" />
<glyph unicode="&#x2015;" horiz-adv-x="2048" d="M0 463v293h2048v-293h-2048z" />
<glyph unicode="&#x2018;" horiz-adv-x="524" d="M70 911l133 551h258l-68 -551h-323z" />
<glyph unicode="&#x2019;" horiz-adv-x="524" d="M63 911l68 551h324l-133 -551h-259z" />
<glyph unicode="&#x201a;" horiz-adv-x="520" d="M59 -307l68 551h324l-134 -551h-258z" />
<glyph unicode="&#x201b;" horiz-adv-x="524" d="M70 1462h325l68 -551h-258z" />
<glyph unicode="&#x201c;" horiz-adv-x="968" d="M70 911l133 551h258l-68 -551h-323zM506 911l133 551h258l-68 -551h-323z" />
<glyph unicode="&#x201d;" horiz-adv-x="968" d="M70 911l67 551h324l-133 -551h-258zM506 911l67 551h324l-133 -551h-258z" />
<glyph unicode="&#x201e;" horiz-adv-x="964" d="M61 -307l68 551h324l-134 -551h-258zM506 -307l67 551h324l-133 -551h-258z" />
<glyph unicode="&#x2020;" horiz-adv-x="1032" d="M41 799v297h309v366h332v-366h309v-297h-309v-977h-332v977h-309z" />
<glyph unicode="&#x2021;" horiz-adv-x="1032" d="M41 178v291h309v356h-309v289h309v348h332v-348h309v-289h-309v-356h309v-291h-309v-356h-332v356h-309z" />
<glyph unicode="&#x2022;" horiz-adv-x="806" d="M86 610q0 141 89.5 229.5t230.5 88.5q140 0 228.5 -88.5t88.5 -229.5q0 -142 -88 -230.5t-229 -88.5q-143 0 -231.5 88.5t-88.5 230.5z" />
<glyph unicode="&#x2026;" horiz-adv-x="1921" d="M168 158q0 82 48 130t130 48t130 -48t48 -130t-48 -130t-130 -48t-130 48t-48 130zM782 158q0 82 48.5 130t130.5 48t130 -48t48 -130t-48 -130t-130 -48t-130.5 48t-48.5 130zM1397 158q0 82 48 130t130 48t130 -48t48 -130t-48 -130t-130 -48t-130 48t-48 130z" />
<glyph unicode="&#x202a;" d="M-326 -444v1615h115v-79h-35v-1536h-80zM-63 844l260 248h-224v79h224l-260 248h110l281 -266v-37l-283 -272h-108z" />
<glyph unicode="&#x202b;" d="M-326 1116v37l281 266h111l-261 -248h224v-79h-224l261 -248h-109zM213 1092v79h115v-1615h-80v1536h-35z" />
<glyph unicode="&#x202c;" d="M-287 1006v110l267 281h36l273 -283v-108l-248 260v-1710h-80v1710z" />
<glyph unicode="&#x202d;" d="M-410 -444v1615h461l-260 248h111l280 -266v-37l-282 -272h-109l260 248h-381v-1536h-80zM20 844l302 289l-302 286h111l281 -266v-37l-283 -272h-109z" />
<glyph unicode="&#x202e;" d="M-410 1116v37l281 266h111l-301 -286l301 -289h-109zM-180 1116v37l280 266h111l-260 -248h461v-1615h-80v1536h-381l260 -248h-109z" />
<glyph unicode="&#x202f;" horiz-adv-x="470" />
<glyph unicode="&#x2030;" horiz-adv-x="2850" d="M72 1022q0 212 101 326t278 114q178 0 278 -113t100 -327t-99 -326t-279 -112q-177 0 -278 112.5t-101 325.5zM336 1020q0 -111 28.5 -161t86.5 -50t86 50t28 161t-28 163t-86 52q-115 0 -115 -215zM530 0l662 1415h309l-661 -1415h-310zM1202 414q0 212 101 326t278 114 q178 0 278.5 -113.5t100.5 -326.5q0 -214 -99.5 -326.5t-279.5 -112.5q-177 0 -278 113t-101 326zM1466 412q0 -111 28.5 -161t86.5 -50t86.5 50t28.5 161q0 215 -115 215t-115 -215zM2021 414q0 212 101 326t278 114q178 0 278.5 -113.5t100.5 -326.5q0 -214 -99.5 -326.5 t-279.5 -112.5q-177 0 -278 113t-101 326zM2286 412q0 -111 28 -161t86 -50t86.5 50t28.5 161q0 215 -115 215q-58 0 -86 -52t-28 -163z" />
<glyph unicode="&#x2032;" horiz-adv-x="526" d="M63 920l74 542h326l-144 -542h-256z" />
<glyph unicode="&#x2033;" horiz-adv-x="970" d="M63 920l74 542h326l-144 -542h-256zM510 920l74 542h325l-143 -542h-256z" />
<glyph unicode="&#x2039;" horiz-adv-x="720" d="M66 524l256 467h340l-226 -465l226 -467h-343z" />
<glyph unicode="&#x203a;" horiz-adv-x="720" d="M61 59l224 465l-224 467h340l254 -465l-256 -467h-338z" />
<glyph unicode="&#x2044;" horiz-adv-x="253" d="M-358 0l661 1415h309l-661 -1415h-309z" />
<glyph unicode="&#x205f;" horiz-adv-x="588" />
<glyph unicode="&#x2070;" horiz-adv-x="843" d="M43 1233q0 212 101 326t278 114q178 0 278.5 -113.5t100.5 -326.5q0 -214 -99.5 -326t-279.5 -112q-177 0 -278 112.5t-101 325.5zM307 1231q0 -111 28.5 -161t86.5 -50t86.5 50t28.5 161q0 215 -115 215t-115 -215z" />
<glyph unicode="&#x2074;" horiz-adv-x="843" d="M63 979v172l367 498h252v-490h102l-20 -180h-82v-160h-236v160h-383zM279 1159h167v232z" />
<glyph unicode="&#x2075;" horiz-adv-x="843" d="M98 1049h228q18 -76 100 -76q45 0 69.5 28t24.5 80q0 103 -96 103q-64 0 -98 -37h-209l43 502h540v-191h-356l-10 -131q67 31 139 31q135 0 207 -73t72 -200q0 -142 -83 -216t-239 -74q-151 0 -235.5 64.5t-96.5 189.5z" />
<glyph unicode="&#x2076;" horiz-adv-x="843" d="M82 1202q0 102 20 185.5t62 148.5t113.5 101t166.5 36q133 0 211 -60.5t97 -176.5l-226 -21q-9 40 -30 58t-60 18q-104 0 -119 -184q65 45 164 45q134 0 206.5 -72t72.5 -195q0 -134 -88 -212t-242 -78q-177 0 -262.5 106t-85.5 301zM326 1085q0 -49 25 -81.5t75 -32.5 q104 0 104 108q0 109 -100 109q-46 0 -75 -26.5t-29 -76.5z" />
<glyph unicode="&#x2077;" horiz-adv-x="843" d="M92 1440v209h647v-174q-174 -303 -270 -656h-256q111 358 254 621h-375z" />
<glyph unicode="&#x2078;" horiz-adv-x="843" d="M74 1049q0 69 33 120t90 76q-101 60 -101 185q0 114 85 178.5t243 64.5q157 0 240.5 -64.5t83.5 -176.5q0 -127 -103 -185q125 -59 125 -196q0 -124 -89 -190t-261 -66q-171 0 -258.5 65.5t-87.5 188.5zM313 1061q0 -92 107 -92q110 0 110 92t-110 92q-107 0 -107 -92z M326 1415q0 -86 94 -86q96 0 96 86t-96 86q-46 0 -70 -23.5t-24 -62.5z" />
<glyph unicode="&#x2079;" horiz-adv-x="843" d="M84 1382q0 134 88 212.5t242 78.5q346 0 346 -416q0 -102 -18.5 -183t-58 -145.5t-109 -99t-164.5 -34.5q-139 0 -222 62.5t-98 186.5h229q13 -67 97 -67q55 0 80 43t30 145q-66 -51 -164 -51q-133 0 -205.5 72t-72.5 196zM313 1389q0 -109 101 -109q47 0 75.5 26 t28.5 76q0 52 -25.5 82.5t-76.5 30.5q-103 0 -103 -106z" />
<glyph unicode="&#x207a;" horiz-adv-x="843" d="M113 1143v198h206v218h203v-218h209v-198h-209v-213h-203v213h-206z" />
<glyph unicode="&#x207b;" horiz-adv-x="843" d="M113 1143v200h618v-200h-618z" />
<glyph unicode="&#x207c;" horiz-adv-x="843" d="M113 1006v172h618v-172h-618zM113 1296v172h618v-172h-618z" />
<glyph unicode="&#x207d;" horiz-adv-x="428" d="M59 1221q0 141 41 274.5t117 241.5h195q-146 -240 -146 -516q0 -274 146 -516h-195q-75 106 -116.5 239.5t-41.5 276.5z" />
<glyph unicode="&#x207e;" horiz-adv-x="428" d="M16 705q144 236 144 516q0 279 -144 516h195q76 -107 117 -241.5t41 -274.5q0 -141 -41 -275t-117 -241h-195z" />
<glyph unicode="&#x2080;" horiz-adv-x="843" d="M43 158q0 212 101 326t278 114q178 0 278.5 -113.5t100.5 -326.5q0 -214 -99.5 -326.5t-279.5 -112.5q-177 0 -278 113t-101 326zM307 156q0 -111 28.5 -161t86.5 -50t86.5 50t28.5 161q0 215 -115 215t-115 -215z" />
<glyph unicode="&#x2081;" horiz-adv-x="843" d="M94 397l289 176h233v-829h-249v575l-166 -100z" />
<glyph unicode="&#x2082;" horiz-adv-x="843" d="M92 319q26 137 114.5 208t231.5 71t226.5 -70.5t83.5 -193.5q0 -89 -46 -161t-151 -157q-31 -25 -94 -71h293v-201h-641v178q51 37 131.5 101t87.5 69q103 81 139.5 125.5t36.5 101.5q0 80 -78 80q-83 0 -104 -102z" />
<glyph unicode="&#x2083;" horiz-adv-x="843" d="M76 20h229q9 -118 113 -118q102 0 102 94q0 86 -98 86h-68v172h66q41 0 63.5 21t22.5 61q0 80 -88 80q-45 0 -70.5 -23.5t-36.5 -73.5l-225 23q14 118 101 187t241 69q152 0 237 -64.5t85 -173.5q0 -116 -97 -176q115 -59 115 -198q0 -123 -89.5 -195t-252.5 -72 q-164 0 -255 77t-95 224z" />
<glyph unicode="&#x2084;" horiz-adv-x="843" d="M63 76l367 497h252v-489h102l-20 -180h-82v-160h-236v160h-383v172zM279 84h167v231z" />
<glyph unicode="&#x2085;" horiz-adv-x="843" d="M98 -27h228q9 -39 32.5 -57t67.5 -18q45 0 69.5 28t24.5 80q0 103 -96 103q-64 0 -98 -37h-209l43 501h540v-190h-356l-10 -131q67 31 139 31q135 0 207 -73t72 -200q0 -142 -83 -216.5t-239 -74.5q-151 0 -235.5 64.5t-96.5 189.5z" />
<glyph unicode="&#x2086;" horiz-adv-x="843" d="M82 127q0 102 20 185.5t62 148.5t113.5 101t166.5 36q133 0 211 -61t97 -177l-226 -20q-9 40 -30 58t-60 18q-104 0 -119 -185q65 45 164 45q134 0 206.5 -71.5t72.5 -194.5q0 -134 -88 -212.5t-242 -78.5q-177 0 -262.5 106.5t-85.5 301.5zM326 10q0 -49 25 -81.5 t75 -32.5q104 0 104 108q0 109 -100 109q-46 0 -75 -26.5t-29 -76.5z" />
<glyph unicode="&#x2087;" horiz-adv-x="843" d="M92 365v208h647v-174q-174 -304 -270 -655h-256q111 358 254 621h-375z" />
<glyph unicode="&#x2088;" horiz-adv-x="843" d="M74 -27q0 69 33 120.5t90 76.5q-101 60 -101 184q0 114 85 179t243 65q157 0 240.5 -64.5t83.5 -177.5q0 -126 -103 -184q125 -59 125 -197q0 -124 -89 -190t-261 -66q-171 0 -258.5 65.5t-87.5 188.5zM313 -14q0 -92 107 -92q110 0 110 92t-110 92q-107 0 -107 -92z M326 340q0 -86 94 -86q96 0 96 86t-96 86q-46 0 -70 -23.5t-24 -62.5z" />
<glyph unicode="&#x2089;" horiz-adv-x="843" d="M84 307q0 134 88 212.5t242 78.5q346 0 346 -416q0 -102 -18.5 -183.5t-58 -145.5t-109 -99t-164.5 -35q-139 0 -222 63t-98 187h229q13 -67 97 -67q55 0 80 43t30 145q-66 -51 -164 -51q-133 0 -205.5 72t-72.5 196zM313 313q0 -108 101 -108q47 0 75.5 26t28.5 76 q0 52 -25.5 82.5t-76.5 30.5q-103 0 -103 -107z" />
<glyph unicode="&#x208a;" horiz-adv-x="843" d="M113 61v199h206v217h203v-217h209v-199h-209v-213h-203v213h-206z" />
<glyph unicode="&#x208b;" horiz-adv-x="843" d="M113 61v201h618v-201h-618z" />
<glyph unicode="&#x208c;" horiz-adv-x="843" d="M113 -76v172h618v-172h-618zM113 215v172h618v-172h-618z" />
<glyph unicode="&#x208d;" horiz-adv-x="428" d="M59 139q0 141 41 274.5t117 241.5h195q-146 -240 -146 -516q0 -274 146 -516h-195q-75 106 -116.5 239.5t-41.5 276.5z" />
<glyph unicode="&#x208e;" horiz-adv-x="428" d="M16 -377q144 236 144 516q0 279 -144 516h195q76 -107 117 -241.5t41 -274.5q0 -141 -41 -275t-117 -241h-195z" />
<glyph unicode="&#x20a3;" horiz-adv-x="1212" d="M39 221v174h164v1020h944v-276h-608v-299h577v-267h-577v-178h364v-174h-364v-221h-336v221h-164z" />
<glyph unicode="&#x20a4;" horiz-adv-x="1212" d="M86 467v174h162q-2 13 -17 92h-145v174h115q-6 49 -6 92q0 208 127 331.5t346 123.5q206 0 326 -102.5t139 -296.5l-304 -35q-15 83 -49.5 117t-107.5 34q-164 0 -164 -188q0 -22 4 -76h420v-174h-389q4 -19 7.5 -52.5t4.5 -39.5h377v-174h-383q-18 -110 -82 -195h682 v-272h-1020v229q102 116 119 238h-162z" />
<glyph unicode="&#x20a7;" horiz-adv-x="2990" d="M139 0v1415h479q525 0 525 -459q0 -236 -132 -355.5t-393 -119.5h-159v-481h-320zM459 743h162q217 0 217 209q0 106 -51 154.5t-166 48.5h-162v-412zM1245 829v244h150v240h315v-240h217v-244h-217v-464q0 -62 28 -99t77 -37q37 0 104 19l43 -228q-113 -40 -227 -40 q-340 0 -340 395v454h-150zM2034 332h282q12 -69 56 -101t122 -32q144 0 144 108q0 47 -26.5 73t-92.5 38l-111 20q-179 35 -266.5 112.5t-87.5 219.5q0 157 113.5 246.5t312.5 89.5q376 0 434 -313l-280 -33q-15 67 -52.5 97t-103.5 30q-68 0 -105.5 -26.5t-37.5 -78.5 q0 -43 31 -69t102 -39l112 -23q182 -39 265.5 -119t83.5 -221q0 -165 -112.5 -253.5t-322.5 -88.5q-216 0 -333.5 92.5t-126.5 270.5z" />
<glyph unicode="&#x20ab;" horiz-adv-x="1212" d="M123 680q0 92 23.5 170.5t69 139.5t119 95.5t167.5 34.5q148 0 235 -102v170h-254v174h254v100h303v-100h111v-174h-111v-903h-292v92q-97 -117 -261 -117q-174 0 -269 112.5t-95 307.5zM152 0v172h966v-172h-966zM428 690q0 -95 42 -144.5t110 -49.5q73 0 115 50.5 t42 127.5v26q0 89 -39.5 138t-113.5 49q-80 0 -118 -54t-38 -143z" />
<glyph unicode="&#x20ac;" horiz-adv-x="1212" d="M31 485l26 158h99v62q0 48 2 71h-127l26 156h115q18 119 57 212.5t102.5 164t156.5 108t212 37.5q210 0 326 -97.5t152 -297.5l-308 -39q-23 90 -62 125t-116 35q-152 0 -198 -248h407l-27 -156h-395q-2 -23 -2 -69v-64h379l-27 -158h-337q21 -121 68.5 -184t131.5 -63 q85 0 123.5 39.5t56.5 132.5h324q-60 -447 -510 -447q-126 0 -221 37.5t-154.5 109t-94 163.5t-48.5 212h-137z" />
<glyph unicode="&#x20b4;" horiz-adv-x="1212" d="M25 498v155h206q91 70 252 131l6 2h-464v156h774q41 47 41 115q0 73 -52.5 113t-148.5 40q-98 0 -154 -36t-75 -111l-293 35q23 173 157.5 266.5t360.5 93.5q228 0 361.5 -101t133.5 -274q0 -77 -24 -141h82v-156h-197q-86 -75 -241 -133h438v-155h-760q-41 -47 -41 -121 q0 -78 59 -121t168 -43q102 0 165.5 37.5t76.5 107.5h299q-15 -186 -155.5 -289.5t-376.5 -103.5q-257 0 -396 102t-139 291q0 73 25 140h-88z" />
<glyph unicode="&#x20b9;" horiz-adv-x="1212" d="M129 489v193h238q136 0 210 38.5t91 123.5h-539v200h535q-21 80 -93.5 116t-201.5 36h-240v219h1016l-17 -201h-229q64 -61 84 -170h137l-16 -200h-113q-18 -154 -126.5 -246t-280.5 -113l-19 -2l537 -483h-420z" />
<glyph unicode="&#x20ba;" horiz-adv-x="1212" d="M35 670l160 57v129l-107 -39l-53 150l160 57v391h323v-274l287 104l55 -147l-342 -125v-127l287 104l55 -149l-342 -123v-385h8q134 0 220.5 97t89.5 247h315q-12 -301 -194 -469t-494 -168h-268v561l-107 -39z" />
<glyph unicode="&#x20bd;" horiz-adv-x="1212" d="M59 258v209h123v106h-123v222h123v620h463q261 0 399 -103t138 -313q0 -206 -135.5 -316t-401.5 -110h-139v-106h473v-209h-473v-258h-324v258h-123zM506 795h139q106 0 163.5 53t57.5 145q0 189 -221 189h-139v-387z" />
<glyph unicode="&#x2113;" horiz-adv-x="1042" d="M31 352l168 125v533q0 231 110.5 358t298.5 127q163 0 254.5 -98t91.5 -269q0 -351 -422 -677v-17q0 -217 150 -217q50 0 93 21t95 69l138 -168q-151 -176 -402 -176q-321 0 -389 293l-94 -70zM532 700q95 97 146 205t51 213q0 71 -23 109.5t-67 38.5q-55 0 -81 -63 t-26 -163v-340z" />
<glyph unicode="&#x2116;" horiz-adv-x="2416" d="M137 0v1462h314l622 -913v913h334v-1462h-309l-629 915v-915h-332zM1538 1073q0 201 109.5 313.5t304.5 112.5q197 0 305 -112t108 -312t-109 -313t-306 -113q-195 0 -303.5 112t-108.5 312zM1802 1073q0 -209 150 -209q147 0 147 209q0 211 -147 211q-150 0 -150 -211z " />
<glyph unicode="&#x2122;" horiz-adv-x="1921" d="M29 1264v198h729v-198h-252v-621h-225v621h-252zM874 643v819h281l186 -565l187 565h278v-819h-204v518l-175 -518h-178l-172 514v-514h-203z" />
<glyph unicode="&#x2126;" horiz-adv-x="1595" d="M63 0v283h261q-209 212 -209 514q0 210 80 367.5t237 246t373 88.5q313 0 495.5 -182t182.5 -502q0 -324 -211 -532h246v-283h-617v270q115 82 166 200.5t51 289.5q0 212 -79 324t-238 112q-160 0 -241 -111t-81 -325q0 -171 51.5 -289.5t165.5 -200.5v-270h-633z" />
<glyph unicode="&#x212e;" horiz-adv-x="1865" d="M102 721q0 152 65.5 290t176 238.5t264 159.5t322.5 59t323 -59t266 -159t178 -238.5t66 -290.5v-21h-1345q-10 0 -10 -8v-407q0 -27 18 -45q210 -222 508 -222q154 0 291 64t243 182h119q-109 -134 -283 -210.5t-374 -76.5q-224 0 -414.5 98.5t-302 270t-111.5 375.5z M408 756q0 -15 10 -15h1030q8 0 8 15v407q0 28 -18 49q-102 101 -232.5 156t-271.5 55q-138 0 -270 -57.5t-236 -161.5q-20 -17 -20 -49v-399z" />
<glyph unicode="&#x2150;" horiz-adv-x="1941" d="M94 1188l289 176h233v-829h-249v575l-166 -100zM485 0l662 1415h309l-661 -1415h-310zM1190 621v208h647v-174q-174 -304 -270 -655h-256q111 358 254 621h-375z" />
<glyph unicode="&#x2151;" horiz-adv-x="1941" d="M94 1188l289 176h233v-829h-249v575l-166 -100zM485 0l662 1415h309l-661 -1415h-310zM1182 563q0 134 87.5 212.5t241.5 78.5q179 0 263 -109t84 -307q0 -102 -18.5 -183.5t-58.5 -145.5t-109.5 -99t-164.5 -35q-139 0 -221.5 63t-97.5 187h229q13 -67 96 -67 q55 0 80.5 43.5t30.5 144.5q-66 -51 -164 -51q-133 0 -205.5 72t-72.5 196zM1411 569q0 -108 100 -108q47 0 76 26t29 76q0 52 -26 82.5t-77 30.5q-102 0 -102 -107z" />
<glyph unicode="&#x2153;" horiz-adv-x="1941" d="M94 1188l289 176h233v-829h-249v575l-166 -100zM485 0l662 1415h309l-661 -1415h-310zM1174 276h229q9 -118 113 -118q102 0 102 94q0 86 -98 86h-68v172h66q41 0 63.5 21t22.5 61q0 80 -88 80q-45 0 -70.5 -23.5t-36.5 -73.5l-225 23q14 118 101 187t241 69 q152 0 236.5 -64.5t84.5 -173.5q0 -117 -96 -176q115 -59 115 -198q0 -123 -89.5 -195t-252.5 -72q-164 0 -255 77t-95 224z" />
<glyph unicode="&#x2154;" horiz-adv-x="1941" d="M92 1110q26 137 114.5 208t231.5 71t226.5 -71t83.5 -194q0 -89 -45.5 -160t-151.5 -157q-44 -36 -94 -72h293v-170l397 850h309l-661 -1415h-310l250 535h-626v178q51 37 131.5 101t87.5 69q103 81 139.5 125.5t36.5 101.5q0 80 -78 80q-83 0 -104 -103zM1174 276h229 q9 -118 113 -118q102 0 102 94q0 86 -98 86h-68v172h66q41 0 63.5 21t22.5 61q0 80 -88 80q-45 0 -70.5 -23.5t-36.5 -73.5l-225 23q14 118 101 187t241 69q152 0 236.5 -64.5t84.5 -173.5q0 -117 -96 -176q115 -59 115 -198q0 -123 -89.5 -195t-252.5 -72q-164 0 -255 77 t-95 224z" />
<glyph unicode="&#x2155;" horiz-adv-x="1941" d="M94 1188l289 176h233v-829h-249v575l-166 -100zM485 0l662 1415h309l-661 -1415h-310zM1196 229h227q9 -39 33 -57t68 -18q45 0 69.5 28t24.5 80q0 103 -96 103q-65 0 -99 -37h-209l43 501h541v-190h-356l-10 -131q67 31 139 31q135 0 206.5 -73t71.5 -200 q0 -142 -82.5 -216.5t-238.5 -74.5q-151 0 -235.5 64.5t-96.5 189.5z" />
<glyph unicode="&#x2156;" horiz-adv-x="1941" d="M92 1110q26 137 114.5 208t231.5 71t226.5 -71t83.5 -194q0 -89 -45.5 -160t-151.5 -157q-44 -36 -94 -72h293v-170l397 850h309l-661 -1415h-310l250 535h-626v178q51 37 131.5 101t87.5 69q103 81 139.5 125.5t36.5 101.5q0 80 -78 80q-83 0 -104 -103zM1196 229h227 q9 -39 33 -57t68 -18q45 0 69.5 28t24.5 80q0 103 -96 103q-65 0 -99 -37h-209l43 501h541v-190h-356l-10 -131q67 31 139 31q135 0 206.5 -73t71.5 -200q0 -142 -82.5 -216.5t-238.5 -74.5q-151 0 -235.5 64.5t-96.5 189.5z" />
<glyph unicode="&#x2157;" horiz-adv-x="1941" d="M76 811h229q9 -119 113 -119q102 0 102 94q0 86 -98 86h-68v172h66q41 0 63.5 21t22.5 61q0 80 -88 80q-45 0 -70.5 -23t-36.5 -73l-225 23q14 118 101 187t241 69q152 0 237 -64.5t85 -173.5q0 -116 -97 -176q115 -59 115 -199q0 -123 -89.5 -194.5t-252.5 -71.5 q-164 0 -255 77t-95 224zM485 0l662 1415h309l-661 -1415h-310zM1196 229h227q9 -39 33 -57t68 -18q45 0 69.5 28t24.5 80q0 103 -96 103q-65 0 -99 -37h-209l43 501h541v-190h-356l-10 -131q67 31 139 31q135 0 206.5 -73t71.5 -200q0 -142 -82.5 -216.5t-238.5 -74.5 q-151 0 -235.5 64.5t-96.5 189.5z" />
<glyph unicode="&#x2158;" horiz-adv-x="1941" d="M63 694v172l367 498h252v-490h102l-20 -180h-82v-159h-236v159h-383zM279 874h167v232zM485 0l662 1415h309l-661 -1415h-310zM1196 229h227q9 -39 33 -57t68 -18q45 0 69.5 28t24.5 80q0 103 -96 103q-65 0 -99 -37h-209l43 501h541v-190h-356l-10 -131q67 31 139 31 q135 0 206.5 -73t71.5 -200q0 -142 -82.5 -216.5t-238.5 -74.5q-151 0 -235.5 64.5t-96.5 189.5z" />
<glyph unicode="&#x2159;" horiz-adv-x="1941" d="M94 1188l289 176h233v-829h-249v575l-166 -100zM485 0l662 1415h309l-661 -1415h-310zM1180 383q0 102 20 185.5t62 148.5t113.5 101t166.5 36q133 0 210.5 -61t96.5 -177l-225 -20q-9 40 -30 58t-60 18q-104 0 -119 -185q65 45 164 45q134 0 206.5 -71.5t72.5 -194.5 q0 -134 -88 -212.5t-242 -78.5q-177 0 -262.5 106.5t-85.5 301.5zM1423 266q0 -49 25.5 -81.5t75.5 -32.5q104 0 104 108q0 109 -100 109q-47 0 -76 -26.5t-29 -76.5z" />
<glyph unicode="&#x215a;" horiz-adv-x="1941" d="M98 764h228q18 -76 100 -76q45 0 69.5 28.5t24.5 80.5q0 102 -96 102q-64 0 -98 -37h-209l43 502h540v-190h-356l-10 -132q67 31 139 31q136 0 207.5 -72.5t71.5 -199.5q0 -142 -83 -216.5t-239 -74.5q-151 0 -235.5 64.5t-96.5 189.5zM485 0l662 1415h309l-661 -1415 h-310zM1180 383q0 102 20 185.5t62 148.5t113.5 101t166.5 36q133 0 210.5 -61t96.5 -177l-225 -20q-9 40 -30 58t-60 18q-104 0 -119 -185q65 45 164 45q134 0 206.5 -71.5t72.5 -194.5q0 -134 -88 -212.5t-242 -78.5q-177 0 -262.5 106.5t-85.5 301.5zM1423 266 q0 -49 25.5 -81.5t75.5 -32.5q104 0 104 108q0 109 -100 109q-47 0 -76 -26.5t-29 -76.5z" />
<glyph unicode="&#x215b;" horiz-adv-x="1941" d="M94 1188l289 176h233v-829h-249v575l-166 -100zM485 0l662 1415h309l-661 -1415h-310zM1171 229q0 69 33 120.5t90 76.5q-100 59 -100 184q0 114 85 179t243 65q157 0 240 -64.5t83 -177.5q0 -127 -102 -184q125 -59 125 -197q0 -124 -89 -190t-261 -66q-171 0 -259 65.5 t-88 188.5zM1411 242q0 -92 107 -92q110 0 110 92t-110 92q-107 0 -107 -92zM1423 596q0 -86 95 -86q96 0 96 86t-96 86q-46 0 -70.5 -23.5t-24.5 -62.5z" />
<glyph unicode="&#x215c;" horiz-adv-x="1941" d="M76 811h229q9 -119 113 -119q102 0 102 94q0 86 -98 86h-68v172h66q41 0 63.5 21t22.5 61q0 80 -88 80q-45 0 -70.5 -23t-36.5 -73l-225 23q14 118 101 187t241 69q152 0 237 -64.5t85 -173.5q0 -116 -97 -176q115 -59 115 -199q0 -123 -89.5 -194.5t-252.5 -71.5 q-164 0 -255 77t-95 224zM485 0l662 1415h309l-661 -1415h-310zM1171 229q0 69 33 120.5t90 76.5q-100 59 -100 184q0 114 85 179t243 65q157 0 240 -64.5t83 -177.5q0 -127 -102 -184q125 -59 125 -197q0 -124 -89 -190t-261 -66q-171 0 -259 65.5t-88 188.5zM1411 242 q0 -92 107 -92q110 0 110 92t-110 92q-107 0 -107 -92zM1423 596q0 -86 95 -86q96 0 96 86t-96 86q-46 0 -70.5 -23.5t-24.5 -62.5z" />
<glyph unicode="&#x215d;" horiz-adv-x="1941" d="M98 764h228q18 -76 100 -76q45 0 69.5 28.5t24.5 80.5q0 102 -96 102q-64 0 -98 -37h-209l43 502h540v-190h-356l-10 -132q67 31 139 31q136 0 207.5 -72.5t71.5 -199.5q0 -142 -83 -216.5t-239 -74.5q-151 0 -235.5 64.5t-96.5 189.5zM485 0l662 1415h309l-661 -1415 h-310zM1171 229q0 69 33 120.5t90 76.5q-100 59 -100 184q0 114 85 179t243 65q157 0 240 -64.5t83 -177.5q0 -127 -102 -184q125 -59 125 -197q0 -124 -89 -190t-261 -66q-171 0 -259 65.5t-88 188.5zM1411 242q0 -92 107 -92q110 0 110 92t-110 92q-107 0 -107 -92z M1423 596q0 -86 95 -86q96 0 96 86t-96 86q-46 0 -70.5 -23.5t-24.5 -62.5z" />
<glyph unicode="&#x215e;" horiz-adv-x="1941" d="M92 1155v209h647v-174q-174 -304 -270 -655h-256q110 356 254 620h-375zM485 0l662 1415h309l-661 -1415h-310zM1171 229q0 69 33 120.5t90 76.5q-100 59 -100 184q0 114 85 179t243 65q157 0 240 -64.5t83 -177.5q0 -127 -102 -184q125 -59 125 -197q0 -124 -89 -190 t-261 -66q-171 0 -259 65.5t-88 188.5zM1411 242q0 -92 107 -92q110 0 110 92t-110 92q-107 0 -107 -92zM1423 596q0 -86 95 -86q96 0 96 86t-96 86q-46 0 -70.5 -23.5t-24.5 -62.5z" />
<glyph unicode="&#x2202;" horiz-adv-x="1232" d="M61 428q0 212 132 351t344 139q196 0 299 -125v61q0 328 -191 328q-66 0 -107.5 -29.5t-62.5 -97.5l-299 41q87 358 471 358q490 0 490 -647q0 -112 -14 -213.5t-42.5 -197.5t-76.5 -174t-112 -136.5t-153 -90.5t-196 -32q-216 0 -349 128.5t-133 336.5zM362 432 q0 -91 54 -148t145 -57q98 0 159.5 70t61.5 182q0 94 -53 144.5t-141 50.5q-108 0 -167 -66.5t-59 -175.5z" />
<glyph unicode="&#x2206;" horiz-adv-x="1482" d="M59 0v258l469 1204h424l469 -1204v-258h-1362zM420 293h629l-316 870z" />
<glyph unicode="&#x220f;" horiz-adv-x="1490" d="M135 0v1462h1221v-1462h-355v1155h-512v-1155h-354z" />
<glyph unicode="&#x2211;" horiz-adv-x="1271" d="M63 0l420 631l-420 620v211h1149v-288h-718l358 -533l-375 -561h742v-289h-1156v209z" />
<glyph unicode="&#x2212;" horiz-adv-x="1212" d="M162 547v301h889v-301h-889z" />
<glyph unicode="&#x2215;" horiz-adv-x="253" d="M-358 0l661 1415h309l-661 -1415h-309z" />
<glyph unicode="&#x2219;" horiz-adv-x="536" d="M90 1020q0 82 48 130t130 48t130 -48t48 -130t-48 -130t-130 -48t-130 48t-48 130z" />
<glyph unicode="&#x221a;" horiz-adv-x="1331" d="M66 573v293h421l156 -493l346 1124h342l-522 -1497h-338l-223 573h-182z" />
<glyph unicode="&#x221e;" horiz-adv-x="1222" d="M47 696q0 178 81 276.5t216 98.5q170 0 266 -153q97 153 271 153q135 0 215 -97t80 -272q0 -178 -81 -277t-216 -99q-173 0 -269 157q-94 -157 -268 -157q-136 0 -215.5 97t-79.5 273zM279 698q0 -66 26 -102.5t70 -36.5q51 0 87 40t50 106q-15 63 -51 99t-86 36 q-44 0 -70 -37t-26 -105zM713 698q15 -63 51.5 -101t85.5 -38q94 0 94 139q0 68 -25.5 105t-68.5 37q-51 0 -86 -38.5t-51 -103.5z" />
<glyph unicode="&#x222b;" horiz-adv-x="745" d="M20 -207l43 234q78 -17 111 -17q59 0 85 28t26 81q0 17 -4 63l-121 856q-8 62 -8 97q2 159 92 251.5t258 92.5q110 0 223 -39l-43 -234q-59 17 -104 17q-105 0 -105 -111q0 -23 4 -59l123 -863q6 -39 6 -88q0 -161 -92.5 -254.5t-265.5 -93.5q-110 0 -228 39z" />
<glyph unicode="&#x2248;" horiz-adv-x="1212" d="M49 172q0 238 88 354.5t254 116.5q65 0 121.5 -23t134.5 -81q48 -34 77 -49t56 -15q103 0 103 154h278q0 -471 -340 -471q-63 0 -121.5 23.5t-134.5 80.5q-86 64 -133 64q-53 0 -77.5 -37.5t-24.5 -116.5h-281zM49 748q0 238 88 354.5t254 116.5q65 0 121.5 -23.5 t134.5 -81.5q47 -34 76 -48.5t57 -14.5q103 0 103 153h278q0 -471 -340 -471q-63 0 -121 24t-135 81q-88 65 -133 65q-53 0 -77.5 -38t-24.5 -117h-281z" />
<glyph unicode="&#x2260;" horiz-adv-x="1212" d="M156 324v278h272l102 193h-374v278h497l107 213h252l-103 -213h148v-278h-273l-102 -193h375v-278h-500l-104 -213h-252l102 213h-147z" />
<glyph unicode="&#x2264;" horiz-adv-x="1212" d="M137 0v266h946v-266h-946zM137 696v277l946 346v-283l-645 -196l645 -199v-293z" />
<glyph unicode="&#x2265;" horiz-adv-x="1212" d="M129 0v266h946v-266h-946zM129 348v287l645 196l-645 199v289l946 -346v-277z" />
<glyph unicode="&#x25ca;" horiz-adv-x="1284" d="M63 731l420 731h320l418 -731l-418 -731h-320zM420 729l223 -405l225 405l-225 408z" />
<glyph unicode="&#x25cc;" horiz-adv-x="1357" d="M92 565q0 31 18.5 49.5t47.5 18.5q30 0 48.5 -18.5t18.5 -49.5q0 -30 -18.5 -47.5t-48.5 -17.5t-48 17.5t-18 47.5zM127 377q0 31 18.5 49t47.5 18q30 0 48.5 -18.5t18.5 -48.5t-18.5 -48t-48.5 -18t-48 18t-18 48zM127 760q0 30 18.5 48.5t47.5 18.5q30 0 48.5 -18.5 t18.5 -48.5t-18.5 -48t-48.5 -18t-48 18t-18 48zM231 193q0 31 18.5 49t47.5 18q30 0 49 -18.5t19 -48.5t-19 -48t-49 -18t-48 18t-18 48zM231 940q0 31 18.5 49.5t47.5 18.5q30 0 49 -19t19 -49t-19 -48t-49 -18t-48 18t-18 48zM408 80q0 31 18 49t47 18q30 0 49 -18.5 t19 -48.5t-19 -48t-49 -18q-29 0 -47 18t-18 48zM408 1055q0 31 18 49t47 18q30 0 49 -18.5t19 -48.5t-19 -48t-49 -18q-29 0 -47 17.5t-18 48.5zM610 45q0 31 18.5 49.5t47.5 18.5q30 0 48.5 -18.5t18.5 -49.5q0 -30 -18.5 -47.5t-48.5 -17.5t-48 17.5t-18 47.5zM610 1090 q0 30 18 48.5t48 18.5t48.5 -18.5t18.5 -48.5t-18.5 -48t-48.5 -18t-48 18t-18 48zM815 80q0 30 18.5 48.5t47.5 18.5q30 0 48.5 -18.5t18.5 -48.5t-18.5 -48t-48.5 -18t-48 18t-18 48zM815 1055q0 31 18.5 49t47.5 18q30 0 48.5 -18.5t18.5 -48.5t-18.5 -48t-48.5 -18 t-48 18t-18 48zM989 193q0 31 18.5 49t47.5 18q30 0 48.5 -18.5t18.5 -48.5t-18.5 -48t-48.5 -18t-48 18t-18 48zM989 940q0 31 18.5 49.5t47.5 18.5t48 -19t19 -49t-18.5 -48t-48.5 -18t-48 18t-18 48zM1100 377q0 31 18 49t47 18q30 0 49 -18.5t19 -48.5t-19 -48t-49 -18 q-29 0 -47 17.5t-18 48.5zM1100 760q0 31 18 49t47 18q30 0 49 -18.5t19 -48.5t-19 -48t-49 -18q-29 0 -47 18t-18 48zM1133 565q0 31 18 49.5t47 18.5q30 0 49 -19t19 -49t-19 -47.5t-49 -17.5t-47.5 17.5t-17.5 47.5z" />
<glyph unicode="&#x25fc;" horiz-adv-x="1075" d="M0 0v1075h1075v-1075h-1075z" />
<glyph unicode="&#x260e;" horiz-adv-x="1740" d="M162 709q0 201 89.5 362.5t251.5 253.5t367 92t367 -92t252 -253.5t90 -362.5q0 -150 -52.5 -281.5t-145.5 -225.5t-225.5 -148t-285.5 -54t-285.5 54t-225 148t-145 225.5t-52.5 281.5zM494 938q0 -60 41 -140t112 -161q121 -144 242 -224.5t209 -80.5q58 0 124 48.5 t66 94.5q0 48 -87.5 108t-137.5 60q-48 0 -66 -88l-16 -10q-77 38 -160.5 119t-113.5 153l10 17q90 21 90 65q0 54 -63 140.5t-105 86.5q-45 0 -95 -65.5t-50 -122.5z" />
<glyph unicode="&#x260f;" horiz-adv-x="1740" d="M123 713q0 215 95 386t266 267t386 96q161 0 300.5 -56t237.5 -154.5t154 -238t56 -300.5q0 -215 -95.5 -386.5t-266.5 -267.5t-386 -96q-161 0 -300 56t-237 155t-154 238.5t-56 300.5zM287 713q0 -267 162 -430.5t421 -163.5q175 0 310 78q131 77 202.5 211.5 t71.5 304.5q0 264 -160 429t-424 165q-259 0 -421 -163.5t-162 -430.5zM483 938q0 63 52.5 132t105.5 69q43 0 111.5 -84t68.5 -156q0 -54 -100 -78q30 -72 111.5 -151.5t154.5 -112.5q21 98 78 98t147.5 -64t90.5 -116q0 -53 -70 -104.5t-133 -51.5q-119 0 -307 156 q-135 112 -222.5 241.5t-87.5 221.5z" />
<glyph unicode="&#xf700;" horiz-adv-x="1310" d="M61 852q36 178 193 282.5t367 104.5q127 0 239 -39l60 103h356l-178 -267q121 -143 121 -356q0 -123 -33.5 -230.5t-94 -191t-137.5 -147t-172 -111.5h-303l-131 350q-11 31 -29 45.5t-53 14.5q-51 0 -65 -2v249q55 9 121 9q126 0 194 -41.5t105 -141.5l75 -202 q178 139 178 391q0 301 -260 301q-177 0 -227 -162z" />
<glyph unicode="&#xf701;" d="M-1423 1356v225h880v-225h-880z" />
<glyph unicode="&#xf702;" d="M-1423 1356h880v385h-256v-160h-624v-225z" />
<glyph unicode="&#xf703;" d="M-1407 1356v225h463q8 83 62 129.5t147 46.5q101 0 156 -54t55 -149q0 -96 -64 -147t-168 -51h-651zM-803 1552q0 -75 68 -75q67 0 67 77q0 76 -67 76q-68 0 -68 -78z" />
<glyph unicode="&#xf704;" d="M-1423 1356v225h338v160h225v-160h92v160h225v-385h-880z" />
<glyph unicode="&#xf705;" d="M-860 1356v430h299v-430h-299z" />
<glyph unicode="&#xf706;" d="M-1235 1593v201q39 8 115 8q87 0 152 -20.5t107 -71.5t42 -129v-16h260v-209h-514v141q0 58 -20 77t-76 19h-66z" />
<glyph unicode="&#xf707;" d="M-1323 1530q0 96 55.5 158.5t159.5 62.5q111 0 150 -90q22 43 64.5 66.5t98.5 23.5q83 0 133 -47.5t50 -128.5v-10h92v-209h-283v137q0 74 -41 74q-25 0 -38 -20t-19 -62h-119q-7 46 -15.5 64t-31.5 18q-43 0 -43 -74q0 -52 20 -137h-208q-25 98 -25 174z" />
<glyph unicode="&#xf708;" d="M-1098 1493v193h164v137h287v-137h164v-193h-164v-137h-287v137h-164z" />
<glyph unicode="&#xf709;" d="M-1139 1448q0 140 94.5 224.5t278.5 84.5h238v-229h-187q-68 0 -100.5 -27t-32.5 -100v-45h-287q-4 54 -4 92z" />
<glyph unicode="&#xf70a;" d="M-436 1356v430h299v-430h-299z" />
<glyph unicode="&#xf70b;" d="M-776 1593v201q52 8 155 8q141 0 221.5 -58t80.5 -163v-16h342v-209h-609v141q0 60 -22 78t-97 18h-71z" />
<glyph unicode="&#xf70c;" d="M-1026 1530q0 -92 27 -174h219q-15 69 -15 127q0 39 14.5 61.5t39.5 22.5q45 0 57 -86h137q15 86 62 86q49 0 49 -82v-129h356v209h-156q3 12 3 26q0 72 -56.5 122t-152.5 50q-57 0 -103.5 -25t-72.5 -71q-21 48 -65.5 72t-100.5 24q-120 0 -181 -65.5t-61 -167.5z" />
<glyph unicode="&#xf70d;" d="M-594 1493v193h164v137h287v-137h163v-193h-163v-137h-287v137h-164z" />
<glyph unicode="&#xf70e;" d="M-741 1448q0 140 94 224.5t278 84.5h258v-229h-206q-68 0 -101 -27.5t-33 -99.5v-45h-286q-4 54 -4 92z" />
<glyph unicode="&#xf70f;" horiz-adv-x="2119" d="M51 739v35q38 199 200.5 332t399.5 133q266 0 419 -147t153 -381v-260q0 -90 56 -144.5t155 -54.5q106 0 165.5 54.5t59.5 144.5v755h338v-755q0 -214 -152 -341.5t-411 -127.5q-251 0 -399 127.5t-148 341.5v262q0 116 -59.5 183t-180.5 67q-103 0 -169 -52.5 t-87 -136.5l76 -63q23 -19 30 -37t7 -51v-275q0 -56 17 -84t63 -28q35 0 63 4v-236q-69 -16 -139 -16q-181 0 -261.5 90t-80.5 266v299z" />
<glyph unicode="&#xf710;" d="M-1255 1653q0 38 4 92h266v-45q0 -68 28.5 -93.5t104.5 -25.5h322v-225h-355q-370 0 -370 297z" />
<glyph unicode="&#xf711;" d="M-1004 1587q0 110 72 173t184 63q113 0 184.5 -63t71.5 -173q0 -111 -71.5 -174t-184.5 -63q-112 0 -184 63t-72 174zM-825 1587q0 -39 20.5 -62.5t56.5 -23.5q80 0 80 86q0 39 -21 61.5t-59 22.5q-37 0 -57 -22.5t-20 -61.5z" />
<glyph unicode="&#xf712;" d="M-1337 1642q0 133 87.5 213t245.5 80h474v-204h-463q-41 0 -63.5 -24.5t-22.5 -66.5q0 -32 21 -56.5t54 -24.5q73 0 82 90h181q0 -45 24 -62.5t74 -17.5h119v-205q-47 -8 -117 -8q-65 0 -119 26.5t-76 79.5q-53 -106 -221 -106q-128 0 -204 82.5t-76 203.5z" />
<glyph unicode="&#xf713;" d="M-788 1843v344h245v-344h-245z" />
<glyph unicode="&#xf714;" d="M-995 2030v200q57 8 139 8q113 0 188 -47.5t88 -138.5h301v-209h-544v94q0 47 -16 70t-58 23h-98z" />
<glyph unicode="&#xf715;" d="M-971 1987q0 99 52.5 155t152.5 56q101 0 150 -91q56 91 157 91q76 0 122 -40t54 -110h146v-205h-316v101q0 69 -47 69q-24 0 -36.5 -18.5t-18.5 -59.5h-119q-7 44 -15.5 61t-31.5 17t-36 -19t-13 -50q0 -36 18 -101h-190q-29 71 -29 144z" />
<glyph unicode="&#xf716;" d="M-907 1956v182h129v113h225v-113h129v-182h-129v-113h-225v113h-129z" />
<glyph unicode="&#xf717;" d="M-768 1929q0 256 332 256h237v-200h-188q-68 0 -96.5 -24.5t-28.5 -88.5v-31h-254q-2 14 -2 88z" />
<glyph unicode="&#xf718;" d="M-553 -502q52 8 135 8q281 0 281 -233v-258h-256v176q0 48 -20.5 69t-67.5 21h-72v217z" />
<glyph unicode="&#xf719;" d="M-973 -506h369v-194q0 -40 20 -63t60 -23t60 23t20 63v194h286v-207q0 -132 -104 -207t-262 -75q-154 0 -255.5 70.5t-101.5 195.5v35h-92v188z" />
<glyph unicode="&#xf71a;" d="M-414 -643q0 66 38 103.5t104 37.5q69 0 106 -36t37 -105q0 -67 -37.5 -103t-105.5 -36q-65 0 -103.5 37.5t-38.5 101.5z" />
<glyph unicode="&#xf71b;" horiz-adv-x="1439" d="M98 739v35q38 200 205 332.5t412 132.5q282 0 442 -141.5t160 -386.5v-834q0 -180 -94.5 -271t-264.5 -91q-78 0 -211.5 21.5t-195.5 21.5q-110 0 -229 -39l-25 252q35 19 106.5 33t145.5 14q61 0 170.5 -18.5t154.5 -18.5q54 0 79.5 23t25.5 87v822q0 112 -68.5 181 t-199.5 69q-111 0 -180.5 -51.5t-92.5 -137.5l101 -88q22 -19 29 -37.5t7 -50.5v-254q0 -178 -76 -267t-255 -89q-73 0 -142 16v236q28 -4 64 -4q47 0 64.5 28t17.5 84v262z" />
<glyph unicode="&#xf71c;" horiz-adv-x="1439" d="M98 739v35q38 200 205 332.5t412 132.5q282 0 442 -141.5t160 -386.5v-805q0 -182 -104 -284.5t-277 -102.5q-191 0 -274 133q-28 -67 -109.5 -100t-167.5 -33q-140 0 -197 32l43 254q59 -20 146 -20q158 0 170 123h213q13 -123 117 -123q55 0 78.5 34.5t23.5 106.5v787 q0 112 -68.5 181t-199.5 69q-111 0 -180.5 -51.5t-92.5 -137.5l101 -88q22 -19 29 -37.5t7 -50.5v-254q0 -178 -76 -267t-255 -89q-73 0 -142 16v236q28 -4 64 -4q47 0 64.5 28t17.5 84v262z" />
<glyph unicode="&#xf71d;" horiz-adv-x="1556" d="M139 0h342l279 356l284 -356h353v555q0 121 -54 202t-149 109q108 33 165.5 112.5t57.5 201.5v24h-348v-24q0 -108 -43.5 -149.5t-167.5 -41.5v-217q116 0 163.5 -46.5t47.5 -139.5v-205l-201 258h-204l-197 -254v821h-328v-1206z" />
<glyph unicode="&#xf881;" horiz-adv-x="2023" d="M51 739v35q18 96 70 180.5t130.5 148t186.5 100t232 36.5q247 0 401 -111q133 111 346 111q230 0 354.5 -104.5t124.5 -321.5v-1223h-337v1223q0 160 -150 160q-121 0 -156 -119q17 -76 17 -143v-1121h-338v1123q0 113 -67.5 181.5t-198.5 68.5q-111 0 -181.5 -51.5 t-93.5 -137.5l76 -63q23 -19 30 -37t7 -51v-275q0 -56 17 -84t63 -28q35 0 63 4v-236q-69 -16 -139 -16q-181 0 -261.5 90t-80.5 266v299z" />
<glyph unicode="&#xf882;" horiz-adv-x="2084" d="M98 739v35q38 200 205 332.5t412 132.5q255 0 409 -117q133 117 355 117q230 0 354.5 -104.5t124.5 -321.5v-1223h-338v1223q0 160 -150 160q-72 0 -111.5 -42.5t-49.5 -111.5q8 -70 8 -108v-1121h-338v1123q0 112 -68.5 181t-199.5 69q-111 0 -180.5 -51.5t-92.5 -137.5 l101 -88q22 -19 29 -37.5t7 -50.5v-254q0 -178 -76 -267t-255 -89q-73 0 -142 16v236q28 -4 64 -4q47 0 64.5 28t17.5 84v262z" />
<glyph unicode="&#xfb00;" horiz-adv-x="1622" d="M33 774v262h172v47q0 192 103.5 294t291.5 102q118 0 246 -35l-45 -238q-67 17 -119 17q-143 0 -143 -138v-49h241v-262h-241v-774h-334v774h-172zM844 774v262h172v47q0 192 103.5 294t291.5 102q118 0 246 -35l-45 -238q-67 17 -119 17q-143 0 -143 -138v-49h241v-262 h-241v-774h-334v774h-172z" />
<glyph unicode="&#xfb01;" horiz-adv-x="1380" d="M33 774v262h172v47q0 192 103.5 294t291.5 102q118 0 246 -35l-45 -238q-67 17 -119 17q-143 0 -143 -138v-49h241v-262h-241v-774h-334v774h-172zM893 1417q0 80 52 133.5t151 53.5t150.5 -53.5t51.5 -133.5q0 -81 -51.5 -133.5t-150.5 -52.5t-151 52.5t-52 133.5z M930 0v1073h334v-1073h-334z" />
<glyph unicode="&#xfb02;" horiz-adv-x="1394" d="M33 774v262h172v47q0 192 103.5 294t291.5 102q118 0 246 -35l-45 -238q-67 17 -119 17q-143 0 -143 -138v-49h241v-262h-241v-774h-334v774h-172zM944 0v1462h334v-1462h-334z" />
<glyph unicode="&#xfb03;" horiz-adv-x="2191" d="M33 774v262h172v47q0 192 103.5 294t291.5 102q118 0 246 -35l-45 -238q-67 17 -119 17q-143 0 -143 -138v-49h241v-262h-241v-774h-334v774h-172zM844 774v262h172v47q0 192 103.5 294t291.5 102q118 0 246 -35l-45 -238q-67 17 -119 17q-143 0 -143 -138v-49h241v-262 h-241v-774h-334v774h-172zM1704 1417q0 80 52 133.5t151 53.5t150.5 -53.5t51.5 -133.5q0 -81 -51.5 -133.5t-150.5 -52.5t-151 52.5t-52 133.5zM1741 0v1073h334v-1073h-334z" />
<glyph unicode="&#xfb04;" horiz-adv-x="2205" d="M33 774v262h172v47q0 192 103.5 294t291.5 102q118 0 246 -35l-45 -238q-67 17 -119 17q-143 0 -143 -138v-49h241v-262h-241v-774h-334v774h-172zM844 774v262h172v47q0 192 103.5 294t291.5 102q118 0 246 -35l-45 -238q-67 17 -119 17q-143 0 -143 -138v-49h241v-262 h-241v-774h-334v774h-172zM1755 0v1462h334v-1462h-334z" />
<glyph unicode="&#xfeff;" />
<glyph horiz-adv-x="1333" d="M53 522h355q11 -128 64 -191t163 -63q113 0 165 65t52 193v936h354v-930q0 -277 -148 -423t-421 -146q-275 0 -423 140t-161 419zM825 1581l252 315h387l-323 -315h-316z" />
<glyph horiz-adv-x="575" d="M-139 -383l47 233q51 -14 108 -14q60 0 84.5 32t24.5 103v1102h334v-1096q0 -189 -93.5 -293t-283.5 -104q-123 0 -221 37zM94 1200l250 336h367l-320 -336h-297z" />
<glyph horiz-adv-x="569" d="M51 -229q0 65 35 118t117 111h-84v1073h334v-1073h-2q-56 -35 -97 -76.5t-41 -79.5q0 -61 80 -61q18 0 58 4v-188q-59 -11 -125 -11q-143 0 -209 45t-66 138z" />
<glyph horiz-adv-x="1114" d="M-1024 1620q0 111 73.5 175.5t188.5 64.5t187.5 -64t72.5 -176q0 -114 -72.5 -179t-187.5 -65q-116 0 -189 65t-73 179zM-842 1620q0 -40 21 -64t59 -24q80 0 80 88q0 39 -21 61.5t-59 22.5q-39 0 -59.5 -22.5t-20.5 -61.5zM20 854q15 172 146 278.5t342 106.5 q230 0 354.5 -104.5t124.5 -321.5v-813h-338v813q0 160 -149 160q-73 0 -113.5 -44.5t-50.5 -115.5z" />
<glyph horiz-adv-x="1265" d="M78 705q0 377 145 563t416 186q549 0 549 -743q0 -378 -144 -563t-417 -185q-549 0 -549 742zM418 709q0 -232 51 -345.5t164 -113.5q111 0 163 113t52 346q0 232 -52 345t-163 113q-113 0 -164 -113t-51 -345z" />
<glyph horiz-adv-x="1028" d="M59 1118l455 297h287v-1415h-340v1044l-246 -167z" />
<glyph horiz-adv-x="1253" d="M82 1008q33 212 176.5 329t382.5 117q234 0 372 -117.5t138 -316.5q0 -73 -15.5 -137t-42 -115t-71 -103.5t-92.5 -95t-117 -96.5q-36 -28 -121 -94.5t-125 -97.5h584v-281h-1047v256q67 54 196 155.5t167 131.5q17 14 57.5 45.5t58 46t51.5 43t50 46t41 45.5t37 51 t25.5 51.5t18.5 58.5t5 63q0 85 -47.5 129.5t-136.5 44.5q-182 0 -226 -192z" />
<glyph horiz-adv-x="1302" d="M98 457h320q15 -215 225 -215q94 0 152.5 49t58.5 135q0 90 -52.5 132t-162.5 42h-121v256h125q186 0 186 162q0 72 -52 112.5t-138 40.5q-89 0 -142 -43.5t-75 -136.5l-311 33q25 204 169.5 317t378.5 113q227 0 363.5 -106.5t136.5 -278.5q0 -232 -207 -317 q240 -86 240 -346q0 -196 -142.5 -319.5t-398.5 -123.5q-269 0 -410 135t-143 359z" />
<glyph horiz-adv-x="1253" d="M57 291v258l627 866h330v-872h184v-252h-184v-291h-309v291h-648zM352 543h353v485z" />
<glyph horiz-adv-x="1253" d="M102 403h326q26 -163 207 -163q91 0 146 57.5t55 167.5q0 100 -53.5 155.5t-151.5 55.5q-112 0 -187 -84h-290l73 823h854v-280h-589l-25 -269q104 70 250 70q206 0 328 -129t122 -344q0 -238 -142 -369t-384 -131q-238 0 -380 114t-159 326z" />
<glyph horiz-adv-x="1232" d="M111 453q0 119 38 222t117 234l309 504h328l-309 -512q39 8 94 8q214 0 343.5 -122t129.5 -330q0 -222 -144 -358t-384 -136q-109 0 -198.5 29.5t-148.5 78.5t-99.5 113.5t-58 132t-17.5 136.5zM428 453q0 -101 56.5 -163.5t146.5 -62.5q95 0 153 60t58 164 q0 98 -55.5 156.5t-153.5 58.5q-97 0 -151 -56.5t-54 -156.5z" />
<glyph horiz-adv-x="1130" d="M41 1122v293h1016v-252q-146 -287 -257.5 -564.5t-205.5 -598.5h-352q181 592 452 1122h-653z" />
<glyph horiz-adv-x="1253" d="M82 391q0 139 65 228t179 131q-185 94 -185 309q0 180 131 287.5t359 107.5q229 0 354 -109t125 -284q0 -215 -182 -307q243 -90 243 -361q0 -199 -147 -314.5t-401 -115.5q-253 0 -397 114.5t-144 313.5zM403 424q0 -91 58.5 -144t165.5 -53t165 53t58 144 q0 92 -55.5 142t-167.5 50t-168 -50.5t-56 -141.5zM446 1028q0 -160 179 -160q178 0 178 162q0 75 -45 119.5t-133 44.5q-85 0 -132 -45t-47 -121z" />
<glyph horiz-adv-x="1232" d="M72 961q0 222 144 357.5t384 135.5q109 0 198.5 -29.5t148.5 -78t99.5 -113t58 -132t17.5 -136.5q0 -119 -38 -222.5t-117 -234.5l-310 -508h-327l309 516q-39 -8 -94 -8q-214 0 -343.5 122.5t-129.5 330.5zM391 967q0 -98 55.5 -156.5t153.5 -58.5q97 0 151 56.5 t54 156.5q0 101 -56.5 163t-146.5 62q-95 0 -153 -59.5t-58 -163.5z" />
<glyph horiz-adv-x="1253" d="M72 705q0 377 145 563t416 186q549 0 549 -743q0 -378 -144 -563t-417 -185q-549 0 -549 742zM412 709q0 -232 51 -345.5t164 -113.5q111 0 163 113t52 346q0 232 -52 345t-163 113q-113 0 -164 -113t-51 -345z" />
<glyph horiz-adv-x="1253" d="M162 1118l454 297h287v-1415h-340v1044l-246 -167z" />
<glyph horiz-adv-x="1253" d="M82 1008q33 212 176.5 329t382.5 117q234 0 372 -117.5t138 -316.5q0 -73 -15.5 -137t-42 -115t-71 -103.5t-92.5 -95t-117 -96.5q-36 -28 -121 -94.5t-125 -97.5h584v-281h-1047v256q67 54 196 155.5t167 131.5q17 14 57.5 45.5t58 46t51.5 43t50 46t41 45.5t37 51 t25.5 51.5t18.5 58.5t5 63q0 85 -47.5 129.5t-136.5 44.5q-182 0 -226 -192z" />
<glyph horiz-adv-x="1253" d="M76 457h319q7 -105 67 -160t165 -55q94 0 152.5 49t58.5 135q0 90 -52.5 132t-162.5 42h-121v256h125q186 0 186 162q0 72 -52 112.5t-138 40.5q-178 0 -220 -180l-311 33q25 203 171 316.5t380 113.5q227 0 363.5 -106.5t136.5 -278.5q0 -232 -207 -317 q240 -86 240 -346q0 -196 -142.5 -319.5t-398.5 -123.5q-272 0 -414.5 135t-144.5 359z" />
<glyph horiz-adv-x="1253" d="M57 291v258l627 866h330v-872h184v-252h-184v-291h-309v291h-648zM352 543h353v485z" />
<glyph horiz-adv-x="1253" d="M100 403h326q26 -163 207 -163q91 0 146 57.5t55 167.5q0 100 -53.5 155.5t-151.5 55.5q-112 0 -187 -84h-290l73 823h854v-280h-590l-24 -269q104 70 250 70q206 0 328 -129t122 -344q0 -238 -142 -369t-384 -131q-238 0 -380 114t-159 326z" />
<glyph horiz-adv-x="1253" d="M111 453q0 119 38 222t117 234l309 504h328l-309 -512q39 8 94 8q214 0 343.5 -122t129.5 -330q0 -222 -144 -358t-384 -136q-109 0 -198.5 29.5t-148.5 78.5t-99.5 113.5t-58 132t-17.5 136.5zM428 453q0 -101 56.5 -163.5t146.5 -62.5q95 0 153 60t58 164 q0 98 -55.5 156.5t-153.5 58.5q-97 0 -151 -56.5t-54 -156.5z" />
<glyph horiz-adv-x="1253" d="M102 1122v293h1016v-252q-146 -287 -257.5 -564.5t-205.5 -598.5h-352q179 587 453 1122h-654z" />
<glyph horiz-adv-x="1253" d="M82 391q0 139 65 228t179 131q-185 94 -185 309q0 180 131 287.5t359 107.5q229 0 354 -109t125 -284q0 -215 -182 -307q243 -90 243 -361q0 -199 -147 -314.5t-401 -115.5q-253 0 -397 114.5t-144 313.5zM403 424q0 -91 58.5 -144t165.5 -53t165 53t58 144 q0 92 -55.5 142t-167.5 50t-168 -50.5t-56 -141.5zM446 1028q0 -160 179 -160q178 0 178 162q0 75 -45 119.5t-133 44.5q-85 0 -132 -45t-47 -121z" />
<glyph horiz-adv-x="1253" d="M92 961q0 222 144 357.5t385 135.5q109 0 198.5 -29.5t148.5 -78t99.5 -113t58 -132t17.5 -136.5q0 -118 -38.5 -222t-117.5 -235l-309 -508h-328l309 516q-39 -8 -94 -8q-214 0 -343.5 122.5t-129.5 330.5zM412 967q0 -98 55.5 -156.5t153.5 -58.5q96 0 150 56.5 t54 156.5q0 101 -56 163t-146 62q-95 0 -153 -59.5t-58 -163.5z" />
<glyph horiz-adv-x="843" d="M43 414q0 212 101 326t278 114q178 0 278.5 -113.5t100.5 -326.5q0 -214 -99.5 -326.5t-279.5 -112.5q-177 0 -278 113t-101 326zM307 412q0 -111 28.5 -161t86.5 -50t86.5 50t28.5 161q0 215 -115 215t-115 -215z" />
<glyph horiz-adv-x="843" d="M94 653l289 176h233v-829h-249v575l-166 -100z" />
<glyph horiz-adv-x="843" d="M92 575q26 137 114.5 208t231.5 71t226.5 -70.5t83.5 -193.5q0 -89 -46 -161t-151 -157q-31 -25 -94 -71h293v-201h-641v178q51 37 131.5 101t87.5 69q103 81 139.5 125.5t36.5 101.5q0 80 -78 80q-83 0 -104 -102z" />
<glyph horiz-adv-x="843" d="M76 276h229q9 -118 113 -118q102 0 102 94q0 86 -98 86h-68v172h66q41 0 63.5 21t22.5 61q0 80 -88 80q-45 0 -70.5 -23.5t-36.5 -73.5l-225 23q14 118 101 187t241 69q152 0 237 -64.5t85 -173.5q0 -116 -97 -176q115 -59 115 -198q0 -123 -89.5 -195t-252.5 -72 q-164 0 -255 77t-95 224z" />
<glyph horiz-adv-x="843" d="M63 160v172l367 497h252v-489h102l-20 -180h-82v-160h-236v160h-383zM279 340h167v231z" />
<glyph horiz-adv-x="843" d="M98 229h228q9 -39 32.5 -57t67.5 -18q45 0 69.5 28t24.5 80q0 103 -96 103q-64 0 -98 -37h-209l43 501h540v-190h-356l-10 -131q67 31 139 31q135 0 207 -73t72 -200q0 -142 -83 -216.5t-239 -74.5q-151 0 -235.5 64.5t-96.5 189.5z" />
<glyph horiz-adv-x="843" d="M82 383q0 102 20 185.5t62 148.5t113.5 101t166.5 36q133 0 211 -61t97 -177l-226 -20q-9 40 -30 58t-60 18q-104 0 -119 -185q65 45 164 45q134 0 206.5 -71.5t72.5 -194.5q0 -134 -88 -212.5t-242 -78.5q-177 0 -262.5 106.5t-85.5 301.5zM326 266q0 -49 25 -81.5 t75 -32.5q104 0 104 108q0 109 -100 109q-46 0 -75 -26.5t-29 -76.5z" />
<glyph horiz-adv-x="843" d="M92 621v208h647v-174q-174 -304 -270 -655h-256q111 358 254 621h-375z" />
<glyph horiz-adv-x="843" d="M74 229q0 69 33 120.5t90 76.5q-101 60 -101 184q0 114 85 179t243 65q157 0 240.5 -64.5t83.5 -177.5q0 -126 -103 -184q125 -59 125 -197q0 -124 -89 -190t-261 -66q-171 0 -258.5 65.5t-87.5 188.5zM313 242q0 -92 107 -92q110 0 110 92t-110 92q-107 0 -107 -92z M326 596q0 -86 94 -86q96 0 96 86t-96 86q-46 0 -70 -23.5t-24 -62.5z" />
<glyph horiz-adv-x="843" d="M84 563q0 134 88 212.5t242 78.5q346 0 346 -416q0 -102 -18.5 -183.5t-58 -145.5t-109 -99t-164.5 -35q-139 0 -222 63t-98 187h229q13 -67 97 -67q55 0 80 43t30 145q-66 -51 -164 -51q-133 0 -205.5 72t-72.5 196zM313 569q0 -108 101 -108q47 0 75.5 26t28.5 76 q0 52 -25.5 82.5t-76.5 30.5q-103 0 -103 -107z" />
<glyph horiz-adv-x="843" d="M43 948q0 212 101 326.5t278 114.5q178 0 278.5 -113.5t100.5 -327.5t-99.5 -326t-279.5 -112q-177 0 -278 112.5t-101 325.5zM307 946q0 -111 28.5 -161t86.5 -50t86.5 50t28.5 161q0 215 -115 215t-115 -215z" />
<glyph horiz-adv-x="843" d="M94 1188l289 176h233v-829h-249v575l-166 -100z" />
<glyph horiz-adv-x="843" d="M92 1110q26 137 114.5 208t231.5 71t226.5 -71t83.5 -194q0 -89 -45.5 -160t-151.5 -157q-44 -36 -94 -72h293v-200h-641v178q51 37 131.5 101t87.5 69q103 81 139.5 125.5t36.5 101.5q0 80 -78 80q-83 0 -104 -103z" />
<glyph horiz-adv-x="843" d="M76 811h229q9 -119 113 -119q102 0 102 94q0 86 -98 86h-68v172h66q41 0 63.5 21t22.5 61q0 80 -88 80q-45 0 -70.5 -23t-36.5 -73l-225 23q14 118 101 187t241 69q152 0 237 -64.5t85 -173.5q0 -116 -97 -176q115 -59 115 -199q0 -123 -89.5 -194.5t-252.5 -71.5 q-164 0 -255 77t-95 224z" />
<glyph horiz-adv-x="843" d="M63 694v172l367 498h252v-490h102l-20 -180h-82v-159h-236v159h-383zM279 874h167v232z" />
<glyph horiz-adv-x="843" d="M98 764h228q18 -76 100 -76q45 0 69.5 28.5t24.5 80.5q0 102 -96 102q-64 0 -98 -37h-209l43 502h540v-190h-356l-10 -132q67 31 139 31q136 0 207.5 -72.5t71.5 -199.5q0 -142 -83 -216.5t-239 -74.5q-151 0 -235.5 64.5t-96.5 189.5z" />
<glyph horiz-adv-x="843" d="M82 1122q0 102 20 185.5t62 148.5t113.5 101t166.5 36q133 0 211 -60.5t97 -176.5l-226 -21q-9 40 -30 58t-60 18q-104 0 -119 -184q65 45 164 45q134 0 206.5 -71.5t72.5 -194.5q0 -134 -88 -212.5t-242 -78.5q-177 0 -262.5 106t-85.5 301zM326 1006q0 -50 25 -82.5 t75 -32.5q104 0 104 108q0 109 -100 109q-47 0 -75.5 -26t-28.5 -76z" />
<glyph horiz-adv-x="843" d="M92 1155v209h647v-174q-174 -304 -270 -655h-256q110 356 254 620h-375z" />
<glyph horiz-adv-x="843" d="M74 764q0 69 33 120.5t90 76.5q-101 60 -101 184q0 114 85 179t243 65q157 0 240.5 -64.5t83.5 -177.5q0 -126 -103 -184q125 -59 125 -197q0 -124 -89 -190t-261 -66q-171 0 -258.5 65.5t-87.5 188.5zM313 776q0 -92 107 -92q110 0 110 92t-110 92q-107 0 -107 -92z M326 1130q0 -86 94 -86q96 0 96 86q0 87 -96 87q-46 0 -70 -23.5t-24 -63.5z" />
<glyph horiz-adv-x="843" d="M84 1098q0 134 88 212.5t242 78.5q346 0 346 -416q0 -102 -18.5 -183.5t-58 -145.5t-109 -99t-164.5 -35q-139 0 -222 63t-98 187h229q13 -68 97 -68q55 0 80 43.5t30 145.5q-67 -52 -164 -52q-133 0 -205.5 72.5t-72.5 196.5zM313 1104q0 -109 101 -109q46 0 75 26.5 t29 76.5q0 52 -25.5 82t-76.5 30q-103 0 -103 -106z" />
<glyph horiz-adv-x="1941" d="M92 1110q26 137 114.5 208t231.5 71t226.5 -71t83.5 -194q0 -89 -45.5 -160t-151.5 -157q-44 -36 -94 -72h293v-170l397 850h309l-661 -1415h-310l250 535h-626v178q51 37 131.5 101t87.5 69q103 81 139.5 125.5t36.5 101.5q0 80 -78 80q-83 0 -104 -103zM1190 621v208 h647v-174q-174 -304 -270 -655h-256q111 358 254 621h-375z" />
<glyph horiz-adv-x="1941" d="M76 811h229q9 -119 113 -119q102 0 102 94q0 86 -98 86h-68v172h66q41 0 63.5 21t22.5 61q0 80 -88 80q-45 0 -70.5 -23t-36.5 -73l-225 23q14 118 101 187t241 69q152 0 237 -64.5t85 -173.5q0 -116 -97 -176q115 -59 115 -199q0 -123 -89.5 -194.5t-252.5 -71.5 q-164 0 -255 77t-95 224zM485 0l662 1415h309l-661 -1415h-310zM1190 621v208h647v-174q-174 -304 -270 -655h-256q111 358 254 621h-375z" />
<glyph horiz-adv-x="1941" d="M63 694v172l367 498h252v-490h102l-20 -180h-82v-159h-236v159h-383zM279 874h167v232zM485 0l662 1415h309l-661 -1415h-310zM1190 621v208h647v-174q-174 -304 -270 -655h-256q111 358 254 621h-375z" />
<glyph horiz-adv-x="1941" d="M98 764h228q18 -76 100 -76q45 0 69.5 28.5t24.5 80.5q0 102 -96 102q-64 0 -98 -37h-209l43 502h540v-190h-356l-10 -132q67 31 139 31q136 0 207.5 -72.5t71.5 -199.5q0 -142 -83 -216.5t-239 -74.5q-151 0 -235.5 64.5t-96.5 189.5zM485 0l662 1415h309l-661 -1415 h-310zM1190 621v208h647v-174q-174 -304 -270 -655h-256q111 358 254 621h-375z" />
<glyph horiz-adv-x="1941" d="M82 1122q0 102 20 185.5t62 148.5t113.5 101t166.5 36q133 0 211 -60.5t97 -176.5l-226 -21q-9 40 -30 58t-60 18q-104 0 -119 -184q65 45 164 45q134 0 206.5 -71.5t72.5 -194.5q0 -134 -88 -212.5t-242 -78.5q-177 0 -262.5 106t-85.5 301zM326 1006q0 -50 25 -82.5 t75 -32.5q104 0 104 108q0 109 -100 109q-47 0 -75.5 -26t-28.5 -76zM485 0l662 1415h309l-661 -1415h-310zM1190 621v208h647v-174q-174 -304 -270 -655h-256q111 358 254 621h-375z" />
<glyph horiz-adv-x="1941" d="M92 1110q26 137 114.5 208t231.5 71t226.5 -71t83.5 -194q0 -89 -45.5 -160t-151.5 -157q-44 -36 -94 -72h293v-170l397 850h309l-661 -1415h-310l250 535h-626v178q51 37 131.5 101t87.5 69q103 81 139.5 125.5t36.5 101.5q0 80 -78 80q-83 0 -104 -103zM1182 563 q0 134 87.5 212.5t241.5 78.5q179 0 263 -109t84 -307q0 -102 -18.5 -183.5t-58.5 -145.5t-109.5 -99t-164.5 -35q-139 0 -221.5 63t-97.5 187h229q13 -67 96 -67q55 0 80.5 43.5t30.5 144.5q-66 -51 -164 -51q-133 0 -205.5 72t-72.5 196zM1411 569q0 -108 100 -108 q47 0 76 26t29 76q0 52 -26 82.5t-77 30.5q-102 0 -102 -107z" />
<glyph horiz-adv-x="1941" d="M63 694v172l367 498h252v-490h102l-20 -180h-82v-159h-236v159h-383zM279 874h167v232zM485 0l662 1415h309l-661 -1415h-310zM1182 563q0 134 87.5 212.5t241.5 78.5q179 0 263 -109t84 -307q0 -102 -18.5 -183.5t-58.5 -145.5t-109.5 -99t-164.5 -35q-139 0 -221.5 63 t-97.5 187h229q13 -67 96 -67q55 0 80.5 43.5t30.5 144.5q-66 -51 -164 -51q-133 0 -205.5 72t-72.5 196zM1411 569q0 -108 100 -108q47 0 76 26t29 76q0 52 -26 82.5t-77 30.5q-102 0 -102 -107z" />
<glyph horiz-adv-x="1941" d="M98 764h228q18 -76 100 -76q45 0 69.5 28.5t24.5 80.5q0 102 -96 102q-64 0 -98 -37h-209l43 502h540v-190h-356l-10 -132q67 31 139 31q136 0 207.5 -72.5t71.5 -199.5q0 -142 -83 -216.5t-239 -74.5q-151 0 -235.5 64.5t-96.5 189.5zM485 0l662 1415h309l-661 -1415 h-310zM1182 563q0 134 87.5 212.5t241.5 78.5q179 0 263 -109t84 -307q0 -102 -18.5 -183.5t-58.5 -145.5t-109.5 -99t-164.5 -35q-139 0 -221.5 63t-97.5 187h229q13 -67 96 -67q55 0 80.5 43.5t30.5 144.5q-66 -51 -164 -51q-133 0 -205.5 72t-72.5 196zM1411 569 q0 -108 100 -108q47 0 76 26t29 76q0 52 -26 82.5t-77 30.5q-102 0 -102 -107z" />
<glyph horiz-adv-x="1941" d="M92 1155v209h647v-174q-174 -304 -270 -655h-256q110 356 254 620h-375zM485 0l662 1415h309l-661 -1415h-310zM1182 563q0 134 87.5 212.5t241.5 78.5q179 0 263 -109t84 -307q0 -102 -18.5 -183.5t-58.5 -145.5t-109.5 -99t-164.5 -35q-139 0 -221.5 63t-97.5 187h229 q13 -67 96 -67q55 0 80.5 43.5t30.5 144.5q-66 -51 -164 -51q-133 0 -205.5 72t-72.5 196zM1411 569q0 -108 100 -108q47 0 76 26t29 76q0 52 -26 82.5t-77 30.5q-102 0 -102 -107z" />
<glyph horiz-adv-x="1941" d="M74 764q0 69 33 120.5t90 76.5q-101 60 -101 184q0 114 85 179t243 65q157 0 240.5 -64.5t83.5 -177.5q0 -126 -103 -184q125 -59 125 -197q0 -124 -89 -190t-261 -66q-171 0 -258.5 65.5t-87.5 188.5zM313 776q0 -92 107 -92q110 0 110 92t-110 92q-107 0 -107 -92z M326 1130q0 -86 94 -86q96 0 96 86q0 87 -96 87q-46 0 -70 -23.5t-24 -63.5zM485 0l662 1415h309l-661 -1415h-310zM1182 563q0 134 87.5 212.5t241.5 78.5q179 0 263 -109t84 -307q0 -102 -18.5 -183.5t-58.5 -145.5t-109.5 -99t-164.5 -35q-139 0 -221.5 63t-97.5 187h229 q13 -67 96 -67q55 0 80.5 43.5t30.5 144.5q-66 -51 -164 -51q-133 0 -205.5 72t-72.5 196zM1411 569q0 -108 100 -108q47 0 76 26t29 76q0 52 -26 82.5t-77 30.5q-102 0 -102 -107z" />
<glyph horiz-adv-x="600" d="M119 0l35 1008h295l32 -1008h-362zM141 1139v321h320v-321h-320z" />
<glyph horiz-adv-x="1091" d="M55 365q0 106 46 190t141 170q89 79 124 135.5t35 132.5v23h299v-35q0 -75 -14 -127q-15 -52 -56 -107t-120 -131q-65 -65 -91 -106t-26 -96q0 -75 40.5 -115.5t115.5 -40.5q87 0 133.5 44t65.5 140l309 -30q-26 -202 -158.5 -316t-368.5 -114q-224 0 -349.5 102.5 t-125.5 280.5zM373 1311q0 82 48 130t130 48t130 -48t48 -130t-48 -130t-130 -48t-130 48t-48 130z" />
<glyph horiz-adv-x="536" d="M90 1108q0 82 48 130t130 48t130 -48t48 -130t-48 -130t-130 -48t-130 48t-48 130z" />
<glyph horiz-adv-x="806" d="M86 840q0 141 89.5 229t230.5 88q140 0 228.5 -88t88.5 -229q0 -142 -88 -231t-229 -89q-142 0 -231 89t-89 231z" />
<glyph horiz-adv-x="841" d="M18 -33l471 1503h334l-473 -1503h-332z" />
<glyph horiz-adv-x="841" d="M18 1470h334l471 -1503h-331z" />
<glyph horiz-adv-x="843" d="M82 657v306h680v-306h-680z" />
<glyph horiz-adv-x="1024" d="M0 664v292h1024v-292h-1024z" />
<glyph horiz-adv-x="2048" d="M0 664v292h2048v-292h-2048z" />
<glyph horiz-adv-x="681" d="M92 795q0 241 64 466.5t186 411.5h330q-228 -414 -228 -878q0 -465 228 -879h-330q-122 186 -186 412t-64 467z" />
<glyph horiz-adv-x="681" d="M8 -84q119 211 173.5 426t54.5 453t-54.5 452.5t-173.5 425.5h330q122 -185 186 -410t64 -468t-64 -468.5t-186 -410.5h-330z" />
<glyph horiz-adv-x="765" d="M41 657v275h16q131 0 131 147v252q0 175 90.5 258.5t270.5 83.5h176v-282h-113q-102 0 -102 -115v-258q0 -174 -133 -223q133 -49 133 -224v-258q0 -59 25 -86.5t77 -27.5h113v-283h-176q-180 0 -270.5 83.5t-90.5 258.5v252q0 147 -131 147h-16z" />
<glyph horiz-adv-x="765" d="M41 -84v283h113q52 0 77 27.5t25 86.5v258q0 175 133 224q-133 49 -133 223v258q0 115 -102 115h-113v282h174q180 0 270 -83.5t90 -258.5v-252q0 -147 134 -147h16v-275h-16q-134 0 -134 -147v-252q0 -175 -90 -258.5t-270 -83.5h-174z" />
<glyph horiz-adv-x="747" d="M135 -84v1757h567v-284h-231v-1188h231v-285h-567z" />
<glyph horiz-adv-x="747" d="M45 -84v285h231v1188h-231v284h567v-1757h-567z" />
<glyph horiz-adv-x="1247" d="M66 854l256 467h340l-226 -465l226 -467h-343zM590 854l256 467h340l-225 -465l225 -467h-342z" />
<glyph horiz-adv-x="1247" d="M61 389l224 465l-224 467h340l254 -465l-256 -467h-338zM586 389l223 465l-223 467h340l254 -465l-256 -467h-338z" />
<glyph horiz-adv-x="720" d="M66 854l256 467h340l-226 -465l226 -467h-343z" />
<glyph horiz-adv-x="720" d="M61 389l224 465l-224 467h340l254 -465l-256 -467h-338z" />
<glyph horiz-adv-x="2048" d="M80 803q0 188 53 352.5t148 288t223 213t281.5 135t320.5 45.5q254 0 449.5 -95t306 -276.5t110.5 -425.5q0 -280 -135 -453t-369 -173q-107 0 -180 39.5t-100 115.5q-41 -80 -114 -119.5t-165 -39.5q-153 0 -254.5 113t-101.5 294q0 229 123.5 374.5t318.5 145.5 q154 0 232 -110l8 90h276l-77 -567q-4 -20 -4 -37q0 -92 73 -92q103 0 164.5 115.5t61.5 291.5q0 284 -165.5 440t-463.5 156q-167 0 -310.5 -59.5t-245 -166t-159 -259t-57.5 -332.5q0 -309 170 -484.5t473 -175.5q137 0 231 34t180 106h308q-106 -167 -294.5 -258.5 t-439.5 -91.5q-261 0 -459 105t-307.5 301.5t-109.5 459.5zM856 836q0 -91 33 -137t94 -46q79 0 121.5 55t50.5 150l4 49q8 90 -21.5 146.5t-103.5 56.5q-85 0 -131.5 -70t-46.5 -204z" />
<glyph horiz-adv-x="1212" d="M72 725q0 248 130 398.5t357 172.5v187h139v-185q181 -16 297.5 -115t141.5 -278l-303 -33q-11 77 -61.5 123.5t-137.5 46.5q-111 0 -174.5 -77t-63.5 -232q0 -156 63 -232.5t173 -76.5q180 0 203 174h305q-22 -190 -135 -300.5t-308 -127.5v-190h-139v188 q-228 21 -357.5 165t-129.5 392z" />
<glyph horiz-adv-x="1212" d="M35 449h311q24 -238 258 -238q223 0 223 178q0 147 -176 178l-172 33q-211 42 -312 142.5t-101 281.5q0 186 120.5 297.5t337.5 126.5v194h138v-194q200 -15 318 -119t142 -299l-307 -35q-21 110 -73.5 159.5t-155.5 49.5q-217 0 -217 -157q0 -74 43.5 -113t158.5 -62 l156 -30q212 -42 314 -145.5t102 -288.5q0 -201 -126 -314t-355 -127v-215h-138v215q-226 17 -351 140t-138 342z" />
<glyph d="M-1044 1356v225h880v-225h-880z" />
<glyph d="M-1116 1356h969v385h-287v-160h-682v-225z" />
<glyph d="M-1034 1356v225h463q8 83 62 129.5t147 46.5q101 0 155.5 -54t54.5 -149q0 -96 -63.5 -147t-167.5 -51h-651zM-430 1552q0 -75 68 -75q67 0 67 77q0 76 -67 76q-68 0 -68 -78z" />
<glyph d="M-1034 1356v225h338v160h225v-160h92v160h225v-385h-880z" />
<glyph d="M-543 1587q0 110 72 173t184 63q113 0 184.5 -63t71.5 -173q0 -111 -71.5 -174t-184.5 -63q-112 0 -184 63t-72 174zM-410 1925v344h246v-344h-246zM-365 1587q0 -39 21 -62.5t57 -23.5q80 0 80 86q0 39 -21 61.5t-59 22.5t-58 -22.5t-20 -61.5z" />
<glyph d="M-776 2111v201q57 8 139 8q113 0 188.5 -47.5t88.5 -138.5h301v-209h-545v94q0 47 -16 69.5t-58 22.5h-98zM-543 1587q0 110 72 173t184 63q113 0 184.5 -63t71.5 -173q0 -111 -71.5 -174t-184.5 -63q-112 0 -184 63t-72 174zM-365 1587q0 -39 21 -62.5t57 -23.5 q80 0 80 86q0 39 -21 61.5t-59 22.5t-58 -22.5t-20 -61.5z" />
<glyph d="M-653 2068q0 99 52.5 155t151.5 56q101 0 150 -90q55 90 158 90q76 0 122 -39.5t54 -109.5h145v-205h-315v100q0 70 -47 70q-24 0 -37 -18.5t-19 -59.5h-118q-7 44 -15.5 61t-31.5 17t-36.5 -19.5t-13.5 -50.5q0 -32 19 -100h-191q-28 68 -28 143zM-543 1587 q0 110 72 173t184 63q113 0 184.5 -63t71.5 -173q0 -111 -71.5 -174t-184.5 -63q-112 0 -184 63t-72 174zM-365 1587q0 -39 21 -62.5t57 -23.5q80 0 80 86q0 39 -21 61.5t-59 22.5t-58 -22.5t-20 -61.5z" />
<glyph d="M-543 1587q0 110 72 173t184 63q113 0 184.5 -63t71.5 -173q0 -111 -71.5 -174t-184.5 -63q-112 0 -184 63t-72 174zM-539 2038v182h129v113h226v-113h129v-182h-129v-113h-226v113h-129zM-365 1587q0 -39 21 -62.5t57 -23.5q80 0 80 86q0 39 -21 61.5t-59 22.5 t-58 -22.5t-20 -61.5z" />
<glyph d="M-932 1522q0 103 113 147q-68 41 -68 111q0 76 62 116.5t153 40.5q108 0 160 -18l-23 -141q-62 12 -86 12q-67 0 -67 -39q0 -42 125 -49l-21 -119q-56 6 -80 6q-26 0 -45.5 -9.5t-19.5 -29.5q0 -24 28.5 -34.5t61.5 -10.5q31 0 43 2l-20 -149q-32 -4 -78 -4 q-57 0 -110 18.5t-90.5 58t-37.5 91.5z" />
<glyph d="M-1004 1587q0 110 72 173t184 63q113 0 184.5 -63t71.5 -173q0 -111 -71.5 -174t-184.5 -63q-112 0 -184 63t-72 174zM-872 1946v344h245v-344h-245zM-825 1587q0 -39 20.5 -62.5t56.5 -23.5q80 0 80 86q0 39 -21 61.5t-59 22.5q-37 0 -57 -22.5t-20 -61.5z" />
<glyph d="M-1176 2132v201q57 8 140 8q113 0 188 -48t88 -139h301v-208h-545v94q0 47 -15.5 69.5t-57.5 22.5h-99zM-1004 1587q0 110 72 173t184 63q113 0 184.5 -63t71.5 -173q0 -111 -71.5 -174t-184.5 -63q-112 0 -184 63t-72 174zM-825 1587q0 -39 20.5 -62.5t56.5 -23.5 q80 0 80 86q0 39 -21 61.5t-59 22.5q-37 0 -57 -22.5t-20 -61.5z" />
<glyph d="M-1130 2087q0 99 52.5 155t151.5 56q101 0 150 -90q55 90 158 90q76 0 122 -40t54 -110h145v-204h-315v100q0 70 -47 70q-24 0 -37 -18.5t-19 -59.5h-119q-7 44 -15.5 61t-31.5 17t-36 -19.5t-13 -50.5q0 -32 19 -100h-191q-28 68 -28 143zM-1004 1587q0 110 72 173 t184 63q113 0 184.5 -63t71.5 -173q0 -111 -71.5 -174t-184.5 -63q-112 0 -184 63t-72 174zM-825 1587q0 -39 20.5 -62.5t56.5 -23.5q80 0 80 86q0 39 -21 61.5t-59 22.5q-37 0 -57 -22.5t-20 -61.5z" />
<glyph d="M-1004 1587q0 110 72 173t184 63q113 0 184.5 -63t71.5 -173q0 -111 -71.5 -174t-184.5 -63q-112 0 -184 63t-72 174zM-989 2058v183h129v112h225v-112h129v-183h-129v-112h-225v112h-129zM-825 1587q0 -39 20.5 -62.5t56.5 -23.5q80 0 80 86q0 39 -21 61.5t-59 22.5 q-37 0 -57 -22.5t-20 -61.5z" />
<glyph d="M418 909l69 553h324l-135 -553h-258z" />
<glyph d="M-375 1208q0 163 53.5 247.5t155.5 84.5q49 0 89 -18t93 -64q1 -1 10 -9t12.5 -11t12.5 -10t14.5 -10t13 -7.5t14.5 -6t13 -1.5q54 0 54 129h194q0 -162 -53.5 -247t-155.5 -85q-50 0 -90.5 18t-91.5 64q-2 2 -12 10.5t-14.5 13t-14.5 11.5t-16.5 10.5t-15.5 6.5t-17 3 q-53 0 -53 -129h-195z" />
<glyph d="M-426 1737q0 72 47 120t137 48t137.5 -48t47.5 -120q0 -75 -47 -122.5t-138 -47.5t-137.5 47.5t-46.5 122.5zM55 1737q0 72 47.5 120t137.5 48t137 -48t47 -120q0 -75 -46.5 -122.5t-137.5 -47.5t-138 47.5t-47 122.5z" />
<glyph d="M-203 1759q0 79 50.5 122.5t152.5 43.5t152.5 -43.5t50.5 -122.5t-50.5 -122.5t-152.5 -43.5t-152.5 43.5t-50.5 122.5z" />
<glyph d="M-434 1896h387l252 -315h-316z" />
<glyph d="M-205 1581l252 315h387l-323 -315h-316z" />
<glyph d="M-362 1581l229 315h323l-286 -315h-266zM84 1581l229 315h326l-289 -315h-266z" />
<glyph d="M-416 1581l256 315h320l256 -315h-273l-143 164l-143 -164h-273z" />
<glyph d="M-416 1896h273l143 -163l143 163h273l-256 -315h-320z" />
<glyph d="M-356 1901h237q0 -140 119 -140t119 140h237q0 -158 -94 -242t-266 -84q-170 0 -261 83.5t-91 242.5z" />
<glyph d="M-258 1761q0 117 71 184.5t187 67.5t188 -67.5t72 -184.5q0 -115 -72 -182.5t-188 -67.5t-187 67.5t-71 182.5zM-88 1761q0 -43 23.5 -67.5t64.5 -24.5q43 0 66.5 24.5t23.5 67.5t-24.5 68.5t-65.5 25.5q-42 0 -65 -25.5t-23 -68.5z" />
<glyph d="M-399 1583q0 320 225 320q54 0 99.5 -16t105.5 -58q3 -2 14.5 -9.5t16 -10.5t15 -9.5t16 -9t14 -6t15.5 -5t13 -1.5q32 0 43.5 30.5t11.5 87.5h207q0 -319 -225 -319q-52 0 -95.5 16.5t-109.5 57.5q-74 53 -104 53q-19 0 -31 -10.5t-17 -31t-6.5 -37.5t-1.5 -42h-206z " />
<glyph d="M-332 1608v229h664v-229h-664z" />
<glyph d="M-168 1827v143q64 23 141 23q121 0 184.5 -52.5t63.5 -138.5q0 -116 -85 -174t-265 -61v143q133 14 133 74q0 57 -88 57q-33 0 -84 -14z" />
<glyph d="M-201 -350q0 92 54.5 146t146.5 54t146.5 -54t54.5 -146t-54.5 -146.5t-146.5 -54.5t-146.5 54.5t-54.5 146.5z" />
<glyph d="M-324 -487l174 352h361l-240 -352h-295z" />
<glyph d="M-215 -299q69 -10 133 -10q98 0 98 57q0 19 -10.5 30.5t-32.5 16t-37 5.5t-42 1h-62l86 219l164 -18l-37 -100q205 -29 205 -183q0 -92 -78 -139t-223 -47q-81 0 -164 14v154z" />
<glyph d="M-285 -233q0 67 40 121.5t136 119.5l240 -8q-129 -71 -129 -141q0 -34 23.5 -56t58.5 -22q21 0 45 4v-191q-54 -10 -129 -10q-148 0 -216.5 45t-68.5 138z" />
<glyph d="M-373 1536h232q0 -91 34 -130.5t107 -39.5q75 0 108 39t33 131h232q0 -179 -91.5 -266.5t-281.5 -87.5t-281.5 87.5t-91.5 266.5z" />
<glyph d="M-131 1214l156 402h327l-227 -402h-256z" />
<glyph d="M-250 -229q0 66 37.5 120.5t124.5 116.5l207 -8q-107 -73 -107 -152q0 -65 78 -65q6 0 60 4v-188q-62 -11 -127 -11q-143 0 -208 45t-65 138z" />
<glyph d="M-125 1182l39 368h272l-100 -368h-211z" />
<glyph d="M-399 1583q0 320 225 320q54 0 99.5 -16t105.5 -58q78 -51 104 -51q32 0 43.5 30.5t11.5 87.5h207q0 -319 -225 -319q-52 0 -95.5 16.5t-109.5 57.5q-74 53 -104 53q-19 0 -31 -10.5t-17 -31t-6.5 -37.5t-1.5 -42h-206z" />
<glyph d="M-387 1907h240q0 -135 147 -135t147 135h240q-5 -165 -99 -245.5t-288 -80.5q-191 0 -286 80t-101 246z" />
<glyph d="M-156 963l144 499h329l-225 -499h-248z" />
<glyph d="M-276 -236q0 66 40.5 120.5t135.5 117.5l202 -6q-110 -77 -110 -152q0 -65 82 -65q43 0 61 4v-189q-56 -10 -131 -10q-145 0 -212.5 44t-67.5 136z" />
<glyph horiz-adv-x="1964" d="M111 1581l251 315h388l-324 -315h-315zM139 0v1462h355v-1462h-355zM684 522h354q11 -128 64 -191t164 -63q113 0 165 65t52 193v936h354v-930q0 -277 -148 -423t-421 -146q-275 0 -423 140t-161 419zM1456 1581l252 315h387l-323 -315h-316z" />
<glyph horiz-adv-x="1144" d="M90 1200l250 336h367l-320 -336h-297zM119 0v1073h334v-1073h-334zM430 -383l47 233q51 -14 109 -14q60 0 84 32t24 103v1102h334v-1096q0 -189 -93.5 -293t-283.5 -104q-123 0 -221 37zM664 1200l249 336h367l-319 -336h-297z" />
</font>
</defs>
</svg>
